osu file format v14

[General]
AudioFilename: colorful.mp3
AudioLeadIn: 0
PreviewTime: 60572
Countdown: 0
SampleSet: Soft
StackLeniency: 0.7
Mode: 0
LetterboxInBreaks: 0
WidescreenStoryboard: 1

[Editor]
Bookmarks: 10375,22924,35473,48022,62140,73513,74689,85669,87238
DistanceSpacing: 1.1
BeatDivisor: 4
GridSize: 32
TimelineZoom: 1.5

[Metadata]
Title:Colorful. (AnimeVer.)
TitleUnicode:カラフル。(AnimeVer.)
Artist:Miku Sawai
ArtistUnicode:沢井美空
Creator:Agatsu
Version:Corinn's Normal
Source:冴えない彼女の育てかた
Tags:saenai heroine no sodate kata saekano ed ending tv size akitoshi corinn misure
BeatmapID:1173841
BeatmapSetID:552947

[Difficulty]
HPDrainRate:3.5
CircleSize:3
OverallDifficulty:4
ApproachRate:5
SliderMultiplier:1.1
SliderTickRate:1

[Events]
//Background and Video events
Video,0,"vid.avi"
0,0,"bg akitoshi.jpg",0,0
//Break Periods
//Storyboard Layer 0 (Background)
//Storyboard Layer 1 (Fail)
//Storyboard Layer 2 (Pass)
//Storyboard Layer 3 (Foreground)
//Storyboard Sound Samples

[TimingPoints]
964,392.156862745098,4,2,1,60,1,0
10375,-100,4,2,1,50,0,0
54297,-100,4,2,1,60,0,0
60963,-100,4,2,1,60,0,0
62140,-100,4,2,1,75,0,1
73513,-100,4,2,1,75,0,0
74689,-100,4,2,1,75,0,1
84885,-100,4,2,1,60,0,1
85277,-100,4,2,1,50,0,1
85669,-100,4,2,1,40,0,0

[Colours]
Combo1 : 167,160,252
Combo2 : 128,188,255
Combo3 : 255,147,147
Combo4 : 255,255,170
Combo5 : 155,238,157

[HitObjects]
53,311,964,6,0,P|99:290|173:306,1,110,6|8,0:0|0:0,0:0:0:0:
208,327,1552,1,0,0:0:0:0:
208,327,1748,2,0,B|266:331|266:331|326:316,1,110,0|8,0:0|0:0,0:0:0:0:
431,281,2532,1,2,0:0:0:0:
481,171,2924,1,8,0:0:0:0:
411,71,3316,2,0,L|333:68,1,55,2|0,0:0|0:0,0:0:0:0:
300,93,3709,2,0,L|222:90,1,55,10|0,0:0|0:0,0:0:0:0:
196,126,4101,6,0,B|179:173|179:173|191:248,1,110,2|8,0:0|0:0,0:0:0:0:
212,350,4885,1,0,0:0:0:0:
92,370,5277,1,8,0:0:0:0:
14,277,5669,2,0,P|3:223|25:152,1,110,2|8,0:0|0:0,0:0:0:0:
81,68,6454,2,0,L|148:65,1,55,2|0,0:0|0:0,0:0:0:0:
190,93,6846,2,0,L|257:90,1,55,10|0,0:0|0:0,0:0:0:0:
296,122,7238,6,0,P|315:177|303:242,1,110,6|8,0:0|0:0,0:0:0:0:
255,336,8022,2,0,L|192:333,2,55,8|8|8,0:0|0:0|0:0,0:0:0:0:
306,368,8611,1,2,0:0:0:0:
422,336,9003,1,2,0:0:0:0:
144,216,9983,1,4,0:3:0:0:
200,109,10375,6,0,L|194:49,2,55,6|0|8,0:0|0:0|0:0,0:0:0:0:
225,164,10964,2,0,P|277:185|342:175,1,110,2|0,0:0|0:0,0:0:0:0:
386,158,11552,1,8,0:0:0:0:
459,62,11944,2,0,L|453:2,2,55,2|0|8,0:0|0:0|0:0,0:0:0:0:
489,114,12532,2,0,L|498:237,1,110,2|0,0:0|0:0,0:0:0:0:
503,283,13120,1,8,0:0:0:0:
405,355,13513,6,0,P|371:360|333:355,1,55,2|0,0:0|0:0,0:0:0:0:
294,336,13905,1,8,0:0:0:0:
211,247,14297,2,0,L|143:251,1,55,2|0,0:0|0:0,0:0:0:0:
109,211,14689,2,0,L|41:215,1,55,8|0,0:0|0:0,0:0:0:0:
5,178,15081,2,0,P|0:126|33:69,1,110,2|8,0:0|0:0,0:0:0:0:
81,53,15669,2,0,B|136:59|136:59|197:51,1,110,2|0,0:0|0:0,0:0:0:0:
249,39,16258,1,8,0:0:0:0:
306,145,16650,6,0,L|303:263,1,110,6|8,0:0|0:0,0:0:0:0:
301,315,17238,2,0,P|353:331|418:320,1,110,2|0,0:0|0:0,0:0:0:0:
462,299,17826,1,8,0:0:0:0:
489,181,18218,2,0,B|492:127|492:127|469:64,1,110,2|8,0:0|0:0,0:0:0:0:
433,28,18807,2,0,P|379:46|312:30,1,110,2|0,0:0|0:0,0:0:0:0:
269,21,19395,1,8,0:0:0:0:
149,37,19787,6,0,L|86:35,2,55,2|0|8,0:0|0:0|0:0,0:0:0:0:
195,76,20375,2,0,B|211:129|211:129|204:199,1,110,2|0,0:0|0:0,0:0:0:0:
193,242,20964,1,8,0:0:0:0:
94,311,21356,2,0,L|26:309,2,55,10|8|8,0:0|0:0|0:0,0:0:0:0:
148,337,21944,2,0,P|193:348|266:317,1,110,0|6,0:0|0:0,0:0:0:0:
299,290,22532,1,8,0:0:0:0:
359,185,22924,6,0,L|351:108,1,55,6|0,0:0|0:0,0:0:0:0:
347,75,23316,1,8,0:0:0:0:
347,75,23513,2,0,P|281:84|218:64,1,110,2|0,0:0|0:0,0:0:0:0:
181,55,24101,1,8,0:0:0:0:
95,140,24493,2,0,L|87:204,1,55,2|0,0:0|0:0,0:0:0:0:
85,258,24885,1,8,0:0:0:0:
85,258,25081,2,0,P|133:286|196:284,1,110,2|0,0:0|0:0,0:0:0:0:
243,266,25669,1,8,0:0:0:0:
338,190,26062,6,0,L|343:115,1,55,2|0,0:0|0:0,0:0:0:0:
347,75,26454,1,8,0:0:0:0:
231,38,26846,2,0,P|201:34|174:35,1,55,2|0,0:0|0:0,0:0:0:0:
147,87,27238,2,0,P|117:91|90:90,1,55,8|0,0:0|0:0,0:0:0:0:
38,63,27630,2,0,L|47:188,1,110,2|8,0:0|0:0,0:0:0:0:
50,232,28218,2,0,B|104:243|104:243|169:234,1,110,2|0,0:0|0:0,0:0:0:0:
217,219,28807,1,8,0:0:0:0:
316,150,29199,6,0,L|433:151,1,110,6|8,0:0|0:0,0:0:0:0:
482,171,29787,2,0,B|489:225|489:225|478:279,1,110,2|0,0:0|0:0,0:0:0:0:
461,337,30375,1,8,0:0:0:0:
340,349,30767,2,0,P|291:336|218:340,1,110,2|8,0:0|0:0,0:0:0:0:
172,349,31356,2,0,B|165:230,1,110,2|0,0:0|0:0,0:0:0:0:
163,178,31944,1,8,0:0:0:0:
141,58,32336,6,0,P|90:53|30:75,1,110,6|8,0:0|0:0,0:0:0:0:
4,124,32924,2,0,B|10:233,1,110,2|0,0:0|0:0,0:0:0:0:
14,299,33513,1,8,0:0:0:0:
14,299,33709,2,0,P|65:304|125:282,1,110,4|8,0:0|0:0,0:0:0:0:
168,249,34297,1,8,0:0:0:0:
264,175,34689,2,0,L|381:181,1,110,4|8,0:3|0:3,0:0:0:0:
494,181,35473,6,0,P|418:185|349:301,1,220,6|8,0:0|0:0,0:0:0:0:
237,347,36650,1,0,0:0:0:0:
123,305,37042,2,0,L|52:313,2,55,2|8|0,0:0|0:0|0:0,0:0:0:0:
204,215,37826,2,0,B|212:159|212:159|199:99,1,110,8|0,0:0|0:0,0:0:0:0:
192,52,38414,1,0,0:0:0:0:
192,52,38611,6,0,P|298:30|396:92,1,220,2|8,0:0|0:0,0:0:0:0:
454,186,39787,1,0,0:0:0:0:
406,297,40179,2,0,L|413:371,2,55,2|8|0,0:0|0:0|0:0,0:0:0:0:
303,232,40964,2,0,P|251:230|197:255,1,110,8|0,0:0|0:0,0:0:0:0:
272,349,41748,6,0,L|247:111,1,220,6|8,0:0|0:0,0:0:0:0:
178,32,42924,1,0,0:0:0:0:
74,95,43316,2,0,P|42:90|13:91,2,55,2|8|0,0:0|0:0|0:0,0:0:0:0:
143,194,44101,2,0,B|161:249|161:249|162:308,1,110,8|0,0:0|0:0,0:0:0:0:
272,349,44885,6,0,P|378:342|456:256,1,220,6|8,0:0|0:0,0:0:0:0:
450,142,46062,1,0,0:0:0:0:
352,70,46454,2,0,L|353:3,2,55,2|8|0,0:0|0:0|0:0,0:0:0:0:
281,167,47238,2,0,P|247:172|213:170,1,55,8|8,0:0|0:0,0:0:0:0:
174,140,47630,2,0,P|140:135|106:137,1,55,8|8,0:0|0:0,0:0:0:0:
68,168,48022,6,0,L|77:301,1,110,6|0,0:0|0:0,0:0:0:0:
81,338,48611,2,0,P|141:347|201:326,1,110,8|0,0:0|0:0,0:0:0:0:
238,301,49199,1,8,0:0:0:0:
333,226,49591,2,0,B|388:216|388:216|452:225,1,110,2|0,0:0|0:0,0:0:0:0:
500,234,50179,2,0,P|511:179|499:116,1,110,8|0,0:0|0:0,0:0:0:0:
474,72,50767,1,8,0:0:0:0:
354,50,51160,6,0,L|242:54,1,110,2|0,0:0|0:0,0:0:0:0:
189,79,51748,2,0,B|175:136|175:136|185:199,1,110,8|0,0:0|0:0,0:0:0:0:
198,245,52336,1,8,0:0:0:0:
150,356,52728,1,2,0:0:0:0:
31,328,53121,2,0,P|13:276|21:219,1,110,8|0,0:0|0:0,0:0:0:0:
49,106,53905,2,0,L|127:103,1,55,8|8,0:0|0:0,0:0:0:0:
158,77,54297,6,0,P|206:59|288:71,1,110,6|8,0:0|0:0,0:0:0:0:
310,100,54885,2,0,L|317:223,1,110,8|0,0:0|0:0,0:0:0:0:
321,270,55473,1,8,0:0:0:0:
391,368,55865,2,0,P|447:363|500:317,1,110,2|8,0:0|0:0,0:0:0:0:
491,211,56650,2,0,L|487:144,1,55,0|0,0:0|0:0,0:0:0:0:
486,95,57042,1,8,0:0:0:0:
377,42,57434,6,0,B|323:38|323:38|260:53,1,110,6|8,0:0|0:0,0:0:0:0:
216,80,58022,2,0,L|105:74,1,110,8|0,0:0|0:0,0:0:0:0:
45,71,58611,1,8,0:0:0:0:
4,184,59003,2,0,P|2:216|7:257,1,55,2|0,0:0|0:0,0:0:0:0:
22,296,59395,1,8,0:0:0:0:
140,318,59787,2,0,P|211:307|257:323,1,110,2|8,0:0|0:0,0:0:0:0:
302,352,60375,1,8,0:0:0:0:
302,352,60571,1,2,0:0:0:0:
388,266,60963,6,0,L|380:148,2,110,0|0|8,0:0|0:0|0:0,0:0:0:0:
509,266,62140,6,0,L|501:148,1,110,6|8,0:0|0:0,0:0:0:0:
497,101,62728,1,0,0:0:0:0:
497,101,62924,2,0,P|447:92|395:50,1,110,0|8,0:0|0:0,0:0:0:0:
282,29,63709,2,0,L|205:32,1,55,2|0,0:0|0:0,0:0:0:0:
166,34,64101,1,8,0:0:0:0:
78,117,64493,2,0,P|60:176|82:244,1,110,0|8,0:0|0:0,0:0:0:0:
150,311,65277,6,0,P|209:329|277:307,2,110,2|8|0,0:0|0:0|0:0,0:0:0:0:
215,209,66454,1,8,0:0:0:0:
215,209,66650,2,0,L|345:204,1,110,2|0,0:0|0:0,0:0:0:0:
385,198,67238,1,8,0:0:0:0:
491,140,67630,2,0,P|484:96|444:45,1,110,0|8,0:0|0:0,0:0:0:0:
323,49,68414,6,0,B|266:56|266:56|207:43,1,110,2|8,0:0|0:0,0:0:0:0:
156,25,69003,2,0,P|108:52|81:107,1,110,0|0,0:0|0:0,0:0:0:0:
81,159,69591,1,8,0:0:0:0:
109,276,69983,2,0,L|234:267,1,110,2|8,0:0|0:0,0:0:0:0:
338,255,70767,2,0,L|340:187,1,55,0|0,0:0|0:0,0:0:0:0:
311,145,71160,2,0,L|313:77,1,55,8|0,0:0|0:0,0:0:0:0:
278,40,71552,6,0,B|222:31|222:31|156:36,1,110,2|8,0:0|0:0,0:0:0:0:
109,46,72140,2,0,P|83:97|87:164,1,110,0|0,0:0|0:0,0:0:0:0:
100,206,72728,1,8,0:0:0:0:
195,280,73120,1,10,0:0:0:0:
288,203,73513,6,0,B|342:195|342:195|402:205,2,110,8|8|8,0:0|0:0|0:0,0:0:0:0:
195,280,74689,6,0,P|143:299|73:286,1,110,6|8,0:0|0:0,0:0:0:0:
39,270,75277,1,0,0:0:0:0:
39,270,75473,2,0,L|36:150,1,110,0|8,0:0|0:0,0:0:0:0:
75,45,76258,2,0,P|104:41|143:45,1,55,2|0,0:0|0:0,0:0:0:0:
187,60,76650,1,8,0:0:0:0:
274,143,77042,2,0,L|400:132,1,110,0|8,0:0|0:0,0:0:0:0:
495,87,77826,6,0,P|461:40|404:15,2,110,2|8|0,0:0|0:0|0:0,0:0:0:0:
502,212,79003,1,8,0:0:0:0:
502,212,79199,2,0,B|456:243|456:243|391:245,1,110,2|0,0:0|0:0,0:0:0:0:
341,248,79787,1,8,0:0:0:0:
221,227,80179,2,0,L|208:112,1,110,0|8,0:0|0:0,0:0:0:0:
135,21,80963,5,6,0:0:0:0:
22,67,81356,1,8,0:0:0:0:
7,187,81748,2,0,P|4:245|27:307,1,110,0|8,0:0|0:0,0:0:0:0:
52,344,82336,1,0,0:0:0:0:
172,338,82728,1,0,0:0:0:0:
221,227,83120,2,0,B|277:218|277:218|343:221,1,110,0|0,0:0|0:0,0:0:0:0:
390,231,83709,1,8,0:0:0:0:
489,162,84101,6,0,P|484:110|446:61,1,110,2|8,0:0|0:0,0:0:0:0:
331,42,84885,2,0,L|269:40,1,55,8|8,0:0|0:3,0:0:0:0:
220,64,85277,2,0,L|158:62,1,55,4|4,0:3|0:3,0:0:0:0:
111,89,85669,2,0,P|93:143|106:210,2,110,2|0|0,0:0|0:0|0:0,0:0:0:0:
213,154,86846,1,0,0:0:0:0:
192,273,87238,5,2,0:0:0:0:
