osu file format v14

[General]
AudioFilename: colorful.mp3
AudioLeadIn: 0
PreviewTime: 60572
Countdown: 0
SampleSet: Soft
StackLeniency: 0.7
Mode: 0
LetterboxInBreaks: 0
WidescreenStoryboard: 1

[Editor]
DistanceSpacing: 1
BeatDivisor: 4
GridSize: 16
TimelineZoom: 2.2

[Metadata]
Title:Colorful. (AnimeVer.)
TitleUnicode:カラフル。(AnimeVer.)
Artist:Miku Sawai
ArtistUnicode:沢井美空
Creator:Agatsu
Version:Easy
Source:冴えない彼女の育てかた
Tags:saenai heroine no sodate kata saekano ed ending tv size akitoshi corinn misure
BeatmapID:1215788
BeatmapSetID:552947

[Difficulty]
HPDrainRate:2
CircleSize:2.5
OverallDifficulty:2
ApproachRate:3
SliderMultiplier:0.9
SliderTickRate:1

[Events]
//Background and Video events
Video,0,"vid.avi"
0,0,"bg.jpg",0,0
//Break Periods
//Storyboard Layer 0 (Background)
//Storyboard Layer 1 (Fail)
//Storyboard Layer 2 (Pass)
//Storyboard Layer 3 (Foreground)
//Storyboard Sound Samples

[TimingPoints]
964,392.156862745098,4,2,1,60,1,0
10375,-100,4,2,1,50,0,0
54297,-100,4,2,1,60,0,0
61747,-100,4,2,1,40,0,0
62140,-100,4,2,1,75,0,1
73905,-100,4,2,1,75,0,0
74689,-100,4,2,1,75,0,1
84885,-100,4,2,1,60,0,1
85669,-100,4,2,1,40,0,0

[Colours]
Combo1 : 167,160,252
Combo2 : 128,188,255
Combo3 : 255,147,147
Combo4 : 255,255,170
Combo5 : 155,238,157

[HitObjects]
106,62,179,6,0,P|93:112|108:162,1,90,10|10,0:0|0:0,0:0:0:0:
113,237,964,2,0,B|160:228|184:186|184:186|228:212|272:200,1,180,6|0,0:0|0:0,0:0:0:0:
352,163,2140,1,8,0:0:0:0:
402,237,2532,6,0,L|413:337,1,90,2|8,0:0|0:0,0:0:0:0:
329,363,3316,2,0,L|318:259,1,90,2|10,0:0|0:0,0:0:0:0:
259,205,4101,2,0,P|229:258|233:301,2,90,2|8|0,0:0|0:0|0:0,0:0:0:0:
324,143,5277,1,8,0:0:0:0:
263,76,5669,6,0,B|215:52|215:52|140:59|85:109,1,180,2|2,0:0|0:0,0:0:0:0:
35,160,6846,1,10,0:0:0:0:
72,241,7238,2,0,B|122:260|161:242|161:242|203:220|258:245,1,180,6|8,0:0|0:0,0:0:0:0:
369,184,8611,2,0,L|356:93,1,90,2|2,0:0|0:0,0:0:0:0:
131,84,9983,5,4,0:3:0:0:
104,170,10375,2,0,L|121:312,2,135,6|2|8,0:0|0:0|0:0,0:0:0:0:
170,108,11944,2,0,P|235:96|294:131,2,135,2|2|8,0:0|0:0|0:0,0:0:0:0:
95,158,13513,6,0,L|107:261,1,90,2|8,0:0|0:0,0:0:0:0:
194,236,14297,2,0,L|205:325,1,90,2|8,0:0|0:0,0:0:0:0:
290,297,15081,2,0,L|272:150,2,135,2|2|8,0:0|0:0|0:0,0:0:0:0:
365,346,16650,6,0,B|418:353|418:353|451:344|451:344|510:353,2,135,6|2|8,0:0|0:0|0:0,0:0:0:0:
289,296,18218,2,0,B|242:303|242:303|209:294|209:294|156:301,2,135,2|2|8,0:0|0:0|0:0,0:0:0:0:
350,229,19787,6,0,L|360:129,1,90,2|8,0:0|0:0,0:0:0:0:
304,68,20571,2,0,P|265:56|207:71,1,90,0|8,0:0|0:0,0:0:0:0:
143,115,21356,2,0,P|79:134|8:105,2,135,10|0|8,0:0|0:0|0:0,0:0:0:0:
222,156,22924,6,0,B|250:249|192:232|229:336,1,180,6|0,0:0|0:0,0:0:0:0:
305,378,24101,1,8,0:0:0:0:
379,328,24493,2,0,B|414:227|356:244|384:151,1,180,2|0,0:0|0:0,0:0:0:0:
428,73,25669,1,8,0:0:0:0:
343,40,26062,6,0,P|301:30|252:43,1,90,2|8,0:0|0:0,0:0:0:0:
220,123,26846,2,0,P|173:135|125:123,1,90,2|8,0:0|0:0,0:0:0:0:
45,106,27630,2,0,P|12:168|34:236,2,135,2|2|8,0:0|0:0|0:0,0:0:0:0:
124,63,29199,6,0,B|170:43|209:70|209:70|252:95|304:74,1,180,6|0,0:0|0:0,0:0:0:0:
381,48,30375,1,8,0:0:0:0:
441,114,30767,2,0,L|456:220,1,90,2|8,0:0|0:0,0:0:0:0:
373,244,31552,2,0,L|358:140,1,90,0|8,0:0|0:0,0:0:0:0:
288,100,32336,6,0,P|229:82|156:108,2,135,6|2|8,0:0|0:0|0:0,0:0:0:0:
354,160,33905,2,0,B|370:208|370:208|357:259,1,90,2|8,0:0|0:0,0:0:0:0:
283,293,34689,2,0,B|240:306|240:306|189:292,1,90,4|8,0:3|0:3,0:0:0:0:
117,250,35473,6,0,B|88:166|88:166|126:69,1,180,6|8,0:0|0:0,0:0:0:0:
203,44,36650,1,0,0:0:0:0:
279,91,37042,2,0,B|383:114|353:43|456:65,1,180,2|8,0:0|0:0,0:0:0:0:
497,140,38218,1,0,0:0:0:0:
457,221,38611,6,0,L|352:210,1,90,2|0,0:0|0:0,0:0:0:0:
298,269,39395,2,0,L|193:258,1,90,8|0,0:0|0:0,0:0:0:0:
118,265,40179,2,0,B|144:163|144:163|118:87,1,180,2|8,0:0|0:0,0:0:0:0:
192,38,41356,1,0,0:0:0:0:
273,75,41748,6,0,P|374:66|426:140,1,180,6|8,0:0|0:0,0:0:0:0:
437,208,42924,1,0,0:0:0:0:
401,290,43316,2,0,B|313:313|313:313|215:276,1,180,2|8,0:0|0:0,0:0:0:0:
145,250,44493,1,0,0:0:0:0:
58,275,44885,6,0,B|73:169|10:206|53:88,1,180,6|8,0:0|0:0,0:0:0:0:
95,23,46062,1,0,0:0:0:0:
173,67,46454,2,0,P|263:102|343:56,1,180,2|8,0:0|0:0,0:0:0:0:
404,15,47630,1,8,0:0:0:0:
474,70,48022,6,0,B|496:184|496:184|469:260,1,180,6|0,0:0|0:0,0:0:0:0:
416,313,49199,1,8,0:0:0:0:
331,282,49591,2,0,P|279:270|202:307,2,135,2|8|8,0:0|0:0|0:0,0:0:0:0:
416,313,51160,6,0,P|440:253|416:171,2,135,2|8|8,0:0|0:0|0:0,0:0:0:0:
338,358,52728,2,0,B|245:343,1,90,2|8,0:0|0:0,0:0:0:0:
178,287,53513,2,0,B|168:242|168:242|184:192,1,90,0|8,0:0|0:0,0:0:0:0:
226,122,54297,6,0,P|300:90|366:116,2,135,6|8|8,0:0|0:0|0:0,0:0:0:0:
181,200,55865,2,0,L|196:288,1,90,2|8,0:0|0:0,0:0:0:0:
114,326,56650,2,0,L|98:237,1,90,0|8,0:0|0:0,0:0:0:0:
54,159,57434,6,0,P|12:210|15:283,2,135,6|8|8,0:0|0:0|0:0,0:0:0:0:
130,111,59003,2,0,P|188:105|233:126,1,90,2|8,0:0|0:0,0:0:0:0:
289,168,59787,2,0,P|310:220|303:268,1,90,2|8,0:0|0:0,0:0:0:0:
251,323,60571,6,0,P|193:362|66:240,1,270,2|8,0:0|0:0,0:0:0:0:
98,167,62140,6,0,B|139:146|186:170|186:170|230:198|286:171,1,180,6|0,0:0|0:0,0:0:0:0:
343,124,63316,1,8,0:0:0:0:
409,185,63709,2,0,L|418:286,1,90,2|8,0:0|0:0,0:0:0:0:
335,312,64493,2,0,L|327:222,1,90,0|8,0:0|0:0,0:0:0:0:
261,161,65277,6,0,P|237:217|247:262,2,90,2|8|0,0:0|0:0|0:0,0:0:0:0:
328,102,66453,1,8,0:0:0:0:
291,19,66846,2,0,B|247:11|247:11|189:30,1,90,0|8,0:0|0:0,0:0:0:0:
134,81,67630,2,0,B|119:130|119:130|133:184,1,90,0|8,0:0|0:0,0:0:0:0:
183,238,68414,6,0,P|260:212|323:243,2,135,2|0|8,0:0|0:0|0:0,0:0:0:0:
203,325,69983,2,0,P|251:337|306:318,1,90,2|8,0:0|0:0,0:0:0:0:
368,284,70767,2,0,P|421:273|464:286,1,90,0|8,0:0|0:0,0:0:0:0:
496,201,71552,6,0,L|479:49,2,135,2|0|8,0:0|0:0|0:0,0:0:0:0:
452,279,73120,2,0,L|358:265,1,90,10|8,0:0|0:0,0:0:0:0:
295,325,73905,2,0,L|192:310,1,90,8|8,0:0|0:0,0:0:0:0:
119,336,74689,6,0,L|109:244,1,90,6|8,0:0|0:0,0:0:0:0:
182,194,75473,2,0,L|168:86,1,90,0|8,0:0|0:0,0:0:0:0:
119,32,76258,2,0,P|85:69|80:120,2,90,2|8|0,0:0|0:0|0:0,0:0:0:0:
206,9,77434,1,8,0:0:0:0:
274,67,77826,6,0,B|289:113|289:113|276:172,1,90,2|8,0:0|0:0,0:0:0:0:
208,208,78611,2,0,B|190:252|190:252|202:309,1,90,0|8,0:0|0:0,0:0:0:0:
278,334,79395,2,0,P|344:354|432:291,1,180,0|0,0:0|0:0,0:0:0:0:
454,208,80571,1,8,0:0:0:0:
401,134,80963,6,0,L|310:124,1,90,6|8,0:0|0:0,0:0:0:0:
243,183,81748,2,0,L|139:171,1,90,0|8,0:0|0:0,0:0:0:0:
74,130,82532,2,0,P|60:165|71:223,2,90,2|8|0,0:0|0:0|0:0,0:0:0:0:
133,61,83709,1,8,0:0:0:0:
217,92,84101,6,0,L|327:84,1,90,2|8,0:0|0:0,0:0:0:0:
391,117,84885,2,0,B|426:203|426:203|388:296,1,180,8|2,0:0|0:0,0:0:0:0:
329,347,86062,1,0,0:0:0:0:
257,293,86454,2,0,P|217:282|156:296,1,90,0|0,0:0|0:0,0:0:0:0:
86,323,87238,1,2,0:0:0:0:
