osu file format v14

[General]
AudioFilename: audio.mp3
AudioLeadIn: 0
PreviewTime: -1
Countdown: 0
SampleSet: Normal
StackLeniency: 0.7
Mode: 0
LetterboxInBreaks: 0
WidescreenStoryboard: 1

[Editor]
DistanceSpacing: 0.7
BeatDivisor: 4
GridSize: 4
TimelineZoom: 1.3

[Metadata]
Title:GO * Summer Girl (Short Ver.)
TitleUnicode:GO * Summer Girl (Short Ver.)
Artist:Miku Izayoi (CV Minori Chihara)
ArtistUnicode:Miku Izayoi (CV Minori Chihara)
Creator:kinematik
Version:Insane Kiss
Source:Date A Live Movie: Mayuri Judgement
Tags:date a live are you ready go summer girl kiss sweet heart
BeatmapID:1947333
BeatmapSetID:932719

[Difficulty]
HPDrainRate:8
CircleSize:3.4
OverallDifficulty:4
ApproachRate:9.4
SliderMultiplier:1.7
SliderTickRate:1

[Events]
//Background and Video events
0,0,"BG.jpg",0,0
//Break Periods
//Storyboard Layer 0 (Background)
//Storyboard Layer 1 (Fail)
//Storyboard Layer 2 (Pass)
//Storyboard Layer 3 (Foreground)
//Storyboard Sound Samples

[TimingPoints]
32493.7858835463,344.827586206897,4,2,0,100,1,0
42838,-100,4,1,0,100,0,0
54561,-100,4,2,0,100,0,0
98696,-133.333333333333,4,1,0,100,0,0
109558,-133.333333333333,4,2,0,100,0,0
115937,-133.333333333333,4,1,0,100,0,0
138694,-133.333333333333,4,2,0,100,0,0
146969,-133.333333333333,4,3,0,100,0,0
148349,-133.333333333333,4,1,0,100,0,0
149383,-133.333333333333,4,2,0,100,0,0

[HitObjects]
256,192,26287,12,0,29993,0:0:0:0:
400,69,31976,5,4,0:0:0:0:
400,69,32148,1,4,0:0:0:0:
217,68,32493,2,0,P|128:101|120:185,1,170,4|0,0:0|0:0,0:0:0:0:
219,174,33010,1,0,0:0:0:0:
219,174,33183,6,0,P|285:163|326:47,1,170,4|0,0:0|0:0,0:0:0:0:
192,52,33700,1,0,0:0:0:0:
107,175,33873,5,4,0:0:0:0:
108,176,34045,2,0,L|316:176,1,170,0|4,0:0|0:0,0:0:0:0:
108,176,34735,5,12,0:0:0:0:
320,180,34907,1,12,0:0:0:0:
320,180,35252,6,0,B|285:100|257:79|156:88,1,170,4|0,0:0|0:0,0:0:0:0:
87,88,35769,1,0,0:0:0:0:
87,88,35941,2,0,B|96:158|138:191|245:176,1,170,4|0,0:0|0:0,0:0:0:0:
300,183,36459,1,0,0:0:0:0:
190,83,36631,5,4,0:0:0:0:
302,197,36803,1,0,0:0:0:0:
192,324,37148,1,4,0:0:0:0:
443,80,37493,5,0,0:0:0:0:
444,156,37665,1,0,0:0:0:0:
444,228,37838,1,0,0:0:0:0:
446,304,38010,2,0,L|236:304,1,170,4|0,0:0|0:0,0:0:0:0:
160,304,38527,5,0,0:0:0:0:
160,220,38700,2,0,L|352:220,1,170,4|0,0:0|0:0,0:0:0:0:
432,220,39217,1,0,0:0:0:0:
294,109,39389,1,4,0:0:0:0:
294,109,39562,1,0,0:0:0:0:
432,220,39907,1,4,0:0:0:0:
256,192,40769,12,0,42148,0:0:0:0:
89,67,42838,5,4,0:0:0:0:
107,67,42924,1,4,0:0:0:0:
124,68,43010,1,4,0:0:0:0:
140,68,43096,1,4,0:0:0:0:
154,68,43182,2,0,L|269:69,1,85,4|0,0:0|0:0,0:0:0:0:
366,65,43527,6,0,P|413:111|423:150,1,85,4|0,0:0|0:0,0:0:0:0:
352,163,43872,2,0,L|352:260,1,85,4|0,0:0|0:0,0:0:0:0:
434,250,44217,6,0,L|432:152,1,85,4|0,0:0|0:0,0:0:0:0:
351,164,44562,2,0,P|298:175|272:221,1,85,4|0,0:0|0:0,0:0:0:0:
218,292,44906,5,4,0:0:0:0:
299,233,45079,1,0,0:0:0:0:
218,204,45251,5,4,0:0:0:0:
298,147,45424,1,0,0:0:0:0:
219,120,45596,5,4,0:0:0:0:
294,64,45768,1,0,0:0:0:0:
307,235,45941,5,4,0:0:0:0:
219,120,46113,1,0,0:0:0:0:
219,120,46286,6,0,P|246:70|306:62,1,85,4|0,0:0|0:0,0:0:0:0:
350,62,46630,2,0,P|325:110|278:129,1,85,4|0,0:0|0:0,0:0:0:0:
136,121,46975,5,0,0:0:0:0:
290,230,47148,1,0,0:0:0:0:
354,66,47320,5,0,0:0:0:0:
136,121,47492,1,0,0:0:0:0:
136,121,47665,6,0,L|136:228,1,85,4|0,0:0|0:0,0:0:0:0:
135,283,48010,2,0,L|232:284,1,85,4|0,0:0|0:0,0:0:0:0:
297,285,48354,2,0,P|352:270|365:227,1,85
297,155,48699,2,0,P|322:108|376:99,1,85
429,93,49044,6,0,L|428:196,1,85,4|0,0:0|0:0,0:0:0:0:
348,178,49390,1,0,0:0:0:0:
274,94,49561,1,0,0:0:0:0:
274,94,49734,2,0,L|272:192,1,85,4|0,0:0|0:0,0:0:0:0:
189,176,50078,5,0,0:0:0:0:
189,176,50251,1,0,0:0:0:0:
184,171,50423,2,0,P|201:240|230:255,1,85,4|0,0:0|0:0,0:0:0:0:
275,217,50768,2,0,L|351:167,1,85
368,73,51113,5,4,0:0:0:0:
241,150,51285,1,0,0:0:0:0:
241,73,51458,5,0,0:0:0:0:
368,151,51630,1,0,0:0:0:0:
368,151,51803,6,0,L|248:152,1,85,4|0,0:0|0:0,0:0:0:0:
101,152,52147,1,8,0:0:0:0:
101,152,52320,1,8,0:0:0:0:
101,152,52665,5,0,0:0:0:0:
157,233,52837,1,0,0:0:0:0:
218,152,53009,1,0,0:0:0:0:
218,152,53182,2,0,L|308:152,1,85,4|0,0:0|0:0,0:0:0:0:
407,151,53527,5,8,0:0:0:0:
407,151,53699,1,8,0:0:0:0:
406,43,54044,5,4,0:0:0:0:
406,43,54216,1,4,0:0:0:0:
250,44,54561,6,0,P|182:61|162:100,1,85
138,179,54906,2,0,L|228:207,1,85
294,220,55251,2,0,P|311:272|264:304,3,85
222,311,55940,6,0,P|169:281|162:246,1,85
166,131,56285,2,0,P|184:79|224:62,1,85
305,45,56630,2,0,P|345:73|362:103,3,85
377,195,57319,6,0,L|272:196,1,85
208,194,57664,1,0,0:0:0:0:
113,193,57837,1,0,0:0:0:0:
111,290,58009,6,0,L|212:292,1,85
288,294,58354,1,0,0:0:0:0:
367,203,58526,1,0,0:0:0:0:
265,83,58699,2,0,P|218:104|213:140,3,85
268,204,59388,2,0,P|229:261|190:262,3,85
131,269,60078,6,0,P|129:191|143:163,1,85
213,189,60423,2,0,P|222:244|205:294,1,85
130,269,60768,5,0,0:0:0:0:
211,188,60940,1,0,0:0:0:0:
286,273,61112,1,0,0:0:0:0:
211,188,61285,1,0,0:0:0:0:
211,188,61457,6,0,P|267:165|320:169,1,85
184,315,61802,2,0,P|131:347|83:347,1,85
76,234,62147,1,0,0:0:0:0:
208,175,62319,1,0,0:0:0:0:
185,315,62492,5,0,0:0:0:0:
76,234,62664,1,0,0:0:0:0:
208,175,62836,5,4,0:0:0:0:
208,175,63009,2,0,P|266:186|306:214,1,85
187,258,63354,5,0,0:0:0:0:
187,258,63526,1,4,0:0:0:0:
187,258,63698,2,0,P|173:310|150:341,1,85
100,231,64043,5,0,0:0:0:0:
100,231,64216,1,4,0:0:0:0:
100,231,64388,2,0,P|49:207|22:170,1,85
137,153,64733,5,0,0:0:0:0:
137,153,64905,1,4,0:0:0:0:
137,153,65078,2,0,P|159:110|196:80,1,85
314,66,65422,1,0,0:0:0:0:
314,66,65595,6,0,P|377:58|409:71,1,85
417,137,65940,2,0,L|420:226,1,85
412,311,66284,2,0,P|366:353|334:341,3,85
258,311,66974,6,0,P|218:265|217:229,1,85
217,135,67319,1,0,0:0:0:0:
217,135,67491,1,0,0:0:0:0:
217,135,67664,2,0,P|257:158|276:232,1,85
257,317,68008,1,0,0:0:0:0:
257,317,68181,1,0,0:0:0:0:
156,312,68353,6,0,P|128:253|138:210,1,85,4|0,0:0|0:0,0:0:0:0:
132,155,68698,2,0,L|134:59,1,85
213,35,69045,2,0,L|305:82,1,85,4|0,0:0|0:0,0:0:0:0:
354,121,69388,2,0,P|367:182|353:226,1,85
280,196,69733,5,4,0:0:0:0:
320,276,69905,1,0,0:0:0:0:
204,196,70077,5,4,0:0:0:0:
248,276,70250,1,0,0:0:0:0:
132,196,70422,5,4,0:0:0:0:
176,276,70595,1,0,0:0:0:0:
60,196,70767,5,4,0:0:0:0:
104,276,70939,1,0,0:0:0:0:
107,190,71112,6,0,L|108:88,1,85
109,25,71457,1,0,0:0:0:0:
109,25,71629,1,0,0:0:0:0:
109,25,71801,2,0,P|162:37|192:78,3,85,4|0|0|0,0:0|0:0|0:0|0:0,0:0:0:0:
214,128,72491,6,0,L|212:224,1,85
212,303,72836,1,0,0:0:0:0:
212,303,73008,1,0,0:0:0:0:
212,303,73183,2,0,P|254:342|283:340,3,85,4|0|0|0,0:0|0:0|0:0|0:0,0:0:0:0:
360,341,73870,5,4,0:0:0:0:
256,196,74387,5,0,0:0:0:0:
360,341,74560,1,4,0:0:0:0:
363,247,75249,5,4,0:0:0:0:
364,172,75422,1,4,0:0:0:0:
364,100,75594,1,4,0:0:0:0:
364,28,75767,2,0,P|397:-26|358:25,1,170,4|0,0:0|0:0,0:0:0:0:
363,216,76284,5,0,0:0:0:0:
369,289,76629,6,0,P|339:333|297:350,1,85
240,348,76973,2,0,L|136:348,1,85
80,347,77318,2,0,L|80:236,1,85
81,176,77663,1,0,0:0:0:0:
82,79,77835,1,0,0:0:0:0:
82,79,78008,6,0,P|142:78|183:110,1,85
222,142,78353,2,0,L|287:211,1,85
339,276,78698,2,0,L|396:341,3,85
432,272,79387,5,0,0:0:0:0:
376,340,79560,1,0,0:0:0:0:
432,188,79732,5,0,0:0:0:0:
372,256,79904,1,0,0:0:0:0:
345,164,80077,6,0,L|282:101,3,85
236,48,80766,5,0,0:0:0:0:
164,80,80939,1,0,0:0:0:0:
236,124,81111,5,0,0:0:0:0:
164,152,81284,1,0,0:0:0:0:
104,32,81456,5,0,0:0:0:0:
236,124,81628,1,0,0:0:0:0:
96,184,81801,1,0,0:0:0:0:
104,32,81973,1,0,0:0:0:0:
183,33,82146,6,0,P|244:51|272:82,1,85
247,140,82490,2,0,P|288:190|314:198,1,85
383,208,82835,2,0,P|419:181|394:167,3,85
349,58,83525,6,0,P|291:79|266:109,1,85
298,171,83870,2,0,P|266:221|217:234,1,85
163,222,84214,2,0,P|120:199|148:172,3,85
280,39,84904,6,0,L|355:106,1,85,4|0,0:0|0:0,0:0:0:0:
416,154,85249,1,0,0:0:0:0:
360,228,85421,1,0,0:0:0:0:
360,228,85594,6,0,L|276:152,1,85,4|0,0:0|0:0,0:0:0:0:
236,112,85938,1,0,0:0:0:0:
176,172,86111,1,0,0:0:0:0:
176,172,86283,6,0,L|256:256,1,85,4|0,0:0|0:0,0:0:0:0:
296,300,86628,1,0,0:0:0:0:
224,364,86800,1,0,0:0:0:0:
224,364,86973,6,0,L|152:280,1,85,4|0,0:0|0:0,0:0:0:0:
113,215,87318,1,0,0:0:0:0:
113,215,87490,1,0,0:0:0:0:
123,88,87662,6,0,P|190:60|219:69,1,85
327,99,88007,2,0,P|266:140|233:135,1,85
122,86,88352,2,0,P|169:49|218:52,3,85
178,210,89042,6,0,P|154:285|131:304,1,85
94,204,89387,2,0,P|100:155|122:124,1,85
178,210,89731,2,0,P|169:269|150:296,3,85
77,241,90421,5,4,0:0:0:0:
132,158,90593,2,0,L|252:160,1,85
305,161,90938,5,0,0:0:0:0:
77,241,91111,1,4,0:0:0:0:
129,331,91283,2,0,L|224:332,1,85
304,332,91628,5,0,0:0:0:0:
77,241,91800,2,2,B|71:173|73:101|108:79|124:163|99:210|111:198|91:216|216:188|252:199|172:230|115:251|78:247,1,340,6|2,0:0|0:0,0:0:0:0:
330,268,92835,1,0,0:0:0:0:
330,268,93007,1,0,0:0:0:0:
330,268,93179,6,0,P|322:193|305:163,1,85
283,106,93524,1,0,0:0:0:0:
187,109,93697,1,0,0:0:0:0:
187,109,93869,6,0,P|145:172|142:209,1,85
132,271,94214,1,0,0:0:0:0:
132,271,94386,1,0,0:0:0:0:
202,316,94559,6,0,P|259:283|269:244,1,85
270,196,94903,2,0,P|305:158|327:190,1,85
367,240,95248,2,0,L|420:314,3,85
372,354,95938,6,0,P|302:369|266:358,1,85
311,295,96283,2,0,P|256:285|219:250,1,85
272,210,96627,2,0,P|234:184|212:135,3,85
274,75,97321,5,0,0:0:0:0:
323,155,97490,1,0,0:0:0:0:
376,75,97662,5,0,0:0:0:0:
422,158,97834,1,0,0:0:0:0:
376,75,98007,5,0,0:0:0:0:
266,188,98179,1,0,0:0:0:0:
417,235,98352,1,0,0:0:0:0:
376,75,98524,1,0,0:0:0:0:
376,75,98696,6,0,P|267:55|185:73,1,191.250007295609,4|0,0:0|0:0,0:0:0:0:
119,139,99390,1,0,0:0:0:0:
119,139,99731,1,0,0:0:0:0:
128,266,100076,6,0,P|252:262|315:209,1,191.250007295609,4|0,0:0|0:0,0:0:0:0:
353,136,100765,1,0,0:0:0:0:
353,136,101110,1,0,0:0:0:0:
299,57,101455,6,0,L|239:100,7,63.7500024318696,4|0|0|0|0|0|0|0,0:0|0:0|0:0|0:0|0:0|0:0|0:0|0:0,0:0:0:0:
136,85,102834,6,0,L|183:151,7,63.7500024318696,4|0|0|0|0|0|0|0,0:0|0:0|0:0|0:0|0:0|0:0|0:0|0:0,0:0:0:0:
352,156,104213,6,0,P|373:84|322:140,1,191.250007295609,4|0,0:0|0:0,0:0:0:0:
256,300,104903,1,0,0:0:0:0:
256,300,105248,1,0,0:0:0:0:
153,152,105592,6,0,P|174:80|180:139,1,191.250007295609,4|0,0:0|0:0,0:0:0:0:
256,300,106282,1,0,0:0:0:0:
256,300,106627,1,0,0:0:0:0:
248,76,106972,6,0,P|206:98|190:121,3,63.7500024318696,4|0|0|0,0:0|0:0|0:0|0:0,0:0:0:0:
252,147,107661,6,0,P|293:163|314:190,3,63.7500024318696
248,217,108351,6,0,P|206:239|190:262,3,63.7500024318696,4|0|0|0,0:0|0:0|0:0|0:0,0:0:0:0:
248,290,109041,6,0,P|289:306|310:333,2,63.7500024318696
102,271,109558,6,0,L|179:144,1,127.500004863739,4|0,0:0|0:0,0:0:0:0:
102,271,110075,1,0,0:0:0:0:
102,271,110247,2,0,L|179:144,1,127.500004863739,4|0,0:0|0:0,0:0:0:0:
383,110,110937,6,0,P|299:70|245:76,1,127.500004863739,4|0,0:0|0:0,0:0:0:0:
214,211,111454,1,0,0:0:0:0:
214,211,111627,2,0,P|281:265|342:265,1,127.500004863739,4|0,0:0|0:0,0:0:0:0:
396,254,112144,1,0,0:0:0:0:
409,155,112316,6,0,P|367:99|312:76,1,127.500004863739,4|0,0:0|0:0,0:0:0:0:
163,68,112833,5,0,0:0:0:0:
224,172,113006,1,0,0:0:0:0:
280,68,113178,5,4,0:0:0:0:
163,68,113351,1,4,0:0:0:0:
92,176,113523,1,4,0:0:0:0:
256,196,113695,1,4,0:0:0:0:
256,192,113868,12,0,115247,0:0:0:0:
325,64,115937,6,4,L|298:89,3,31.8750012159348
383,199,116286,2,4,L|407:175,3,31.8750012159348
408,52,116626,5,4,0:0:0:0:
344,104,116799,1,0,0:0:0:0:
408,152,116971,5,4,0:0:0:0:
344,200,117144,1,0,0:0:0:0:
408,52,117316,5,4,0:0:0:0:
472,200,117488,1,0,0:0:0:0:
408,52,117661,1,0,0:0:0:0:
344,200,117833,1,0,0:0:0:0:
349,274,118006,6,0,P|304:302|276:305,1,63.7500024318696,4|0,0:0|0:0,0:0:0:0:
239,248,118350,2,0,P|245:197|234:171,1,63.7500024318696,4|0,0:0|0:0,0:0:0:0:
183,92,118695,2,0,P|148:107|143:148,3,63.7500024318696,4|0|0|0,0:0|0:0|0:0|0:0,0:0:0:0:
326,171,119385,5,4,0:0:0:0:
208,247,119557,1,0,0:0:0:0:
196,102,119730,1,4,0:0:0:0:
296,247,119902,5,0,0:0:0:0:
170,164,120074,1,4,0:0:0:0:
307,96,120247,1,0,0:0:0:0:
389,185,120419,5,4,0:0:0:0:
329,290,120592,1,0,0:0:0:0:
329,290,120764,6,0,L|240:292,1,63.7500024318696,4|0,0:0|0:0,0:0:0:0:
188,292,121109,2,0,L|188:220,1,63.7500024318696,4|0,0:0|0:0,0:0:0:0:
190,147,121454,2,0,P|205:105|242:83,1,63.7500024318696,4|0,0:0|0:0,0:0:0:0:
296,120,121798,2,0,P|294:153|268:184,1,63.7500024318696,4|0,0:0|0:0,0:0:0:0:
152,244,122143,5,4,0:0:0:0:
192,312,122316,1,0,0:0:0:0:
232,244,122488,5,4,0:0:0:0:
272,312,122660,1,0,0:0:0:0:
312,244,122833,5,4,0:0:0:0:
348,312,123005,1,0,0:0:0:0:
388,244,123178,5,0,0:0:0:0:
348,176,123350,1,0,0:0:0:0:
280,173,123522,6,0,P|230:192|226:222,1,63.7500024318696,4|0,0:0|0:0,0:0:0:0:
230,267,123867,2,0,P|217:301|189:315,1,63.7500024318696,4|0,0:0|0:0,0:0:0:0:
120,313,124212,2,0,P|83:293|77:257,3,63.7500024318696,4|0|0|0,0:0|0:0|0:0|0:0,0:0:0:0:
140,188,124902,5,4,0:0:0:0:
240,268,125074,1,0,0:0:0:0:
232,168,125247,5,0,0:0:0:0:
140,268,125419,1,0,0:0:0:0:
86,139,125591,6,0,P|104:106|134:110,3,63.7500024318696
310,86,126281,5,4,0:0:0:0:
271,162,126453,1,0,0:0:0:0:
214,103,126626,5,0,0:0:0:0:
175,179,126798,1,0,0:0:0:0:
122,130,126971,5,0,0:0:0:0:
83,206,127143,1,0,0:0:0:0:
151,275,127315,5,4,0:0:0:0:
151,275,127402,1,4,0:0:0:0:
151,275,127488,1,4,0:0:0:0:
151,275,127574,1,4,0:0:0:0:
151,275,127660,6,0,L|236:276,1,63.7500024318696,4|0,0:0|0:0,0:0:0:0:
296,276,128005,1,0,0:0:0:0:
380,276,128177,1,0,0:0:0:0:
462,276,128350,6,0,L|460:184,1,63.7500024318696,4|0,0:0|0:0,0:0:0:0:
460,67,128695,1,0,0:0:0:0:
460,67,128867,1,0,0:0:0:0:
329,42,129039,5,4,0:0:0:0:
370,181,129212,1,0,0:0:0:0:
460,67,129384,5,4,0:0:0:0:
329,42,129557,1,0,0:0:0:0:
370,181,129729,5,4,0:0:0:0:
454,64,129901,1,0,0:0:0:0:
329,42,130074,5,4,0:0:0:0:
264,156,130246,1,0,0:0:0:0:
234,230,130419,6,0,P|230:271|243:306,1,63.7500024318696,4|0,0:0|0:0,0:0:0:0:
282,345,130763,2,0,L|351:348,1,63.7500024318696,4|0,0:0|0:0,0:0:0:0:
420,344,131108,2,0,P|460:329|467:294,3,63.7500024318696,4|0|0|0,0:0|0:0|0:0|0:0,0:0:0:0:
421,221,131798,5,4,0:0:0:0:
421,221,131970,1,0,0:0:0:0:
327,151,132143,1,4,0:0:0:0:
327,151,132315,1,0,0:0:0:0:
229,221,132487,1,4,0:0:0:0:
229,221,132660,1,0,0:0:0:0:
122,151,132832,1,4,0:0:0:0:
122,151,133005,1,0,0:0:0:0:
42,147,133177,6,0,P|47:204|63:230,1,63.7500024318696,4|0,0:0|0:0,0:0:0:0:
104,254,133522,2,0,L|165:289,1,63.7500024318696,4|0,0:0|0:0,0:0:0:0:
232,315,133867,5,4,0:0:0:0:
283,245,134039,1,0,0:0:0:0:
337,317,134212,5,4,0:0:0:0:
391,245,134390,2,0,P|334:186|275:164,1,127.500004863739,4|0,0:0|0:0,0:0:0:0:
147,167,134901,1,0,0:0:0:0:
206,268,135074,1,0,0:0:0:0:
263,167,135246,1,4,0:0:0:0:
263,167,135418,2,4,P|298:135|318:125,1,63.7500024318696
354,111,135763,1,4,0:0:0:0:
168,107,136280,5,4,0:0:0:0:
298,335,136452,1,4,0:0:0:0:
354,111,136970,5,4,0:0:0:0:
218,333,137143,1,4,0:0:0:0:
161,210,137487,5,4,0:0:0:0:
161,210,137573,1,4,0:0:0:0:
161,210,137659,1,4,0:0:0:0:
218,333,137832,1,0,0:0:0:0:
161,210,138004,1,4,0:0:0:0:
161,210,138091,1,4,0:0:0:0:
161,210,138177,1,4,0:0:0:0:
230,114,138349,5,4,0:0:0:0:
243,107,138435,1,4,0:0:0:0:
258,102,138522,1,4,0:0:0:0:
274,99,138608,1,4,0:0:0:0:
286,99,138694,2,0,P|320:140|367:198,1,127.500004863739,4|0,0:0|0:0,0:0:0:0:
384,285,139211,1,0,0:0:0:0:
205,99,139384,6,0,L|122:214,1,127.500004863739,4|0,0:0|0:0,0:0:0:0:
122,282,139901,1,0,0:0:0:0:
206,99,140073,5,4,0:0:0:0:
206,99,140246,1,4,0:0:0:0:
122,282,140590,1,4,0:0:0:0:
206,99,140935,5,0,0:0:0:0:
117,285,141108,1,4,0:0:0:0:
122,282,141452,6,0,P|171:307|246:284,1,127.500004863739,4|0,0:0|0:0,0:0:0:0:
184,230,141970,5,0,0:0:0:0:
189,230,142142,2,0,P|246:206|308:226,1,127.500004863739,4|0,0:0|0:0,0:0:0:0:
349,300,142659,5,0,0:0:0:0:
256,116,142832,1,4,0:0:0:0:
256,116,143004,1,4,0:0:0:0:
349,300,143349,5,4,0:0:0:0:
195,189,143694,6,0,L|143:148,2,63.7500024318696
241,253,144211,6,0,P|293:236|314:164,1,127.500004863739,4|0,0:0|0:0,0:0:0:0:
250,121,144728,1,0,0:0:0:0:
250,121,144901,2,0,P|188:147|177:220,1,127.500004863739,4|0,0:0|0:0,0:0:0:0:
249,269,145418,1,0,0:0:0:0:
250,121,145590,1,4,0:0:0:0:
250,121,145763,1,4,0:0:0:0:
249,269,146107,5,4,0:0:0:0:
449,49,146969,5,14,0:0:0:0:
202,76,148349,5,4,0:0:0:0:
268,306,148521,1,4,0:0:0:0:
338,78,148866,1,4,0:0:0:0:
256,192,149390,5,0,0:0:0:0:
