osu file format v14

[General]
AudioFilename: audio.mp3
AudioLeadIn: 0
PreviewTime: -1
Countdown: 0
SampleSet: Normal
StackLeniency: 0.7
Mode: 0
LetterboxInBreaks: 0
WidescreenStoryboard: 1

[Editor]
DistanceSpacing: 1.2
BeatDivisor: 4
GridSize: 4
TimelineZoom: 2.799999

[Metadata]
Title:GO * Summer Girl (Short Ver.)
TitleUnicode:GO * Summer Girl (Short Ver.)
Artist:Miku Izayoi (CV Minori Chihara)
ArtistUnicode:Miku Izayoi (CV Minori Chihara)
Creator:kinematik
Version:Extreme Sweetheart
Source:Date A Live Movie: Mayuri Judgement
Tags:date a live are you ready go summer girl kiss sweet heart
BeatmapID:1947331
BeatmapSetID:932719

[Difficulty]
HPDrainRate:7
CircleSize:3.8
OverallDifficulty:5.7
ApproachRate:9.4
SliderMultiplier:1.2
SliderTickRate:1

[Events]
//Background and Video events
0,0,"BG.jpg",0,0
//Break Periods
//Storyboard Layer 0 (Background)
//Storyboard Layer 1 (Fail)
//Storyboard Layer 2 (Pass)
//Storyboard Layer 3 (Foreground)
//Storyboard Sound Samples

[TimingPoints]
32493.7858835463,344.827586206897,4,2,0,100,1,0
42838,-100,4,1,0,100,0,0
54561,-100,4,2,0,100,0,0
87499,-66.6666666666667,4,2,0,100,0,0
98696,-66.6666666666667,4,1,0,100,0,0
138694,-66.6666666666667,4,2,0,100,0,0
148349,-66.6666666666667,4,1,0,100,0,0
149383,-66.6666666666667,4,3,0,100,0,0

[HitObjects]
256,192,26287,12,0,29908,0:0:0:0:
380,76,31976,5,4,0:0:0:0:
164,324,32148,1,4,0:0:0:0:
128,60,32493,6,0,P|188:71|223:119,1,120,4|0,0:0|0:0,0:0:0:0:
160,248,33010,1,0,0:0:0:0:
164,252,33183,2,0,B|191:308|281:302|261:299,1,120,4|0,0:0|0:0,0:0:0:0:
280,304,33700,1,0,0:0:0:0:
380,120,33873,1,4,0:0:0:0:
380,120,34045,1,0,0:0:0:0:
276,304,34390,1,4,0:0:0:0:
372,124,34735,1,0,0:0:0:0:
272,296,34907,1,0,0:0:0:0:
272,296,35252,6,8,B|317:274|333:186|328:188,1,120,6|0,0:0|0:0,0:0:0:0:
276,300,35769,1,0,0:0:0:0:
192,296,35941,2,8,P|156:267|139:198,1,120,6|0,0:0|0:0,0:0:0:0:
196,300,36459,1,0,0:0:0:0:
256,160,36631,1,4,0:0:0:0:
256,160,36803,1,0,0:0:0:0:
320,304,37148,1,12,0:0:0:0:
136,56,37493,5,0,0:0:0:0:
136,56,37665,1,0,0:0:0:0:
136,56,37838,1,0,0:0:0:0:
140,60,38010,2,0,P|192:69|232:133,1,120,4|0,0:0|0:0,0:0:0:0:
256,336,38527,1,8,0:0:0:0:
380,60,38700,6,0,P|318:81|285:134,1,120,4|0,0:0|0:0,0:0:0:0:
256,276,39217,1,0,0:0:0:0:
116,144,39390,1,0,0:0:0:0:
116,144,39562,1,0,0:0:0:0:
268,44,39907,2,0,P|314:54|354:112,1,120,4|0,0:0|0:0,0:0:0:0:
240,172,40424,5,0,0:0:0:0:
240,172,40596,1,0,0:0:0:0:
240,172,40769,2,0,P|292:220|343:216,1,120,6|0,0:0|0:0,0:0:0:0:
356,216,41286,1,0,0:0:0:0:
358,222,41458,2,0,P|414:242|435:298,1,120,6|0,0:0|0:0,0:0:0:0:
435,294,41975,5,8,0:0:0:0:
372,148,42148,1,8,0:0:0:0:
304,296,42320,1,8,0:0:0:0:
207,100,42838,5,4,0:0:0:0:
221,85,42924,1,4,0:0:0:0:
248,77,43010,1,4,0:0:0:0:
275,79,43096,1,4,0:0:0:0:
294,89,43182,2,4,P|340:141|362:199,1,120
284,308,43700,1,0,0:0:0:0:
291,88,43873,5,0,0:0:0:0:
173,262,44044,1,0,0:0:0:0:
191,105,44217,5,4,0:0:0:0:
360,233,44389,1,0,0:0:0:0:
293,53,44562,5,0,0:0:0:0:
245,272,44734,1,0,0:0:0:0:
129,169,44906,5,4,0:0:0:0:
403,132,45079,1,0,0:0:0:0:
188,75,45251,5,0,0:0:0:0:
336,236,45424,1,0,0:0:0:0:
337,65,45596,5,4,0:0:0:0:
110,200,45768,1,0,0:0:0:0:
388,138,45941,5,0,0:0:0:0:
222,259,46113,1,0,0:0:0:0:
356,54,46286,6,0,P|311:51|289:59,1,60,4|0,0:0|0:0,0:0:0:0:
284,65,46630,2,0,P|272:96|283:131,1,60,4|0,0:0|0:0,0:0:0:0:
232,239,46975,6,0,P|246:269|269:290,1,60,4|0,0:0|0:0,0:0:0:0:
385,279,47320,1,0,0:0:0:0:
385,279,47492,1,0,0:0:0:0:
398,61,47665,5,4,0:0:0:0:
415,162,47837,1,0,0:0:0:0:
303,61,48010,5,4,0:0:0:0:
323,196,48182,1,0,0:0:0:0:
201,61,48354,5,4,0:0:0:0:
236,240,48527,1,0,0:0:0:0:
93,62,48699,5,4,0:0:0:0:
140,285,48872,1,0,0:0:0:0:
151,102,49044,2,4,B|186:93|226:101,1,60,4|0,0:0|0:0,0:0:0:0:
327,110,49389,1,0,0:0:0:0:
224,288,49561,1,0,0:0:0:0:
371,101,49734,6,0,P|357:128|320:141,1,60,4|0,0:0|0:0,0:0:0:0:
206,109,50078,1,0,0:0:0:0:
308,284,50251,1,0,0:0:0:0:
312,107,50423,5,4,0:0:0:0:
236,290,50596,1,0,0:0:0:0:
345,194,50768,5,4,0:0:0:0:
162,106,50940,1,0,0:0:0:0:
312,107,51113,5,4,0:0:0:0:
164,171,51285,1,0,0:0:0:0:
320,247,51458,5,4,0:0:0:0:
166,311,51630,1,0,0:0:0:0:
182,99,51803,5,4,0:0:0:0:
286,276,51975,1,0,0:0:0:0:
341,95,52147,5,0,0:0:0:0:
341,95,52320,2,4,P|268:115|235:148,1,120,4|0,0:0|0:0,0:0:0:0:
249,285,52837,1,0,0:0:0:0:
249,285,53009,1,0,0:0:0:0:
340,234,53182,5,4,0:0:0:0:
386,146,53354,1,0,0:0:0:0:
347,53,53527,1,0,0:0:0:0:
265,43,53699,2,4,P|208:47|143:60,1,120
206,273,54216,1,0,0:0:0:0:
132,66,54561,6,0,P|191:77|254:97,1,120
349,66,55078,1,0,0:0:0:0:
349,66,55251,6,0,P|374:118|382:185,1,120
243,129,55768,1,0,0:0:0:0:
243,129,55940,6,0,P|207:170|195:237,1,120
290,209,56457,1,0,0:0:0:0:
290,209,56630,6,0,P|336:273|346:314,1,120
344,302,57147,1,0,0:0:0:0:
328,59,57319,6,0,L|275:87,3,60
165,136,58009,2,0,L|227:161,3,60
333,156,58699,6,0,P|310:198|278:213,1,60
208,186,59043,2,0,P|225:227|252:247,1,60
329,259,59388,2,0,P|313:296|280:318,1,60
205,300,59733,2,0,P|223:335|245:352,1,60
444,95,60078,6,0,P|426:131|396:144,1,60
301,145,60423,2,0,B|274:157|260:194|261:194,1,60
189,279,60768,2,0,P|166:305|136:325,3,60
98,57,61457,6,0,P|108:82|151:102,1,60
176,139,61802,2,0,P|200:164|205:204,1,60
189,271,62147,2,0,P|170:300|148:315,3,60
149,158,62836,6,0,L|206:109,1,60,8|0,0:0|0:0,0:0:0:0:
283,47,63181,1,10,0:0:0:0:
283,47,63354,1,10,0:0:0:0:
383,131,63526,6,0,L|339:174,1,60
248,265,63871,1,10,0:0:0:0:
248,265,64043,1,10,0:0:0:0:
248,265,64216,6,0,L|200:219,1,60
140,159,64560,1,10,0:0:0:0:
140,159,64733,1,10,0:0:0:0:
283,47,64905,6,0,L|329:93,1,60
403,169,65252,1,10,0:0:0:0:
403,169,65422,1,10,0:0:0:0:
144,107,65595,6,8,P|128:135|124:175,1,60
159,312,65940,1,0,0:0:0:0:
332,107,66112,1,0,0:0:0:0:
332,107,66284,2,0,P|363:149|362:175,3,60
370,267,66974,6,8,P|355:297|318:324,1,60
251,344,67319,1,0,0:0:0:0:
270,47,67491,1,0,0:0:0:0:
174,76,67664,2,0,P|136:103|124:128,3,60
297,80,68353,6,0,L|352:129,1,60
416,199,68698,1,10,0:0:0:0:
506,304,68870,1,0,0:0:0:0:
384,278,69043,1,0,0:0:0:0:
506,215,69215,1,10,0:0:0:0:
438,344,69388,1,0,0:0:0:0:
169,191,69560,1,0,0:0:0:0:
361,146,69733,5,10,0:0:0:0:
203,279,69905,1,0,0:0:0:0:
267,78,70077,1,0,0:0:0:0:
340,282,70250,5,4,0:0:0:0:
176,144,70422,1,0,0:0:0:0:
377,76,70595,1,0,0:0:0:0:
239,251,70767,5,4,0:0:0:0:
377,76,70939,1,0,0:0:0:0:
375,81,71112,6,0,P|285:59|192:72,1,180
133,316,71801,1,12,0:0:0:0:
133,316,72319,1,0,0:0:0:0:
106,85,72491,2,0,P|208:60|286:79,1,180
346,315,73181,1,12,0:0:0:0:
161,300,73870,5,4,0:0:0:0:
248,76,74387,1,4,0:0:0:0:
334,302,74560,1,4,0:0:0:0:
371,48,75249,5,4,0:0:0:0:
178,291,75422,1,0,0:0:0:0:
158,51,75594,1,0,0:0:0:0:
379,290,75767,2,4,P|418:248|445:184,1,120
208,79,76284,1,0,0:0:0:0:
323,299,76629,6,0,P|354:307|380:299,1,60
322,73,76973,2,0,P|291:61|252:79,1,60
323,298,77318,1,0,0:0:0:0:
322,73,77491,1,0,0:0:0:0:
404,300,77663,1,0,0:0:0:0:
399,72,77835,1,0,0:0:0:0:
113,290,78008,6,0,P|131:313|170:321,1,60
387,101,78353,2,0,P|367:72|328:61,1,60
178,55,78698,1,0,0:0:0:0:
305,313,78870,1,0,0:0:0:0:
312,156,79042,1,0,0:0:0:0:
164,260,79215,1,0,0:0:0:0:
347,237,79387,5,0,0:0:0:0:
198,74,79560,1,0,0:0:0:0:
192,76,79732,2,0,P|162:91|141:123,1,60
149,243,80077,5,0,0:0:0:0:
304,76,80249,1,0,0:0:0:0:
304,76,80422,2,0,P|345:92|359:118,1,60
192,84,80766,5,0,0:0:0:0:
328,302,80939,1,0,0:0:0:0:
329,82,81111,1,0,0:0:0:0:
197,299,81284,1,0,0:0:0:0:
329,82,81456,5,0,0:0:0:0:
303,198,81628,1,0,0:0:0:0:
254,265,81801,1,0,0:0:0:0:
201,281,81973,1,0,0:0:0:0:
161,271,82146,6,0,P|139:235|136:203,1,60
348,87,82490,1,0,0:0:0:0:
348,87,82663,1,0,0:0:0:0:
371,266,82835,6,0,P|346:290|317:298,1,60
176,211,83180,1,0,0:0:0:0:
107,63,83352,1,0,0:0:0:0:
107,63,83525,6,0,P|166:65|219:97,1,120
285,307,84042,2,0,P|337:288|340:223,1,120
226,89,84732,5,0,0:0:0:0:
124,287,84904,5,4,0:0:0:0:
198,142,85076,1,0,0:0:0:0:
338,63,85249,2,0,P|366:78|390:102,1,60
93,217,85594,5,4,0:0:0:0:
239,111,85766,1,0,0:0:0:0:
402,105,85938,2,0,P|425:134|429:166,1,60
98,101,86283,5,4,0:0:0:0:
280,136,86456,1,0,0:0:0:0:
383,288,86628,2,0,P|375:317|346:337,1,60
203,68,86973,5,4,0:0:0:0:
203,68,87059,1,4,0:0:0:0:
203,68,87145,1,4,0:0:0:0:
147,306,87318,1,0,0:0:0:0:
365,155,87490,1,0,0:0:0:0:
147,306,87662,6,4,P|176:317|238:292,1,82.5,4|0,0:0|0:0,0:0:0:0:
145,131,88007,2,0,P|104:121|56:137,1,82.5
147,306,88355,1,4,0:0:0:0:
145,131,88524,1,0,0:0:0:0:
147,306,88696,1,0,0:0:0:0:
227,133,88869,1,0,0:0:0:0:
227,133,89042,6,0,P|307:146|327:244,1,180.000006866455,4|0,0:0|0:0,0:0:0:0:
227,302,89559,2,0,P|308:341|398:328,1,180.000006866455,4|0,0:0|0:0,0:0:0:0:
410,265,90421,6,0,P|403:182|388:142,1,90.0000034332277,4|0,0:0|0:0,0:0:0:0:
336,59,90766,1,10,0:0:0:0:
336,59,90938,1,10,0:0:0:0:
307,127,91111,2,0,P|297:181|277:227,1,90.0000034332277,4|0,0:0|0:0,0:0:0:0:
226,317,91455,1,10,0:0:0:0:
226,317,91628,1,10,0:0:0:0:
137,285,91800,5,4,0:0:0:0:
89,200,91973,1,0,0:0:0:0:
98,95,92145,1,0,0:0:0:0:
177,18,92317,1,0,0:0:0:0:
215,138,92490,6,4,L|221:185,2,45.0000017166138
177,18,92835,5,0,0:0:0:0:
177,18,93007,1,0,0:0:0:0:
137,272,93179,6,8,P|196:287|257:276,1,90.0000034332277
277,144,93524,1,0,0:0:0:0:
192,322,93697,1,0,0:0:0:0:
312,306,93869,6,4,P|353:268|376:226,1,90.0000034332277
311,87,94214,1,0,0:0:0:0:
423,262,94386,1,0,0:0:0:0:
127,78,94559,6,0,P|123:146|157:187,1,90.0000034332277
206,189,94903,2,0,P|256:217|269:277,1,90.0000034332277
124,75,95248,5,4,0:0:0:0:
265,273,95421,1,0,0:0:0:0:
262,73,95593,5,0,0:0:0:0:
124,279,95765,1,4,0:0:0:0:
351,273,95938,6,0,P|387:228|396:174,1,90.0000034332277
309,101,96283,1,0,0:0:0:0:
191,235,96455,1,0,0:0:0:0:
359,274,96627,1,0,0:0:0:0:
214,139,96800,5,0,0:0:0:0:
359,274,96972,1,0,0:0:0:0:
357,86,97145,1,4,0:0:0:0:
317,192,97317,1,0,0:0:0:0:
262,279,97490,2,0,P|187:299|159:287,1,90.0000034332277,4|4,0:0|0:0,0:0:0:0:
262,279,97834,1,0,0:0:0:0:
370,110,98007,5,4,0:0:0:0:
446,283,98179,1,0,0:0:0:0:
370,110,98352,1,0,0:0:0:0:
262,279,98524,1,4,0:0:0:0:
262,279,98696,6,0,P|160:227|129:170,1,180.000006866455
192,61,99214,1,0,0:0:0:0:
306,50,99386,2,0,P|387:91|427:174,1,180.000006866455
377,276,100076,6,0,P|283:305|200:289,1,180.000006866455
141,225,100593,1,0,0:0:0:0:
159,110,100938,1,0,0:0:0:0:
271,60,101282,2,0,P|415:107|302:249,1,360.000013732911
188,266,102144,5,0,0:0:0:0:
191,180,102489,1,0,0:0:0:0:
220,105,102834,6,0,P|366:70|369:185,1,270.000010299683
289,286,103524,5,0,0:0:0:0:
260,150,103868,1,0,0:0:0:0:
139,73,104213,6,0,P|102:230|148:332,1,270.000010299683
242,277,104903,1,0,0:0:0:0:
290,173,105248,1,0,0:0:0:0:
333,71,105592,6,0,P|402:168|422:230,1,180.000006866455
376,300,106110,2,0,P|414:333|379:288,1,180.000006866455
253,91,106972,5,4,0:0:0:0:
170,288,107489,1,0,0:0:0:0:
170,288,107661,1,0,0:0:0:0:
143,184,108351,5,4,0:0:0:0:
320,294,108868,1,0,0:0:0:0:
320,294,109041,1,0,0:0:0:0:
157,60,109558,6,8,P|118:150|117:236,1,180.000006866455,12|8,0:0|0:0,0:0:0:0:
253,192,110075,5,0,0:0:0:0:
350,61,110247,6,0,P|394:171|389:255,1,180.000006866455,4|0,0:0|0:0,0:0:0:0:
205,254,110937,6,8,P|164:285|193:224,1,180.000006866455,12|8,0:0|0:0,0:0:0:0:
321,133,111454,1,0,0:0:0:0:
204,255,111627,2,0,P|142:278|206:262,1,180.000006866455,4|0,0:0|0:0,0:0:0:0:
131,94,112316,6,8,P|265:73|338:82,1,180.000006866455,12|8,0:0|0:0,0:0:0:0:
371,285,112833,1,0,0:0:0:0:
202,231,113006,1,4,0:0:0:0:
319,85,113178,1,0,0:0:0:0:
315,350,113351,5,4,0:0:0:0:
424,213,113523,1,0,0:0:0:0:
253,190,113695,1,4,0:0:0:0:
256,192,113868,12,0,115592,0:0:0:0:
160,291,115937,6,4,L|211:303,1,45.0000017166138
375,227,116109,2,4,L|328:237,1,45.0000017166138
159,133,116282,2,4,L|208:149,1,45.0000017166138
376,91,116454,2,4,L|329:108,1,45.0000017166138
246,41,116626,5,4,0:0:0:0:
173,301,116799,1,0,0:0:0:0:
123,196,116971,5,4,0:0:0:0:
339,289,117144,1,0,0:0:0:0:
305,72,117316,5,4,0:0:0:0:
123,196,117488,1,0,0:0:0:0:
177,82,117661,5,4,0:0:0:0:
261,280,117833,1,0,0:0:0:0:
343,119,118011,6,8,P|377:158|391:213,1,90.0000034332277,12|8,0:0|0:0,0:0:0:0:
260,146,118350,2,8,P|264:82|305:43,1,90.0000034332277,12|8,0:0|0:0,0:0:0:0:
328,210,118695,2,14,P|276:237|208:223,3,90.0000034332277,14|14|14|10,0:0|0:0|0:0|0:0,0:0:0:0:
397,137,119385,6,0,P|337:79|310:71,1,90.0000034332277,4|0,0:0|0:0,0:0:0:0:
188,79,119730,5,0,0:0:0:0:
288,283,119902,1,0,0:0:0:0:
266,142,120074,6,4,P|199:158|164:202,1,90.0000034332277,4|0,0:0|0:0,0:0:0:0:
168,297,120419,5,0,0:0:0:0:
351,233,120592,1,0,0:0:0:0:
178,81,120764,5,4,0:0:0:0:
345,87,120936,1,0,0:0:0:0:
161,192,121109,5,4,0:0:0:0:
360,193,121281,1,0,0:0:0:0:
148,300,121454,5,4,0:0:0:0:
369,296,121626,1,0,0:0:0:0:
239,147,121798,5,4,0:0:0:0:
203,176,121885,1,4,0:0:0:0:
187,223,121971,1,4,0:0:0:0:
204,274,122057,1,4,0:0:0:0:
238,304,122143,6,4,P|291:276|320:236,1,90.0000034332277,4|0,0:0|0:0,0:0:0:0:
330,137,122488,1,0,0:0:0:0:
239,300,122660,1,0,0:0:0:0:
330,137,122833,6,4,P|262:163|242:193,1,90.0000034332277
239,300,123178,1,0,0:0:0:0:
330,137,123350,1,0,0:0:0:0:
189,133,123522,5,4,0:0:0:0:
347,263,123695,1,0,0:0:0:0:
366,73,123867,5,4,0:0:0:0:
246,225,124040,1,0,0:0:0:0:
171,67,124212,5,4,0:0:0:0:
343,85,124385,1,0,0:0:0:0:
273,34,124557,5,4,0:0:0:0:
196,308,124729,1,0,0:0:0:0:
196,308,124902,6,4,P|258:317|300:308,1,90.0000034332277,4|0,0:0|0:0,0:0:0:0:
194,40,125247,1,0,0:0:0:0:
302,306,125419,1,0,0:0:0:0:
302,306,125591,6,4,P|243:330|193:308,1,90.0000034332277,4|0,0:0|0:0,0:0:0:0:
290,43,125936,1,0,0:0:0:0:
185,305,126109,1,0,0:0:0:0:
185,305,126281,5,4,0:0:0:0:
85,217,126453,1,0,0:0:0:0:
257,271,126626,5,4,0:0:0:0:
173,130,126798,1,0,0:0:0:0:
331,254,126971,5,4,0:0:0:0:
275,80,127143,1,0,0:0:0:0:
434,178,127315,5,4,0:0:0:0:
444,157,127402,1,4,0:0:0:0:
449,128,127488,1,4,0:0:0:0:
444,106,127574,1,4,0:0:0:0:
428,88,127660,2,4,P|387:62|340:71,1,90.0000034332277,4|0,0:0|0:0,0:0:0:0:
239,138,128005,5,4,0:0:0:0:
445,311,128177,1,0,0:0:0:0:
453,87,128350,5,4,0:0:0:0:
237,335,128522,1,0,0:0:0:0:
251,47,128695,5,4,0:0:0:0:
457,231,128867,1,0,0:0:0:0:
415,340,129039,6,8,P|345:337|301:310,1,90.0000034332277,12|8,0:0|0:0,0:0:0:0:
339,175,129384,2,8,P|262:187|227:214,1,90.0000034332277,12|8,0:0|0:0,0:0:0:0:
143,269,129729,6,2,P|107:314|98:347,3,90.0000034332277,6|6|6|2,0:0|0:0|0:0|0:0,0:0:0:0:
66,135,130419,5,4,0:0:0:0:
365,111,130591,1,0,0:0:0:0:
204,61,130763,5,4,0:0:0:0:
399,261,130936,1,0,0:0:0:0:
262,109,131108,5,4,0:0:0:0:
249,327,131281,1,0,0:0:0:0:
409,180,131453,1,0,0:0:0:0:
105,239,131625,1,0,0:0:0:0:
189,51,131798,5,4,0:0:0:0:
273,329,131970,1,0,0:0:0:0:
273,329,132143,2,0,P|317:290|334:248,1,90.0000034332277,4|0,0:0|0:0,0:0:0:0:
346,70,132487,5,4,0:0:0:0:
126,324,132660,1,0,0:0:0:0:
126,324,132832,6,4,L|184:346,1,45.0000017166138
303,174,133005,2,4,L|255:157,1,45.0000017166138
151,204,133177,5,4,0:0:0:0:
318,276,133350,1,0,0:0:0:0:
297,110,133522,5,4,0:0:0:0:
151,204,133694,1,0,0:0:0:0:
318,276,133867,5,4,0:0:0:0:
202,112,134039,1,0,0:0:0:0:
218,301,134212,5,4,0:0:0:0:
368,194,134384,1,0,0:0:0:0:
202,112,134556,1,4,0:0:0:0:
68,227,134729,1,0,0:0:0:0:
296,332,134901,5,4,0:0:0:0:
201,28,135074,1,0,0:0:0:0:
111,307,135246,5,4,0:0:0:0:
395,259,135418,1,0,0:0:0:0:
223,68,135591,5,0,0:0:0:0:
394,347,135763,1,4,0:0:0:0:
408,51,136280,5,4,0:0:0:0:
78,236,136453,1,4,0:0:0:0:
188,24,136970,5,4,0:0:0:0:
321,334,137142,1,4,0:0:0:0:
389,180,137487,5,4,0:0:0:0:
389,180,137573,1,4,0:0:0:0:
389,180,137660,1,4,0:0:0:0:
157,295,137832,1,0,0:0:0:0:
389,180,138004,1,4,0:0:0:0:
389,180,138091,1,4,0:0:0:0:
389,180,138177,1,4,0:0:0:0:
285,43,138349,5,4,0:0:0:0:
249,55,138435,1,4,0:0:0:0:
221,75,138522,1,4,0:0:0:0:
193,99,138608,1,4,0:0:0:0:
179,126,138694,2,0,P|159:219|183:303,1,180.000006866455,4|0,0:0|0:0,0:0:0:0:
305,197,139211,5,0,0:0:0:0:
182,121,139384,6,0,P|161:232|191:314,1,180.000006866455
305,197,139901,5,0,0:0:0:0:
266,55,140073,5,0,0:0:0:0:
266,55,140246,1,0,0:0:0:0:
160,315,140590,1,0,0:0:0:0:
266,55,140935,5,0,0:0:0:0:
160,315,141108,1,0,0:0:0:0:
82,243,141452,6,0,P|141:314|234:337,1,180.000006866455
273,339,141970,1,0,0:0:0:0:
175,130,142142,2,0,P|286:141|348:209,1,180.000006866455
349,211,142659,1,0,0:0:0:0:
363,48,142832,1,0,0:0:0:0:
363,48,143004,1,0,0:0:0:0:
349,211,143349,1,0,0:0:0:0:
366,43,143694,6,0,L|442:97,2,90.0000034332277
314,41,144211,5,0,0:0:0:0:
198,336,144556,1,0,0:0:0:0:
198,336,144728,1,0,0:0:0:0:
211,42,144901,5,0,0:0:0:0:
317,339,145245,1,0,0:0:0:0:
317,339,145418,1,0,0:0:0:0:
211,42,145590,5,0,0:0:0:0:
211,42,145763,1,0,0:0:0:0:
317,339,146107,1,0,0:0:0:0:
418,60,146969,5,12,0:0:0:0:
95,66,148349,5,4,0:0:0:0:
215,341,148521,1,4,0:0:0:0:
469,55,148866,1,4,0:0:0:0:
255,191,149383,5,6,0:0:0:0:
