osu file format v14

[General]
AudioFilename: Cheer.mp3
AudioLeadIn: 0
PreviewTime: 58647
Countdown: 0
SampleSet: Soft
StackLeniency: 0.4
Mode: 0
LetterboxInBreaks: 0
WidescreenStoryboard: 1

[Editor]
DistanceSpacing: 1.2
BeatDivisor: 4
GridSize: 8
TimelineZoom: 1

[Metadata]
Title:Cheer for you
TitleUnicode:Cheer for you
Artist:Miku Itou, Azumi Waki, Miyu Komaki, Maria Naganawa, Kanon Takao, Rie Suzuki
ArtistUnicode:伊藤美来,和氣あず未,小牧未侑,長縄まりあ,高尾奏音,鈴木絵理
Creator:LeQuack
Version:Hard
Source:あにトレ!XX
Tags:Anitore! XX Anime de training ex
BeatmapID:1297677
BeatmapSetID:614803

[Difficulty]
HPDrainRate:5
CircleSize:4
OverallDifficulty:6
ApproachRate:7
SliderMultiplier:1.4
SliderTickRate:1

[Events]
//Background and Video events
0,0,"93406.jpg",0,0
//Break Periods
//Storyboard Layer 0 (Background)
//Storyboard Layer 1 (Fail)
//Storyboard Layer 2 (Pass)
//Storyboard Layer 3 (Foreground)
//Storyboard Sound Samples

[TimingPoints]
920,454.545454545455,4,2,1,40,1,0
8192,-100,4,2,2,60,0,0
44556,-100,4,2,1,50,0,0
51829,-100,4,2,2,60,0,0
57510,-100,4,2,3,65,0,0
59101,-100,4,2,4,80,0,1
88192,-100,4,2,2,50,0,0

[Colours]
Combo1 : 255,164,209
Combo2 : 255,128,128
Combo3 : 255,255,128
Combo4 : 128,255,128
Combo5 : 0,0,128
Combo6 : 128,128,255

[HitObjects]
84,94,920,6,0,L|164:93,1,70,0|0,0:0|0:0,0:0:0:0:
237,91,1374,1,0,0:0:0:0:
197,165,1601,1,0,0:0:0:0:
197,165,1829,2,0,L|117:164,1,70,0|0,0:0|0:0,0:0:0:0:
84,236,2283,2,0,L|164:235,1,70,0|0,0:0|0:0,0:0:0:0:
225,280,2738,6,0,P|264:287|303:273,1,70,0|0,0:0|0:0,0:0:0:0:
295,195,3192,2,0,P|256:188|217:202,1,70,0|0,0:0|0:0,0:0:0:0:
153,235,3647,1,0,0:0:0:0:
87,182,3874,5,2,0:0:0:0:
87,182,4101,2,0,P|81:138|93:94,1,70,2|2,0:0|0:0,0:0:0:0:
126,39,4556,2,0,B|264:18|264:96|400:55,1,280,2|0,0:0|0:0,0:0:0:0:
483,41,5692,1,0,0:0:0:0:
483,41,5920,2,0,P|478:86|454:118,1,70,0|0,0:0|0:0,0:0:0:0:
390,144,6374,1,0,0:0:0:0:
434,222,6601,5,2,0:0:0:0:
434,222,6829,2,0,L|352:222,1,70,2|2,0:0|0:0,0:0:0:0:
313,154,7283,2,0,L|231:154,1,70,2|2,0:0|0:0,0:0:0:0:
178,208,7738,2,0,B|143:274|190:274|148:349,1,140,2|6,0:0|0:0,0:0:0:0:
68,349,8420,5,0,0:0:0:0:
37,270,8647,2,0,P|35:235|47:202,1,70,8|0,0:0|0:0,0:0:0:0:
101,138,9101,1,0,0:0:0:0:
48,80,9329,1,4,0:0:0:0:
48,80,9556,1,8,0:0:0:0:
183,179,10010,6,0,L|270:180,1,70,4|0,0:0|0:0,0:0:0:0:
328,142,10465,1,8,0:0:0:0:
393,194,10692,2,0,L|445:194,2,35,2|2|2,0:3|0:3|0:3,0:0:0:0:
335,255,11147,6,0,P|328:292|342:340,2,70,6|10|2,0:0|0:0|0:0,0:0:0:0:
276,194,11829,2,0,P|228:166|266:271,1,280,6|0,0:0|0:0,0:0:0:0:
335,255,12965,1,4,0:0:0:0:
335,255,13192,1,8,0:0:0:0:
306,89,13647,5,4,0:0:0:0:
261,160,13874,1,2,0:0:0:0:
261,160,14101,2,0,L|177:157,1,70,10|2,0:0|0:0,0:0:0:0:
106,161,14556,1,2,0:0:0:0:
138,238,14783,1,6,0:0:0:0:
221,239,15010,1,10,0:0:0:0:
166,79,15465,6,0,L|235:79,1,70,4|0,0:0|0:0,0:0:0:0:
261,160,15920,2,0,L|178:159,1,70,8|0,0:0|0:0,0:0:0:0:
160,238,16374,2,0,L|243:237,1,70,4|0,0:0|0:0,0:0:0:0:
296,288,16829,1,8,0:0:0:0:
354,227,17056,5,0,0:0:0:0:
354,227,17283,2,0,P|363:188|359:153,1,70,4|0,0:0|0:0,0:0:0:0:
414,93,17738,1,8,0:0:0:0:
414,93,17965,2,0,P|440:127|445:163,1,70,0|4,0:0|0:0,0:0:0:0:
439,237,18420,1,0,0:0:0:0:
439,237,18647,2,0,P|398:234|357:240,1,70,8|0,0:0|0:0,0:0:0:0:
296,278,19101,5,4,0:0:0:0:
296,278,19329,1,0,0:0:0:0:
221,243,19556,2,0,L|218:167,1,70,8|0,0:0|0:0,0:0:0:0:
290,130,20010,2,0,L|293:206,1,70,4|0,0:0|0:0,0:0:0:0:
369,237,20465,2,0,L|366:161,1,70,8|0,0:0|0:0,0:0:0:0:
361,82,20920,6,0,L|216:83,1,140,4|8,0:0|0:0,0:0:0:0:
151,129,21601,1,0,0:0:0:0:
161,212,21829,1,4,0:0:0:0:
220,270,22056,2,0,L|219:341,2,70,2|10|2,0:0|0:0|0:0,0:0:0:0:
299,210,22738,6,0,P|340:203|378:215,1,70,4|0,0:0|0:0,0:0:0:0:
343,129,23192,2,0,P|302:122|264:134,1,70,8|0,0:0|0:0,0:0:0:0:
222,194,23647,2,0,P|199:167|188:134,1,70,4|0,0:0|0:0,0:0:0:0:
194,51,24101,1,8,0:0:0:0:
268,102,24329,5,0,0:0:0:0:
268,102,24556,2,0,L|347:100,1,70,4|0,0:0|0:0,0:0:0:0:
375,175,25010,1,8,0:0:0:0:
375,175,25237,2,0,L|296:173,1,70,0|4,0:0|0:0,0:0:0:0:
220,179,25692,1,0,0:0:0:0:
268,248,25920,2,0,L|347:246,1,70,8|0,0:0|0:0,0:0:0:0:
407,293,26374,5,4,0:0:0:0:
335,337,26601,1,2,0:0:0:0:
252,320,26829,2,0,P|210:318|177:329,1,70,10|2,0:0|0:0,0:0:0:0:
104,298,27283,2,0,P|99:251|109:223,1,70,6|2,0:0|0:0,0:0:0:0:
173,180,27738,2,0,P|180:146|174:111,1,70,10|2,0:0|0:0,0:0:0:0:
131,39,28192,5,4,0:0:0:0:
215,40,28420,2,0,L|298:41,1,70,0|8,0:0|0:0,0:0:0:0:
368,49,28874,2,0,P|366:88|383:124,1,70,0|4,0:0|0:0,0:0:0:0:
456,144,29329,2,0,P|414:191|333:188,1,140,2|2,0:0|0:0,0:0:0:0:
294,123,30010,5,4,0:0:0:0:
294,123,30238,1,0,0:0:0:0:
218,160,30465,2,0,L|135:160,1,70,8|0,0:0|0:0,0:0:0:0:
187,85,30920,2,0,L|104:85,1,70,4|0,0:0|0:0,0:0:0:0:
57,143,31374,1,8,0:0:0:0:
97,216,31601,5,0,0:0:0:0:
97,216,31829,2,0,P|95:252|62:280,1,70,4|0,0:0|0:0,0:0:0:0:
36,349,32283,1,8,0:0:0:0:
36,349,32510,2,0,L|126:353,1,70,0|4,0:0|0:0,0:0:0:0:
177,307,32965,1,0,0:0:0:0:
255,338,33192,2,0,P|288:341|335:331,1,70,8|0,0:0|0:0,0:0:0:0:
384,275,33647,5,4,0:0:0:0:
384,275,33874,1,0,0:0:0:0:
331,209,34101,2,0,P|321:164|328:133,1,70,8|0,0:0|0:0,0:0:0:0:
326,56,34556,2,0,P|369:69|393:91,1,70,4|0,0:0|0:0,0:0:0:0:
461,128,35010,2,0,P|427:159|396:168,1,70,8|0,0:0|0:0,0:0:0:0:
325,141,35465,6,0,L|235:144,1,70,4|0,0:0|0:0,0:0:0:0:
185,190,35920,1,8,0:0:0:0:
244,249,36147,2,0,L|326:248,1,70,0|4,0:0|0:0,0:0:0:0:
392,277,36601,2,0,P|388:317|372:345,2,70,2|10|2,0:0|0:0|0:0,0:0:0:0:
385,197,37283,5,2,0:0:0:0:
385,197,37510,1,0,0:0:0:0:
369,114,37738,2,0,B|404:107|404:107|449:117,1,70,8|0,0:0|0:0,0:0:0:0:
453,197,38192,2,0,B|418:204|418:204|373:194,1,70,4|0,0:0|0:0,0:0:0:0:
304,170,38647,1,8,0:0:0:0:
282,253,38874,5,0,0:0:0:0:
282,253,39101,2,0,P|239:258|202:252,1,70,4|0,0:0|0:0,0:0:0:0:
145,203,39556,1,8,0:0:0:0:
145,203,39783,2,0,P|130:244|133:275,1,70,0|4,0:0|0:0,0:0:0:0:
204,312,40238,1,0,0:0:0:0:
204,312,40465,2,0,P|179:336|147:348,1,70,8|0,0:0|0:0,0:0:0:0:
63,336,40920,5,4,0:0:0:0:
31,258,41147,1,2,0:0:0:0:
47,175,41374,2,0,L|123:160,1,70,10|2,0:0|0:0,0:0:0:0:
195,187,41829,2,0,P|195:136|182:112,1,70,6|2,0:0|0:0,0:0:0:0:
241,55,42283,2,0,P|273:59|315:55,1,70,10|2,0:0|0:0,0:0:0:0:
384,96,42738,5,4,0:0:0:0:
395,183,42965,1,0,0:0:0:0:
395,183,43192,1,8,0:0:0:0:
316,212,43420,2,0,L|319:139,1,70,0|4,0:0|0:0,0:0:0:0:
241,173,43874,2,0,L|244:246,1,70,0|8,0:0|0:0,0:0:0:0:
442,325,44556,6,0,L|360:328,1,70,6|0,0:0|0:0,0:0:0:0:
290,347,45010,2,0,L|208:344,1,70,2|0,0:0|0:0,0:0:0:0:
167,278,45465,1,2,0:0:0:0:
84,270,45692,2,0,P|64:203|102:138,1,140,2|2,0:0|0:0,0:0:0:0:
178,150,46374,6,0,P|217:155|261:148,1,70,2|0,0:0|0:0,0:0:0:0:
328,130,46829,2,0,P|362:126|397:131,1,70,2|0,0:0|0:0,0:0:0:0:
445,200,47283,2,0,P|451:242|445:276,1,70,2|0,0:0|0:0,0:0:0:0:
372,309,47738,2,0,P|366:267|372:233,1,70,2|0,0:0|0:0,0:0:0:0:
362,156,48192,6,0,B|371:116|363:83,1,70,2|0,0:0|0:0,0:0:0:0:
279,87,48647,2,0,B|270:127|278:160,1,70,2|0,0:0|0:0,0:0:0:0:
275,239,49101,1,2,0:0:0:0:
201,280,49329,2,0,P|147:280|101:207,1,140,2|2,0:0|0:0,0:0:0:0:
168,165,50010,6,0,L|251:171,1,70,2|0,0:0|0:0,0:0:0:0:
215,88,50465,2,0,L|132:94,1,70,0|0,0:0|0:0,0:0:0:0:
82,149,50920,1,2,0:0:0:0:
82,149,51147,1,0,0:0:0:0:
120,223,51374,2,0,P|126:263|112:309,1,70,2|0,0:0|0:0,0:0:0:0:
40,318,51829,6,0,L|39:242,1,70,4|0,0:0|0:0,0:0:0:0:
120,223,52283,2,0,L|119:147,1,70,8|0,0:0|0:0,0:0:0:0:
192,111,52738,1,4,0:0:0:0:
257,61,52965,2,0,P|198:28|134:50,1,140,0|0,0:0|0:0,0:0:0:0:
83,117,53647,5,4,0:0:0:0:
83,117,53874,1,0,0:0:0:0:
166,126,54101,2,0,P|212:129|260:114,1,70,8|0,0:0|0:0,0:0:0:0:
317,108,54556,1,4,0:0:0:0:
388,151,54783,2,0,P|392:196|381:223,1,70,0|8,0:0|0:0,0:0:0:0:
328,281,55238,1,0,0:0:0:0:
251,246,55465,5,4,0:0:0:0:
201,178,55692,1,4,0:0:0:0:
251,110,55920,1,12,0:0:0:0:
201,42,56147,1,4,0:0:0:0:
117,40,56374,2,0,L|84:56,3,35,4|4|4|4,0:0|0:0|0:0|0:0,0:0:0:0:
55,85,56829,2,0,L|52:143,3,35,12|4|4|4,0:0|0:0|0:0|0:0,0:0:0:0:
63,160,57283,1,4,0:0:0:0:
393,101,58192,6,0,L|400:59,2,35,8|8|8,0:0|0:0|0:0,0:0:0:0:
313,127,58647,1,8,0:1:0:0:
204,255,59101,5,4,0:0:0:0:
274,209,59329,2,0,P|310:203|360:211,1,70,2|8,0:0|0:0,0:0:0:0:
373,284,59783,2,0,P|337:278|287:286,1,70,2|4,0:0|0:0,0:0:0:0:
274,359,60238,2,0,P|310:353|360:361,1,70,2|8,0:0|0:0,0:0:0:0:
426,362,60692,2,0,P|462:302|451:231,1,140,2|2,0:0|0:0,0:0:0:0:
402,167,61374,5,8,0:0:0:0:
402,167,61601,1,2,0:0:0:0:
326,207,61829,2,0,L|240:207,1,70,4|2,0:0|0:0,0:0:0:0:
224,284,62283,2,0,L|310:284,1,70,8|2,0:0|0:0,0:0:0:0:
377,269,62738,5,4,0:0:0:0:
456,240,62965,2,0,P|460:281|446:317,1,70,2|8,0:0|0:0,0:0:0:0:
378,350,63420,2,0,L|226:358,1,140,2|2,0:0|0:0,0:0:0:0:
158,329,64101,2,0,P|147:295|149:260,1,70,8|2,0:0|0:0,0:0:0:0:
199,193,64556,5,4,0:0:0:0:
259,134,64783,2,0,P|265:96|256:53,1,70,2|8,0:0|0:0,0:0:0:0:
179,40,65238,1,2,0:0:0:0:
115,94,65465,2,0,P|146:118|178:126,1,70,4|2,0:0|0:0,0:0:0:0:
259,134,65920,2,0,P|292:143|319:165,1,70,8|2,0:0|0:0,0:0:0:0:
371,229,66374,5,4,0:0:0:0:
289,249,66601,2,0,L|285:327,1,70,2|8,0:0|0:0,0:0:0:0:
211,278,67056,2,0,L|207:200,1,70,2|4,0:0|0:0,0:0:0:0:
133,248,67510,2,0,L|129:326,1,70,2|8,0:0|0:0,0:0:0:0:
206,351,67965,6,0,P|277:342|365:349,1,140,2|2,0:0|0:0,0:0:0:0:
428,354,68647,1,8,0:0:0:0:
428,354,68874,1,2,0:0:0:0:
423,270,69101,2,0,P|391:264|349:263,1,70,4|2,0:0|0:0,0:0:0:0:
272,285,69556,2,0,P|237:291|202:292,1,70,8|2,0:0|0:0,0:0:0:0:
130,249,70010,5,4,0:0:0:0:
86,176,70238,2,0,P|123:164|162:171,1,70,2|8,0:0|0:0,0:0:0:0:
236,177,70692,2,0,P|268:144|248:52,1,140,2|2,0:0|0:0,0:0:0:0:
171,72,71374,2,0,P|135:80|91:68,1,70,8|2,0:0|0:0,0:0:0:0:
21,51,71829,5,12,0:0:0:0:
21,51,72056,1,2,0:0:0:0:
21,51,72283,2,0,L|17:124,1,70,8|2,0:0|0:0,0:0:0:0:
95,150,72738,2,0,L|91:77,1,70,12|2,0:0|0:0,0:0:0:0:
167,115,73192,2,0,L|163:188,1,70,8|8,0:0|0:0,0:0:0:0:
198,261,73647,5,4,0:0:0:0:
275,228,73874,2,0,P|313:223|351:229,1,70,2|8,0:0|0:0,0:0:0:0:
381,151,74329,2,0,P|343:146|305:152,1,70,2|4,0:0|0:0,0:0:0:0:
275,74,74783,2,0,P|313:69|351:75,1,70,2|8,0:0|0:0,0:0:0:0:
426,90,75238,6,0,L|422:239,1,140,2|2,0:0|0:0,0:0:0:0:
387,306,75920,1,8,0:0:0:0:
387,306,76147,1,2,0:0:0:0:
307,278,76374,2,0,L|306:204,1,70,4|2,0:0|0:0,0:0:0:0:
236,161,76829,2,0,L|235:235,1,70,8|2,0:0|0:0,0:0:0:0:
172,285,77283,5,4,0:0:0:0:
133,210,77510,2,0,P|124:166|128:126,1,70,2|8,0:0|0:0,0:0:0:0:
157,63,77965,2,0,L|312:74,1,140,2|2,0:0|0:0,0:0:0:0:
378,94,78647,2,0,P|388:133|376:182,1,70,8|2,0:0|0:0,0:0:0:0:
354,240,79101,5,4,0:0:0:0:
298,176,79329,2,0,L|217:175,1,70,2|8,0:0|0:0,0:0:0:0:
163,228,79783,2,0,P|144:181|190:102,1,140,2|2,0:0|0:0,0:0:0:0:
267,97,80465,2,0,P|307:100|345:92,1,70,8|2,0:0|0:0,0:0:0:0:
408,52,80920,5,4,0:0:0:0:
464,114,81147,2,0,L|466:196,1,70,2|8,0:0|0:0,0:0:0:0:
382,170,81601,2,0,L|380:252,1,70,2|4,0:0|0:0,0:0:0:0:
296,237,82056,2,0,L|298:319,1,70,2|8,0:0|0:0,0:0:0:0:
222,344,82510,6,0,P|163:335|128:259,1,140,2|2,0:0|0:0,0:0:0:0:
150,187,83192,1,8,0:0:0:0:
150,187,83420,1,2,0:0:0:0:
226,152,83647,2,0,P|269:151|303:136,1,70,4|2,0:0|0:0,0:0:0:0:
317,60,84101,2,0,P|274:61|240:76,1,70,8|2,0:0|0:0,0:0:0:0:
166,88,84556,5,4,0:0:0:0:
87,57,84783,2,0,P|83:108|97:132,1,70,2|8,0:0|0:0,0:0:0:0:
162,168,85238,2,0,P|172:200|165:234,1,70,2|4,0:0|0:0,0:0:0:0:
91,276,85692,2,0,P|80:308|87:342,1,70,2|8,0:0|0:0,0:0:0:0:
166,314,86147,1,2,0:0:0:0:
242,278,86374,6,0,L|324:280,1,70,12|2,0:0|0:0,0:0:0:0:
347,203,86829,2,0,L|265:205,1,70,8|2,0:0|0:0,0:0:0:0:
235,131,87283,2,0,L|317:133,1,70,12|2,0:0|0:0,0:0:0:0:
347,59,87738,2,0,L|265:61,1,70,8|8,0:0|0:0,0:0:0:0:
193,62,88192,6,0,B|165:83|165:83|154:118,1,70,6|0,0:0|0:0,0:0:0:0:
153,200,88647,1,8,0:0:0:0:
101,266,88874,2,0,L|27:270,2,70,0|2|4,0:0|0:0|0:0,0:0:0:0:
179,296,89556,2,0,P|218:300|270:283,1,70,0|0,0:0|0:0,0:0:0:0:
293,223,90010,6,0,L|294:134,1,70,6|0,0:0|0:0,0:0:0:0:
344,85,90465,1,8,0:0:0:0:
426,100,90692,2,0,P|450:120|472:167,1,70,0|2,0:0|0:0,0:0:0:0:
388,179,91147,5,6,0:0:0:0:
312,142,91374,2,0,L|218:139,1,70,10|2,0:0|0:0,0:0:0:0:
180,196,91829,2,0,P|160:146|200:69,1,140,4|8,0:0|0:0,0:0:0:0:
273,41,92510,1,0,0:0:0:0:
349,76,92738,2,0,L|443:79,1,70,2|4,0:0|0:0,0:0:0:0:
450,156,93192,2,0,L|356:159,1,70,8|0,0:0|0:0,0:0:0:0:
314,211,93647,5,6,0:0:0:0:
363,278,93874,1,2,0:0:0:0:
301,335,94101,2,0,L|220:336,1,70,10|2,0:0|0:0,0:0:0:0:
150,309,94556,2,0,P|140:259|147:231,1,70,2|6,0:0|0:0,0:0:0:0:
218,204,95010,2,0,L|70:205,1,140,10|6,0:0|0:0,0:0:0:0:
33,276,95692,5,0,0:0:0:0:
87,340,95920,2,0,L|154:306,1,70,8|0,0:0|0:0,0:0:0:0:
232,300,96374,1,2,0:0:0:0:
305,339,96601,1,4,0:0:0:0:
365,280,96829,2,0,P|372:243|370:206,1,70,8|0,0:0|0:0,0:0:0:0:
307,155,97283,5,6,0:0:0:0:
337,77,97510,1,0,0:0:0:0:
421,77,97738,2,0,B|446:104|446:104|451:141,1,70,8|0,0:0|0:0,0:0:0:0:
454,220,98192,1,2,0:0:0:0:
370,210,98420,5,4,0:0:0:0:
298,253,98647,2,0,P|251:263|216:253,1,70,8|0,0:0|0:0,0:0:0:0:
190,184,99101,2,0,B|146:185|146:185|91:207|91:207|45:207,1,140,4|8,0:0|0:0,0:0:0:0:
35,124,99783,1,0,0:0:0:0:
105,78,100010,2,0,L|182:81,1,70,2|4,0:0|0:0,0:0:0:0:
208,158,100465,2,0,L|131:161,1,70,8|0,0:0|0:0,0:0:0:0:
76,218,100920,5,6,0:0:0:0:
123,286,101147,1,2,0:0:0:0:
199,251,101374,2,0,P|239:249|274:259,1,70,10|2,0:0|0:0,0:0:0:0:
322,320,101829,2,0,P|355:327|390:325,1,70,2|6,0:0|0:0,0:0:0:0:
455,271,102283,2,0,B|477:197|441:197|455:128,1,140,10|2,0:0|0:0,0:0:0:0:
