osu file format v14

[General]
AudioFilename: audio.mp3
AudioLeadIn: 0
PreviewTime: 30670
Countdown: 1
SampleSet: None
StackLeniency: 0.3
Mode: 0
LetterboxInBreaks: 0
WidescreenStoryboard: 1

[Editor]
DistanceSpacing: 1.3
BeatDivisor: 4
GridSize: 4
TimelineZoom: 1

[Metadata]
Title:Shocking Blue - TV Size
TitleUnicode:Shocking Blue - TV Size
Artist:Miku Itou
ArtistUnicode:Miku Itou
Creator:Turquoise2
Version:Imp-sane
Source:
Tags:
BeatmapID:1343338
BeatmapSetID:632894

[Difficulty]
HPDrainRate:5.5
CircleSize:4
OverallDifficulty:8.7
ApproachRate:9
SliderMultiplier:1.5
SliderTickRate:1

[Events]
//Background and Video events
0,0,"shocking blue.jpg",0,0
//Break Periods
//Storyboard Layer 0 (Background)
//Storyboard Layer 1 (Fail)
//Storyboard Layer 2 (Pass)
//Storyboard Layer 3 (Foreground)
//Storyboard Sound Samples

[TimingPoints]
1070,400,4,3,0,60,1,0
1070,-133.333333333333,4,3,0,60,0,0
2470,-100,4,3,0,60,0,0
2670,400,4,3,0,60,1,0
3310,400,4,2,0,60,1,0
4170,400,4,2,0,60,1,0
5870,400,4,2,0,60,1,0
7470,-133.333333333333,4,2,0,60,0,0
9070,-90.9090909090909,4,1,0,80,0,0
9470,-133.333333333333,4,1,0,80,0,0
16670,-111.111111111111,4,1,0,80,0,0
17370,-105.263157894737,4,1,0,80,0,0
17670,-100,4,1,0,80,0,0
18070,-200,4,1,0,80,0,0
31470,-100,4,1,0,80,0,0
60270,-100,4,2,0,80,0,1
71270,-100,4,2,0,80,0,0
73470,-100,4,2,0,80,0,1
85670,-100,4,2,0,80,0,0

[HitObjects]
200,76,1070,6,0,P|176:124|176:140,1,56.2500021457673,0|0,3:0|3:0,3:0:0:0:
256,192,1370,1,0,3:0:0:0:
256,192,1470,2,0,L|244:240,1,28.1250010728836,0|0,3:0|3:0,3:0:0:0:
160,200,1670,1,0,3:0:0:0:
160,200,1770,1,0,3:0:0:0:
160,200,1870,2,0,L|148:248,1,28.1250010728836,0|0,3:0|3:0,3:0:0:0:
328,256,2070,2,0,L|340:208,1,28.1250010728836,0|0,3:0|3:0,3:0:0:0:
244,128,2270,1,0,2:0:0:0:
244,128,2370,1,0,2:0:0:0:
244,128,2470,2,0,L|232:180,1,37.5,0|0,2:0|2:0,2:0:0:0:
208,316,2670,6,0,P|276:316|288:300,1,75,4|0,2:0|2:0,2:0:0:0:
280,64,2970,2,0,P|220:60|168:116,1,112.5,0|0,2:0|2:0,2:0:0:0:
356,96,3410,1,0,2:0:0:0:
356,96,3510,2,0,P|401:135|400:176,1,75,4|0,2:0|2:0,2:0:0:0:
403,147,3810,1,0,2:0:0:0:
256,192,3910,12,0,5470,2:0:0:0:
166,140,5670,5,0,2:0:0:0:
166,140,5770,1,0,2:0:0:0:
166,140,5870,6,0,P|222:164|258:156,1,75,4|0,2:0|2:0,2:0:0:0:
372,64,6270,1,0,2:0:0:0:
236,68,6470,1,0,2:0:0:0:
236,68,6570,1,0,2:0:0:0:
236,68,6670,1,0,2:0:0:0:
304,180,6870,1,0,2:0:0:0:
173,182,7070,1,0,2:0:0:0:
173,182,7170,1,0,2:0:0:0:
173,182,7270,1,0,2:0:0:0:
328,244,7470,6,0,P|360:224|372:200,1,56.2500021457673,4|0,2:0|2:0,2:0:0:0:
372,64,7870,1,0,2:0:0:0:
160,64,8070,1,0,2:0:0:0:
336,256,8270,1,0,2:0:0:0:
152,52,8470,1,0,2:0:0:0:
384,64,8670,1,0,2:0:0:0:
144,40,8870,1,0,2:0:0:0:
53,315,9070,6,0,P|104:340|172:312,1,123.75000377655,4|0,2:0|2:0,2:0:0:0:
108,260,9470,1,0,2:0:0:0:
108,260,9570,1,0,2:0:0:0:
108,260,9670,1,0,2:0:0:0:
108,260,9770,2,0,L|88:212,1,28.1250010728836,0|0,2:0|2:0,2:0:0:0:
179,203,9970,1,0,2:0:0:0:
183,207,10070,2,0,L|163:159,1,28.1250010728836,0|0,2:0|2:0,2:0:0:0:
256,156,10270,2,0,L|236:108,1,28.1250010728836,0|0,2:0|2:0,2:0:0:0:
80,72,10470,2,0,L|100:120,1,28.1250010728836,0|0,2:0|2:0,2:0:0:0:
24,232,10670,1,4,2:0:0:0:
336,256,10870,5,8,2:0:0:0:
373,258,10970,1,2,2:0:0:0:
410,261,11070,1,8,2:0:0:0:
448,264,11170,1,2,2:0:0:0:
485,267,11270,2,0,L|479:219,1,28.1250010728836,8|0,2:0|2:0,2:0:0:0:
353,233,11470,2,0,L|323:270,1,28.1250010728836,0|0,2:0|2:0,2:0:0:0:
400,364,11670,2,0,L|447:358,1,28.1250010728836,0|0,2:0|2:0,2:0:0:0:
472,152,11870,1,0,2:0:0:0:
444,156,11970,1,0,2:0:0:0:
416,160,12070,1,0,2:0:0:0:
456,32,12270,6,0,L|428:108,1,56.2500021457673,4|0,2:0|2:0,2:0:0:0:
279,207,12670,2,0,L|245:133,1,56.2500021457673,0|0,2:0|2:0,2:0:0:0:
485,267,13070,2,0,L|457:343,1,56.2500021457673,0|0,2:0|2:0,2:0:0:0:
196,320,13470,1,0,2:0:0:0:
180,319,13570,1,0,2:0:0:0:
164,319,13670,2,0,L|140:271,1,28.1250010728836,0|0,2:0|2:0,2:0:0:0:
92,164,13870,6,0,P|124:140|152:140,1,56.2500021457673,4|0,2:0|2:0,2:0:0:0:
198,268,14270,2,0,P|166:292|138:292,1,56.2500021457673,0|0,2:0|2:0,2:0:0:0:
24,176,14670,2,0,P|29:136|49:116,1,56.2500021457673,0|0,2:0|2:0,2:0:0:0:
376,124,15070,2,0,P|370:163|350:183,1,56.2500021457673,0|0,2:0|2:0,2:0:0:0:
304,176,15370,1,0,2:0:0:0:
303,176,15470,6,0,L|335:224,1,56.2500021457673,4|0,2:0|2:0,2:0:0:0:
436,84,15870,2,0,L|428:116,1,28.1250010728836,0|0,2:0|2:0,2:0:0:0:
304,72,16070,2,0,L|312:104,1,28.1250010728836,0|0,2:0|2:0,2:0:0:0:
456,64,16270,2,0,L|448:96,1,28.1250010728836,0|0,2:0|2:0,2:0:0:0:
272,48,16470,2,0,L|280:80,1,28.1250010728836,0|0,2:0|2:0,2:0:0:0:
303,176,16670,1,0,2:0:0:0:
311,208,16770,1,0,2:0:0:0:
319,241,16870,1,0,2:0:0:0:
327,274,16970,1,0,2:0:0:0:
335,306,17070,6,0,L|287:323,1,33.7499989700318,4|0,2:0|2:0,2:0:0:0:
84,324,17370,6,0,L|124:340,1,35.6249990487099,8|8,2:0|2:0,2:0:0:0:
427,353,17670,6,0,L|363:329,1,37.5,2|2,2:0|2:0,2:0:0:0:
392,340,18070,6,0,P|380:292|428:280,1,93.75,0|0,2:0|2:0,2:0:0:0:
412,275,18670,6,0,P|392:247|392:203,1,75,4|0,2:0|2:0,2:0:0:0:
460,224,19270,1,0,2:0:0:0:
322,95,19470,1,0,2:0:0:0:
116,160,19670,2,0,P|98:175|90:191,1,37.5,0|0,2:0|2:0,2:0:0:0:
198,268,20070,1,0,2:0:0:0:
57,361,20270,6,0,P|77:333|80:304,1,56.25,2|0,2:0|2:0,2:0:0:0:
80,311,20670,1,0,2:0:0:0:
120,88,20870,1,0,2:0:0:0:
120,88,21270,2,0,P|86:93|54:124,1,75,0|0,2:0|2:0,2:0:0:0:
100,68,21870,6,0,P|68:72|44:92,1,56.25,4|0,2:0|2:0,2:0:0:0:
56,208,22470,1,0,2:0:0:0:
72,32,22670,2,0,P|40:36|16:56,1,56.25,0|0,2:0|2:0,2:0:0:0:
64,208,23270,1,0,2:0:0:0:
179,90,23470,2,0,P|204:70|235:67,1,56.25,2|0,2:0|2:0,2:0:0:0:
252,92,23870,6,0,L|232:160,1,56.25,0|0,2:0|2:0,2:0:0:0:
212,216,24270,2,0,L|192:284,1,56.25,0|0,2:0|2:0,2:0:0:0:
272,274,24670,2,0,L|287:220,1,56.25,0|0,2:0|2:0,2:0:0:0:
288,221,25070,1,4,2:0:0:0:
288,221,25670,5,0,2:0:0:0:
232,315,25870,1,0,2:0:0:0:
342,316,26070,1,0,2:0:0:0:
230,156,26270,1,0,2:0:0:0:
148,333,26470,1,0,2:0:0:0:
340,196,26670,2,0,P|356:172|356:128,2,56.25,2|0|0,2:0|2:0|2:0,2:0:0:0:
165,317,27470,1,0,2:0:0:0:
156,325,27570,1,0,2:0:0:0:
147,333,27670,2,0,L|111:333,1,18.75,0|0,2:0|2:0,2:0:0:0:
52,276,27870,2,0,L|16:276,1,18.75,0|0,2:0|2:0,2:0:0:0:
84,176,28070,1,0,2:0:0:0:
292,148,28270,5,4,2:0:0:0:
452,336,28570,5,0,2:0:0:0:
165,317,28870,1,0,2:0:0:0:
156,325,28970,1,0,2:0:0:0:
148,332,29070,1,4,2:0:0:0:
62,101,29370,5,0,2:0:0:0:
309,133,29670,1,0,2:0:0:0:
300,141,29770,1,0,2:0:0:0:
292,148,29870,2,0,L|268:168,1,18.75,4|0,2:0|2:0,2:0:0:0:
32,340,30170,1,0,2:0:0:0:
316,128,30470,1,4,2:0:0:0:
342,316,30670,5,4,2:0:0:0:
220,212,30870,1,0,2:0:0:0:
371,158,31070,1,8,2:0:0:0:
371,158,31170,1,2,2:0:0:0:
371,158,31270,1,8,2:0:0:0:
371,158,31370,1,2,2:0:0:0:
371,158,31470,6,0,P|396:200|384:248,1,75,4|0,2:0|2:0,2:0:0:0:
300,88,31870,1,8,2:0:0:0:
174,187,32070,1,0,2:0:0:0:
174,187,32170,1,0,2:0:0:0:
174,187,32270,1,2,2:0:0:0:
288,100,32470,1,0,2:0:0:0:
342,316,32670,1,0,2:0:0:0:
127,254,32870,5,0,2:0:0:0:
127,254,32970,1,0,2:0:0:0:
127,254,33070,1,2,2:0:0:0:
364,56,33270,1,0,2:0:0:0:
288,355,33470,2,0,L|236:356,1,37.5,0|0,2:0|2:0,2:0:0:0:
140,352,33670,2,0,L|192:353,1,37.5,0|0,2:0|2:0,2:0:0:0:
416,312,33870,6,0,P|360:300|352:232,1,112.5,8|0,2:0|2:0,2:0:0:0:
380,208,34270,2,0,P|436:220|444:288,1,112.5,2|0,2:0|2:0,2:0:0:0:
451,267,34670,1,4,2:0:0:0:
112,144,34870,1,0,2:0:0:0:
112,144,34970,1,0,2:0:0:0:
112,144,35070,6,0,L|147:91,1,37.5,8|0,2:0|2:0,2:0:0:0:
252,41,35270,1,0,2:0:0:0:
252,41,35370,1,0,2:0:0:0:
252,41,35470,1,2,2:0:0:0:
253,221,35670,1,0,2:0:0:0:
409,131,35870,1,0,2:0:0:0:
96,131,36070,5,0,2:0:0:0:
96,131,36170,1,0,2:0:0:0:
96,131,36270,1,2,2:0:0:0:
342,307,36470,1,0,2:0:0:0:
372,6,36670,1,0,2:0:0:0:
170,231,36870,1,0,2:0:0:0:
170,231,36970,1,0,2:0:0:0:
170,231,37070,6,0,L|220:216,1,37.5,8|0,2:0|2:0,2:0:0:0:
304,24,37270,2,0,L|254:39,1,37.5,2|0,2:0|2:0,2:0:0:0:
120,168,37470,2,0,L|168:152,1,37.5,8|0,2:0|2:0,2:0:0:0:
352,84,37670,2,0,L|304:100,1,37.5,2|0,2:0|2:0,2:0:0:0:
68,104,37870,6,0,L|112:88,1,37.5,4|0,2:0|2:0,2:0:0:0:
304,24,38070,1,0,2:0:0:0:
304,24,38270,6,0,L|304:80,1,37.5,2|0,2:0|2:0,2:0:0:0:
300,304,38470,1,0,2:0:0:0:
300,304,38670,6,0,L|260:280,1,37.5,4|0,2:0|2:0,2:0:0:0:
55,156,38870,2,0,L|95:132,1,37.5,8|0,2:0|2:0,2:0:0:0:
342,307,39070,1,2,2:0:0:0:
170,231,39270,5,0,2:0:0:0:
364,344,39470,1,2,2:0:0:0:
103,91,39670,1,0,2:0:0:0:
384,344,39870,1,2,2:0:0:0:
228,68,40070,1,0,2:0:0:0:
404,344,40270,1,2,2:0:0:0:
412,344,40370,1,0,2:0:0:0:
420,344,40470,1,0,2:0:0:0:
357,49,40670,1,2,2:0:0:0:
134,252,40870,1,0,2:0:0:0:
433,218,41070,6,0,P|440:168|396:120,1,112.5,4|0,2:0|2:0,2:0:0:0:
372,184,41470,1,0,2:0:0:0:
84,324,41670,2,0,P|156:336|88:180,1,337.5,8|0,2:0|2:0,2:0:0:0:
134,252,42670,2,0,L|144:296,1,37.5,8|0,2:0|2:0,2:0:0:0:
220,184,42870,2,0,L|210:228,1,37.5,0|0,2:0|2:0,2:0:0:0:
108,132,43070,2,0,L|118:176,1,37.5,8|0,2:0|2:0,2:0:0:0:
256,52,43270,2,0,L|246:96,1,37.5,0|0,2:0|2:0,2:0:0:0:
220,184,43470,5,4,2:0:0:0:
220,192,43570,1,0,2:0:0:0:
220,200,43670,1,0,2:0:0:0:
220,208,43770,1,0,2:0:0:0:
220,216,43870,2,0,L|216:260,1,37.5,2|0,2:0|2:0,2:0:0:0:
104,169,44070,2,0,L|107:131,1,37.5,2|0,2:0|2:0,2:0:0:0:
402,122,44270,5,4,2:0:0:0:
268,188,44570,5,0,2:0:0:0:
134,252,44870,1,0,2:0:0:0:
108,109,45070,5,8,2:0:0:0:
268,188,45370,5,0,2:0:0:0:
429,265,45670,1,0,2:0:0:0:
416,88,45870,5,4,2:0:0:0:
134,252,46070,1,0,2:0:0:0:
429,265,46270,1,0,2:0:0:0:
269,187,46470,1,0,2:0:0:0:
257,336,46670,1,8,2:0:0:0:
265,336,46770,1,0,2:0:0:0:
273,336,46870,1,0,2:0:0:0:
256,10,47070,1,0,2:0:0:0:
146,103,47270,1,0,2:0:0:0:
480,340,47470,5,4,2:0:0:0:
256,192,47770,5,0,2:0:0:0:
32,44,48070,1,0,2:0:0:0:
9,354,48270,5,8,2:0:0:0:
256,192,48570,5,0,2:0:0:0:
502,29,48870,1,0,2:0:0:0:
464,328,49070,5,4,2:0:0:0:
44,56,49270,1,0,2:0:0:0:
415,87,49470,1,0,2:0:0:0:
415,87,49570,1,0,2:0:0:0:
415,87,49670,1,0,2:0:0:0:
96,279,49870,1,2,2:0:0:0:
96,279,49970,1,0,2:0:0:0:
96,279,50070,1,0,2:0:0:0:
44,56,50270,5,8,2:0:0:0:
81,56,50370,1,2,2:0:0:0:
119,56,50470,1,8,2:0:0:0:
156,56,50570,1,2,2:0:0:0:
194,56,50670,2,0,L|300:56,1,75,8|0,2:0|2:0,2:0:0:0:
307,56,50970,1,0,2:0:0:0:
184,64,51270,1,8,2:0:0:0:
192,64,51370,1,2,2:0:0:0:
198,64,51470,2,0,L|304:64,1,75,8|0,2:0|2:0,2:0:0:0:
311,64,51770,1,0,2:0:0:0:
200,80,52070,5,8,2:0:0:0:
208,80,52170,1,2,2:0:0:0:
214,80,52270,2,0,L|320:80,1,75,4|0,2:0|2:0,2:0:0:0:
480,192,52670,2,0,L|374:192,1,75,0|0,2:0|2:0,2:0:0:0:
208,168,53070,1,8,2:0:0:0:
208,160,53170,1,0,2:0:0:0:
208,152,53270,1,0,2:0:0:0:
408,32,53470,1,0,2:0:0:0:
411,265,53670,1,0,2:0:0:0:
200,152,53870,5,2,2:0:0:0:
420,32,54070,1,0,2:0:0:0:
184,152,54270,1,0,2:0:0:0:
424,264,54470,1,0,2:0:0:0:
432,264,54570,1,0,2:0:0:0:
440,264,54670,2,0,L|492:264,1,37.5,8|0,2:0|2:0,2:0:0:0:
405,192,54870,2,0,L|441:155,1,37.5,8|0,2:0|2:0,2:0:0:0:
330,176,55070,2,0,L|329:124,1,37.5,8|0,2:0|2:0,2:0:0:0:
168,152,55270,1,0,2:0:0:0:
228,304,55470,1,4,2:0:0:0:
256,192,55570,12,0,56670,2:0:0:0:
156,192,57070,5,4,2:0:0:0:
360,192,57270,1,8,2:0:0:0:
368,192,57370,1,0,2:0:0:0:
376,192,57470,1,0,2:0:0:0:
88,192,57670,1,4,2:0:0:0:
88,192,58070,5,8,2:0:0:0:
96,192,58170,1,0,2:0:0:0:
104,192,58270,1,0,2:0:0:0:
444,192,58470,1,4,2:0:0:0:
444,192,58870,5,8,2:0:0:0:
452,192,58970,1,0,2:0:0:0:
460,192,59070,1,0,2:0:0:0:
20,192,59270,1,4,2:0:0:0:
460,192,59670,5,0,2:0:0:0:
452,192,59770,1,0,2:0:0:0:
444,192,59870,1,0,2:0:0:0:
436,192,59970,1,0,2:0:0:0:
428,192,60070,2,0,L|360:192,1,37.5,0|0,2:0|2:0,2:0:0:0:
20,192,60270,5,4,2:0:0:0:
272,272,60470,1,0,2:0:0:0:
115,59,60670,1,0,2:0:0:0:
10,302,60870,1,0,2:0:0:0:
16,312,60970,1,0,2:0:0:0:
24,320,61070,2,0,L|48:360,1,37.5,8|0,2:0|2:0,2:0:0:0:
252,304,61270,2,0,L|276:264,1,37.5,0|0,2:0|2:0,2:0:0:0:
116,80,61470,1,8,2:0:0:0:
43,352,61670,1,0,2:0:0:0:
316,280,61870,5,2,2:0:0:0:
389,8,62070,1,0,2:0:0:0:
336,272,62270,1,0,2:0:0:0:
401,27,62470,2,0,L|384:80,1,37.5,0|0,2:0|2:0,2:0:0:0:
344,248,62670,1,8,2:0:0:0:
340,260,62770,1,0,2:0:0:0:
336,272,62870,1,0,2:0:0:0:
116,104,63070,1,8,2:0:0:0:
393,110,63270,1,0,2:0:0:0:
249,346,63470,6,0,L|200:344,1,37.5,4|0,2:0|2:0,2:0:0:0:
256,192,63670,2,0,L|305:190,1,37.5,0|0,2:0|2:0,2:0:0:0:
256,48,63870,1,0,2:0:0:0:
157,239,64070,1,0,2:0:0:0:
263,346,64270,6,0,L|312:344,1,37.5,8|0,2:0|2:0,2:0:0:0:
256,192,64470,2,0,L|207:190,1,37.5,0|0,2:0|2:0,2:0:0:0:
256,48,64670,1,8,2:0:0:0:
480,352,64870,5,4,2:0:0:0:
211,344,65070,1,0,2:0:0:0:
480,252,65270,5,4,2:0:0:0:
211,267,65470,1,0,2:0:0:0:
468,60,65670,5,4,2:0:0:0:
288,260,65870,1,0,2:0:0:0:
288,260,65970,1,0,2:0:0:0:
288,260,66070,5,4,2:0:0:0:
204,4,66270,1,0,2:0:0:0:
422,161,66470,1,4,2:0:0:0:
177,271,66670,5,4,2:0:0:0:
361,108,66970,5,0,2:0:0:0:
200,252,67270,1,0,2:0:0:0:
368,100,67470,5,8,2:0:0:0:
377,92,67570,1,0,2:0:0:0:
386,85,67670,1,0,2:0:0:0:
394,77,67770,1,0,2:0:0:0:
402,69,67870,1,8,2:0:0:0:
228,232,68070,1,0,2:0:0:0:
126,86,68270,5,2,2:0:0:0:
288,260,68470,1,0,2:0:0:0:
76,96,68670,5,8,2:0:0:0:
303,267,68870,1,0,2:0:0:0:
24,128,69070,5,4,2:0:0:0:
349,293,69270,1,0,2:0:0:0:
204,4,69470,5,4,2:0:0:0:
90,350,69670,1,0,2:0:0:0:
447,276,69870,5,4,2:0:0:0:
101,162,70070,1,0,2:0:0:0:
308,121,70270,1,0,2:0:0:0:
308,121,70370,1,0,2:0:0:0:
308,121,70470,2,0,L|372:144,1,37.5,0|0,2:0|2:0,2:0:0:0:
228,232,70670,2,0,L|251:168,1,37.5,8|0,2:0|2:0,2:0:0:0:
376,236,70870,2,0,L|353:300,1,37.5,8|0,2:0|2:0,2:0:0:0:
284,344,71070,2,0,L|220:321,1,37.5,8|0,2:0|2:0,2:0:0:0:
363,42,71270,6,0,P|399:102|327:126,1,150,2|0,2:0|2:0,2:0:0:0:
196,32,71870,1,0,2:0:0:0:
342,133,72070,2,0,P|378:193|306:217,1,150,2|0,2:0|2:0,2:0:0:0:
240,196,72570,1,8,2:0:0:0:
240,196,72670,2,8,L|228:232,1,37.5,8|8,2:0|2:0,2:0:0:0:
101,162,72870,2,8,L|88:197,1,37.5,8|8,2:0|2:0,2:0:0:0:
296,344,73070,1,2,2:0:0:0:
340,180,73270,1,0,2:0:0:0:
12,268,73470,5,4,2:0:0:0:
324,268,73670,1,0,2:0:0:0:
332,268,73770,1,0,2:0:0:0:
340,268,73870,2,0,L|340:224,1,37.5,8|0,2:0|2:0,2:0:0:0:
460,300,74070,1,0,2:0:0:0:
184,60,74270,1,2,2:0:0:0:
225,238,74470,1,0,2:0:0:0:
359,114,74670,5,4,2:0:0:0:
24,260,74870,1,0,2:0:0:0:
432,236,75070,5,4,2:0:0:0:
30,260,75270,1,0,2:0:0:0:
341,4,75470,1,4,2:0:0:0:
340,16,75570,1,0,2:0:0:0:
340,28,75670,1,0,2:0:0:0:
332,328,75870,1,4,2:0:0:0:
240,33,76070,1,0,2:0:0:0:
232,333,76270,5,4,2:0:0:0:
444,236,76470,1,0,2:0:0:0:
254,101,76670,1,2,2:0:0:0:
204,364,76870,5,8,2:0:0:0:
479,237,77070,1,0,2:0:0:0:
232,62,77270,1,0,2:0:0:0:
176,364,77470,1,4,2:0:0:0:
236,32,77670,6,0,P|296:28|248:136,1,225,2|0,2:0|2:0,2:0:0:0:
24,104,78470,1,0,2:0:0:0:
24,104,78570,1,0,2:0:0:0:
24,104,78670,1,0,2:0:0:0:
176,364,78870,1,2,2:0:0:0:
176,364,78970,1,0,2:0:0:0:
176,364,79070,6,8,L|240:360,1,37.5,8|8,2:0|2:0,2:0:0:0:
225,238,79270,2,8,L|161:234,1,37.5,8|8,2:0|2:0,2:0:0:0:
52,344,79470,1,4,2:0:0:0:
168,248,79770,5,0,2:0:0:0:
332,328,80070,5,0,2:0:0:0:
236,32,80270,1,4,2:0:0:0:
148,264,80570,5,0,2:0:0:0:
332,328,80870,5,0,2:0:0:0:
236,32,81070,2,0,P|176:28|148:128,1,150,4|0,2:0|2:0,2:0:0:0:
404,232,81670,1,0,2:0:0:0:
204,92,81870,1,8,2:0:0:0:
204,100,81970,1,2,2:0:0:0:
204,108,82070,1,8,2:0:0:0:
204,116,82170,1,2,2:0:0:0:
204,124,82270,2,0,L|204:172,1,37.5,8|8,2:0|2:0,2:0:0:0:
332,296,82470,2,8,L|332:248,1,37.5,8|8,2:0|2:0,2:0:0:0:
332,44,82670,5,4,2:0:0:0:
204,328,82870,1,0,2:0:0:0:
204,312,82970,1,0,2:0:0:0:
204,296,83070,1,4,2:0:0:0:
404,328,83270,1,0,2:0:0:0:
404,292,83370,1,0,2:0:0:0:
404,260,83470,1,4,2:0:0:0:
200,44,83670,1,0,2:0:0:0:
332,296,83870,1,4,2:0:0:0:
485,56,84070,5,8,2:0:0:0:
420,56,84170,1,2,2:0:0:0:
360,56,84270,1,4,2:0:0:0:
32,52,84470,1,0,2:0:0:0:
40,52,84570,1,0,2:0:0:0:
48,52,84670,1,4,2:0:0:0:
340,144,84870,1,0,2:0:0:0:
332,144,84970,1,0,2:0:0:0:
324,144,85070,1,4,2:0:0:0:
28,168,85270,1,0,2:0:0:0:
204,340,85470,5,4,2:0:0:0:
485,56,85670,1,4,2:0:0:0:
256,192,85770,12,0,89070,2:0:0:0:
