osu file format v14

[General]
AudioFilename: audio.mp3
AudioLeadIn: 0
PreviewTime: 30670
Countdown: 1
SampleSet: Normal
StackLeniency: 0.3
Mode: 0
LetterboxInBreaks: 0
WidescreenStoryboard: 0

[Editor]
DistanceSpacing: 0.4
BeatDivisor: 4
GridSize: 4
TimelineZoom: 1

[Metadata]
Title:Shocking Blue - TV Size
TitleUnicode:Shocking Blue - TV Size
Artist:Miku Itou
ArtistUnicode:Miku Itou
Creator:Turquoise2
Version:Demon
Source:
Tags:
BeatmapID:1343337
BeatmapSetID:632894

[Difficulty]
HPDrainRate:5
CircleSize:4.3
OverallDifficulty:8.5
ApproachRate:9.2
SliderMultiplier:2.6
SliderTickRate:1

[Events]
//Background and Video events
0,0,"shocking blue.jpg",0,0
//Break Periods
//Storyboard Layer 0 (Background)
//Storyboard Layer 1 (Fail)
//Storyboard Layer 2 (Pass)
//Storyboard Layer 3 (Foreground)
//Storyboard Sound Samples

[TimingPoints]
1070,400,4,3,0,60,1,0
1070,-200,4,3,0,30,0,0
1170,-200,4,3,0,5,0,0
1270,-200,4,3,0,40,0,0
1370,-200,4,3,0,5,0,0
1470,-200,4,3,0,50,0,0
1770,-200,4,3,0,60,0,0
2070,-200,4,3,0,70,0,0
2470,-166.666666666667,4,3,0,80,0,0
2670,400,4,3,0,80,1,0
3310,400,4,2,0,80,1,0
4170,400,4,2,0,60,1,0
5870,400,4,2,0,60,1,0
6259,-200,4,1,0,80,0,0
6570,-133.333333333333,4,1,0,80,0,0
7870,-100,4,1,0,80,0,0
8070,-133.333333333333,4,1,0,80,0,0
8270,-100,4,1,0,80,0,0
8470,-133.333333333333,4,1,0,80,0,0
8670,-100,4,1,0,80,0,0
8870,-133.333333333333,4,1,0,80,0,0
9070,-90.9090909090909,4,1,0,80,0,0
9470,-133.333333333333,4,1,0,80,0,0
10870,-100,4,1,0,80,0,0
11670,-133.333333333333,4,1,0,80,0,0
11970,-100,4,1,0,80,0,0
12070,-100,4,1,0,30,0,0
12270,-100,4,1,0,80,0,0
16670,-111.111111111111,4,1,0,80,0,0
18070,-400,4,1,0,80,0,0
18670,-200,4,1,0,80,0,0
28270,-100,4,1,0,80,0,0
28570,-83.3333333333333,4,1,0,80,0,0
29070,-100,4,1,0,80,0,0
29370,-83.3333333333333,4,1,0,80,0,0
29870,-100,4,1,0,80,0,0
30670,-200,4,1,0,80,0,0
31070,-76.9230769230769,4,1,0,80,0,0
31470,-100,4,1,0,80,0,0
37470,-90.9090909090909,4,1,0,80,0,0
38670,-133.333333333333,4,1,0,80,0,0
39070,-100,4,1,0,80,0,0
43870,-83.3333333333333,4,1,0,80,0,0
49470,-166.666666666667,4,1,0,80,0,0
49670,-83.3333333333333,4,1,0,80,0,0
49870,-166.666666666667,4,1,0,80,0,0
50070,-83.3333333333333,4,1,0,80,0,0
50670,-200,4,1,0,80,0,0
50970,-83.3333333333333,4,1,0,80,0,0
51270,-200,4,1,0,80,0,0
51770,-76.9230769230769,4,1,0,80,0,0
54470,-200,4,1,0,80,0,0
54670,-100,4,1,0,80,0,0
57670,-133.333333333333,4,1,0,80,0,0
58470,-100,4,1,0,80,0,0
59270,-80,4,1,0,80,0,0
60270,-100,4,1,0,80,0,1
66070,-100,4,1,0,80,0,0
68270,-83.3333333333333,4,1,0,80,0,0
71270,-71.4285714285714,4,1,0,80,0,0
72470,-100,4,1,0,80,0,0
72770,-90.9090909090909,4,1,0,80,0,0
73070,-71.4285714285714,4,1,0,80,0,0
73470,-66.6666666666667,4,1,0,80,0,1
73870,-71.4285714285714,4,1,0,80,0,1
75470,-100,4,1,0,80,0,1
78870,-71.4285714285714,4,1,0,80,0,1
79470,-200,4,1,0,80,0,0
79770,-71.4285714285714,4,1,0,80,0,0
80270,-200,4,1,0,80,0,0
80570,-66.6666666666667,4,1,0,80,0,0
82670,-66.6666666666667,4,1,0,80,0,1
85670,-66.6666666666667,4,1,0,80,0,0

[HitObjects]
174,96,1070,6,0,L|224:116,1,32.5
321,157,1270,2,0,L|271:177,1,32.5
194,253,1470,1,0,0:0:0:0:
228,256,1570,1,0,0:0:0:0:
260,268,1670,1,0,0:0:0:0:
280,296,1770,6,0,P|276:328|280:348,1,32.5
186,321,1970,1,0,0:0:0:0:
187,285,2070,2,0,P|192:260|200:244,1,32.5,8|0,0:0|0:0,0:0:0:0:
271,120,2270,1,0,2:0:0:0:
300,132,2370,1,0,2:0:0:0:
321,157,2470,2,0,P|332:181|336:216,1,38.9999988098145,0|0,2:0|3:0,2:0:0:0:
123,314,2670,6,0,P|105:232|119:170,1,130,8|0,0:0|0:0,0:0:0:0:
174,96,2970,2,0,B|226:202|140:184|192:298,1,195
298,305,3410,1,0,0:0:0:0:
298,305,3510,2,0,P|340:253|334:192,1,130,8|0,0:0|0:0,0:0:0:0:
118,154,3810,1,0,0:0:0:0:
256,192,3910,12,0,5503,0:0:0:0:
308,141,5670,5,0,0:0:0:0:
256,79,5770,1,0,0:0:0:0:
336,64,5870,2,0,P|384:111|336:217,1,195,4|0,0:0|0:0,0:0:0:0:
308,141,6270,1,0,2:0:0:0:
277,131,6370,1,0,2:0:0:0:
245,135,6470,1,0,2:0:0:0:
217,151,6570,2,0,P|184:212|192:248,1,97.50000371933,0|0,2:0|2:0,2:0:0:0:
256,212,6870,1,0,2:0:0:0:
256,212,7070,5,0,2:0:0:0:
287,175,7170,1,0,2:0:0:0:
330,153,7270,2,0,P|351:141|375:136,1,48.750001859665,0|0,2:0|2:0,2:0:0:0:
320,236,7470,2,0,P|300:264|264:284,1,48.750001859665,0|0,2:0|2:0,2:0:0:0:
168,216,7670,1,0,2:0:0:0:
164,212,7770,1,0,2:0:0:0:
160,208,7870,6,0,P|148:148|156:120,1,65,4|0,2:0|2:0,2:0:0:0:
380,140,8070,2,0,L|368:196,1,48.750001859665,0|0,2:0|2:0,2:0:0:0:
112,198,8270,2,0,P|145:147|171:132,1,65,4|0,2:0|2:0,2:0:0:0:
416,164,8470,2,0,L|385:212,1,48.750001859665,0|0,2:0|2:0,2:0:0:0:
85,156,8670,2,0,P|145:144|173:151,1,65,4|0,2:0|2:0,2:0:0:0:
448,192,8870,2,0,L|402:227,1,48.750001859665,0|0,2:0|2:0,2:0:0:0:
85,156,9070,6,0,P|33:84|113:124,1,214.500006546021,4|0,2:0|2:0,2:0:0:0:
187,237,9470,1,0,2:0:0:0:
221,270,9570,1,0,2:0:0:0:
268,268,9670,1,0,2:0:0:0:
244,200,9770,2,0,P|260:140|312:112,1,97.50000371933,0|0,2:0|2:0,2:0:0:0:
312,184,10070,1,0,2:0:0:0:
312,196,10170,1,0,2:0:0:0:
312,208,10270,2,0,P|320:240|344:276,1,48.750001859665,0|0,2:0|2:0,2:0:0:0:
432,116,10470,2,0,P|424:84|400:48,1,48.750001859665,0|0,2:0|2:0,2:0:0:0:
286,119,10670,1,0,2:0:0:0:
286,119,10870,5,2,2:0:0:0:
229,150,10970,1,8,2:0:0:0:
172,181,11070,1,2,2:0:0:0:
115,212,11170,1,8,2:0:0:0:
58,244,11270,2,0,P|28:288|24:308,1,65,2|0,2:0|2:0,2:0:0:0:
116,284,11470,1,4,2:0:0:0:
116,284,11670,2,0,L|176:264,1,48.750001859665,0|0,2:0|2:0,2:0:0:0:
436,176,11870,1,0,2:0:0:0:
406,277,11970,2,8,L|366:201,1,65,2|8,2:0|2:0,2:0:0:0:
375,219,12270,6,0,P|379:131|508:168,1,260,4|0,2:0|2:0,2:0:0:0:
276,320,12870,1,0,2:0:0:0:
172,181,13070,1,0,2:0:0:0:
352,340,13270,1,0,2:0:0:0:
436,177,13470,1,0,2:0:0:0:
436,177,13570,1,0,2:0:0:0:
436,177,13670,1,0,2:0:0:0:
204,112,13870,6,0,P|116:124|112:232,1,195,4|0,2:0|2:0,2:0:0:0:
172,181,14270,2,0,P|158:271|68:285,1,195,0|0,2:0|2:0,2:0:0:0:
104,216,14670,2,0,P|107:140|151:107,1,130,0|0,2:0|2:0,2:0:0:0:
436,177,15070,2,0,P|433:253|389:286,1,130,0|0,2:0|2:0,2:0:0:0:
316,308,15370,1,0,2:0:0:0:
237,328,15470,6,0,P|184:272|208:156,1,195,4|0,2:0|2:0,2:0:0:0:
280,164,15870,2,0,L|244:240,1,65,0|0,2:0|2:0,2:0:0:0:
175,222,16070,2,0,P|188:182|218:147,1,65,0|0,2:0|2:0,2:0:0:0:
316,156,16270,2,0,P|304:192|276:230,1,65,0|0,2:0|2:0,2:0:0:0:
132,236,16470,2,0,P|142:193|171:162,1,65,0|0,2:0|2:0,2:0:0:0:
354,145,16670,1,2,2:0:0:0:
329,197,16770,1,2,2:0:0:0:
304,250,16870,1,2,2:0:0:0:
279,303,16970,1,2,2:0:0:0:
254,356,17070,5,4,2:0:0:0:
186,321,17170,1,8,2:0:0:0:
252,222,17370,5,8,2:0:0:0:
252,335,17470,1,4,2:0:0:0:
105,333,17670,5,4,2:0:0:0:
145,196,17770,1,8,2:0:0:0:
145,196,18070,2,0,B|105:186|102:205|59:187,1,81.25,4|0,2:0|2:0,2:0:0:0:
56,188,18670,6,0,P|52:248|184:268,1,195,4|0,2:0|2:0,2:0:0:0:
256,168,19470,1,0,2:0:0:0:
141,81,19670,1,0,2:0:0:0:
124,224,19870,1,0,2:0:0:0:
221,117,20070,1,0,2:0:0:0:
79,146,20270,2,0,P|52:192|56:260,1,97.5,2|0,2:0|2:0,2:0:0:0:
124,208,20670,1,0,2:0:0:0:
210,206,20870,2,0,P|237:160|233:92,1,97.5,0|0,2:0|2:0,2:0:0:0:
141,81,21270,1,0,2:0:0:0:
132,212,21470,5,0,2:0:0:0:
154,235,21570,1,0,2:0:0:0:
176,259,21670,1,0,2:0:0:0:
198,283,21770,1,0,2:0:0:0:
220,307,21870,2,0,P|272:320|324:312,2,97.5,2|0|0,2:0|2:0|2:0,2:0:0:0:
132,212,22670,2,0,P|178:199|227:204,2,97.5,0|0|0,2:0|2:0|2:0,2:0:0:0:
276,248,23470,5,2,2:0:0:0:
221,117,23670,1,0,2:0:0:0:
280,224,23870,1,0,2:0:0:0:
157,221,24070,1,0,2:0:0:0:
360,144,24270,1,2,2:0:0:0:
241,325,24470,1,0,2:0:0:0:
230,108,24670,1,0,2:0:0:0:
423,206,24870,1,0,2:0:0:0:
144,292,25070,6,0,P|104:272|120:160,1,162.5,6|0,2:0|2:0,2:0:0:0:
157,221,25670,1,0,2:0:0:0:
230,108,25870,1,0,2:0:0:0:
108,168,26070,1,0,2:0:0:0:
248,104,26270,1,0,2:0:0:0:
144,292,26470,1,0,2:0:0:0:
268,100,26670,2,0,P|328:108|364:136,1,97.5,2|0,2:0|2:0,2:0:0:0:
360,144,27070,1,0,2:0:0:0:
157,221,27270,1,0,2:0:0:0:
288,96,27470,5,0,2:0:0:0:
301,125,27570,1,0,2:0:0:0:
314,155,27670,1,0,2:0:0:0:
327,185,27770,1,0,2:0:0:0:
340,214,27870,2,0,L|360:264,1,32.5,2|0,2:0|2:0,2:0:0:0:
245,212,28070,2,0,L|225:162,1,32.5,2|0,2:0|2:0,2:0:0:0:
388,72,28270,6,0,L|460:252,1,130,4|0,2:0|2:0,2:0:0:0:
340,214,28570,2,0,P|268:162|332:174,1,233.999992858887,0|0,2:0|2:0,2:0:0:0:
344,232,28970,1,0,2:0:0:0:
361,279,29070,6,0,L|289:99,1,130,4|0,2:0|2:0,2:0:0:0:
387,71,29370,2,0,B|273:53|273:53|157:73,1,233.999992858887,0|0,2:0|2:0,2:0:0:0:
155,151,29770,1,0,2:0:0:0:
156,229,29870,2,0,P|168:289|238:313,1,130,4|0,2:0|2:0,2:0:0:0:
268,200,30170,2,0,L|220:248,1,65,0|0,2:0|2:0,2:0:0:0:
222,245,30470,1,4,2:0:0:0:
222,245,30670,6,0,L|292:176,1,97.5,0|0,2:0|2:0,2:0:0:0:
300,176,31070,2,0,P|388:220|283:216,1,253.499988395691,2|0,2:0|2:0,2:0:0:0:
196,164,31470,6,0,P|140:236|192:328,1,195,4|0,2:0|2:0,2:0:0:0:
270,306,31870,2,0,L|302:222,1,65,8|0,2:0|2:0,2:0:0:0:
336,112,32070,1,0,2:0:0:0:
168,164,32270,1,2,2:0:0:0:
298,284,32470,1,0,2:0:0:0:
340,96,32670,1,0,2:0:0:0:
144,164,32870,1,0,2:0:0:0:
346,220,33070,2,0,P|356:176|344:144,1,65,2|0,2:0|2:0,2:0:0:0:
219,63,33270,2,0,P|180:87|166:118,1,65,0|0,2:0|2:0,2:0:0:0:
270,306,33470,5,0,2:0:0:0:
293,275,33570,1,0,2:0:0:0:
294,237,33670,1,0,2:0:0:0:
272,205,33770,1,0,2:0:0:0:
234,196,33870,2,0,P|158:240|142:128,1,195,2|0,2:0|2:0,2:0:0:0:
144,122,34270,2,0,B|244:90|244:142|340:110,1,195,2|0,2:0|2:0,2:0:0:0:
364,152,34670,1,4,2:0:0:0:
136,96,34870,1,0,2:0:0:0:
348,56,35070,6,0,L|384:128,1,65,8|0,2:0|2:0,2:0:0:0:
222,296,35270,2,0,L|276:240,1,65,0|0,2:0|2:0,2:0:0:0:
364,152,35470,1,2,2:0:0:0:
152,152,35670,1,0,2:0:0:0:
410,116,35870,1,2,2:0:0:0:
222,296,36070,2,0,L|258:227,1,65,0|0,2:0|2:0,2:0:0:0:
352,36,36270,1,2,2:0:0:0:
399,322,36470,1,0,2:0:0:0:
192,118,36670,1,2,2:0:0:0:
479,161,36870,2,0,L|448:218,1,65,0|0,2:0|2:0,2:0:0:0:
344,44,37070,6,0,P|264:68|352:96,1,195,2|0,2:0|2:0,2:0:0:0:
312,76,37470,2,0,P|248:136|348:152,1,214.500006546021,2|0,2:0|2:0,2:0:0:0:
364,152,37870,1,4,2:0:0:0:
128,72,38070,1,0,2:0:0:0:
172,288,38270,1,2,2:0:0:0:
180,312,38370,1,0,2:0:0:0:
188,336,38470,1,0,2:0:0:0:
417,223,38670,1,2,2:0:0:0:
405,176,38770,1,0,2:0:0:0:
364,152,38870,1,0,2:0:0:0:
72,224,39070,5,2,2:0:0:0:
98,283,39170,1,0,2:0:0:0:
124,343,39270,2,0,P|160:344|204:328,1,65,0|0,2:0|2:0,2:0:0:0:
300,128,39470,1,4,2:0:0:0:
148,268,39670,1,0,2:0:0:0:
324,156,39870,1,0,2:0:0:0:
162,147,40070,1,0,2:0:0:0:
332,184,40270,1,4,2:0:0:0:
256,96,40470,1,0,2:0:0:0:
336,196,40670,1,2,2:0:0:0:
344,125,40870,1,0,2:0:0:0:
72,224,41070,6,0,P|168:272|176:204,1,195,4|0,2:0|2:0,2:0:0:0:
200,220,41470,1,0,2:0:0:0:
472,220,41670,2,0,P|484:292|336:320,1,260,4|0,2:0|2:0,2:0:0:0:
336,200,42270,1,0,2:0:0:0:
336,184,42370,1,0,2:0:0:0:
336,168,42470,2,0,L|336:92,1,65,0|0,2:0|2:0,2:0:0:0:
201,139,42670,6,0,P|225:167|257:171,1,65,2|0,2:0|2:0,2:0:0:0:
464,156,42870,2,0,P|440:128|408:124,1,65,0|0,2:0|2:0,2:0:0:0:
212,288,43070,2,0,P|243:280|263:256,1,65,2|0,2:0|2:0,2:0:0:0:
308,64,43271,2,0,P|276:71|258:97,1,65,0|0,2:0|2:0,2:0:0:0:
336,321,43470,1,8,2:0:0:0:
396,301,43570,1,0,2:0:0:0:
421,243,43670,1,8,2:0:0:0:
395,186,43770,1,0,2:0:0:0:
335,166,43870,5,8,2:0:0:0:
269,201,43970,1,2,2:0:0:0:
206,162,44070,1,8,2:0:0:0:
207,87,44170,1,2,2:0:0:0:
272,51,44270,6,0,P|356:53|391:121,1,155.999995239258,4|0,2:0|2:0,2:0:0:0:
312,120,44570,2,0,P|304:211|385:264,1,155.999995239258,0|0,2:0|2:0,2:0:0:0:
206,162,44870,1,0,2:0:0:0:
148,203,44970,1,0,2:0:0:0:
184,263,45070,6,0,P|270:286|294:361,1,155.999995239258,4|0,2:0|2:0,2:0:0:0:
184,263,45370,2,0,P|207:177|282:153,1,155.999995239258,0|0,2:0|2:0,2:0:0:0:
377,176,45670,1,0,2:0:0:0:
377,176,45870,5,4,2:0:0:0:
128,72,46070,1,0,2:0:0:0:
163,340,46270,1,0,2:0:0:0:
300,220,46470,1,0,2:0:0:0:
130,92,46670,1,4,2:0:0:0:
124,160,46770,2,0,P|141:200|178:237,1,77.999997619629,0|0,2:0|2:0,2:0:0:0:
377,176,47070,1,0,2:0:0:0:
264,42,47270,1,0,2:0:0:0:
124,160,47470,6,0,B|91:231|91:231|108:265|164:302,1,155.999995239258,4|0,2:0|2:0,2:0:0:0:
172,232,47770,2,0,P|128:168|132:88,1,155.999995239258,0|0,2:0|2:0,2:0:0:0:
236,136,48070,1,0,2:0:0:0:
236,136,48270,6,0,P|256:180|320:124,1,155.999995239258,4|0,2:0|2:0,2:0:0:0:
180,92,48570,2,0,P|176:188|224:240,1,155.999995239258,0|0,2:0|2:0,2:0:0:0:
322,132,48870,1,0,2:0:0:0:
322,132,49070,5,4,2:0:0:0:
324,172,49170,1,0,2:0:0:0:
324,212,49270,2,0,L|324:308,1,77.999997619629,0|0,2:0|2:0,2:0:0:0:
248,216,49470,5,0,2:0:0:0:
236,252,49570,1,0,2:0:0:0:
203,271,49670,2,0,P|152:280|112:260,1,77.999997619629,0|0,2:0|2:0,2:0:0:0:
168,200,49870,5,8,2:0:0:0:
157,165,49970,1,0,2:0:0:0:
188,147,50070,2,0,P|224:152|244:200,1,77.999997619629,8|0,2:0|2:0,2:0:0:0:
128,271,50270,5,8,2:0:0:0:
72,217,50370,1,2,2:0:0:0:
58,142,50470,1,8,2:0:0:0:
91,73,50570,1,2,2:0:0:0:
158,36,50670,6,0,L|244:56,1,65,4|0,2:0|2:0,2:0:0:0:
176,112,50970,2,0,L|344:152,1,155.999995239258,2|0,2:0|2:0,2:0:0:0:
360,228,51270,1,0,2:0:0:0:
328,219,51370,1,0,2:0:0:0:
297,211,51470,6,0,L|216:192,1,65,4|0,2:0|2:0,2:0:0:0:
247,275,51770,2,0,L|79:235,1,168.999992263794,2|0,2:0|2:0,2:0:0:0:
58,142,52070,1,0,2:0:0:0:
91,73,52170,1,0,2:0:0:0:
158,36,52270,6,0,P|242:72|242:160,1,168.999992263794,4|0,2:0|2:0,2:0:0:0:
176,341,52670,2,0,P|92:305|92:217,1,168.999992263794,0|0,2:0|2:0,2:0:0:0:
180,112,53070,1,0,2:0:0:0:
234,90,53170,1,0,2:0:0:0:
292,99,53270,1,0,2:0:0:0:
160,264,53470,1,0,2:0:0:0:
332,148,53670,1,0,2:0:0:0:
146,58,53870,5,8,2:0:0:0:
148,272,54070,1,0,2:0:0:0:
344,148,54270,1,0,2:0:0:0:
356,148,54370,1,0,2:0:0:0:
364,148,54470,2,0,P|386:153|406:171,1,32.5,0|0,2:0|2:0,2:0:0:0:
213,272,54670,6,0,L|133:272,1,65,4|0,2:0|2:0,2:0:0:0:
148,124,54870,1,0,2:0:0:0:
176,67,54970,1,0,2:0:0:0:
237,53,55070,1,0,2:0:0:0:
287,91,55170,1,0,2:0:0:0:
289,154,55270,1,0,2:0:0:0:
242,196,55370,1,0,2:0:0:0:
180,186,55470,1,12,2:0:0:0:
256,192,55570,12,0,56670,2:0:0:0:
144,111,57070,6,0,L|144:179,1,65,0|0,2:0|2:0,2:0:0:0:
432,144,57270,1,0,2:0:0:0:
220,176,57470,1,0,2:0:0:0:
476,344,57670,2,0,L|476:176,1,146.250005578995,2|0,2:0|2:0,2:0:0:0:
440,140,58070,5,0,2:0:0:0:
208,176,58270,1,0,2:0:0:0:
484,348,58470,2,0,B|516:244|444:244|492:144,1,195,2|0,2:0|2:0,2:0:0:0:
500,116,58870,5,0,2:0:0:0:
144,176,59070,1,0,2:0:0:0:
512,364,59270,2,0,B|500:324|500:324|512:288|512:288|500:252|500:252|512:208|512:208|500:168|500:168|512:132,1,243.75,2|0,2:0|2:0,2:0:0:0:
500,116,59670,1,0,2:0:0:0:
500,116,59770,1,0,2:0:0:0:
436,116,59870,5,8,2:0:0:0:
371,116,59970,1,2,2:0:0:0:
306,116,60070,1,8,2:0:0:0:
241,116,60170,1,2,2:0:0:0:
176,116,60270,6,0,P|172:156|256:236,1,130,4|0,2:0|2:0,2:0:0:0:
476,344,60670,1,0,2:0:0:0:
369,66,60870,1,0,2:0:0:0:
302,91,60970,1,0,2:0:0:0:
232,127,61070,1,0,2:0:0:0:
155,162,61170,2,0,P|183:197|218:221,1,65,0|0,2:0|2:0,2:0:0:0:
476,344,61470,1,0,2:0:0:0:
305,116,61670,1,0,2:0:0:0:
88,328,61870,6,0,P|208:344|236:288,1,195,4|0,2:0|2:0,2:0:0:0:
156,280,62270,1,0,2:0:0:0:
370,116,62470,1,0,2:0:0:0:
386,104,62570,1,0,2:0:0:0:
416,176,62670,2,0,P|324:176|300:116,1,130,0|0,2:0|2:0,2:0:0:0:
305,116,62970,1,0,2:0:0:0:
321,104,63070,1,0,2:0:0:0:
408,312,63270,1,0,2:0:0:0:
216,227,63470,1,4,2:0:0:0:
399,177,63670,1,0,2:0:0:0:
403,193,63770,1,0,2:0:0:0:
408,208,63870,6,0,L|384:284,1,65,0|0,2:0|2:0,2:0:0:0:
156,280,64070,2,0,L|180:204,1,65,0|0,2:0|2:0,2:0:0:0:
435,116,64270,1,4,2:0:0:0:
238,289,64470,1,0,2:0:0:0:
186,31,64670,1,0,2:0:0:0:
408,312,64870,1,8,2:0:0:0:
236,300,65270,5,0,2:0:0:0:
184,16,65470,1,0,2:0:0:0:
416,320,65670,1,8,2:0:0:0:
244,272,66070,5,0,2:0:0:0:
192,44,66270,1,0,2:0:0:0:
396,296,66470,1,8,2:0:0:0:
106,301,66670,6,0,P|134:225|202:221,1,130,4|0,2:0|2:0,2:0:0:0:
176,284,66970,2,0,P|233:258|245:196,1,130,0|0,2:0|2:0,2:0:0:0:
175,213,67270,1,0,2:0:0:0:
210,205,67370,1,0,2:0:0:0:
245,196,67470,6,0,P|273:120|341:116,1,130,4|0,2:0|2:0,2:0:0:0:
315,179,67770,2,0,P|372:153|384:91,1,130,0|0,2:0|2:0,2:0:0:0:
314,108,68070,1,0,2:0:0:0:
254,45,68270,6,0,P|186:159|296:182,1,233.999992858887,4|0,2:0|2:0,2:0:0:0:
252,121,68670,2,0,P|170:127|84:264,1,233.999992858887,0|0,2:0|2:0,2:0:0:0:
152,246,69070,2,0,P|231:186|272:296,1,233.999992858887,4|0,2:0|2:0,2:0:0:0:
219,253,69470,1,0,2:0:0:0:
219,97,69670,1,0,2:0:0:0:
219,253,69870,6,0,L|219:77,1,155.999995239258,4|0,2:0|2:0,2:0:0:0:
332,256,70270,1,0,2:0:0:0:
272,256,70370,1,0,2:0:0:0:
208,252,70470,2,0,P|162:219|147:178,1,77.999997619629,0|0,2:0|2:0,2:0:0:0:
254,45,70670,1,4,2:0:0:0:
392,176,70870,2,0,L|392:272,1,77.999997619629,0|0,2:0|2:0,2:0:0:0:
156,192,71070,1,0,2:0:0:0:
400,128,71270,6,0,P|448:188|352:148,1,272.999991668701,4|0,2:0|2:0,2:0:0:0:
364,128,71670,1,0,2:0:0:0:
81,239,71870,1,0,2:0:0:0:
235,150,72070,2,0,P|104:128|96:260,1,272.999991668701,4|0,2:0|2:0,2:0:0:0:
156,192,72470,5,8,2:0:0:0:
141,129,72570,1,2,2:0:0:0:
168,71,72670,1,8,2:0:0:0:
224,41,72770,1,2,2:0:0:0:
293,41,72870,1,8,2:0:0:0:
335,96,72970,1,2,2:0:0:0:
318,163,73070,2,0,P|326:247|434:215,1,181.999994445801,4|0,2:0|2:0,2:0:0:0:
280,68,73470,6,0,P|244:52|188:56,1,97.50000371933,0|0,2:0|2:0,2:0:0:0:
80,238,73670,1,0,2:0:0:0:
127,271,73770,1,0,2:0:0:0:
184,282,73870,2,0,P|220:267|252:228,1,90.9999972229005,4|0,2:0|2:0,2:0:0:0:
224,124,74070,1,0,2:0:0:0:
192,160,74170,1,0,2:0:0:0:
182,208,74270,1,0,2:0:0:0:
340,92,74470,1,0,2:0:0:0:
81,67,74670,5,4,2:0:0:0:
332,256,74870,1,0,2:0:0:0:
0,148,75070,5,0,2:0:0:0:
360,258,75270,1,0,2:0:0:0:
356,26,75470,5,4,2:0:0:0:
294,38,75570,1,0,2:0:0:0:
267,94,75670,1,0,2:0:0:0:
296,150,75770,1,0,2:0:0:0:
358,160,75870,1,0,2:0:0:0:
358,160,76070,1,0,2:0:0:0:
187,327,76270,5,4,2:0:0:0:
145,111,76470,1,0,2:0:0:0:
360,71,76670,1,0,2:0:0:0:
401,285,76870,1,0,2:0:0:0:
347,248,76970,1,0,2:0:0:0:
293,212,77070,1,4,2:0:0:0:
239,176,77170,1,0,2:0:0:0:
185,139,77270,2,0,P|153:106|138:71,1,65,0|0,2:0|2:0,2:0:0:0:
364,16,77470,1,0,2:0:0:0:
128,348,77670,2,0,P|183:303|245:314,1,130,0|2,2:0|2:0,2:0:0:0:
128,348,78070,5,8,2:0:0:0:
103,289,78170,1,0,2:0:0:0:
130,232,78270,1,0,2:0:0:0:
191,213,78370,1,0,2:0:0:0:
245,245,78470,1,10,2:0:0:0:
264,241,78570,1,0,2:0:0:0:
283,237,78670,1,4,2:0:0:0:
302,233,78770,1,0,2:0:0:0:
320,228,78870,5,8,2:0:0:0:
404,200,78970,1,2,2:0:0:0:
442,120,79070,1,8,2:0:0:0:
409,38,79170,1,2,2:0:0:0:
327,5,79270,1,8,2:0:0:0:
247,42,79370,1,2,2:0:0:0:
219,126,79470,6,0,P|224:164|248:192,1,65,4|0,2:0|2:0,2:0:0:0:
296,136,79770,2,0,P|256:64|148:100,1,181.999994445801,0|0,2:0|2:0,2:0:0:0:
108,144,80070,1,0,2:0:0:0:
75,225,80170,1,0,2:0:0:0:
126,295,80270,6,0,P|155:318|191:321,1,65,4|0,2:0|2:0,2:0:0:0:
184,248,80570,2,0,P|263:225|316:336,1,195.00000743866,0|0,2:0|2:0,2:0:0:0:
244,300,80870,1,0,2:0:0:0:
181,231,80970,1,0,2:0:0:0:
208,141,81070,2,0,P|248:96|364:256,1,292.50001115799,4|0,2:0|2:0,2:0:0:0:
300,180,81470,1,0,2:0:0:0:
409,38,81670,1,0,2:0:0:0:
411,327,81870,6,0,L|307:291,1,97.50000371933,4|0,2:0|2:0,2:0:0:0:
116,110,82070,1,0,2:0:0:0:
116,110,82170,2,0,L|220:146,1,97.50000371933,0|0,2:0|2:0,2:0:0:0:
424,332,82470,1,0,2:0:0:0:
126,295,82670,5,4,2:0:0:0:
409,38,82870,1,0,2:0:0:0:
318,295,83070,1,4,2:0:0:0:
314,303,83170,1,0,2:0:0:0:
308,312,83270,2,0,B|292:336|288:352|288:352|272:320|244:296,1,97.50000371933,0|0,2:0|2:0,2:0:0:0:
2,91,83470,1,4,2:0:0:0:
356,236,83670,1,0,2:0:0:0:
373,0,83870,1,4,2:0:0:0:
112,312,84070,2,0,B|96:336|92:352|92:352|64:324|64:296,1,97.50000371933,0|0,2:0|2:0,2:0:0:0:
116,84,84270,1,4,2:0:0:0:
356,236,84470,5,8,2:0:0:0:
346,282,84570,1,2,2:0:0:0:
309,312,84670,1,4,2:0:0:0:
116,84,84870,5,8,2:0:0:0:
208,67,84970,1,2,2:0:0:0:
278,130,85070,1,12,2:0:0:0:
271,224,85170,1,2,2:0:0:0:
193,276,85270,1,8,2:0:0:0:
184,276,85470,5,4,2:0:0:0:
409,38,85670,1,12,2:0:0:0:
256,192,85770,12,0,89003,2:0:0:0:
