osu file format v14

[General]
AudioFilename: audio.mp3
AudioLeadIn: 0
PreviewTime: 59866
Countdown: 0
SampleSet: None
StackLeniency: 0.7
Mode: 0
LetterboxInBreaks: 0
WidescreenStoryboard: 0

[Editor]
Bookmarks: 6266,8666,31866,34266,36666,47866,60666,64666,67066,69466,71466,73466
DistanceSpacing: 2
BeatDivisor: 4
GridSize: 8
TimelineZoom: 1

[Metadata]
Title:Shocking Blue (TV Size)
TitleUnicode:Shocking Blue (TV Size)
Artist:Miku Itou
ArtistUnicode:Miku Itou
Creator:SevenFrenzy
Version:Machiavellism
Source:武装少女マキャヴェリズム
Tags:
BeatmapID:1498955
BeatmapSetID:709050

[Difficulty]
HPDrainRate:6
CircleSize:4
OverallDifficulty:8
ApproachRate:10
SliderMultiplier:1.8
SliderTickRate:1

[Events]
//Background and Video events
Video,554,"OP HD.mp4"
0,0,"Tsukuyo.jpg",0,0
//Break Periods
//Storyboard Layer 0 (Background)
//Storyboard Layer 1 (Fail)
//Storyboard Layer 2 (Pass)
//Storyboard Layer 3 (Foreground)
//Storyboard Sound Samples

[TimingPoints]
1066,400,4,2,1,75,1,0
12566,-100,4,2,1,5,0,0
12666,-100,4,2,1,75,0,0
19266,-125,4,2,1,75,0,0
33766,-80,4,2,1,75,0,0
50666,-100,4,2,1,75,0,0
60266,-66.6666666666667,4,2,1,85,0,1
74666,-100,4,2,1,85,0,1
75766,-66.6666666666667,4,2,1,85,0,1
79466,-66.6666666666667,4,2,1,75,0,0
81066,-100,4,2,1,75,0,0

[HitObjects]
104,112,1066,6,0,P|144:96|200:112,1,90
376,176,1466,2,0,L|384:240,1,45
280,288,1666,2,0,L|272:240,1,45
344,184,1866,2,0,L|352:248,1,45
248,296,2066,2,0,L|240:248,1,45
304,80,2266,5,8,0:0:0:0:soft-hitclap.wav
344,88,2366,1,0,0:0:0:0:
376,112,2466,1,10,0:0:0:0:
392,144,2566,1,2,0:0:0:0:
392,176,2666,6,0,P|384:240|336:304,1,135,2|0,0:0|0:0,0:0:0:0:
280,320,3166,1,0,0:0:0:0:
240,320,3266,1,8,0:0:0:0:
208,312,3366,1,8,0:0:0:0:
184,296,3466,1,2,0:0:0:0:
160,272,3566,2,0,P|144:240|136:128,1,135,2|0,0:0|0:0,0:0:0:0:
352,72,4066,6,8,L|416:48,1,45
216,120,4266,2,2,L|280:144,1,45
72,64,4466,2,2,L|136:40,1,45
120,248,4666,6,0,L|56:224,1,45
256,296,4866,2,2,L|192:320,1,45
400,240,5066,2,2,L|336:216,1,45
224,88,5266,6,2,L|280:72,1,45
384,128,5466,1,2,0:0:0:0:
352,144,5566,1,2,0:0:0:0:
328,160,5666,1,2,0:0:0:0:
296,176,5766,1,2,0:0:0:0:
272,192,5866,1,2,0:0:0:0:
160,184,5966,5,0,0:0:0:0:
144,152,6066,2,0,L|128:104,1,45
128,288,6266,2,0,L|152:352,1,45,8|0,0:0|0:0,0:0:0:0:
288,288,6466,2,0,L|344:288,1,45,0|8,0:0|0:0,0:0:0:0:
392,208,6666,2,0,L|336:208,1,45,0|8,0:0|0:0,0:0:0:0:
256,184,6866,2,0,L|256:120,1,45
168,72,7066,6,0,L|120:40,1,45,8|0,0:0|0:0,0:0:0:0:
328,80,7266,2,0,L|368:48,1,45
256,184,7466,2,0,L|256:248,1,45
168,264,7666,2,0,L|208:304,1,45
368,304,7866,1,8,0:0:0:0:
376,280,7966,6,0,L|392:232,1,45
360,80,8166,2,0,L|336:128,1,45,8|0,0:0|0:0,0:0:0:0:
392,288,8366,2,0,L|408:240,1,45,8|0,0:0|0:0,0:0:0:0:
344,72,8566,2,0,L|320:120,1,45,0|8,0:0|0:0,0:0:0:0:
408,296,8766,2,0,L|424:248,1,45
328,64,8966,2,0,L|304:112,1,45
280,216,9166,5,0,0:0:0:0:
264,208,9266,2,0,L|224:176,1,45
144,104,9466,2,0,L|104:136,1,45,8|0,0:0|0:0,0:0:0:0:
256,80,9666,2,0,L|320:80,1,45,0|8,0:0|0:0,0:0:0:0:
384,176,9866,2,0,L|408:232,1,45,0|8,0:0|0:0,0:0:0:0:
280,200,10066,2,0,L|224:200,1,45
192,272,10266,2,0,L|256:272,1,45,8|0,0:0|0:0,0:0:0:0:
376,328,10466,2,0,L|312:328,1,45
352,200,10666,6,0,L|408:200,1,45
464,112,10866,1,8,0:0:0:0:
440,96,10966,1,2,0:0:0:0:
416,80,11066,1,8,0:0:0:0:
392,64,11166,1,8,0:0:0:0:
256,112,11266,6,0,L|312:112,1,45
256,32,11466,2,0,L|192:32,1,45
144,136,11666,2,0,L|184:96,1,45,8|0,0:0|0:0,0:0:0:0:
80,88,11866,2,0,L|40:128,1,45,8|0,0:0|0:0,0:0:0:0:
56,208,12066,1,0,0:0:0:0:
56,208,12166,1,0,0:0:0:0:
56,208,12266,6,0,P|96:256|160:288,1,135,12|0,0:0|0:0,0:0:0:0:
256,288,12666,2,0,L|312:256,1,45,8|0,0:0|0:0,0:0:0:0:
392,264,12866,2,0,L|432:304,1,45
328,176,13066,2,0,L|328:120,1,45
256,56,13266,5,0,0:0:0:0:
232,56,13366,1,0,0:0:0:0:
208,56,13466,1,8,0:0:0:0:
184,56,13566,1,0,0:0:0:0:
160,56,13666,1,0,0:0:0:0:
136,56,13766,2,0,L|88:56,1,45
136,144,13966,2,0,L|184:144,1,45
304,160,14166,6,0,L|264:208,1,45,0|8,0:0|0:0,0:0:0:0:
376,192,14366,2,0,L|408:152,1,45
304,160,14566,2,0,L|288:224,1,45,8|0,0:0|0:0,0:0:0:0:
376,192,14766,2,0,L|392:136,1,45,8|0,0:0|0:0,0:0:0:0:
304,160,14966,2,0,L|304:224,1,45,0|8,0:0|0:0,0:0:0:0:
376,192,15166,2,0,L|376:128,1,45
304,16,15366,5,8,0:0:0:0:
272,24,15466,1,8,0:0:0:0:
248,48,15566,1,2,0:0:0:0:
232,80,15666,1,2,0:0:0:0:
232,120,15766,1,2,0:0:0:0:
232,152,15866,1,2,0:0:0:0:
232,184,15966,6,2,L|232:240,9,45
432,264,17066,6,8,L|480:304,1,45
320,280,17366,2,8,L|368:320,1,45
200,288,17666,2,8,L|248:328,1,45
88,296,18066,2,0,B|144:320|232:248|368:304,1,270,8|0,0:0|0:0,0:0:0:0:
424,192,19266,6,0,P|416:144|384:112,1,72
232,72,19666,2,0,P|240:120|272:152,1,72
344,248,20066,1,0,0:0:0:0:
344,248,20266,2,0,L|256:248,1,72
128,168,20666,2,0,L|200:168,1,72
416,184,21266,5,0,0:0:0:0:
416,184,21466,1,0,0:0:0:0:
416,312,21666,1,0,0:0:0:0:
416,312,21866,2,0,P|360:304|312:264,2,108
160,168,22666,2,0,P|216:176|264:216,2,108
160,168,23466,1,0,0:0:0:0:
256,280,23866,6,0,P|312:240|352:160,3,144
360,64,25666,5,0,0:0:0:0:
360,64,25866,2,0,P|312:64|272:80,1,72
128,128,26266,2,0,P|176:136|200:128,1,72
256,232,26666,2,0,P|304:232|368:264,2,108
256,328,27466,1,0,0:0:0:0:
256,328,27666,2,0,P|200:328|168:312,1,72
208,192,28066,5,0,0:0:0:0:
208,192,28266,1,8,0:0:0:0:
424,192,28566,1,8,0:0:0:0:
312,56,28866,1,2,0:0:0:0:
312,288,29066,1,8,0:0:0:0:
184,136,29366,1,8,0:0:0:0:
440,136,29666,1,2,0:0:0:0:
440,160,29866,5,8,0:0:0:0:
440,184,29966,1,8,0:0:0:0:
440,208,30066,1,8,0:0:0:0:
440,232,30166,1,2,0:0:0:0:
440,256,30266,1,2,0:0:0:0:
440,280,30366,1,2,0:0:0:0:
440,304,30466,2,0,P|408:328|296:336,1,144
272,256,30966,6,8,L|288:224,1,36
280,72,31166,2,8,L|256:120,1,36
192,184,31366,2,8,L|136:184,1,36
360,184,31566,2,0,L|408:184,1,36
392,280,31766,5,0,0:0:0:0:
368,296,31866,1,8,0:0:0:0:
344,312,31966,1,0,0:0:0:0:
248,280,32066,5,0,0:0:0:0:
272,264,32166,1,0,0:0:0:0:
296,248,32266,1,0,0:0:0:0:
208,208,32366,5,0,0:0:0:0:
184,224,32466,1,0,0:0:0:0:
160,240,32566,1,0,0:0:0:0:
88,192,32666,5,8,0:0:0:0:
112,176,32766,1,0,0:0:0:0:
136,160,32866,1,0,0:0:0:0:
160,144,32966,2,0,L|208:120,1,36
288,88,33166,2,0,L|344:88,1,36
440,80,33366,2,0,L|464:40,1,36,0|8,0:0|0:0,0:0:0:0:
368,192,33566,2,0,L|336:248,1,36
232,192,33766,6,0,L|200:128,1,56.25
232,272,33966,2,0,L|264:336,1,56.25
232,192,34166,2,0,L|232:120,1,56.25,0|8,0:0|0:0,0:0:0:0:
232,272,34366,2,0,L|232:344,1,56.25
232,192,34566,2,0,L|272:136,1,56.25
232,272,34766,2,0,L|192:336,1,56.25
80,256,34966,6,0,L|64:184,1,56.25,0|8,0:0|0:0,0:0:0:0:
192,80,35166,2,0,L|208:144,1,56.25
48,120,35366,2,0,L|112:104,1,56.25
232,224,35566,2,0,L|168:240,1,56.25
112,304,35766,2,0,L|176:336,1,56.25,0|8,0:0|0:0,0:0:0:0:
272,328,35966,2,0,L|344:328,1,56.25
424,320,36166,2,0,L|464:280,1,56.25
312,216,36366,6,0,L|248:216,1,56.25
152,120,36566,2,0,L|216:120,1,56.25,0|8,0:0|0:0,0:0:0:0:
312,232,36766,2,0,L|248:232,1,56.25
152,104,36966,2,0,L|216:104,1,56.25
312,248,37166,2,0,L|248:248,1,56.25
152,88,37366,2,0,L|216:88,1,56.25,0|8,0:0|0:0,0:0:0:0:
312,264,37566,2,0,L|248:264,1,56.25
152,72,37766,2,0,L|216:72,1,56.25
416,192,37966,5,2,0:0:0:0:
416,160,38066,1,2,0:0:0:0:
400,128,38166,1,2,0:0:0:0:
376,112,38266,1,8,0:0:0:0:
344,96,38366,1,2,0:0:0:0:
312,96,38466,1,2,0:0:0:0:
280,104,38566,1,2,0:0:0:0:
256,128,38666,5,2,0:0:0:0:
240,160,38766,1,2,0:0:0:0:
224,192,38866,1,2,0:0:0:0:
208,224,38966,1,2,0:0:0:0:
176,240,39066,1,8,0:0:0:0:
136,240,39166,1,2,0:0:0:0:
104,232,39266,6,0,P|72:168|72:120,1,112.5,2|0,0:0|0:0,0:0:0:0:
256,40,39666,1,0,0:0:0:0:
256,40,39766,1,0,0:0:0:0:
256,40,39866,2,0,L|376:40,1,112.5,8|0,0:0|0:0,0:0:0:0:
376,112,40166,6,0,L|304:112,1,56.25
376,192,40366,2,0,L|320:224,1,56.25
376,272,40566,2,0,L|376:336,1,56.25,0|8,0:0|0:0,0:0:0:0:
256,328,40866,1,0,0:0:0:0:
256,328,40966,1,0,0:0:0:0:
256,328,41066,6,0,P|168:328|144:304,1,112.5
64,200,41466,2,0,P|160:208|184:232,1,112.5,8|0,0:0|0:0,0:0:0:0:
288,248,41866,2,0,P|320:192|312:144,1,112.5
313,146,42266,1,8,0:0:0:0:
416,64,42466,1,8,0:0:0:0:
416,64,42566,1,8,0:0:0:0:
416,64,42666,1,0,0:0:0:0:
432,192,42866,6,0,P|432:264|400:304,1,112.5,0|8,0:0|0:0,0:0:0:0:
304,192,43166,2,2,L|304:136,1,56.25
192,192,43366,2,2,L|192:128,1,56.25
320,208,43566,2,2,L|320:152,1,56.25
176,208,43766,2,2,L|176:144,1,56.25
336,224,43966,2,2,L|336:168,1,56.25
160,224,44166,2,2,L|160:160,1,56.25
96,304,44366,6,0,L|152:328,1,56.25
376,320,44566,2,0,L|440:304,1,56.25,0|8,0:0|0:0,0:0:0:0:
416,160,44766,5,0,0:0:0:0:
424,136,44866,2,0,L|448:80,1,56.25
296,248,45066,5,0,0:0:0:0:
280,272,45166,2,0,L|248:320,1,56.25
288,120,45366,6,0,L|368:120,1,56.25,0|8,0:0|0:0,0:0:0:0:
200,248,45566,2,0,L|128:248,1,56.25
128,176,45866,2,0,P|160:120|208:88,1,112.5
224,80,46166,1,0,0:0:0:0:
248,96,46266,2,0,P|288:144|344:176,1,112.5,8|0,0:0|0:0,0:0:0:0:
448,192,46666,1,0,0:0:0:0:
448,192,46766,1,0,0:0:0:0:
448,192,46866,6,0,P|448:264|424:312,1,112.5,0|8,0:0|0:0,0:0:0:0:
328,256,47166,2,0,L|272:200,1,56.25
240,296,47366,1,0,0:0:0:0:
216,296,47466,2,0,P|144:288|104:256,1,112.5
104,240,47766,1,0,0:0:0:0:
104,200,47866,2,0,P|168:200|208:168,1,112.5,8|0,0:0|0:0,0:0:0:0:
256,56,48166,6,0,L|312:56,1,56.25
416,128,48366,2,0,L|352:128,1,56.25
256,208,48566,2,0,L|312:208,1,56.25,0|8,0:0|0:0,0:0:0:0:
416,280,48766,2,0,L|352:280,1,56.25
256,352,48966,2,0,L|200:352,1,56.25
40,280,49166,6,0,L|96:280,1,56.25
200,208,49366,2,0,L|136:208,1,56.25,0|8,0:0|0:0,0:0:0:0:
40,128,49566,2,0,L|96:128,1,56.25
200,56,49766,2,0,L|136:56,1,56.25
312,56,49966,5,2,0:0:0:0:
336,72,50066,1,2,0:0:0:0:
352,96,50166,1,2,0:0:0:0:
360,128,50266,1,2,0:0:0:0:
360,160,50366,1,2,0:0:0:0:
360,192,50466,1,2,0:0:0:0:
360,216,50566,1,2,0:0:0:0:
360,240,50666,6,8,P|296:264|216:264,1,135
96,192,51266,1,8,0:0:0:0:
96,192,51366,1,8,0:0:0:0:
96,192,51466,2,0,P|168:184|240:200,1,135,8|0,0:0|0:0,0:0:0:0:
256,304,52066,1,8,0:0:0:0:
256,304,52166,1,8,0:0:0:0:
256,304,52266,6,0,P|328:304|408:232,1,180,8|8,0:0|0:0,0:0:0:0:
440,88,52866,2,0,L|328:88,1,90
256,168,53266,2,0,L|360:168,1,90,0|8,0:0|0:0,0:0:0:0:
432,240,53666,1,0,0:0:0:0:
432,240,53866,2,0,P|384:288|344:304,1,90
320,192,54266,2,0,L|256:128,1,90,8|0,0:0|0:0,0:0:0:0:
168,40,54666,1,0,0:0:0:0:
72,112,54866,5,2,0:0:0:0:
72,136,54966,1,2,0:0:0:0:
72,160,55066,1,8,0:0:0:0:
72,184,55166,1,8,0:0:0:0:
72,208,55266,2,0,L|72:304,1,90,8|0,0:0|0:0,0:0:0:0:
424,128,57266,6,8,L|424:64,1,45
424,208,57466,2,8,L|424:152,1,45
424,280,57666,2,0,L|424:216,2,45,8|0|0,0:0|0:0|0:0,0:0:0:0:
280,128,58066,6,8,L|280:64,1,45
280,208,58266,2,8,L|280:152,1,45
280,280,58466,2,0,L|280:216,2,45,8|0|0,0:0|0:0|0:0,0:0:0:0:
112,128,58866,6,8,L|112:64,1,45
112,208,59066,2,8,L|112:152,1,45
112,280,59266,2,8,L|112:216,4,45
120,312,59766,1,8,0:0:0:0:
144,344,59866,1,8,0:0:0:0:
176,352,59966,1,8,0:0:0:0:
216,352,60066,1,8,0:0:0:0:
248,352,60166,1,8,0:0:0:0:
272,352,60266,6,0,L|360:352,1,67.5000025749208
464,200,60466,2,0,L|392:200,1,67.5000025749208
280,88,60666,2,0,L|336:40,1,67.5000025749208,8|0,0:0|0:0,0:0:0:0:
128,176,60866,2,0,L|192:240,1,67.5000025749208
392,296,61066,2,0,L|392:216,1,67.5000025749208
280,88,61266,2,0,L|200:64,1,67.5000025749208
320,216,61466,2,0,L|400:176,1,67.5000025749208,8|0,0:0|0:0,0:0:0:0:
176,144,61666,5,0,0:0:0:0:
152,160,61766,1,0,0:0:0:0:
128,176,61866,1,0,0:0:0:0:
184,256,61966,2,0,L|256:208,1,67.5000025749208
296,296,62166,1,0,0:0:0:0:
272,312,62266,1,8,0:0:0:0:
248,328,62366,1,0,0:0:0:0:
56,256,62466,6,0,L|56:176,1,67.5000025749208
456,192,62666,2,0,L|456:272,1,67.5000025749208
56,256,62866,2,0,L|104:176,1,67.5000025749208
456,192,63066,2,0,L|408:272,1,67.5000025749208,8|0,0:0|0:0,0:0:0:0:
56,256,63266,2,0,L|128:224,1,67.5000025749208
456,192,63466,2,0,L|384:224,1,67.5000025749208
240,264,63666,5,0,0:0:0:0:
240,264,63766,1,0,0:0:0:0:
240,264,63866,1,8,0:0:0:0:
240,264,63966,1,0,0:0:0:0:
240,264,64066,1,0,0:0:0:0:
240,264,64166,6,0,L|304:304,1,67.5000025749208
432,264,64366,2,0,L|368:224,1,67.5000025749208
280,168,64566,2,0,L|320:104,1,67.5000025749208,0|8,0:0|0:0,0:0:0:0:
152,120,64766,2,0,L|104:176,1,67.5000025749208
208,248,64966,2,0,L|272:288,1,67.5000025749208
416,136,65166,2,0,L|352:96,1,67.5000025749208,0|8,0:0|0:0,0:0:0:0:
136,136,65366,5,0,0:0:0:0:
152,136,65466,2,0,L|232:136,1,67.5000025749208,8|0,0:0|0:0,0:0:0:0:
344,216,65666,1,0,0:0:0:0:
352,224,65766,2,0,L|408:280,1,67.5000025749208,0|8,0:0|0:0,0:0:0:0:
152,272,65966,2,8,L|208:216,1,67.5000025749208
400,88,66166,2,8,L|336:56,1,67.5000025749208
128,88,66366,2,8,L|192:56,1,67.5000025749208
400,88,66566,1,0,0:0:0:0:
400,88,66666,6,0,P|440:176|432:224,1,135.000005149842,4|0,0:0|0:0,0:0:0:0:
344,168,66966,2,0,L|272:192,1,67.5000025749208,0|8,0:0|0:0,0:0:0:0:
128,88,67166,2,0,L|160:152,1,67.5000025749208
144,320,67366,2,0,L|232:320,1,67.5000025749208
440,280,67566,6,0,P|448:248|432:200,1,67.5000025749208
256,80,67766,2,0,P|248:112|264:160,1,67.5000025749208,0|8,0:0|0:0,0:0:0:0:
456,280,67966,2,0,P|464:248|448:200,1,67.5000025749208
240,80,68166,2,0,P|232:112|248:160,1,67.5000025749208
360,272,68366,6,0,P|328:288|280:264,1,67.5000025749208
192,184,68566,2,0,P|160:176|120:192,1,67.5000025749208,0|8,0:0|0:0,0:0:0:0:
376,288,68766,2,0,P|344:304|296:280,1,67.5000025749208
176,168,68966,2,0,P|144:160|104:176,1,67.5000025749208
72,288,69166,5,2,0:0:0:0:
96,304,69266,1,2,0:0:0:0:
128,312,69366,1,2,0:0:0:0:
160,312,69466,1,8,0:0:0:0:
192,312,69566,1,2,0:0:0:0:
216,304,69666,1,2,0:0:0:0:
240,288,69766,1,2,0:0:0:0:
256,264,69866,5,2,0:0:0:0:
280,256,69966,1,2,0:0:0:0:
312,264,70066,1,2,0:0:0:0:
328,288,70166,1,2,0:0:0:0:
360,304,70266,1,8,0:0:0:0:
392,296,70366,1,2,0:0:0:0:
416,280,70466,2,2,P|464:248|472:224,1,67.5000025749208
480,216,70666,5,2,0:0:0:0:
472,192,70766,1,2,0:0:0:0:
456,168,70866,1,2,0:0:0:0:
440,144,70966,1,2,0:0:0:0:
416,128,71066,1,8,0:0:0:0:
384,120,71166,1,2,0:0:0:0:
344,120,71266,1,2,0:0:0:0:
312,120,71366,1,2,0:0:0:0:
112,176,71466,6,0,L|200:176,1,67.5000025749208
400,176,71666,2,0,L|304:176,1,67.5000025749208,8|0,0:0|0:0,0:0:0:0:
96,192,71866,2,0,L|184:192,1,67.5000025749208,8|0,0:0|0:0,0:0:0:0:
416,192,72066,2,0,L|320:192,1,67.5000025749208
80,208,72266,2,8,L|168:208,1,67.5000025749208
432,208,72466,2,8,L|336:208,1,67.5000025749208
256,72,72666,2,8,P|328:48|344:48,1,67.5000025749208
256,288,72866,2,8,P|184:312|168:312,1,67.5000025749208
80,160,73066,5,0,0:0:0:0:
80,160,73166,1,0,0:0:0:0:
80,160,73266,2,0,L|160:160,1,67.5000025749208
320,152,73466,2,0,L|264:216,1,67.5000025749208,8|0,0:0|0:0,0:0:0:0:
344,64,73666,2,0,L|408:112,1,67.5000025749208
496,176,73866,2,0,L|432:240,1,67.5000025749208
432,320,74066,2,0,L|480:376,1,67.5000025749208
320,264,74266,2,0,L|240:264,1,67.5000025749208,8|0,0:0|0:0,0:0:0:0:
144,264,74466,5,0,0:0:0:0:
128,248,74566,1,0,0:0:0:0:
112,232,74666,2,0,P|112:160|136:96,1,135
248,64,75066,2,0,P|328:64|392:80,1,135,8|0,0:0|0:0,0:0:0:0:
456,168,75466,2,0,P|448:240|400:288,1,135
312,288,75866,5,8,0:0:0:0:
296,288,75966,1,0,0:0:0:0:
280,288,76066,2,0,L|200:288,1,67.5000025749208
112,192,76266,2,0,L|200:192,1,67.5000025749208
392,192,76466,2,0,L|304:192,1,67.5000025749208
400,96,76666,2,0,L|480:128,1,67.5000025749208,8|0,0:0|0:0,0:0:0:0:
296,120,76866,2,0,L|296:40,1,67.5000025749208
128,48,77066,2,0,L|128:136,1,67.5000025749208
128,144,77266,5,0,0:0:0:0:
128,176,77366,1,0,0:0:0:0:
128,208,77466,1,8,0:0:0:0:
128,240,77566,1,0,0:0:0:0:
128,272,77666,1,0,0:0:0:0:
128,304,77766,1,0,0:0:0:0:
128,336,77866,2,0,P|160:360|192:360,1,67.5000025749208
328,328,78066,2,0,L|400:288,1,67.5000025749208
296,112,78266,1,8,0:0:0:0:
296,96,78366,6,0,L|296:16,1,67.5000025749208
352,200,78566,2,8,L|408:240,1,67.5000025749208
312,96,78766,2,8,L|376:40,1,67.5000025749208
336,200,78966,2,8,L|336:272,1,67.5000025749208
328,96,79166,2,8,L|400:96,1,67.5000025749208
320,200,79366,2,8,L|264:240,1,67.5000025749208
96,192,79766,5,8,0:0:0:0:
256,64,80066,1,2,0:0:0:0:
256,304,80266,1,8,0:0:0:0:
408,192,80566,1,8,0:0:0:0:
256,64,80866,1,8,0:0:0:0:
256,64,81066,2,8,P|184:72|104:160,1,180
256,200,81866,5,8,0:0:0:0:
256,200,82166,2,0,P|320:200|384:232,1,135
440,336,82666,2,0,B|368:344|296:288|208:320|112:352|64:336,1,360,8|0,0:0|0:0,0:0:0:0:
80,240,83866,2,8,P|112:184|128:160,1,90
256,72,84266,5,2,0:0:0:0:
256,72,84366,1,2,0:0:0:0:
256,72,84466,1,2,0:0:0:0:
256,72,84566,1,2,0:0:0:0:
256,72,84666,1,2,0:0:0:0:
256,72,84766,6,2,L|312:120,1,45
320,224,84966,2,2,L|280:184,1,45
272,72,85166,2,8,L|328:120,1,45
304,224,85366,2,8,L|264:184,1,45
288,72,85566,2,8,L|344:120,1,45
256,192,85866,12,0,89066,0:0:0:0:
