osu file format v14

[General]
AudioFilename: SunnyShinyRing.mp3
AudioLeadIn: 0
PreviewTime: 54193
Countdown: 0
SampleSet: Soft
StackLeniency: 0.7
Mode: 3
LetterboxInBreaks: 0
SpecialStyle: 0
WidescreenStoryboard: 0

[Editor]
DistanceSpacing: 1.05
BeatDivisor: 4
GridSize: 8
TimelineZoom: 2.6

[Metadata]
Title:SunnyShinyRing
TitleUnicode:SunnyShinyRing
Artist:Mikoko & Konohikari
ArtistUnicode:みここ & 虹野ひかり
Creator:akuma123
Version:SC
Source:BMS
Tags:BOF, III, FIGHTERS, 2006, team, nlbs, Komiya, Mao, Nekomimi, Mahotsukai
BeatmapID:815616
BeatmapSetID:372418

[Difficulty]
HPDrainRate:8.5
CircleSize:4
OverallDifficulty:8.5
ApproachRate:5
SliderMultiplier:1.4
SliderTickRate:1

[Events]
//Background and Video events
0,0,"background.jpg",0,0
//Break Periods
//Storyboard Layer 0 (Background)
//Storyboard Layer 1 (Fail)
//Storyboard Layer 2 (Pass)
//Storyboard Layer 3 (Foreground)
//Storyboard Sound Samples

[TimingPoints]
20,322.58064516129,4,2,0,30,1,0
54193,-100,4,2,0,30,0,1
74838,-100,4,2,0,30,0,0
115806,-100,4,2,0,30,0,1
136774,-100,4,2,0,30,0,0

[HitObjects]
64,192,987,5,0,0:0:0:0:
448,192,987,1,0,0:0:0:0:
320,192,1310,1,0,0:0:0:0:
448,192,1310,1,0,0:0:0:0:
64,192,1310,1,0,0:0:0:0:
192,192,1471,1,0,0:0:0:0:
64,192,1471,1,0,0:0:0:0:
64,192,1632,1,0,0:0:0:0:
448,192,1632,1,0,0:0:0:0:
320,192,1713,1,0,0:0:0:0:
192,192,1794,1,0,0:0:0:0:
64,192,1874,1,0,0:0:0:0:
192,192,1955,1,0,0:0:0:0:
448,192,1955,1,0,0:0:0:0:
320,192,2036,1,0,0:0:0:0:
64,192,2116,1,0,0:0:0:0:
192,192,2116,1,0,0:0:0:0:
320,192,2197,1,0,0:0:0:0:
448,192,2197,1,0,0:0:0:0:
192,192,2278,1,0,0:0:0:0:
320,192,2358,1,0,0:0:0:0:
448,192,2358,1,0,0:0:0:0:
64,192,2439,1,0,0:0:0:0:
192,192,2439,1,0,0:0:0:0:
448,192,2519,1,0,0:0:0:0:
320,192,2600,1,0,0:0:0:0:
64,192,2761,1,0,0:0:0:0:
192,192,2761,1,0,0:0:0:0:
320,192,2923,1,0,0:0:0:0:
448,192,2923,1,0,0:0:0:0:
64,192,3003,1,0,0:0:0:0:
192,192,3084,1,0,0:0:0:0:
320,192,3165,1,0,0:0:0:0:
448,192,3245,1,0,0:0:0:0:
64,192,3245,1,0,0:0:0:0:
192,192,3326,1,0,0:0:0:0:
320,192,3407,1,0,0:0:0:0:
448,192,3407,1,0,0:0:0:0:
192,192,3487,1,0,0:0:0:0:
64,192,3487,1,0,0:0:0:0:
320,192,3568,1,0,0:0:0:0:
192,192,3649,1,0,0:0:0:0:
64,192,3649,1,0,0:0:0:0:
320,192,3729,1,0,0:0:0:0:
448,192,3729,1,0,0:0:0:0:
192,192,3810,1,0,0:0:0:0:
320,192,3890,1,0,0:0:0:0:
64,192,4052,1,0,0:0:0:0:
192,192,4052,1,0,0:0:0:0:
64,192,4213,1,0,0:0:0:0:
448,192,4213,1,0,0:0:0:0:
192,192,4294,1,0,0:0:0:0:
320,192,4374,1,0,0:0:0:0:
448,192,4455,1,0,0:0:0:0:
320,192,4536,1,0,0:0:0:0:
64,192,4536,1,0,0:0:0:0:
192,192,4616,1,0,0:0:0:0:
320,192,4697,1,0,0:0:0:0:
448,192,4697,1,0,0:0:0:0:
192,192,4778,1,0,0:0:0:0:
64,192,4778,1,0,0:0:0:0:
448,192,4858,1,0,0:0:0:0:
192,192,4939,1,0,0:0:0:0:
64,192,4939,1,0,0:0:0:0:
320,192,5019,1,0,0:0:0:0:
448,192,5019,1,0,0:0:0:0:
192,192,5100,1,0,0:0:0:0:
320,192,5181,1,0,0:0:0:0:
64,192,5342,1,0,0:0:0:0:
192,192,5342,1,0,0:0:0:0:
64,192,5503,1,0,0:0:0:0:
320,192,5503,1,0,0:0:0:0:
192,192,5584,1,0,0:0:0:0:
448,192,5665,1,0,0:0:0:0:
320,192,5745,1,0,0:0:0:0:
192,192,5826,1,0,0:0:0:0:
448,192,5826,1,0,0:0:0:0:
64,192,5907,1,0,0:0:0:0:
320,192,5987,1,0,0:0:0:0:
448,192,5987,1,0,0:0:0:0:
192,192,6068,1,0,0:0:0:0:
64,192,6068,1,0,0:0:0:0:
320,192,6149,1,0,0:0:0:0:
192,192,6229,1,0,0:0:0:0:
64,192,6229,1,0,0:0:0:0:
320,192,6310,1,0,0:0:0:0:
448,192,6310,1,0,0:0:0:0:
192,192,6390,1,0,0:0:0:0:
64,192,6471,1,0,0:0:0:0:
320,192,6471,1,0,0:0:0:0:
448,192,6471,1,0,0:0:0:0:
192,192,6632,1,0,0:0:0:0:
448,192,6632,1,0,0:0:0:0:
64,192,6794,1,0,0:0:0:0:
192,192,6794,1,0,0:0:0:0:
448,192,6874,1,0,0:0:0:0:
320,192,6955,1,0,0:0:0:0:
192,192,7036,1,0,0:0:0:0:
64,192,7116,1,0,0:0:0:0:
448,192,7116,1,0,0:0:0:0:
192,192,7197,1,0,0:0:0:0:
320,192,7278,1,0,0:0:0:0:
448,192,7278,1,0,0:0:0:0:
192,192,7358,1,0,0:0:0:0:
64,192,7358,1,0,0:0:0:0:
320,192,7439,1,0,0:0:0:0:
192,192,7519,1,0,0:0:0:0:
64,192,7519,1,0,0:0:0:0:
320,192,7600,1,0,0:0:0:0:
448,192,7600,1,0,0:0:0:0:
64,192,7681,1,0,0:0:0:0:
192,192,7761,1,0,0:0:0:0:
448,192,7923,1,0,0:0:0:0:
64,192,7923,1,0,0:0:0:0:
192,192,8084,1,0,0:0:0:0:
320,192,8084,1,0,0:0:0:0:
448,192,8165,1,0,0:0:0:0:
320,192,8245,1,0,0:0:0:0:
192,192,8326,1,0,0:0:0:0:
64,192,8407,1,0,0:0:0:0:
448,192,8407,1,0,0:0:0:0:
320,192,8487,1,0,0:0:0:0:
192,192,8568,1,0,0:0:0:0:
64,192,8568,1,0,0:0:0:0:
320,192,8649,1,0,0:0:0:0:
448,192,8649,1,0,0:0:0:0:
192,192,8729,1,0,0:0:0:0:
320,192,8810,1,0,0:0:0:0:
448,192,8810,1,0,0:0:0:0:
192,192,8890,1,0,0:0:0:0:
64,192,8890,1,0,0:0:0:0:
448,192,8971,1,0,0:0:0:0:
320,192,9052,1,0,0:0:0:0:
192,192,9213,1,0,0:0:0:0:
320,192,9213,1,0,0:0:0:0:
448,192,9374,1,0,0:0:0:0:
64,192,9374,1,0,0:0:0:0:
320,192,9455,1,0,0:0:0:0:
192,192,9536,1,0,0:0:0:0:
64,192,9616,1,0,0:0:0:0:
192,192,9697,1,0,0:0:0:0:
448,192,9697,1,0,0:0:0:0:
320,192,9778,1,0,0:0:0:0:
192,192,9858,1,0,0:0:0:0:
64,192,9858,1,0,0:0:0:0:
320,192,9939,1,0,0:0:0:0:
448,192,9939,1,0,0:0:0:0:
192,192,10019,1,0,0:0:0:0:
320,192,10100,1,0,0:0:0:0:
448,192,10100,1,0,0:0:0:0:
192,192,10181,1,0,0:0:0:0:
64,192,10181,1,0,0:0:0:0:
320,192,10261,1,0,0:0:0:0:
192,192,10342,1,0,0:0:0:0:
64,192,10342,1,0,0:0:0:0:
448,192,10342,1,0,0:0:0:0:
320,192,10423,1,0,0:0:0:0:
448,192,10503,1,0,0:0:0:0:
192,192,10584,1,0,0:0:0:0:
64,192,10665,1,0,0:0:0:0:
320,192,10665,1,0,0:0:0:0:
448,192,10665,1,0,0:0:0:0:
192,192,10745,1,0,0:0:0:0:
320,192,10826,1,0,0:0:0:0:
64,192,10907,1,0,0:0:0:0:
192,192,10907,1,0,0:0:0:0:
448,192,10907,1,0,0:0:0:0:
320,192,10987,1,0,0:0:0:0:
64,192,11068,1,0,0:0:0:0:
192,192,11068,1,0,0:0:0:0:
448,192,11068,1,0,0:0:0:0:
320,192,11149,1,0,0:0:0:0:
192,192,11229,1,0,0:0:0:0:
64,192,11229,1,0,0:0:0:0:
448,192,11310,1,0,0:0:0:0:
320,192,11350,1,0,0:0:0:0:
192,192,11390,1,0,0:0:0:0:
64,192,11431,1,0,0:0:0:0:
448,192,11471,1,0,0:0:0:0:
320,192,11511,1,0,0:0:0:0:
192,192,11552,1,0,0:0:0:0:
64,192,11592,1,0,0:0:0:0:
320,192,11632,1,0,0:0:0:0:
448,192,11632,1,0,0:0:0:0:
192,192,11713,1,0,0:0:0:0:
64,192,11794,1,0,0:0:0:0:
448,192,11794,1,0,0:0:0:0:
320,192,11874,1,0,0:0:0:0:
448,192,11955,1,0,0:0:0:0:
64,192,11955,1,0,0:0:0:0:
192,192,12036,1,0,0:0:0:0:
320,192,12116,1,0,0:0:0:0:
448,192,12116,1,0,0:0:0:0:
64,192,12197,1,0,0:0:0:0:
192,192,12278,1,0,0:0:0:0:
448,192,12278,1,0,0:0:0:0:
320,192,12358,1,0,0:0:0:0:
448,192,12439,1,0,0:0:0:0:
64,192,12439,1,0,0:0:0:0:
320,192,12519,1,0,0:0:0:0:
192,192,12600,1,0,0:0:0:0:
64,192,12600,1,0,0:0:0:0:
448,192,12681,1,0,0:0:0:0:
320,192,12761,1,0,0:0:0:0:
192,192,12761,1,0,0:0:0:0:
64,192,12842,1,0,0:0:0:0:
320,192,12923,1,0,0:0:0:0:
448,192,12923,1,0,0:0:0:0:
192,192,13003,1,0,0:0:0:0:
64,192,13084,1,0,0:0:0:0:
448,192,13084,1,0,0:0:0:0:
192,192,13165,1,0,0:0:0:0:
64,192,13245,1,0,0:0:0:0:
320,192,13245,1,0,0:0:0:0:
448,192,13326,1,0,0:0:0:0:
192,192,13407,1,0,0:0:0:0:
320,192,13407,1,0,0:0:0:0:
448,192,13487,1,0,0:0:0:0:
64,192,13487,1,0,0:0:0:0:
192,192,13568,1,0,0:0:0:0:
320,192,13649,1,0,0:0:0:0:
448,192,13649,1,0,0:0:0:0:
192,192,13729,1,0,0:0:0:0:
64,192,13729,1,0,0:0:0:0:
320,192,13810,1,0,0:0:0:0:
448,192,13890,1,0,0:0:0:0:
64,192,13890,1,0,0:0:0:0:
192,192,13971,1,0,0:0:0:0:
64,192,14052,1,0,0:0:0:0:
320,192,14052,1,0,0:0:0:0:
192,192,14132,1,0,0:0:0:0:
320,192,14213,1,0,0:0:0:0:
448,192,14213,1,0,0:0:0:0:
64,192,14294,1,0,0:0:0:0:
192,192,14374,1,0,0:0:0:0:
448,192,14374,1,0,0:0:0:0:
320,192,14455,1,0,0:0:0:0:
448,192,14536,1,0,0:0:0:0:
64,192,14536,1,0,0:0:0:0:
320,192,14616,1,0,0:0:0:0:
64,192,14697,1,0,0:0:0:0:
192,192,14697,1,0,0:0:0:0:
320,192,14778,1,0,0:0:0:0:
448,192,14778,1,0,0:0:0:0:
192,192,14858,1,0,0:0:0:0:
64,192,14858,1,0,0:0:0:0:
320,192,14939,1,0,0:0:0:0:
64,192,15019,1,0,0:0:0:0:
448,192,15019,1,0,0:0:0:0:
320,192,15100,1,0,0:0:0:0:
64,192,15181,1,0,0:0:0:0:
192,192,15181,1,0,0:0:0:0:
320,192,15261,1,0,0:0:0:0:
192,192,15342,1,0,0:0:0:0:
448,192,15342,1,0,0:0:0:0:
64,192,15423,1,0,0:0:0:0:
192,192,15503,1,0,0:0:0:0:
320,192,15503,1,0,0:0:0:0:
64,192,15584,1,0,0:0:0:0:
448,192,15584,1,0,0:0:0:0:
320,192,15665,1,0,0:0:0:0:
192,192,15665,1,0,0:0:0:0:
64,192,15745,1,0,0:0:0:0:
320,192,15826,1,0,0:0:0:0:
448,192,15826,1,0,0:0:0:0:
192,192,15907,1,0,0:0:0:0:
64,192,15907,1,0,0:0:0:0:
320,192,15987,1,0,0:0:0:0:
448,192,15987,1,0,0:0:0:0:
192,192,16068,1,0,0:0:0:0:
64,192,16149,1,0,0:0:0:0:
448,192,16149,1,0,0:0:0:0:
320,192,16229,1,0,0:0:0:0:
192,192,16229,1,0,0:0:0:0:
64,192,16310,1,0,0:0:0:0:
448,192,16310,1,0,0:0:0:0:
320,192,16390,1,0,0:0:0:0:
64,192,16471,1,0,0:0:0:0:
192,192,16471,1,0,0:0:0:0:
320,192,16552,1,0,0:0:0:0:
448,192,16632,1,0,0:0:0:0:
64,192,16632,1,0,0:0:0:0:
192,192,16713,1,0,0:0:0:0:
320,192,16713,1,0,0:0:0:0:
448,192,16794,1,0,0:0:0:0:
64,192,16794,1,0,0:0:0:0:
192,192,16874,1,0,0:0:0:0:
320,192,16915,1,0,0:0:0:0:
448,192,16955,1,0,0:0:0:0:
64,192,16955,1,0,0:0:0:0:
192,192,17036,1,0,0:0:0:0:
64,192,17116,1,0,0:0:0:0:
448,192,17116,1,0,0:0:0:0:
320,192,17197,1,0,0:0:0:0:
64,192,17278,1,0,0:0:0:0:
192,192,17278,1,0,0:0:0:0:
320,192,17358,1,0,0:0:0:0:
448,192,17358,1,0,0:0:0:0:
192,192,17439,1,0,0:0:0:0:
64,192,17439,1,0,0:0:0:0:
320,192,17519,1,0,0:0:0:0:
448,192,17519,1,0,0:0:0:0:
192,192,17600,1,0,0:0:0:0:
64,192,17600,1,0,0:0:0:0:
320,192,17681,1,0,0:0:0:0:
448,192,17681,1,0,0:0:0:0:
192,192,17761,1,0,0:0:0:0:
64,192,17761,1,0,0:0:0:0:
320,192,17842,1,0,0:0:0:0:
64,192,17923,1,0,0:0:0:0:
448,192,17923,1,0,0:0:0:0:
192,192,18003,1,0,0:0:0:0:
320,192,18084,1,0,0:0:0:0:
448,192,18084,1,0,0:0:0:0:
192,192,18165,1,0,0:0:0:0:
64,192,18245,1,0,0:0:0:0:
320,192,18245,1,0,0:0:0:0:
448,192,18326,1,0,0:0:0:0:
320,192,18407,1,0,0:0:0:0:
192,192,18407,1,0,0:0:0:0:
64,192,18487,1,0,0:0:0:0:
192,192,18568,1,0,0:0:0:0:
448,192,18568,1,0,0:0:0:0:
320,192,18649,1,0,0:0:0:0:
448,192,18729,1,0,0:0:0:0:
64,192,18729,1,0,0:0:0:0:
192,192,18810,1,0,0:0:0:0:
320,192,18890,1,0,0:0:0:0:
448,192,18890,1,0,0:0:0:0:
64,192,18971,1,0,0:0:0:0:
192,192,19052,1,0,0:0:0:0:
320,192,19052,1,0,0:0:0:0:
448,192,19132,1,0,0:0:0:0:
320,192,19213,1,0,0:0:0:0:
64,192,19213,1,0,0:0:0:0:
192,192,19294,1,0,0:0:0:0:
64,192,19374,1,0,0:0:0:0:
448,192,19374,1,0,0:0:0:0:
192,192,19455,1,0,0:0:0:0:
320,192,19536,1,0,0:0:0:0:
448,192,19536,1,0,0:0:0:0:
64,192,19616,1,0,0:0:0:0:
192,192,19697,1,0,0:0:0:0:
320,192,19697,1,0,0:0:0:0:
448,192,19778,1,0,0:0:0:0:
320,192,19858,1,0,0:0:0:0:
64,192,19858,1,0,0:0:0:0:
192,192,19939,1,0,0:0:0:0:
64,192,20019,1,0,0:0:0:0:
448,192,20019,1,0,0:0:0:0:
320,192,20100,1,0,0:0:0:0:
192,192,20181,1,0,0:0:0:0:
448,192,20181,1,0,0:0:0:0:
64,192,20261,1,0,0:0:0:0:
320,192,20342,1,0,0:0:0:0:
448,192,20342,1,0,0:0:0:0:
192,192,20423,1,0,0:0:0:0:
64,192,20503,1,0,0:0:0:0:
448,192,20503,1,0,0:0:0:0:
192,192,20584,1,0,0:0:0:0:
320,192,20584,1,0,0:0:0:0:
64,192,20665,1,0,0:0:0:0:
448,192,20665,128,0,21794:0:0:0:0:
320,192,20745,1,0,0:0:0:0:
192,192,20826,1,0,0:0:0:0:
64,192,20826,1,0,0:0:0:0:
320,192,20907,1,0,0:0:0:0:
64,192,20987,1,0,0:0:0:0:
192,192,20987,1,0,0:0:0:0:
320,192,21068,1,0,0:0:0:0:
192,192,21149,1,0,0:0:0:0:
64,192,21229,1,0,0:0:0:0:
192,192,21310,1,0,0:0:0:0:
320,192,21310,1,0,0:0:0:0:
64,192,21390,1,0,0:0:0:0:
192,192,21471,1,0,0:0:0:0:
64,192,21552,1,0,0:0:0:0:
320,192,21552,1,0,0:0:0:0:
192,192,21632,1,0,0:0:0:0:
320,192,21713,1,0,0:0:0:0:
64,192,21794,1,0,0:0:0:0:
192,192,21794,1,0,0:0:0:0:
320,192,21874,1,0,0:0:0:0:
448,192,21874,1,0,0:0:0:0:
64,192,21955,1,0,0:0:0:0:
192,192,21955,1,0,0:0:0:0:
320,192,22036,1,0,0:0:0:0:
448,192,22036,1,0,0:0:0:0:
192,192,22116,1,0,0:0:0:0:
64,192,22116,1,0,0:0:0:0:
320,192,22197,1,0,0:0:0:0:
64,192,22278,1,0,0:0:0:0:
448,192,22278,1,0,0:0:0:0:
192,192,22358,1,0,0:0:0:0:
320,192,22358,1,0,0:0:0:0:
448,192,22439,1,0,0:0:0:0:
64,192,22439,1,0,0:0:0:0:
192,192,22519,1,0,0:0:0:0:
320,192,22600,1,0,0:0:0:0:
448,192,22600,1,0,0:0:0:0:
192,192,22681,1,0,0:0:0:0:
64,192,22681,1,0,0:0:0:0:
320,192,22761,1,0,0:0:0:0:
448,192,22761,1,0,0:0:0:0:
192,192,22842,1,0,0:0:0:0:
64,192,22923,1,0,0:0:0:0:
448,192,22923,1,0,0:0:0:0:
320,192,23003,1,0,0:0:0:0:
192,192,23003,1,0,0:0:0:0:
64,192,23084,1,0,0:0:0:0:
448,192,23084,1,0,0:0:0:0:
192,192,23165,1,0,0:0:0:0:
64,192,23245,1,0,0:0:0:0:
320,192,23245,1,0,0:0:0:0:
448,192,23245,1,0,0:0:0:0:
64,192,23407,1,0,0:0:0:0:
448,192,23407,1,0,0:0:0:0:
192,192,23568,1,0,0:0:0:0:
64,192,23568,1,0,0:0:0:0:
448,192,23649,1,0,0:0:0:0:
320,192,23729,1,0,0:0:0:0:
448,192,23810,1,0,0:0:0:0:
192,192,23890,1,0,0:0:0:0:
64,192,23890,1,0,0:0:0:0:
320,192,23971,1,0,0:0:0:0:
448,192,24052,1,0,0:0:0:0:
64,192,24132,1,0,0:0:0:0:
192,192,24132,1,0,0:0:0:0:
320,192,24213,1,0,0:0:0:0:
448,192,24213,1,0,0:0:0:0:
192,192,24294,1,0,0:0:0:0:
64,192,24374,1,0,0:0:0:0:
448,192,24374,1,0,0:0:0:0:
192,192,24455,1,0,0:0:0:0:
320,192,24536,1,0,0:0:0:0:
448,192,24536,1,0,0:0:0:0:
192,192,24697,1,0,0:0:0:0:
448,192,24697,1,0,0:0:0:0:
192,192,24858,1,0,0:0:0:0:
64,192,24858,1,0,0:0:0:0:
448,192,24939,1,0,0:0:0:0:
320,192,25019,1,0,0:0:0:0:
192,192,25100,1,0,0:0:0:0:
320,192,25181,1,0,0:0:0:0:
448,192,25181,1,0,0:0:0:0:
64,192,25261,1,0,0:0:0:0:
448,192,25342,1,0,0:0:0:0:
64,192,25423,1,0,0:0:0:0:
192,192,25423,1,0,0:0:0:0:
320,192,25503,1,0,0:0:0:0:
448,192,25503,1,0,0:0:0:0:
192,192,25584,1,0,0:0:0:0:
64,192,25665,1,0,0:0:0:0:
448,192,25665,1,0,0:0:0:0:
320,192,25745,1,0,0:0:0:0:
192,192,25826,1,0,0:0:0:0:
64,192,25826,1,0,0:0:0:0:
64,192,25987,1,0,0:0:0:0:
448,192,25987,1,0,0:0:0:0:
320,192,26149,1,0,0:0:0:0:
448,192,26149,1,0,0:0:0:0:
64,192,26229,1,0,0:0:0:0:
192,192,26310,1,0,0:0:0:0:
320,192,26390,1,0,0:0:0:0:
64,192,26471,1,0,0:0:0:0:
192,192,26471,1,0,0:0:0:0:
320,192,26552,1,0,0:0:0:0:
64,192,26632,1,0,0:0:0:0:
448,192,26713,1,0,0:0:0:0:
320,192,26713,1,0,0:0:0:0:
192,192,26794,1,0,0:0:0:0:
64,192,26794,1,0,0:0:0:0:
320,192,26874,1,0,0:0:0:0:
192,192,26955,1,0,0:0:0:0:
448,192,26955,1,0,0:0:0:0:
64,192,27036,1,0,0:0:0:0:
320,192,27116,1,0,0:0:0:0:
448,192,27116,1,0,0:0:0:0:
320,192,27278,1,0,0:0:0:0:
192,192,27278,1,0,0:0:0:0:
64,192,27439,1,0,0:0:0:0:
192,192,27439,1,0,0:0:0:0:
320,192,27519,1,0,0:0:0:0:
448,192,27600,1,0,0:0:0:0:
320,192,27681,1,0,0:0:0:0:
192,192,27761,1,0,0:0:0:0:
64,192,27761,1,0,0:0:0:0:
448,192,27842,1,0,0:0:0:0:
320,192,27923,1,0,0:0:0:0:
192,192,28003,1,0,0:0:0:0:
64,192,28003,1,0,0:0:0:0:
320,192,28084,1,0,0:0:0:0:
448,192,28084,1,0,0:0:0:0:
64,192,28165,1,0,0:0:0:0:
192,192,28245,1,0,0:0:0:0:
320,192,28245,1,0,0:0:0:0:
448,192,28326,1,0,0:0:0:0:
320,192,28407,1,0,0:0:0:0:
192,192,28407,1,0,0:0:0:0:
64,192,28407,1,0,0:0:0:0:
320,192,28568,1,0,0:0:0:0:
448,192,28568,1,0,0:0:0:0:
192,192,28729,1,0,0:0:0:0:
448,192,28729,1,0,0:0:0:0:
320,192,28810,1,0,0:0:0:0:
64,192,28890,1,0,0:0:0:0:
192,192,28971,1,0,0:0:0:0:
320,192,29052,1,0,0:0:0:0:
448,192,29052,1,0,0:0:0:0:
192,192,29132,1,0,0:0:0:0:
448,192,29213,1,0,0:0:0:0:
192,192,29294,1,0,0:0:0:0:
64,192,29294,1,0,0:0:0:0:
320,192,29374,1,0,0:0:0:0:
448,192,29374,1,0,0:0:0:0:
192,192,29455,1,0,0:0:0:0:
64,192,29536,1,0,0:0:0:0:
320,192,29536,1,0,0:0:0:0:
192,192,29616,1,0,0:0:0:0:
320,192,29697,1,0,0:0:0:0:
448,192,29697,1,0,0:0:0:0:
192,192,29858,1,0,0:0:0:0:
64,192,29858,1,0,0:0:0:0:
64,192,30019,1,0,0:0:0:0:
448,192,30019,1,0,0:0:0:0:
192,192,30100,1,0,0:0:0:0:
448,192,30181,1,0,0:0:0:0:
320,192,30261,1,0,0:0:0:0:
192,192,30342,1,0,0:0:0:0:
64,192,30342,1,0,0:0:0:0:
320,192,30423,1,0,0:0:0:0:
192,192,30503,1,0,0:0:0:0:
320,192,30584,1,0,0:0:0:0:
64,192,30584,1,0,0:0:0:0:
192,192,30665,1,0,0:0:0:0:
448,192,30665,1,0,0:0:0:0:
64,192,30745,1,0,0:0:0:0:
320,192,30826,1,0,0:0:0:0:
448,192,30826,1,0,0:0:0:0:
192,192,30907,1,0,0:0:0:0:
320,192,30987,1,0,0:0:0:0:
448,192,30987,1,0,0:0:0:0:
192,192,31149,1,0,0:0:0:0:
64,192,31149,1,0,0:0:0:0:
320,192,31310,1,0,0:0:0:0:
448,192,31310,1,0,0:0:0:0:
192,192,31390,1,0,0:0:0:0:
320,192,31471,1,0,0:0:0:0:
192,192,31552,1,0,0:0:0:0:
320,192,31632,1,0,0:0:0:0:
64,192,31632,1,0,0:0:0:0:
192,192,31713,1,0,0:0:0:0:
320,192,31794,1,0,0:0:0:0:
192,192,31874,1,0,0:0:0:0:
448,192,31874,1,0,0:0:0:0:
320,192,31955,1,0,0:0:0:0:
64,192,31955,1,0,0:0:0:0:
448,192,32036,1,0,0:0:0:0:
64,192,32116,1,0,0:0:0:0:
192,192,32170,1,0,0:0:0:0:
320,192,32224,1,0,0:0:0:0:
64,192,32278,1,0,0:0:0:0:
448,192,32278,128,0,32519:0:0:0:0:
192,192,32439,1,0,0:0:0:0:
320,192,32439,1,0,0:0:0:0:
320,192,32600,128,0,32842:0:0:0:0:
64,192,32600,1,0,0:0:0:0:
192,192,32681,1,0,0:0:0:0:
64,192,32761,1,0,0:0:0:0:
448,192,32842,1,0,0:0:0:0:
320,192,32923,1,0,0:0:0:0:
192,192,32923,128,0,33165:0:0:0:0:
448,192,33003,1,0,0:0:0:0:
64,192,33084,1,0,0:0:0:0:
320,192,33165,1,0,0:0:0:0:
448,192,33165,1,0,0:0:0:0:
64,192,33245,128,0,33487:0:0:0:0:
192,192,33245,1,0,0:0:0:0:
320,192,33326,1,0,0:0:0:0:
192,192,33407,1,0,0:0:0:0:
448,192,33407,1,0,0:0:0:0:
320,192,33487,1,0,0:0:0:0:
192,192,33568,1,0,0:0:0:0:
64,192,33568,1,0,0:0:0:0:
448,192,33568,128,0,34374:0:0:0:0:
192,192,33729,1,0,0:0:0:0:
320,192,33729,1,0,0:0:0:0:
64,192,33890,1,0,0:0:0:0:
192,192,33890,1,0,0:0:0:0:
320,192,33971,1,0,0:0:0:0:
64,192,34052,1,0,0:0:0:0:
192,192,34132,1,0,0:0:0:0:
320,192,34213,1,0,0:0:0:0:
64,192,34213,1,0,0:0:0:0:
192,192,34294,1,0,0:0:0:0:
320,192,34374,1,0,0:0:0:0:
192,192,34455,1,0,0:0:0:0:
64,192,34455,1,0,0:0:0:0:
320,192,34536,1,0,0:0:0:0:
448,192,34536,1,0,0:0:0:0:
64,192,34616,1,0,0:0:0:0:
192,192,34697,1,0,0:0:0:0:
320,192,34697,1,0,0:0:0:0:
448,192,34778,1,0,0:0:0:0:
64,192,34858,1,0,0:0:0:0:
64,192,35019,1,0,0:0:0:0:
448,192,35019,1,0,0:0:0:0:
448,192,35181,1,0,0:0:0:0:
192,192,35181,1,0,0:0:0:0:
320,192,35261,1,0,0:0:0:0:
64,192,35342,1,0,0:0:0:0:
192,192,35423,1,0,0:0:0:0:
320,192,35503,1,0,0:0:0:0:
448,192,35503,1,0,0:0:0:0:
192,192,35584,1,0,0:0:0:0:
448,192,35665,1,0,0:0:0:0:
64,192,35745,1,0,0:0:0:0:
192,192,35745,1,0,0:0:0:0:
320,192,35826,1,0,0:0:0:0:
448,192,35826,1,0,0:0:0:0:
192,192,35907,1,0,0:0:0:0:
64,192,35987,1,0,0:0:0:0:
448,192,35987,1,0,0:0:0:0:
192,192,36068,1,0,0:0:0:0:
320,192,36149,1,0,0:0:0:0:
448,192,36149,1,0,0:0:0:0:
64,192,36310,1,0,0:0:0:0:
192,192,36310,1,0,0:0:0:0:
64,192,36471,1,0,0:0:0:0:
448,192,36471,1,0,0:0:0:0:
192,192,36552,1,0,0:0:0:0:
320,192,36632,1,0,0:0:0:0:
448,192,36713,1,0,0:0:0:0:
320,192,36794,1,0,0:0:0:0:
64,192,36794,1,0,0:0:0:0:
192,192,36874,1,0,0:0:0:0:
448,192,36955,1,0,0:0:0:0:
320,192,37036,1,0,0:0:0:0:
192,192,37036,1,0,0:0:0:0:
64,192,37116,1,0,0:0:0:0:
448,192,37116,1,0,0:0:0:0:
192,192,37197,1,0,0:0:0:0:
320,192,37278,1,0,0:0:0:0:
448,192,37278,1,0,0:0:0:0:
192,192,37358,1,0,0:0:0:0:
320,192,37439,1,0,0:0:0:0:
448,192,37439,1,0,0:0:0:0:
64,192,37600,1,0,0:0:0:0:
192,192,37600,1,0,0:0:0:0:
192,192,37761,1,0,0:0:0:0:
448,192,37761,1,0,0:0:0:0:
320,192,37842,1,0,0:0:0:0:
64,192,37923,1,0,0:0:0:0:
192,192,38003,1,0,0:0:0:0:
320,192,38084,1,0,0:0:0:0:
448,192,38084,1,0,0:0:0:0:
192,192,38165,1,0,0:0:0:0:
448,192,38245,1,0,0:0:0:0:
320,192,38326,1,0,0:0:0:0:
192,192,38326,1,0,0:0:0:0:
64,192,38407,1,0,0:0:0:0:
448,192,38407,1,0,0:0:0:0:
320,192,38487,1,0,0:0:0:0:
64,192,38568,1,0,0:0:0:0:
448,192,38568,1,0,0:0:0:0:
192,192,38649,1,0,0:0:0:0:
64,192,38729,1,0,0:0:0:0:
320,192,38729,1,0,0:0:0:0:
448,192,38729,1,0,0:0:0:0:
64,192,38890,1,0,0:0:0:0:
448,192,38890,1,0,0:0:0:0:
192,192,39052,1,0,0:0:0:0:
448,192,39052,1,0,0:0:0:0:
64,192,39132,1,0,0:0:0:0:
192,192,39213,1,0,0:0:0:0:
320,192,39294,1,0,0:0:0:0:
192,192,39374,1,0,0:0:0:0:
448,192,39374,1,0,0:0:0:0:
64,192,39455,1,0,0:0:0:0:
448,192,39536,1,0,0:0:0:0:
64,192,39616,1,0,0:0:0:0:
192,192,39616,1,0,0:0:0:0:
320,192,39697,1,0,0:0:0:0:
448,192,39697,1,0,0:0:0:0:
192,192,39778,1,0,0:0:0:0:
320,192,39858,1,0,0:0:0:0:
64,192,39858,1,0,0:0:0:0:
192,192,39939,1,0,0:0:0:0:
320,192,40019,1,0,0:0:0:0:
448,192,40019,1,0,0:0:0:0:
192,192,40181,1,0,0:0:0:0:
448,192,40181,1,0,0:0:0:0:
64,192,40342,1,0,0:0:0:0:
192,192,40342,1,0,0:0:0:0:
448,192,40423,1,0,0:0:0:0:
320,192,40503,1,0,0:0:0:0:
448,192,40584,1,0,0:0:0:0:
192,192,40665,1,0,0:0:0:0:
64,192,40665,1,0,0:0:0:0:
320,192,40745,1,0,0:0:0:0:
192,192,40826,1,0,0:0:0:0:
320,192,40907,1,0,0:0:0:0:
448,192,40907,1,0,0:0:0:0:
192,192,40987,1,0,0:0:0:0:
64,192,40987,1,0,0:0:0:0:
448,192,41068,1,0,0:0:0:0:
320,192,41149,1,0,0:0:0:0:
192,192,41149,1,0,0:0:0:0:
64,192,41229,1,0,0:0:0:0:
320,192,41310,1,0,0:0:0:0:
448,192,41310,1,0,0:0:0:0:
64,192,41471,1,0,0:0:0:0:
448,192,41471,1,0,0:0:0:0:
320,192,41632,1,0,0:0:0:0:
448,192,41632,1,0,0:0:0:0:
192,192,41713,1,0,0:0:0:0:
64,192,41794,1,0,0:0:0:0:
448,192,41874,1,0,0:0:0:0:
320,192,41955,1,0,0:0:0:0:
192,192,41955,1,0,0:0:0:0:
64,192,42036,1,0,0:0:0:0:
448,192,42116,1,0,0:0:0:0:
320,192,42197,1,0,0:0:0:0:
64,192,42197,1,0,0:0:0:0:
192,192,42278,1,0,0:0:0:0:
448,192,42278,1,0,0:0:0:0:
320,192,42358,1,0,0:0:0:0:
64,192,42439,1,0,0:0:0:0:
192,192,42439,1,0,0:0:0:0:
320,192,42519,1,0,0:0:0:0:
448,192,42519,1,0,0:0:0:0:
192,192,42600,1,0,0:0:0:0:
64,192,42600,1,0,0:0:0:0:
320,192,42681,1,0,0:0:0:0:
448,192,42681,1,0,0:0:0:0:
192,192,42761,1,0,0:0:0:0:
64,192,42842,1,0,0:0:0:0:
448,192,42842,1,0,0:0:0:0:
192,192,42923,1,0,0:0:0:0:
320,192,42923,1,0,0:0:0:0:
448,192,43003,1,0,0:0:0:0:
64,192,43084,1,0,0:0:0:0:
192,192,43084,1,0,0:0:0:0:
320,192,43165,1,0,0:0:0:0:
448,192,43165,1,0,0:0:0:0:
192,192,43245,1,0,0:0:0:0:
64,192,43326,1,0,0:0:0:0:
448,192,43326,1,0,0:0:0:0:
192,192,43407,1,0,0:0:0:0:
320,192,43407,1,0,0:0:0:0:
448,192,43487,1,0,0:0:0:0:
64,192,43568,1,0,0:0:0:0:
192,192,43568,1,0,0:0:0:0:
320,192,43649,1,0,0:0:0:0:
448,192,43649,1,0,0:0:0:0:
64,192,43729,1,0,0:0:0:0:
192,192,43729,1,0,0:0:0:0:
320,192,43810,1,0,0:0:0:0:
64,192,43890,1,0,0:0:0:0:
192,192,43890,1,0,0:0:0:0:
448,192,43890,1,0,0:0:0:0:
320,192,44052,1,0,0:0:0:0:
320,192,44213,1,0,0:0:0:0:
64,192,44294,1,0,0:0:0:0:
192,192,44374,1,0,0:0:0:0:
320,192,44374,1,0,0:0:0:0:
448,192,44455,1,0,0:0:0:0:
64,192,44536,1,0,0:0:0:0:
192,192,44536,1,0,0:0:0:0:
320,192,44616,1,0,0:0:0:0:
448,192,44697,1,0,0:0:0:0:
192,192,44778,1,0,0:0:0:0:
320,192,44778,1,0,0:0:0:0:
64,192,44858,1,0,0:0:0:0:
320,192,44939,1,0,0:0:0:0:
192,192,45019,1,0,0:0:0:0:
448,192,45019,1,0,0:0:0:0:
64,192,45100,1,0,0:0:0:0:
192,192,45181,1,0,0:0:0:0:
320,192,45342,1,0,0:0:0:0:
448,192,45342,1,0,0:0:0:0:
320,192,45503,1,0,0:0:0:0:
448,192,45503,1,0,0:0:0:0:
192,192,45584,1,0,0:0:0:0:
64,192,45665,1,0,0:0:0:0:
320,192,45745,1,0,0:0:0:0:
448,192,45745,1,0,0:0:0:0:
192,192,45826,1,0,0:0:0:0:
448,192,45907,1,0,0:0:0:0:
64,192,45987,1,0,0:0:0:0:
192,192,45987,1,0,0:0:0:0:
320,192,46068,1,0,0:0:0:0:
448,192,46149,1,0,0:0:0:0:
64,192,46149,1,0,0:0:0:0:
320,192,46229,1,0,0:0:0:0:
192,192,46310,1,0,0:0:0:0:
320,192,46390,1,0,0:0:0:0:
192,192,46471,1,0,0:0:0:0:
64,192,46471,1,0,0:0:0:0:
320,192,46632,1,0,0:0:0:0:
320,192,46794,1,0,0:0:0:0:
448,192,46874,1,0,0:0:0:0:
64,192,46955,1,0,0:0:0:0:
192,192,46955,1,0,0:0:0:0:
320,192,47036,1,0,0:0:0:0:
64,192,47116,1,0,0:0:0:0:
448,192,47116,1,0,0:0:0:0:
192,192,47197,1,0,0:0:0:0:
320,192,47278,1,0,0:0:0:0:
192,192,47358,1,0,0:0:0:0:
64,192,47358,1,0,0:0:0:0:
448,192,47439,1,0,0:0:0:0:
320,192,47519,1,0,0:0:0:0:
448,192,47600,1,0,0:0:0:0:
64,192,47600,1,0,0:0:0:0:
320,192,47681,1,0,0:0:0:0:
192,192,47761,1,0,0:0:0:0:
320,192,47923,1,0,0:0:0:0:
448,192,47923,1,0,0:0:0:0:
192,192,48084,1,0,0:0:0:0:
64,192,48084,1,0,0:0:0:0:
320,192,48165,1,0,0:0:0:0:
448,192,48245,1,0,0:0:0:0:
64,192,48326,1,0,0:0:0:0:
192,192,48326,1,0,0:0:0:0:
320,192,48407,1,0,0:0:0:0:
64,192,48487,1,0,0:0:0:0:
192,192,48568,1,0,0:0:0:0:
320,192,48568,1,0,0:0:0:0:
448,192,48649,1,0,0:0:0:0:
64,192,48729,1,0,0:0:0:0:
192,192,48729,1,0,0:0:0:0:
320,192,48810,1,0,0:0:0:0:
448,192,48890,1,0,0:0:0:0:
64,192,48890,1,0,0:0:0:0:
192,192,48971,1,0,0:0:0:0:
64,192,49052,1,0,0:0:0:0:
320,192,49052,1,0,0:0:0:0:
448,192,49052,1,0,0:0:0:0:
192,192,49213,1,0,0:0:0:0:
192,192,49374,1,0,0:0:0:0:
320,192,49455,1,0,0:0:0:0:
448,192,49536,1,0,0:0:0:0:
64,192,49536,1,0,0:0:0:0:
192,192,49616,1,0,0:0:0:0:
320,192,49697,1,0,0:0:0:0:
448,192,49697,1,0,0:0:0:0:
192,192,49778,1,0,0:0:0:0:
320,192,49858,1,0,0:0:0:0:
192,192,49939,1,0,0:0:0:0:
64,192,49939,1,0,0:0:0:0:
448,192,50019,1,0,0:0:0:0:
320,192,50100,1,0,0:0:0:0:
192,192,50181,1,0,0:0:0:0:
64,192,50181,1,0,0:0:0:0:
320,192,50261,1,0,0:0:0:0:
192,192,50342,1,0,0:0:0:0:
320,192,50503,1,0,0:0:0:0:
448,192,50503,1,0,0:0:0:0:
448,192,50665,1,0,0:0:0:0:
64,192,50665,1,0,0:0:0:0:
192,192,50745,1,0,0:0:0:0:
320,192,50826,1,0,0:0:0:0:
192,192,50907,1,0,0:0:0:0:
448,192,50907,1,0,0:0:0:0:
320,192,50987,1,0,0:0:0:0:
448,192,51068,1,0,0:0:0:0:
320,192,51149,1,0,0:0:0:0:
64,192,51149,1,0,0:0:0:0:
192,192,51229,1,0,0:0:0:0:
320,192,51310,1,0,0:0:0:0:
448,192,51310,1,0,0:0:0:0:
64,192,51390,1,0,0:0:0:0:
192,192,51471,1,0,0:0:0:0:
320,192,51552,1,0,0:0:0:0:
64,192,51632,1,0,0:0:0:0:
448,192,51632,1,0,0:0:0:0:
320,192,51794,1,0,0:0:0:0:
192,192,51955,1,0,0:0:0:0:
64,192,51955,1,0,0:0:0:0:
320,192,52036,1,0,0:0:0:0:
448,192,52116,1,0,0:0:0:0:
192,192,52197,1,0,0:0:0:0:
320,192,52278,1,0,0:0:0:0:
64,192,52278,1,0,0:0:0:0:
448,192,52358,1,0,0:0:0:0:
192,192,52439,1,0,0:0:0:0:
448,192,52519,1,0,0:0:0:0:
64,192,52519,1,0,0:0:0:0:
320,192,52600,1,0,0:0:0:0:
192,192,52681,1,0,0:0:0:0:
64,192,52761,5,0,0:0:0:0:
320,192,52761,1,0,0:0:0:0:
448,192,52761,1,0,0:0:0:0:
192,192,52923,1,0,0:0:0:0:
320,192,53003,1,0,0:0:0:0:
448,192,53003,1,0,0:0:0:0:
192,192,53084,1,0,0:0:0:0:
64,192,53165,1,0,0:0:0:0:
448,192,53165,1,0,0:0:0:0:
192,192,53245,1,0,0:0:0:0:
320,192,53245,1,0,0:0:0:0:
448,192,53326,1,0,0:0:0:0:
64,192,53407,1,0,0:0:0:0:
320,192,53407,1,0,0:0:0:0:
192,192,53487,1,0,0:0:0:0:
64,192,53568,1,0,0:0:0:0:
320,192,53568,1,0,0:0:0:0:
448,192,53568,1,0,0:0:0:0:
64,192,53890,5,0,0:0:0:0:
192,192,53890,1,0,0:0:0:0:
320,192,53890,1,0,0:0:0:0:
448,192,53890,1,0,0:0:0:0:
64,192,54213,1,0,0:0:0:0:
192,192,54213,1,0,0:0:0:0:
448,192,54213,1,0,0:0:0:0:
320,192,54294,1,0,0:0:0:0:
64,192,54374,1,0,0:0:0:0:
192,192,54374,1,0,0:0:0:0:
320,192,54455,1,0,0:0:0:0:
448,192,54455,1,0,0:0:0:0:
192,192,54536,1,0,0:0:0:0:
64,192,54536,1,0,0:0:0:0:
320,192,54616,1,0,0:0:0:0:
448,192,54616,1,0,0:0:0:0:
192,192,54697,1,0,0:0:0:0:
64,192,54697,1,0,0:0:0:0:
320,192,54778,1,0,0:0:0:0:
192,192,54858,1,0,0:0:0:0:
64,192,54939,1,0,0:0:0:0:
192,192,55019,1,0,0:0:0:0:
448,192,55019,1,0,0:0:0:0:
320,192,55100,1,0,0:0:0:0:
64,192,55100,1,0,0:0:0:0:
192,192,55181,1,0,0:0:0:0:
448,192,55181,1,0,0:0:0:0:
320,192,55261,1,0,0:0:0:0:
64,192,55261,1,0,0:0:0:0:
192,192,55342,1,0,0:0:0:0:
448,192,55342,1,0,0:0:0:0:
320,192,55423,1,0,0:0:0:0:
192,192,55503,1,0,0:0:0:0:
64,192,55584,1,0,0:0:0:0:
192,192,55665,1,0,0:0:0:0:
320,192,55665,1,0,0:0:0:0:
448,192,55745,1,0,0:0:0:0:
64,192,55745,1,0,0:0:0:0:
192,192,55826,1,0,0:0:0:0:
320,192,55826,1,0,0:0:0:0:
448,192,55907,1,0,0:0:0:0:
64,192,55907,1,0,0:0:0:0:
192,192,55987,1,0,0:0:0:0:
320,192,55987,1,0,0:0:0:0:
448,192,56068,1,0,0:0:0:0:
320,192,56149,1,0,0:0:0:0:
192,192,56229,1,0,0:0:0:0:
64,192,56310,1,0,0:0:0:0:
320,192,56310,1,0,0:0:0:0:
192,192,56390,1,0,0:0:0:0:
448,192,56390,1,0,0:0:0:0:
320,192,56471,1,0,0:0:0:0:
64,192,56471,1,0,0:0:0:0:
192,192,56552,1,0,0:0:0:0:
448,192,56552,1,0,0:0:0:0:
320,192,56632,1,0,0:0:0:0:
64,192,56632,1,0,0:0:0:0:
192,192,56713,1,0,0:0:0:0:
320,192,56794,1,0,0:0:0:0:
448,192,56874,1,0,0:0:0:0:
64,192,56955,1,0,0:0:0:0:
192,192,56955,1,0,0:0:0:0:
320,192,57036,1,0,0:0:0:0:
448,192,57036,1,0,0:0:0:0:
192,192,57116,1,0,0:0:0:0:
64,192,57116,1,0,0:0:0:0:
320,192,57197,1,0,0:0:0:0:
448,192,57197,1,0,0:0:0:0:
192,192,57278,1,0,0:0:0:0:
64,192,57278,1,0,0:0:0:0:
448,192,57358,1,0,0:0:0:0:
320,192,57439,1,0,0:0:0:0:
64,192,57519,1,0,0:0:0:0:
192,192,57600,1,0,0:0:0:0:
320,192,57600,1,0,0:0:0:0:
64,192,57681,1,0,0:0:0:0:
448,192,57681,1,0,0:0:0:0:
320,192,57761,1,0,0:0:0:0:
192,192,57761,1,0,0:0:0:0:
64,192,57842,1,0,0:0:0:0:
448,192,57842,1,0,0:0:0:0:
320,192,57923,1,0,0:0:0:0:
192,192,57923,1,0,0:0:0:0:
448,192,58003,1,0,0:0:0:0:
320,192,58084,1,0,0:0:0:0:
64,192,58084,1,0,0:0:0:0:
192,192,58165,1,0,0:0:0:0:
448,192,58165,1,0,0:0:0:0:
320,192,58245,1,0,0:0:0:0:
64,192,58245,1,0,0:0:0:0:
192,192,58326,1,0,0:0:0:0:
320,192,58407,1,0,0:0:0:0:
448,192,58407,1,0,0:0:0:0:
192,192,58487,1,0,0:0:0:0:
64,192,58487,1,0,0:0:0:0:
320,192,58568,1,0,0:0:0:0:
448,192,58568,1,0,0:0:0:0:
64,192,58649,1,0,0:0:0:0:
192,192,58729,1,0,0:0:0:0:
448,192,58729,1,0,0:0:0:0:
320,192,58810,1,0,0:0:0:0:
64,192,58810,1,0,0:0:0:0:
192,192,58890,1,0,0:0:0:0:
448,192,58890,1,0,0:0:0:0:
64,192,58971,1,0,0:0:0:0:
320,192,59052,1,0,0:0:0:0:
448,192,59052,1,0,0:0:0:0:
64,192,59132,1,0,0:0:0:0:
192,192,59132,1,0,0:0:0:0:
320,192,59213,1,0,0:0:0:0:
448,192,59213,1,0,0:0:0:0:
192,192,59294,1,0,0:0:0:0:
64,192,59374,1,0,0:0:0:0:
320,192,59374,1,0,0:0:0:0:
448,192,59374,1,0,0:0:0:0:
192,192,59455,1,0,0:0:0:0:
64,192,59536,1,0,0:0:0:0:
448,192,59536,1,0,0:0:0:0:
192,192,59616,1,0,0:0:0:0:
320,192,59616,1,0,0:0:0:0:
448,192,59697,1,0,0:0:0:0:
64,192,59697,1,0,0:0:0:0:
192,192,59778,1,0,0:0:0:0:
320,192,59778,1,0,0:0:0:0:
448,192,59858,1,0,0:0:0:0:
64,192,59858,1,0,0:0:0:0:
320,192,59939,1,0,0:0:0:0:
192,192,60019,1,0,0:0:0:0:
64,192,60100,1,0,0:0:0:0:
320,192,60181,1,0,0:0:0:0:
448,192,60181,1,0,0:0:0:0:
192,192,60261,1,0,0:0:0:0:
64,192,60261,1,0,0:0:0:0:
320,192,60342,1,0,0:0:0:0:
448,192,60342,1,0,0:0:0:0:
192,192,60423,1,0,0:0:0:0:
64,192,60423,1,0,0:0:0:0:
320,192,60503,1,0,0:0:0:0:
448,192,60503,1,0,0:0:0:0:
64,192,60584,1,0,0:0:0:0:
192,192,60665,1,0,0:0:0:0:
320,192,60745,1,0,0:0:0:0:
192,192,60826,1,0,0:0:0:0:
448,192,60826,1,0,0:0:0:0:
320,192,60907,1,0,0:0:0:0:
64,192,60907,1,0,0:0:0:0:
192,192,60987,1,0,0:0:0:0:
448,192,60987,1,0,0:0:0:0:
320,192,61068,1,0,0:0:0:0:
64,192,61068,1,0,0:0:0:0:
192,192,61149,1,0,0:0:0:0:
448,192,61149,1,0,0:0:0:0:
64,192,61229,1,0,0:0:0:0:
192,192,61310,1,0,0:0:0:0:
320,192,61390,1,0,0:0:0:0:
448,192,61471,1,0,0:0:0:0:
64,192,61471,1,0,0:0:0:0:
192,192,61552,1,0,0:0:0:0:
320,192,61552,1,0,0:0:0:0:
448,192,61632,1,0,0:0:0:0:
64,192,61632,1,0,0:0:0:0:
192,192,61713,1,0,0:0:0:0:
320,192,61713,1,0,0:0:0:0:
448,192,61794,1,0,0:0:0:0:
64,192,61794,1,0,0:0:0:0:
320,192,61874,1,0,0:0:0:0:
192,192,61955,1,0,0:0:0:0:
64,192,62036,1,0,0:0:0:0:
448,192,62116,1,0,0:0:0:0:
320,192,62116,1,0,0:0:0:0:
192,192,62197,1,0,0:0:0:0:
64,192,62197,1,0,0:0:0:0:
320,192,62278,1,0,0:0:0:0:
448,192,62278,1,0,0:0:0:0:
192,192,62358,1,0,0:0:0:0:
64,192,62358,1,0,0:0:0:0:
320,192,62439,1,0,0:0:0:0:
448,192,62439,1,0,0:0:0:0:
64,192,62519,1,0,0:0:0:0:
320,192,62600,1,0,0:0:0:0:
192,192,62681,1,0,0:0:0:0:
320,192,62761,1,0,0:0:0:0:
64,192,62761,1,0,0:0:0:0:
192,192,62842,1,0,0:0:0:0:
448,192,62842,1,0,0:0:0:0:
320,192,62923,1,0,0:0:0:0:
64,192,62923,1,0,0:0:0:0:
192,192,63003,1,0,0:0:0:0:
448,192,63003,1,0,0:0:0:0:
320,192,63084,1,0,0:0:0:0:
64,192,63084,1,0,0:0:0:0:
192,192,63165,1,0,0:0:0:0:
320,192,63245,1,0,0:0:0:0:
448,192,63326,1,0,0:0:0:0:
320,192,63407,1,0,0:0:0:0:
192,192,63407,1,0,0:0:0:0:
448,192,63487,1,0,0:0:0:0:
64,192,63487,1,0,0:0:0:0:
192,192,63568,1,0,0:0:0:0:
320,192,63568,1,0,0:0:0:0:
448,192,63649,1,0,0:0:0:0:
64,192,63649,1,0,0:0:0:0:
192,192,63729,1,0,0:0:0:0:
320,192,63729,1,0,0:0:0:0:
448,192,63810,1,0,0:0:0:0:
64,192,63890,1,0,0:0:0:0:
192,192,63890,1,0,0:0:0:0:
320,192,63971,1,0,0:0:0:0:
448,192,63971,1,0,0:0:0:0:
192,192,64052,1,0,0:0:0:0:
64,192,64052,1,0,0:0:0:0:
320,192,64132,1,0,0:0:0:0:
448,192,64213,1,0,0:0:0:0:
64,192,64213,1,0,0:0:0:0:
192,192,64294,1,0,0:0:0:0:
320,192,64294,1,0,0:0:0:0:
448,192,64374,1,0,0:0:0:0:
64,192,64374,1,0,0:0:0:0:
192,192,64455,1,0,0:0:0:0:
64,192,64536,1,0,0:0:0:0:
320,192,64536,1,0,0:0:0:0:
448,192,64536,1,0,0:0:0:0:
192,192,64616,1,0,0:0:0:0:
64,192,64697,1,0,0:0:0:0:
448,192,64697,1,0,0:0:0:0:
192,192,64778,1,0,0:0:0:0:
320,192,64778,1,0,0:0:0:0:
448,192,64858,1,0,0:0:0:0:
64,192,64858,1,0,0:0:0:0:
192,192,64939,1,0,0:0:0:0:
320,192,64939,1,0,0:0:0:0:
448,192,65019,1,0,0:0:0:0:
64,192,65019,1,0,0:0:0:0:
192,192,65100,1,0,0:0:0:0:
320,192,65181,1,0,0:0:0:0:
448,192,65261,1,0,0:0:0:0:
320,192,65342,1,0,0:0:0:0:
64,192,65342,1,0,0:0:0:0:
192,192,65423,1,0,0:0:0:0:
448,192,65423,1,0,0:0:0:0:
320,192,65503,1,0,0:0:0:0:
64,192,65503,1,0,0:0:0:0:
192,192,65584,1,0,0:0:0:0:
448,192,65584,1,0,0:0:0:0:
320,192,65665,1,0,0:0:0:0:
64,192,65665,1,0,0:0:0:0:
192,192,65745,1,0,0:0:0:0:
320,192,65826,1,0,0:0:0:0:
448,192,65907,1,0,0:0:0:0:
192,192,65987,1,0,0:0:0:0:
64,192,65987,1,0,0:0:0:0:
320,192,66068,1,0,0:0:0:0:
448,192,66068,1,0,0:0:0:0:
192,192,66149,1,0,0:0:0:0:
64,192,66149,1,0,0:0:0:0:
320,192,66229,1,0,0:0:0:0:
448,192,66229,1,0,0:0:0:0:
192,192,66310,1,0,0:0:0:0:
64,192,66310,1,0,0:0:0:0:
448,192,66390,1,0,0:0:0:0:
320,192,66471,1,0,0:0:0:0:
192,192,66552,1,0,0:0:0:0:
64,192,66632,1,0,0:0:0:0:
448,192,66632,1,0,0:0:0:0:
192,192,66713,1,0,0:0:0:0:
320,192,66713,1,0,0:0:0:0:
448,192,66794,1,0,0:0:0:0:
64,192,66794,1,0,0:0:0:0:
192,192,66874,1,0,0:0:0:0:
320,192,66874,1,0,0:0:0:0:
448,192,66955,1,0,0:0:0:0:
64,192,66955,1,0,0:0:0:0:
192,192,67036,1,0,0:0:0:0:
320,192,67116,1,0,0:0:0:0:
192,192,67197,1,0,0:0:0:0:
64,192,67278,1,0,0:0:0:0:
320,192,67278,1,0,0:0:0:0:
192,192,67358,1,0,0:0:0:0:
448,192,67358,1,0,0:0:0:0:
64,192,67439,1,0,0:0:0:0:
320,192,67439,1,0,0:0:0:0:
192,192,67519,1,0,0:0:0:0:
448,192,67519,1,0,0:0:0:0:
320,192,67600,1,0,0:0:0:0:
64,192,67600,1,0,0:0:0:0:
448,192,67681,1,0,0:0:0:0:
320,192,67761,1,0,0:0:0:0:
192,192,67842,1,0,0:0:0:0:
64,192,67923,1,0,0:0:0:0:
448,192,67923,1,0,0:0:0:0:
320,192,68003,1,0,0:0:0:0:
192,192,68003,1,0,0:0:0:0:
64,192,68084,1,0,0:0:0:0:
448,192,68084,1,0,0:0:0:0:
320,192,68165,1,0,0:0:0:0:
192,192,68165,1,0,0:0:0:0:
448,192,68245,1,0,0:0:0:0:
64,192,68245,1,0,0:0:0:0:
320,192,68326,1,0,0:0:0:0:
64,192,68407,1,0,0:0:0:0:
192,192,68407,1,0,0:0:0:0:
320,192,68487,1,0,0:0:0:0:
448,192,68487,1,0,0:0:0:0:
192,192,68568,1,0,0:0:0:0:
64,192,68568,1,0,0:0:0:0:
320,192,68649,1,0,0:0:0:0:
64,192,68729,1,0,0:0:0:0:
448,192,68729,1,0,0:0:0:0:
192,192,68810,1,0,0:0:0:0:
320,192,68810,1,0,0:0:0:0:
448,192,68890,1,0,0:0:0:0:
64,192,68890,1,0,0:0:0:0:
192,192,68971,1,0,0:0:0:0:
320,192,69052,1,0,0:0:0:0:
448,192,69052,1,0,0:0:0:0:
192,192,69132,1,0,0:0:0:0:
64,192,69132,1,0,0:0:0:0:
320,192,69213,1,0,0:0:0:0:
448,192,69213,1,0,0:0:0:0:
64,192,69294,1,0,0:0:0:0:
192,192,69374,1,0,0:0:0:0:
448,192,69374,1,0,0:0:0:0:
320,192,69455,1,0,0:0:0:0:
64,192,69455,1,0,0:0:0:0:
192,192,69536,1,0,0:0:0:0:
448,192,69536,1,0,0:0:0:0:
320,192,69616,1,0,0:0:0:0:
192,192,69697,1,0,0:0:0:0:
64,192,69697,1,0,0:0:0:0:
448,192,69697,1,0,0:0:0:0:
320,192,69778,1,0,0:0:0:0:
64,192,69858,1,0,0:0:0:0:
448,192,69858,1,0,0:0:0:0:
192,192,69939,1,0,0:0:0:0:
320,192,69939,1,0,0:0:0:0:
448,192,70019,1,0,0:0:0:0:
64,192,70019,1,0,0:0:0:0:
192,192,70100,1,0,0:0:0:0:
320,192,70100,1,0,0:0:0:0:
64,192,70181,1,0,0:0:0:0:
448,192,70181,1,0,0:0:0:0:
320,192,70261,1,0,0:0:0:0:
192,192,70342,1,0,0:0:0:0:
64,192,70423,1,0,0:0:0:0:
320,192,70503,1,0,0:0:0:0:
448,192,70503,1,0,0:0:0:0:
192,192,70584,1,0,0:0:0:0:
64,192,70584,1,0,0:0:0:0:
320,192,70665,1,0,0:0:0:0:
448,192,70665,1,0,0:0:0:0:
192,192,70745,1,0,0:0:0:0:
64,192,70745,1,0,0:0:0:0:
448,192,70826,1,0,0:0:0:0:
320,192,70826,1,0,0:0:0:0:
64,192,70907,1,0,0:0:0:0:
192,192,70987,1,0,0:0:0:0:
320,192,71068,1,0,0:0:0:0:
192,192,71149,1,0,0:0:0:0:
448,192,71149,1,0,0:0:0:0:
320,192,71229,1,0,0:0:0:0:
64,192,71229,1,0,0:0:0:0:
192,192,71310,1,0,0:0:0:0:
448,192,71310,1,0,0:0:0:0:
320,192,71390,1,0,0:0:0:0:
64,192,71390,1,0,0:0:0:0:
448,192,71471,1,0,0:0:0:0:
192,192,71471,1,0,0:0:0:0:
64,192,71552,1,0,0:0:0:0:
192,192,71632,1,0,0:0:0:0:
320,192,71713,1,0,0:0:0:0:
64,192,71794,1,0,0:0:0:0:
192,192,71794,1,0,0:0:0:0:
320,192,71874,1,0,0:0:0:0:
448,192,71874,1,0,0:0:0:0:
192,192,71955,1,0,0:0:0:0:
64,192,71955,1,0,0:0:0:0:
320,192,72036,1,0,0:0:0:0:
448,192,72036,1,0,0:0:0:0:
192,192,72116,1,0,0:0:0:0:
64,192,72116,1,0,0:0:0:0:
448,192,72197,1,0,0:0:0:0:
320,192,72278,1,0,0:0:0:0:
192,192,72358,1,0,0:0:0:0:
64,192,72439,1,0,0:0:0:0:
448,192,72439,1,0,0:0:0:0:
192,192,72519,1,0,0:0:0:0:
320,192,72519,1,0,0:0:0:0:
448,192,72600,1,0,0:0:0:0:
64,192,72600,1,0,0:0:0:0:
192,192,72681,1,0,0:0:0:0:
320,192,72681,1,0,0:0:0:0:
448,192,72761,1,0,0:0:0:0:
64,192,72761,1,0,0:0:0:0:
320,192,72842,1,0,0:0:0:0:
192,192,72923,1,0,0:0:0:0:
64,192,73003,1,0,0:0:0:0:
192,192,73084,1,0,0:0:0:0:
448,192,73084,1,0,0:0:0:0:
320,192,73165,1,0,0:0:0:0:
64,192,73165,1,0,0:0:0:0:
192,192,73245,1,0,0:0:0:0:
448,192,73245,1,0,0:0:0:0:
320,192,73326,1,0,0:0:0:0:
64,192,73326,1,0,0:0:0:0:
192,192,73407,1,0,0:0:0:0:
448,192,73407,1,0,0:0:0:0:
64,192,73487,1,0,0:0:0:0:
192,192,73568,1,0,0:0:0:0:
320,192,73649,1,0,0:0:0:0:
448,192,73729,1,0,0:0:0:0:
64,192,73729,1,0,0:0:0:0:
192,192,73810,1,0,0:0:0:0:
320,192,73810,1,0,0:0:0:0:
64,192,73890,1,0,0:0:0:0:
448,192,73890,1,0,0:0:0:0:
320,192,73971,1,0,0:0:0:0:
192,192,73971,1,0,0:0:0:0:
64,192,74052,1,0,0:0:0:0:
448,192,74052,1,0,0:0:0:0:
320,192,74132,1,0,0:0:0:0:
64,192,74213,1,0,0:0:0:0:
192,192,74213,1,0,0:0:0:0:
320,192,74294,1,0,0:0:0:0:
448,192,74294,1,0,0:0:0:0:
192,192,74374,1,0,0:0:0:0:
64,192,74374,1,0,0:0:0:0:
320,192,74455,1,0,0:0:0:0:
448,192,74455,1,0,0:0:0:0:
64,192,74536,1,0,0:0:0:0:
192,192,74536,1,0,0:0:0:0:
320,192,74616,1,0,0:0:0:0:
448,192,74616,1,0,0:0:0:0:
64,192,74697,1,0,0:0:0:0:
192,192,74697,1,0,0:0:0:0:
320,192,74778,1,0,0:0:0:0:
64,192,74858,1,0,0:0:0:0:
192,192,74858,1,0,0:0:0:0:
448,192,74858,1,0,0:0:0:0:
320,192,74939,1,0,0:0:0:0:
192,192,75019,1,0,0:0:0:0:
64,192,75100,1,0,0:0:0:0:
448,192,75100,1,0,0:0:0:0:
320,192,75181,1,0,0:0:0:0:
192,192,75261,1,0,0:0:0:0:
320,192,75342,1,0,0:0:0:0:
448,192,75342,1,0,0:0:0:0:
64,192,75423,1,0,0:0:0:0:
192,192,75503,1,0,0:0:0:0:
320,192,75503,1,0,0:0:0:0:
448,192,75584,1,0,0:0:0:0:
64,192,75665,1,0,0:0:0:0:
192,192,75665,1,0,0:0:0:0:
320,192,75745,1,0,0:0:0:0:
64,192,75826,1,0,0:0:0:0:
192,192,75826,1,0,0:0:0:0:
320,192,75907,1,0,0:0:0:0:
64,192,75987,1,0,0:0:0:0:
448,192,75987,1,0,0:0:0:0:
320,192,76068,1,0,0:0:0:0:
192,192,76149,1,0,0:0:0:0:
448,192,76149,1,0,0:0:0:0:
320,192,76229,1,0,0:0:0:0:
192,192,76310,1,0,0:0:0:0:
320,192,76390,1,0,0:0:0:0:
448,192,76390,1,0,0:0:0:0:
64,192,76471,1,0,0:0:0:0:
320,192,76552,1,0,0:0:0:0:
192,192,76592,1,0,0:0:0:0:
64,192,76632,1,0,0:0:0:0:
448,192,76632,1,0,0:0:0:0:
320,192,76713,1,0,0:0:0:0:
64,192,76794,1,0,0:0:0:0:
448,192,76794,1,0,0:0:0:0:
320,192,76874,1,0,0:0:0:0:
192,192,76955,1,0,0:0:0:0:
64,192,77036,1,0,0:0:0:0:
192,192,77116,1,0,0:0:0:0:
320,192,77116,1,0,0:0:0:0:
448,192,77197,1,0,0:0:0:0:
320,192,77278,1,0,0:0:0:0:
64,192,77278,1,0,0:0:0:0:
192,192,77358,1,0,0:0:0:0:
320,192,77439,1,0,0:0:0:0:
448,192,77439,1,0,0:0:0:0:
64,192,77519,1,0,0:0:0:0:
192,192,77600,1,0,0:0:0:0:
320,192,77681,1,0,0:0:0:0:
448,192,77681,1,0,0:0:0:0:
192,192,77761,1,0,0:0:0:0:
64,192,77842,1,0,0:0:0:0:
320,192,77923,1,0,0:0:0:0:
448,192,77923,1,0,0:0:0:0:
64,192,78003,1,0,0:0:0:0:
192,192,78084,1,0,0:0:0:0:
320,192,78084,1,0,0:0:0:0:
448,192,78165,1,0,0:0:0:0:
64,192,78245,1,0,0:0:0:0:
192,192,78245,1,0,0:0:0:0:
320,192,78326,1,0,0:0:0:0:
64,192,78407,1,0,0:0:0:0:
448,192,78407,1,0,0:0:0:0:
320,192,78487,1,0,0:0:0:0:
192,192,78568,1,0,0:0:0:0:
64,192,78568,1,0,0:0:0:0:
448,192,78649,1,0,0:0:0:0:
320,192,78729,1,0,0:0:0:0:
192,192,78729,1,0,0:0:0:0:
64,192,78810,1,0,0:0:0:0:
320,192,78890,1,0,0:0:0:0:
448,192,78890,1,0,0:0:0:0:
192,192,78971,1,0,0:0:0:0:
64,192,79052,1,0,0:0:0:0:
448,192,79052,1,0,0:0:0:0:
320,192,79132,1,0,0:0:0:0:
64,192,79213,1,0,0:0:0:0:
448,192,79213,1,0,0:0:0:0:
192,192,79294,1,0,0:0:0:0:
320,192,79374,1,0,0:0:0:0:
448,192,79374,1,0,0:0:0:0:
192,192,79455,1,0,0:0:0:0:
320,192,79536,1,0,0:0:0:0:
448,192,79536,1,0,0:0:0:0:
192,192,79616,1,0,0:0:0:0:
64,192,79697,1,0,0:0:0:0:
448,192,79697,1,0,0:0:0:0:
192,192,79778,1,0,0:0:0:0:
320,192,79778,1,0,0:0:0:0:
448,192,79858,1,0,0:0:0:0:
64,192,79858,1,0,0:0:0:0:
192,192,79939,1,0,0:0:0:0:
448,192,80019,1,0,0:0:0:0:
64,192,80019,1,0,0:0:0:0:
320,192,80019,1,0,0:0:0:0:
192,192,80100,1,0,0:0:0:0:
320,192,80181,1,0,0:0:0:0:
448,192,80181,1,0,0:0:0:0:
64,192,80261,1,0,0:0:0:0:
192,192,80261,1,0,0:0:0:0:
448,192,80342,1,0,0:0:0:0:
192,192,80423,1,0,0:0:0:0:
64,192,80423,1,0,0:0:0:0:
320,192,80503,1,0,0:0:0:0:
448,192,80503,1,0,0:0:0:0:
192,192,80584,1,0,0:0:0:0:
64,192,80665,1,0,0:0:0:0:
448,192,80665,1,0,0:0:0:0:
192,192,80745,1,0,0:0:0:0:
320,192,80745,1,0,0:0:0:0:
448,192,80826,1,0,0:0:0:0:
64,192,80826,1,0,0:0:0:0:
192,192,80907,1,0,0:0:0:0:
320,192,80987,1,0,0:0:0:0:
448,192,80987,1,0,0:0:0:0:
192,192,81068,1,0,0:0:0:0:
64,192,81068,1,0,0:0:0:0:
320,192,81149,1,0,0:0:0:0:
448,192,81149,1,0,0:0:0:0:
192,192,81229,1,0,0:0:0:0:
64,192,81229,1,0,0:0:0:0:
320,192,81310,1,0,0:0:0:0:
448,192,81310,1,0,0:0:0:0:
192,192,81390,1,0,0:0:0:0:
64,192,81471,1,0,0:0:0:0:
192,192,81552,1,0,0:0:0:0:
320,192,81552,1,0,0:0:0:0:
448,192,81632,1,0,0:0:0:0:
64,192,81632,1,0,0:0:0:0:
320,192,81713,1,0,0:0:0:0:
64,192,81794,1,0,0:0:0:0:
448,192,81794,1,0,0:0:0:0:
320,192,81874,1,0,0:0:0:0:
64,192,81955,1,0,0:0:0:0:
192,192,81955,1,0,0:0:0:0:
320,192,82009,1,0,0:0:0:0:
448,192,82063,1,0,0:0:0:0:
64,192,82116,1,0,0:0:0:0:
192,192,82116,1,0,0:0:0:0:
320,192,82170,1,0,0:0:0:0:
448,192,82224,1,0,0:0:0:0:
64,192,82278,1,0,0:0:0:0:
192,192,82278,1,0,0:0:0:0:
320,192,82358,1,0,0:0:0:0:
448,192,82439,1,0,0:0:0:0:
64,192,82439,1,0,0:0:0:0:
192,192,82519,1,0,0:0:0:0:
320,192,82519,1,0,0:0:0:0:
448,192,82600,1,0,0:0:0:0:
64,192,82600,1,0,0:0:0:0:
320,192,82681,1,0,0:0:0:0:
192,192,82761,1,0,0:0:0:0:
448,192,82761,1,0,0:0:0:0:
320,192,82842,1,0,0:0:0:0:
192,192,82923,1,0,0:0:0:0:
64,192,82923,1,0,0:0:0:0:
320,192,83003,1,0,0:0:0:0:
192,192,83084,1,0,0:0:0:0:
448,192,83084,1,0,0:0:0:0:
320,192,83165,1,0,0:0:0:0:
64,192,83165,1,0,0:0:0:0:
192,192,83245,1,0,0:0:0:0:
448,192,83245,1,0,0:0:0:0:
64,192,83326,1,0,0:0:0:0:
320,192,83407,1,0,0:0:0:0:
448,192,83407,1,0,0:0:0:0:
192,192,83487,1,0,0:0:0:0:
64,192,83487,1,0,0:0:0:0:
320,192,83568,1,0,0:0:0:0:
448,192,83568,1,0,0:0:0:0:
192,192,83649,1,0,0:0:0:0:
64,192,83649,1,0,0:0:0:0:
320,192,83729,1,0,0:0:0:0:
448,192,83729,1,0,0:0:0:0:
192,192,83810,1,0,0:0:0:0:
64,192,83890,1,0,0:0:0:0:
448,192,83890,1,0,0:0:0:0:
320,192,83971,1,0,0:0:0:0:
192,192,83971,1,0,0:0:0:0:
64,192,84052,1,0,0:0:0:0:
448,192,84052,1,0,0:0:0:0:
192,192,84132,1,0,0:0:0:0:
64,192,84213,1,0,0:0:0:0:
320,192,84213,1,0,0:0:0:0:
192,192,84294,1,0,0:0:0:0:
448,192,84294,1,0,0:0:0:0:
320,192,84374,1,0,0:0:0:0:
64,192,84374,1,0,0:0:0:0:
448,192,84455,1,0,0:0:0:0:
64,192,84536,1,0,0:0:0:0:
192,192,84536,1,0,0:0:0:0:
320,192,84616,1,0,0:0:0:0:
448,192,84616,1,0,0:0:0:0:
192,192,84697,1,0,0:0:0:0:
64,192,84697,1,0,0:0:0:0:
320,192,84778,1,0,0:0:0:0:
448,192,84778,1,0,0:0:0:0:
192,192,84858,1,0,0:0:0:0:
64,192,84858,1,0,0:0:0:0:
320,192,84939,1,0,0:0:0:0:
192,192,85019,1,0,0:0:0:0:
448,192,85019,1,0,0:0:0:0:
320,192,85100,1,0,0:0:0:0:
192,192,85181,1,0,0:0:0:0:
64,192,85181,1,0,0:0:0:0:
448,192,85181,1,0,0:0:0:0:
320,192,85261,1,0,0:0:0:0:
192,192,85342,1,0,0:0:0:0:
448,192,85342,1,0,0:0:0:0:
64,192,85423,1,0,0:0:0:0:
320,192,85503,1,0,0:0:0:0:
448,192,85503,1,0,0:0:0:0:
192,192,85584,1,0,0:0:0:0:
64,192,85665,1,0,0:0:0:0:
448,192,85745,1,0,0:0:0:0:
320,192,85826,1,0,0:0:0:0:
192,192,85826,1,0,0:0:0:0:
64,192,85907,1,0,0:0:0:0:
448,192,85987,1,0,0:0:0:0:
320,192,86068,1,0,0:0:0:0:
192,192,86068,1,0,0:0:0:0:
64,192,86149,1,0,0:0:0:0:
448,192,86229,1,0,0:0:0:0:
320,192,86310,1,0,0:0:0:0:
192,192,86310,1,0,0:0:0:0:
448,192,86390,1,0,0:0:0:0:
64,192,86471,1,0,0:0:0:0:
192,192,86552,1,0,0:0:0:0:
320,192,86632,1,0,0:0:0:0:
448,192,86632,1,0,0:0:0:0:
64,192,86713,1,0,0:0:0:0:
192,192,86794,1,0,0:0:0:0:
320,192,86794,1,0,0:0:0:0:
448,192,86874,1,0,0:0:0:0:
64,192,86955,1,0,0:0:0:0:
192,192,87036,1,0,0:0:0:0:
320,192,87116,1,0,0:0:0:0:
448,192,87116,1,0,0:0:0:0:
64,192,87197,1,0,0:0:0:0:
192,192,87278,1,0,0:0:0:0:
320,192,87358,1,0,0:0:0:0:
448,192,87358,1,0,0:0:0:0:
64,192,87439,1,0,0:0:0:0:
192,192,87519,1,0,0:0:0:0:
320,192,87600,1,0,0:0:0:0:
448,192,87600,1,0,0:0:0:0:
64,192,87681,1,0,0:0:0:0:
448,192,87761,1,0,0:0:0:0:
320,192,87842,1,0,0:0:0:0:
192,192,87923,1,0,0:0:0:0:
64,192,87923,1,0,0:0:0:0:
448,192,88003,1,0,0:0:0:0:
320,192,88084,1,0,0:0:0:0:
192,192,88084,1,0,0:0:0:0:
64,192,88165,1,0,0:0:0:0:
448,192,88245,1,0,0:0:0:0:
320,192,88326,1,0,0:0:0:0:
192,192,88407,1,0,0:0:0:0:
64,192,88407,1,0,0:0:0:0:
448,192,88487,1,0,0:0:0:0:
320,192,88568,1,0,0:0:0:0:
192,192,88649,1,0,0:0:0:0:
64,192,88649,1,0,0:0:0:0:
448,192,88729,1,0,0:0:0:0:
320,192,88810,1,0,0:0:0:0:
192,192,88890,1,0,0:0:0:0:
64,192,88890,1,0,0:0:0:0:
448,192,88971,1,0,0:0:0:0:
64,192,89052,1,0,0:0:0:0:
192,192,89132,1,0,0:0:0:0:
320,192,89213,1,0,0:0:0:0:
448,192,89213,1,0,0:0:0:0:
64,192,89294,1,0,0:0:0:0:
192,192,89374,1,0,0:0:0:0:
320,192,89374,1,0,0:0:0:0:
448,192,89455,1,0,0:0:0:0:
64,192,89536,1,0,0:0:0:0:
192,192,89616,1,0,0:0:0:0:
320,192,89697,1,0,0:0:0:0:
448,192,89697,1,0,0:0:0:0:
64,192,89778,1,0,0:0:0:0:
192,192,89858,1,0,0:0:0:0:
320,192,89939,1,0,0:0:0:0:
448,192,89939,1,0,0:0:0:0:
64,192,90019,1,0,0:0:0:0:
192,192,90100,1,0,0:0:0:0:
320,192,90181,1,0,0:0:0:0:
448,192,90181,1,0,0:0:0:0:
192,192,90261,1,0,0:0:0:0:
64,192,90342,1,0,0:0:0:0:
320,192,90342,1,0,0:0:0:0:
448,192,90342,1,0,0:0:0:0:
192,192,90423,1,0,0:0:0:0:
64,192,90503,1,0,0:0:0:0:
448,192,90503,1,0,0:0:0:0:
320,192,90584,1,0,0:0:0:0:
192,192,90665,1,0,0:0:0:0:
64,192,90665,1,0,0:0:0:0:
448,192,90745,1,0,0:0:0:0:
320,192,90826,1,0,0:0:0:0:
192,192,90907,1,0,0:0:0:0:
64,192,90987,1,0,0:0:0:0:
448,192,90987,1,0,0:0:0:0:
320,192,91068,1,0,0:0:0:0:
192,192,91149,1,0,0:0:0:0:
64,192,91229,1,0,0:0:0:0:
448,192,91229,1,0,0:0:0:0:
320,192,91310,1,0,0:0:0:0:
192,192,91390,1,0,0:0:0:0:
64,192,91471,1,0,0:0:0:0:
448,192,91471,1,0,0:0:0:0:
320,192,91552,1,0,0:0:0:0:
64,192,91632,1,0,0:0:0:0:
192,192,91713,1,0,0:0:0:0:
320,192,91794,1,0,0:0:0:0:
448,192,91794,1,0,0:0:0:0:
64,192,91874,1,0,0:0:0:0:
192,192,91955,1,0,0:0:0:0:
320,192,91955,1,0,0:0:0:0:
448,192,92036,1,0,0:0:0:0:
64,192,92116,1,0,0:0:0:0:
192,192,92197,1,0,0:0:0:0:
320,192,92278,1,0,0:0:0:0:
448,192,92278,1,0,0:0:0:0:
64,192,92358,1,0,0:0:0:0:
192,192,92439,1,0,0:0:0:0:
320,192,92519,1,0,0:0:0:0:
448,192,92519,1,0,0:0:0:0:
64,192,92600,1,0,0:0:0:0:
192,192,92681,1,0,0:0:0:0:
320,192,92761,1,0,0:0:0:0:
448,192,92761,1,0,0:0:0:0:
192,192,92842,1,0,0:0:0:0:
64,192,92923,1,0,0:0:0:0:
320,192,93003,1,0,0:0:0:0:
192,192,93084,1,0,0:0:0:0:
448,192,93084,1,0,0:0:0:0:
64,192,93165,1,0,0:0:0:0:
320,192,93245,1,0,0:0:0:0:
448,192,93245,1,0,0:0:0:0:
192,192,93326,1,0,0:0:0:0:
64,192,93326,1,0,0:0:0:0:
320,192,93407,1,0,0:0:0:0:
192,192,93487,1,0,0:0:0:0:
64,192,93487,1,0,0:0:0:0:
320,192,93568,1,0,0:0:0:0:
192,192,93649,1,0,0:0:0:0:
64,192,93649,1,0,0:0:0:0:
448,192,93729,1,0,0:0:0:0:
192,192,93810,1,0,0:0:0:0:
64,192,93810,1,0,0:0:0:0:
320,192,93890,1,0,0:0:0:0:
448,192,93890,1,0,0:0:0:0:
64,192,93971,1,0,0:0:0:0:
192,192,94052,5,0,0:0:0:0:
320,192,94052,1,0,0:0:0:0:
448,192,94052,1,0,0:0:0:0:
192,192,94294,1,0,0:0:0:0:
320,192,94294,1,0,0:0:0:0:
64,192,94374,1,0,0:0:0:0:
320,192,94455,1,0,0:0:0:0:
448,192,94455,1,0,0:0:0:0:
192,192,94536,1,0,0:0:0:0:
64,192,94536,1,0,0:0:0:0:
320,192,94616,1,0,0:0:0:0:
64,192,94697,1,0,0:0:0:0:
448,192,94697,1,0,0:0:0:0:
320,192,94778,1,0,0:0:0:0:
192,192,94858,1,0,0:0:0:0:
64,192,94858,1,0,0:0:0:0:
448,192,94858,1,0,0:0:0:0:
64,192,95181,5,0,0:0:0:0:
192,192,95181,1,0,0:0:0:0:
320,192,95181,1,0,0:0:0:0:
448,192,95181,1,0,0:0:0:0:
64,192,95503,1,0,0:0:0:0:
320,192,95503,1,0,0:0:0:0:
448,192,95503,1,0,0:0:0:0:
192,192,95665,1,0,0:0:0:0:
320,192,95826,1,0,0:0:0:0:
448,192,95907,1,0,0:0:0:0:
64,192,95987,1,0,0:0:0:0:
192,192,96068,1,0,0:0:0:0:
64,192,96149,1,0,0:0:0:0:
448,192,96149,1,0,0:0:0:0:
320,192,96229,1,0,0:0:0:0:
192,192,96310,1,0,0:0:0:0:
64,192,96390,1,0,0:0:0:0:
448,192,96471,1,0,0:0:0:0:
320,192,96552,1,0,0:0:0:0:
448,192,96632,1,0,0:0:0:0:
64,192,96632,1,0,0:0:0:0:
192,192,96713,1,0,0:0:0:0:
64,192,96794,1,0,0:0:0:0:
320,192,96794,1,0,0:0:0:0:
192,192,96955,1,0,0:0:0:0:
448,192,97116,1,0,0:0:0:0:
320,192,97197,1,0,0:0:0:0:
192,192,97278,1,0,0:0:0:0:
64,192,97358,1,0,0:0:0:0:
192,192,97439,1,0,0:0:0:0:
448,192,97439,1,0,0:0:0:0:
320,192,97519,1,0,0:0:0:0:
64,192,97600,1,0,0:0:0:0:
192,192,97681,1,0,0:0:0:0:
320,192,97761,1,0,0:0:0:0:
448,192,97842,1,0,0:0:0:0:
320,192,97923,1,0,0:0:0:0:
64,192,97923,1,0,0:0:0:0:
192,192,98003,1,0,0:0:0:0:
320,192,98084,1,0,0:0:0:0:
448,192,98084,1,0,0:0:0:0:
192,192,98245,1,0,0:0:0:0:
64,192,98407,1,0,0:0:0:0:
320,192,98487,1,0,0:0:0:0:
192,192,98568,1,0,0:0:0:0:
320,192,98649,1,0,0:0:0:0:
64,192,98729,1,0,0:0:0:0:
448,192,98729,1,0,0:0:0:0:
192,192,98810,1,0,0:0:0:0:
64,192,98890,1,0,0:0:0:0:
192,192,98971,1,0,0:0:0:0:
320,192,99052,1,0,0:0:0:0:
448,192,99132,1,0,0:0:0:0:
192,192,99213,1,0,0:0:0:0:
64,192,99213,1,0,0:0:0:0:
320,192,99294,1,0,0:0:0:0:
192,192,99374,1,0,0:0:0:0:
448,192,99374,1,0,0:0:0:0:
320,192,99536,1,0,0:0:0:0:
64,192,99697,1,0,0:0:0:0:
448,192,99778,1,0,0:0:0:0:
320,192,99858,1,0,0:0:0:0:
192,192,99939,1,0,0:0:0:0:
320,192,100019,1,0,0:0:0:0:
448,192,100019,1,0,0:0:0:0:
192,192,100100,1,0,0:0:0:0:
64,192,100181,1,0,0:0:0:0:
320,192,100261,1,0,0:0:0:0:
448,192,100261,1,0,0:0:0:0:
192,192,100342,1,0,0:0:0:0:
320,192,100423,1,0,0:0:0:0:
448,192,100503,1,0,0:0:0:0:
64,192,100503,1,0,0:0:0:0:
192,192,100584,1,0,0:0:0:0:
448,192,100665,1,0,0:0:0:0:
64,192,100665,1,0,0:0:0:0:
320,192,100665,1,0,0:0:0:0:
192,192,100826,1,0,0:0:0:0:
448,192,100987,1,0,0:0:0:0:
320,192,101068,1,0,0:0:0:0:
64,192,101149,1,0,0:0:0:0:
192,192,101229,1,0,0:0:0:0:
320,192,101310,1,0,0:0:0:0:
448,192,101310,1,0,0:0:0:0:
192,192,101390,1,0,0:0:0:0:
448,192,101471,1,0,0:0:0:0:
64,192,101552,1,0,0:0:0:0:
192,192,101632,1,0,0:0:0:0:
320,192,101713,1,0,0:0:0:0:
448,192,101794,1,0,0:0:0:0:
64,192,101794,1,0,0:0:0:0:
320,192,101874,1,0,0:0:0:0:
192,192,101955,1,0,0:0:0:0:
64,192,101955,1,0,0:0:0:0:
320,192,102116,1,0,0:0:0:0:
448,192,102278,1,0,0:0:0:0:
64,192,102358,1,0,0:0:0:0:
320,192,102439,1,0,0:0:0:0:
192,192,102519,1,0,0:0:0:0:
320,192,102600,1,0,0:0:0:0:
64,192,102600,1,0,0:0:0:0:
448,192,102681,1,0,0:0:0:0:
192,192,102761,1,0,0:0:0:0:
64,192,102842,1,0,0:0:0:0:
320,192,102923,1,0,0:0:0:0:
192,192,103003,1,0,0:0:0:0:
64,192,103084,1,0,0:0:0:0:
448,192,103084,1,0,0:0:0:0:
320,192,103165,1,0,0:0:0:0:
192,192,103245,1,0,0:0:0:0:
448,192,103245,1,0,0:0:0:0:
320,192,103407,1,0,0:0:0:0:
64,192,103568,1,0,0:0:0:0:
192,192,103649,1,0,0:0:0:0:
320,192,103729,1,0,0:0:0:0:
192,192,103810,1,0,0:0:0:0:
64,192,103890,1,0,0:0:0:0:
320,192,103890,1,0,0:0:0:0:
448,192,103971,1,0,0:0:0:0:
320,192,104052,1,0,0:0:0:0:
64,192,104132,1,0,0:0:0:0:
192,192,104213,1,0,0:0:0:0:
320,192,104294,1,0,0:0:0:0:
448,192,104374,1,0,0:0:0:0:
64,192,104374,1,0,0:0:0:0:
192,192,104455,1,0,0:0:0:0:
320,192,104536,1,0,0:0:0:0:
448,192,104536,1,0,0:0:0:0:
192,192,104697,1,0,0:0:0:0:
448,192,104858,1,0,0:0:0:0:
320,192,104939,1,0,0:0:0:0:
192,192,105019,1,0,0:0:0:0:
64,192,105019,1,0,0:0:0:0:
448,192,105100,1,0,0:0:0:0:
320,192,105181,1,0,0:0:0:0:
64,192,105181,1,0,0:0:0:0:
192,192,105261,1,0,0:0:0:0:
448,192,105261,1,0,0:0:0:0:
320,192,105342,1,0,0:0:0:0:
64,192,105423,1,0,0:0:0:0:
192,192,105423,1,0,0:0:0:0:
320,192,105503,1,0,0:0:0:0:
448,192,105503,1,0,0:0:0:0:
192,192,105584,1,0,0:0:0:0:
320,192,105665,1,0,0:0:0:0:
64,192,105665,1,0,0:0:0:0:
192,192,105745,1,0,0:0:0:0:
448,192,105826,1,0,0:0:0:0:
64,192,105826,1,0,0:0:0:0:
320,192,105826,1,0,0:0:0:0:
320,192,105987,1,0,0:0:0:0:
448,192,105987,1,0,0:0:0:0:
448,192,106149,1,0,0:0:0:0:
64,192,106149,1,0,0:0:0:0:
320,192,106229,1,0,0:0:0:0:
192,192,106310,1,0,0:0:0:0:
64,192,106310,1,0,0:0:0:0:
320,192,106390,1,0,0:0:0:0:
448,192,106471,1,0,0:0:0:0:
64,192,106552,1,0,0:0:0:0:
192,192,106632,1,0,0:0:0:0:
448,192,106632,1,0,0:0:0:0:
320,192,106713,1,0,0:0:0:0:
448,192,106794,1,0,0:0:0:0:
64,192,106794,1,0,0:0:0:0:
192,192,106874,1,0,0:0:0:0:
320,192,106955,1,0,0:0:0:0:
448,192,106955,1,0,0:0:0:0:
64,192,106995,1,0,0:0:0:0:
192,192,107036,1,0,0:0:0:0:
320,192,107076,1,0,0:0:0:0:
448,192,107116,1,0,0:0:0:0:
320,192,107278,1,0,0:0:0:0:
192,192,107278,1,0,0:0:0:0:
192,192,107439,1,0,0:0:0:0:
64,192,107439,1,0,0:0:0:0:
320,192,107519,1,0,0:0:0:0:
64,192,107600,1,0,0:0:0:0:
448,192,107600,1,0,0:0:0:0:
320,192,107681,1,0,0:0:0:0:
192,192,107761,1,0,0:0:0:0:
64,192,107761,1,0,0:0:0:0:
448,192,107842,1,0,0:0:0:0:
320,192,107923,1,0,0:0:0:0:
192,192,107923,1,0,0:0:0:0:
64,192,108003,1,0,0:0:0:0:
192,192,108084,1,0,0:0:0:0:
448,192,108084,1,0,0:0:0:0:
320,192,108165,1,0,0:0:0:0:
192,192,108245,1,0,0:0:0:0:
64,192,108245,1,0,0:0:0:0:
448,192,108286,1,0,0:0:0:0:
320,192,108326,1,0,0:0:0:0:
192,192,108366,1,0,0:0:0:0:
64,192,108407,1,0,0:0:0:0:
448,192,108407,1,0,0:0:0:0:
192,192,108568,1,0,0:0:0:0:
320,192,108568,1,0,0:0:0:0:
320,192,108729,1,0,0:0:0:0:
448,192,108729,1,0,0:0:0:0:
192,192,108810,1,0,0:0:0:0:
64,192,108890,1,0,0:0:0:0:
448,192,108890,1,0,0:0:0:0:
320,192,108971,1,0,0:0:0:0:
192,192,109052,1,0,0:0:0:0:
64,192,109052,1,0,0:0:0:0:
448,192,109132,1,0,0:0:0:0:
320,192,109213,1,0,0:0:0:0:
192,192,109213,1,0,0:0:0:0:
64,192,109294,1,0,0:0:0:0:
320,192,109374,1,0,0:0:0:0:
448,192,109374,1,0,0:0:0:0:
192,192,109455,1,0,0:0:0:0:
320,192,109536,1,0,0:0:0:0:
448,192,109536,1,0,0:0:0:0:
64,192,109576,1,0,0:0:0:0:
192,192,109616,1,0,0:0:0:0:
320,192,109657,1,0,0:0:0:0:
64,192,109697,1,0,0:0:0:0:
448,192,109697,1,0,0:0:0:0:
320,192,109858,1,0,0:0:0:0:
448,192,109858,1,0,0:0:0:0:
320,192,110019,1,0,0:0:0:0:
64,192,110019,1,0,0:0:0:0:
192,192,110100,1,0,0:0:0:0:
320,192,110181,1,0,0:0:0:0:
448,192,110181,1,0,0:0:0:0:
192,192,110261,1,0,0:0:0:0:
320,192,110342,1,0,0:0:0:0:
192,192,110423,1,0,0:0:0:0:
320,192,110503,1,0,0:0:0:0:
192,192,110584,1,0,0:0:0:0:
320,192,110665,1,0,0:0:0:0:
192,192,110745,1,0,0:0:0:0:
448,192,110826,1,0,0:0:0:0:
320,192,110866,1,0,0:0:0:0:
192,192,110907,1,0,0:0:0:0:
64,192,110947,1,0,0:0:0:0:
320,192,110987,1,0,0:0:0:0:
448,192,110987,1,0,0:0:0:0:
320,192,111149,1,0,0:0:0:0:
448,192,111149,1,0,0:0:0:0:
448,192,111310,1,0,0:0:0:0:
64,192,111310,1,0,0:0:0:0:
320,192,111390,1,0,0:0:0:0:
192,192,111471,1,0,0:0:0:0:
64,192,111471,1,0,0:0:0:0:
320,192,111552,1,0,0:0:0:0:
448,192,111632,1,0,0:0:0:0:
64,192,111713,1,0,0:0:0:0:
192,192,111794,1,0,0:0:0:0:
448,192,111794,1,0,0:0:0:0:
64,192,111874,1,0,0:0:0:0:
192,192,111955,1,0,0:0:0:0:
320,192,111955,1,0,0:0:0:0:
448,192,112036,1,0,0:0:0:0:
192,192,112116,1,0,0:0:0:0:
64,192,112116,1,0,0:0:0:0:
448,192,112157,1,0,0:0:0:0:
320,192,112197,1,0,0:0:0:0:
192,192,112237,1,0,0:0:0:0:
64,192,112278,1,0,0:0:0:0:
192,192,112439,1,0,0:0:0:0:
320,192,112439,1,0,0:0:0:0:
320,192,112600,1,0,0:0:0:0:
448,192,112600,1,0,0:0:0:0:
192,192,112681,1,0,0:0:0:0:
64,192,112761,1,0,0:0:0:0:
448,192,112761,1,0,0:0:0:0:
192,192,112842,1,0,0:0:0:0:
64,192,112923,1,0,0:0:0:0:
448,192,112923,1,0,0:0:0:0:
320,192,113003,1,0,0:0:0:0:
192,192,113084,1,0,0:0:0:0:
448,192,113084,1,0,0:0:0:0:
320,192,113165,1,0,0:0:0:0:
192,192,113245,1,0,0:0:0:0:
64,192,113245,1,0,0:0:0:0:
448,192,113326,1,0,0:0:0:0:
192,192,113407,1,0,0:0:0:0:
64,192,113407,1,0,0:0:0:0:
448,192,113447,1,0,0:0:0:0:
320,192,113487,1,0,0:0:0:0:
192,192,113528,1,0,0:0:0:0:
64,192,113568,1,0,0:0:0:0:
448,192,113568,1,0,0:0:0:0:
192,192,113729,1,0,0:0:0:0:
320,192,113729,1,0,0:0:0:0:
64,192,113890,1,0,0:0:0:0:
192,192,113890,1,0,0:0:0:0:
448,192,113890,1,0,0:0:0:0:
448,192,114052,1,0,0:0:0:0:
64,192,114052,1,0,0:0:0:0:
192,192,114132,1,0,0:0:0:0:
320,192,114213,1,0,0:0:0:0:
448,192,114213,1,0,0:0:0:0:
192,192,114294,1,0,0:0:0:0:
320,192,114374,1,0,0:0:0:0:
64,192,114374,1,0,0:0:0:0:
64,192,114536,1,0,0:0:0:0:
192,192,114536,1,0,0:0:0:0:
448,192,114536,1,0,0:0:0:0:
320,192,114697,1,0,0:0:0:0:
448,192,114697,1,0,0:0:0:0:
64,192,114737,1,0,0:0:0:0:
192,192,114778,1,0,0:0:0:0:
320,192,114818,1,0,0:0:0:0:
448,192,114858,1,0,0:0:0:0:
64,192,114858,1,0,0:0:0:0:
192,192,114939,1,0,0:0:0:0:
320,192,115019,1,0,0:0:0:0:
448,192,115019,1,0,0:0:0:0:
192,192,115181,1,0,0:0:0:0:
320,192,115181,1,0,0:0:0:0:
448,192,115181,1,0,0:0:0:0:
320,192,115342,1,0,0:0:0:0:
64,192,115342,1,0,0:0:0:0:
192,192,115423,1,0,0:0:0:0:
64,192,115503,1,0,0:0:0:0:
320,192,115503,1,0,0:0:0:0:
448,192,115503,1,0,0:0:0:0:
192,192,115584,1,0,0:0:0:0:
320,192,115665,1,0,0:0:0:0:
64,192,115745,1,0,0:0:0:0:
192,192,115745,1,0,0:0:0:0:
448,192,115826,1,0,0:0:0:0:
320,192,115866,1,0,0:0:0:0:
192,192,115907,1,0,0:0:0:0:
64,192,115947,1,0,0:0:0:0:
448,192,115987,1,0,0:0:0:0:
320,192,116028,1,0,0:0:0:0:
192,192,116068,1,0,0:0:0:0:
64,192,116108,1,0,0:0:0:0:
320,192,116149,1,0,0:0:0:0:
448,192,116149,1,0,0:0:0:0:
192,192,116229,1,0,0:0:0:0:
64,192,116310,1,0,0:0:0:0:
448,192,116310,1,0,0:0:0:0:
320,192,116390,1,0,0:0:0:0:
64,192,116471,1,0,0:0:0:0:
192,192,116471,1,0,0:0:0:0:
448,192,116471,1,0,0:0:0:0:
320,192,116552,1,0,0:0:0:0:
64,192,116632,1,0,0:0:0:0:
448,192,116632,1,0,0:0:0:0:
192,192,116713,1,0,0:0:0:0:
320,192,116713,1,0,0:0:0:0:
448,192,116794,1,0,0:0:0:0:
64,192,116794,1,0,0:0:0:0:
192,192,116874,1,0,0:0:0:0:
320,192,116955,1,0,0:0:0:0:
448,192,116955,1,0,0:0:0:0:
192,192,117036,1,0,0:0:0:0:
64,192,117036,1,0,0:0:0:0:
320,192,117116,1,0,0:0:0:0:
448,192,117116,1,0,0:0:0:0:
192,192,117197,1,0,0:0:0:0:
64,192,117197,1,0,0:0:0:0:
320,192,117278,1,0,0:0:0:0:
448,192,117278,1,0,0:0:0:0:
192,192,117358,1,0,0:0:0:0:
64,192,117439,1,0,0:0:0:0:
448,192,117519,1,0,0:0:0:0:
320,192,117600,1,0,0:0:0:0:
192,192,117600,1,0,0:0:0:0:
64,192,117681,1,0,0:0:0:0:
448,192,117681,1,0,0:0:0:0:
320,192,117761,1,0,0:0:0:0:
192,192,117761,1,0,0:0:0:0:
64,192,117842,1,0,0:0:0:0:
448,192,117842,1,0,0:0:0:0:
320,192,117923,1,0,0:0:0:0:
192,192,117923,1,0,0:0:0:0:
64,192,118003,1,0,0:0:0:0:
192,192,118084,1,0,0:0:0:0:
320,192,118165,1,0,0:0:0:0:
448,192,118245,1,0,0:0:0:0:
192,192,118245,1,0,0:0:0:0:
320,192,118326,1,0,0:0:0:0:
64,192,118326,1,0,0:0:0:0:
192,192,118407,1,0,0:0:0:0:
448,192,118407,1,0,0:0:0:0:
320,192,118487,1,0,0:0:0:0:
64,192,118487,1,0,0:0:0:0:
192,192,118568,1,0,0:0:0:0:
448,192,118568,1,0,0:0:0:0:
320,192,118649,1,0,0:0:0:0:
192,192,118729,1,0,0:0:0:0:
64,192,118810,1,0,0:0:0:0:
192,192,118890,1,0,0:0:0:0:
320,192,118890,1,0,0:0:0:0:
448,192,118971,1,0,0:0:0:0:
64,192,118971,1,0,0:0:0:0:
192,192,119052,1,0,0:0:0:0:
320,192,119052,1,0,0:0:0:0:
448,192,119132,1,0,0:0:0:0:
64,192,119132,1,0,0:0:0:0:
192,192,119213,1,0,0:0:0:0:
320,192,119213,1,0,0:0:0:0:
448,192,119294,1,0,0:0:0:0:
320,192,119374,1,0,0:0:0:0:
192,192,119455,1,0,0:0:0:0:
320,192,119536,1,0,0:0:0:0:
448,192,119536,1,0,0:0:0:0:
192,192,119616,1,0,0:0:0:0:
64,192,119616,1,0,0:0:0:0:
320,192,119697,1,0,0:0:0:0:
448,192,119697,1,0,0:0:0:0:
192,192,119778,1,0,0:0:0:0:
64,192,119778,1,0,0:0:0:0:
320,192,119858,1,0,0:0:0:0:
448,192,119858,1,0,0:0:0:0:
64,192,119939,1,0,0:0:0:0:
192,192,120019,1,0,0:0:0:0:
320,192,120019,1,0,0:0:0:0:
448,192,120100,1,0,0:0:0:0:
64,192,120100,1,0,0:0:0:0:
192,192,120181,1,0,0:0:0:0:
320,192,120181,1,0,0:0:0:0:
448,192,120261,1,0,0:0:0:0:
64,192,120342,1,0,0:0:0:0:
192,192,120342,1,0,0:0:0:0:
320,192,120423,1,0,0:0:0:0:
448,192,120423,1,0,0:0:0:0:
192,192,120503,1,0,0:0:0:0:
64,192,120503,1,0,0:0:0:0:
320,192,120584,1,0,0:0:0:0:
192,192,120665,1,0,0:0:0:0:
448,192,120665,1,0,0:0:0:0:
320,192,120745,1,0,0:0:0:0:
64,192,120745,1,0,0:0:0:0:
192,192,120826,1,0,0:0:0:0:
448,192,120826,1,0,0:0:0:0:
320,192,120907,1,0,0:0:0:0:
448,192,120987,1,0,0:0:0:0:
64,192,120987,1,0,0:0:0:0:
192,192,121068,1,0,0:0:0:0:
320,192,121068,1,0,0:0:0:0:
448,192,121149,1,0,0:0:0:0:
64,192,121149,1,0,0:0:0:0:
192,192,121229,1,0,0:0:0:0:
64,192,121310,1,0,0:0:0:0:
320,192,121310,1,0,0:0:0:0:
448,192,121310,1,0,0:0:0:0:
192,192,121390,1,0,0:0:0:0:
64,192,121471,1,0,0:0:0:0:
320,192,121471,1,0,0:0:0:0:
192,192,121552,1,0,0:0:0:0:
448,192,121552,1,0,0:0:0:0:
320,192,121632,1,0,0:0:0:0:
64,192,121632,1,0,0:0:0:0:
192,192,121713,1,0,0:0:0:0:
448,192,121713,1,0,0:0:0:0:
320,192,121794,1,0,0:0:0:0:
64,192,121794,1,0,0:0:0:0:
448,192,121874,1,0,0:0:0:0:
320,192,121955,1,0,0:0:0:0:
192,192,122036,1,0,0:0:0:0:
64,192,122116,1,0,0:0:0:0:
448,192,122116,1,0,0:0:0:0:
320,192,122197,1,0,0:0:0:0:
192,192,122197,1,0,0:0:0:0:
64,192,122278,1,0,0:0:0:0:
448,192,122278,1,0,0:0:0:0:
320,192,122358,1,0,0:0:0:0:
192,192,122358,1,0,0:0:0:0:
64,192,122439,1,0,0:0:0:0:
448,192,122439,1,0,0:0:0:0:
192,192,122519,1,0,0:0:0:0:
320,192,122600,1,0,0:0:0:0:
448,192,122681,1,0,0:0:0:0:
192,192,122761,1,0,0:0:0:0:
64,192,122761,1,0,0:0:0:0:
320,192,122842,1,0,0:0:0:0:
448,192,122842,1,0,0:0:0:0:
192,192,122923,1,0,0:0:0:0:
64,192,122923,1,0,0:0:0:0:
320,192,123003,1,0,0:0:0:0:
448,192,123003,1,0,0:0:0:0:
192,192,123084,1,0,0:0:0:0:
64,192,123084,1,0,0:0:0:0:
448,192,123165,1,0,0:0:0:0:
320,192,123245,1,0,0:0:0:0:
192,192,123326,1,0,0:0:0:0:
64,192,123407,1,0,0:0:0:0:
448,192,123407,1,0,0:0:0:0:
320,192,123487,1,0,0:0:0:0:
192,192,123487,1,0,0:0:0:0:
64,192,123568,1,0,0:0:0:0:
448,192,123568,1,0,0:0:0:0:
320,192,123649,1,0,0:0:0:0:
192,192,123649,1,0,0:0:0:0:
64,192,123729,1,0,0:0:0:0:
448,192,123729,1,0,0:0:0:0:
320,192,123810,1,0,0:0:0:0:
192,192,123890,1,0,0:0:0:0:
64,192,123971,1,0,0:0:0:0:
192,192,124052,1,0,0:0:0:0:
448,192,124052,1,0,0:0:0:0:
320,192,124132,1,0,0:0:0:0:
64,192,124132,1,0,0:0:0:0:
192,192,124213,1,0,0:0:0:0:
448,192,124213,1,0,0:0:0:0:
320,192,124294,1,0,0:0:0:0:
64,192,124294,1,0,0:0:0:0:
192,192,124374,1,0,0:0:0:0:
448,192,124374,1,0,0:0:0:0:
64,192,124455,1,0,0:0:0:0:
192,192,124536,1,0,0:0:0:0:
320,192,124616,1,0,0:0:0:0:
448,192,124697,1,0,0:0:0:0:
64,192,124697,1,0,0:0:0:0:
192,192,124778,1,0,0:0:0:0:
320,192,124778,1,0,0:0:0:0:
448,192,124858,1,0,0:0:0:0:
64,192,124858,1,0,0:0:0:0:
192,192,124939,1,0,0:0:0:0:
320,192,124939,1,0,0:0:0:0:
448,192,125019,1,0,0:0:0:0:
64,192,125019,1,0,0:0:0:0:
320,192,125100,1,0,0:0:0:0:
192,192,125181,1,0,0:0:0:0:
64,192,125261,1,0,0:0:0:0:
320,192,125342,1,0,0:0:0:0:
448,192,125342,1,0,0:0:0:0:
192,192,125423,1,0,0:0:0:0:
64,192,125423,1,0,0:0:0:0:
320,192,125503,1,0,0:0:0:0:
448,192,125503,1,0,0:0:0:0:
192,192,125584,1,0,0:0:0:0:
64,192,125584,1,0,0:0:0:0:
320,192,125665,1,0,0:0:0:0:
448,192,125665,1,0,0:0:0:0:
192,192,125745,1,0,0:0:0:0:
64,192,125826,1,0,0:0:0:0:
448,192,125826,1,0,0:0:0:0:
320,192,125907,1,0,0:0:0:0:
192,192,125907,1,0,0:0:0:0:
64,192,125987,1,0,0:0:0:0:
448,192,125987,1,0,0:0:0:0:
192,192,126068,1,0,0:0:0:0:
320,192,126149,1,0,0:0:0:0:
448,192,126149,1,0,0:0:0:0:
192,192,126229,1,0,0:0:0:0:
64,192,126229,1,0,0:0:0:0:
320,192,126310,1,0,0:0:0:0:
448,192,126310,1,0,0:0:0:0:
192,192,126390,1,0,0:0:0:0:
64,192,126471,1,0,0:0:0:0:
320,192,126471,1,0,0:0:0:0:
448,192,126471,1,0,0:0:0:0:
192,192,126552,1,0,0:0:0:0:
64,192,126632,1,0,0:0:0:0:
320,192,126632,1,0,0:0:0:0:
192,192,126713,1,0,0:0:0:0:
448,192,126713,1,0,0:0:0:0:
320,192,126794,1,0,0:0:0:0:
64,192,126794,1,0,0:0:0:0:
192,192,126874,1,0,0:0:0:0:
448,192,126874,1,0,0:0:0:0:
320,192,126955,1,0,0:0:0:0:
64,192,126955,1,0,0:0:0:0:
192,192,127036,1,0,0:0:0:0:
320,192,127116,1,0,0:0:0:0:
448,192,127197,1,0,0:0:0:0:
320,192,127278,1,0,0:0:0:0:
64,192,127278,1,0,0:0:0:0:
192,192,127358,1,0,0:0:0:0:
448,192,127358,1,0,0:0:0:0:
320,192,127439,1,0,0:0:0:0:
64,192,127439,1,0,0:0:0:0:
192,192,127519,1,0,0:0:0:0:
448,192,127519,1,0,0:0:0:0:
320,192,127600,1,0,0:0:0:0:
64,192,127600,1,0,0:0:0:0:
192,192,127681,1,0,0:0:0:0:
448,192,127761,1,0,0:0:0:0:
320,192,127842,1,0,0:0:0:0:
64,192,127923,1,0,0:0:0:0:
448,192,127923,1,0,0:0:0:0:
192,192,128003,1,0,0:0:0:0:
320,192,128003,1,0,0:0:0:0:
448,192,128084,1,0,0:0:0:0:
64,192,128084,1,0,0:0:0:0:
192,192,128165,1,0,0:0:0:0:
320,192,128165,1,0,0:0:0:0:
448,192,128245,1,0,0:0:0:0:
64,192,128245,1,0,0:0:0:0:
192,192,128326,1,0,0:0:0:0:
320,192,128407,1,0,0:0:0:0:
448,192,128487,1,0,0:0:0:0:
320,192,128568,1,0,0:0:0:0:
64,192,128568,1,0,0:0:0:0:
192,192,128649,1,0,0:0:0:0:
448,192,128649,1,0,0:0:0:0:
320,192,128729,1,0,0:0:0:0:
64,192,128729,1,0,0:0:0:0:
192,192,128810,1,0,0:0:0:0:
448,192,128810,1,0,0:0:0:0:
320,192,128890,1,0,0:0:0:0:
64,192,128890,1,0,0:0:0:0:
448,192,128971,1,0,0:0:0:0:
320,192,129052,1,0,0:0:0:0:
192,192,129132,1,0,0:0:0:0:
320,192,129213,1,0,0:0:0:0:
448,192,129213,1,0,0:0:0:0:
64,192,129294,1,0,0:0:0:0:
192,192,129294,1,0,0:0:0:0:
320,192,129374,1,0,0:0:0:0:
448,192,129374,1,0,0:0:0:0:
192,192,129455,1,0,0:0:0:0:
64,192,129455,1,0,0:0:0:0:
320,192,129536,1,0,0:0:0:0:
448,192,129536,1,0,0:0:0:0:
64,192,129616,1,0,0:0:0:0:
320,192,129697,1,0,0:0:0:0:
448,192,129697,1,0,0:0:0:0:
192,192,129778,1,0,0:0:0:0:
64,192,129778,1,0,0:0:0:0:
320,192,129858,1,0,0:0:0:0:
448,192,129858,1,0,0:0:0:0:
192,192,129939,1,0,0:0:0:0:
64,192,130019,1,0,0:0:0:0:
448,192,130019,1,0,0:0:0:0:
320,192,130100,1,0,0:0:0:0:
192,192,130100,1,0,0:0:0:0:
64,192,130181,1,0,0:0:0:0:
448,192,130181,1,0,0:0:0:0:
320,192,130261,1,0,0:0:0:0:
192,192,130342,1,0,0:0:0:0:
64,192,130342,1,0,0:0:0:0:
320,192,130423,1,0,0:0:0:0:
448,192,130423,1,0,0:0:0:0:
192,192,130503,1,0,0:0:0:0:
64,192,130503,1,0,0:0:0:0:
320,192,130584,1,0,0:0:0:0:
448,192,130584,1,0,0:0:0:0:
192,192,130665,1,0,0:0:0:0:
64,192,130665,1,0,0:0:0:0:
320,192,130745,1,0,0:0:0:0:
448,192,130745,1,0,0:0:0:0:
192,192,130826,1,0,0:0:0:0:
64,192,130826,1,0,0:0:0:0:
320,192,130907,1,0,0:0:0:0:
448,192,130907,1,0,0:0:0:0:
192,192,130987,1,0,0:0:0:0:
64,192,130987,1,0,0:0:0:0:
320,192,131068,1,0,0:0:0:0:
448,192,131068,1,0,0:0:0:0:
192,192,131149,1,0,0:0:0:0:
64,192,131149,1,0,0:0:0:0:
320,192,131229,1,0,0:0:0:0:
448,192,131229,1,0,0:0:0:0:
192,192,131310,1,0,0:0:0:0:
64,192,131310,1,0,0:0:0:0:
320,192,131390,1,0,0:0:0:0:
448,192,131390,1,0,0:0:0:0:
192,192,131471,1,0,0:0:0:0:
64,192,131471,1,0,0:0:0:0:
320,192,131552,1,0,0:0:0:0:
448,192,131552,1,0,0:0:0:0:
192,192,131632,1,0,0:0:0:0:
64,192,131632,1,0,0:0:0:0:
320,192,131713,1,0,0:0:0:0:
448,192,131713,1,0,0:0:0:0:
192,192,131794,1,0,0:0:0:0:
64,192,131794,1,0,0:0:0:0:
320,192,131874,1,0,0:0:0:0:
192,192,131955,1,0,0:0:0:0:
64,192,131955,1,0,0:0:0:0:
448,192,131955,1,0,0:0:0:0:
320,192,132036,1,0,0:0:0:0:
192,192,132116,1,0,0:0:0:0:
64,192,132116,1,0,0:0:0:0:
448,192,132197,1,0,0:0:0:0:
320,192,132278,1,0,0:0:0:0:
192,192,132358,1,0,0:0:0:0:
64,192,132439,1,0,0:0:0:0:
448,192,132439,1,0,0:0:0:0:
192,192,132519,1,0,0:0:0:0:
320,192,132519,1,0,0:0:0:0:
448,192,132600,1,0,0:0:0:0:
64,192,132600,1,0,0:0:0:0:
192,192,132681,1,0,0:0:0:0:
320,192,132681,1,0,0:0:0:0:
448,192,132761,1,0,0:0:0:0:
64,192,132761,1,0,0:0:0:0:
320,192,132842,1,0,0:0:0:0:
192,192,132923,1,0,0:0:0:0:
64,192,133003,1,0,0:0:0:0:
320,192,133084,1,0,0:0:0:0:
448,192,133084,1,0,0:0:0:0:
192,192,133165,1,0,0:0:0:0:
64,192,133165,1,0,0:0:0:0:
320,192,133245,1,0,0:0:0:0:
448,192,133245,1,0,0:0:0:0:
192,192,133326,1,0,0:0:0:0:
64,192,133326,1,0,0:0:0:0:
320,192,133407,1,0,0:0:0:0:
448,192,133407,1,0,0:0:0:0:
64,192,133487,1,0,0:0:0:0:
192,192,133568,1,0,0:0:0:0:
320,192,133649,1,0,0:0:0:0:
192,192,133729,1,0,0:0:0:0:
448,192,133729,1,0,0:0:0:0:
320,192,133810,1,0,0:0:0:0:
64,192,133810,1,0,0:0:0:0:
192,192,133890,1,0,0:0:0:0:
448,192,133890,1,0,0:0:0:0:
320,192,133971,1,0,0:0:0:0:
64,192,133971,1,0,0:0:0:0:
192,192,134052,1,0,0:0:0:0:
448,192,134052,1,0,0:0:0:0:
64,192,134132,1,0,0:0:0:0:
192,192,134213,1,0,0:0:0:0:
320,192,134294,1,0,0:0:0:0:
448,192,134374,1,0,0:0:0:0:
64,192,134374,1,0,0:0:0:0:
192,192,134455,1,0,0:0:0:0:
320,192,134455,1,0,0:0:0:0:
448,192,134536,1,0,0:0:0:0:
64,192,134536,1,0,0:0:0:0:
192,192,134616,1,0,0:0:0:0:
320,192,134616,1,0,0:0:0:0:
448,192,134697,1,0,0:0:0:0:
64,192,134697,1,0,0:0:0:0:
192,192,134778,1,0,0:0:0:0:
320,192,134858,1,0,0:0:0:0:
192,192,134939,1,0,0:0:0:0:
64,192,135019,1,0,0:0:0:0:
320,192,135019,1,0,0:0:0:0:
192,192,135100,1,0,0:0:0:0:
448,192,135100,1,0,0:0:0:0:
320,192,135181,1,0,0:0:0:0:
64,192,135181,1,0,0:0:0:0:
192,192,135261,1,0,0:0:0:0:
448,192,135261,1,0,0:0:0:0:
320,192,135342,1,0,0:0:0:0:
64,192,135342,1,0,0:0:0:0:
192,192,135423,1,0,0:0:0:0:
64,192,135503,1,0,0:0:0:0:
448,192,135503,1,0,0:0:0:0:
192,192,135584,1,0,0:0:0:0:
320,192,135584,1,0,0:0:0:0:
448,192,135665,1,0,0:0:0:0:
64,192,135665,1,0,0:0:0:0:
192,192,135745,1,0,0:0:0:0:
320,192,135745,1,0,0:0:0:0:
448,192,135826,1,0,0:0:0:0:
64,192,135826,1,0,0:0:0:0:
320,192,135907,1,0,0:0:0:0:
192,192,135907,1,0,0:0:0:0:
448,192,135987,1,0,0:0:0:0:
64,192,135987,1,0,0:0:0:0:
192,192,136068,1,0,0:0:0:0:
320,192,136149,1,0,0:0:0:0:
448,192,136149,1,0,0:0:0:0:
192,192,136229,1,0,0:0:0:0:
64,192,136229,1,0,0:0:0:0:
320,192,136310,1,0,0:0:0:0:
448,192,136310,1,0,0:0:0:0:
192,192,136390,1,0,0:0:0:0:
64,192,136390,1,0,0:0:0:0:
320,192,136471,1,0,0:0:0:0:
448,192,136471,1,0,0:0:0:0:
192,192,136552,1,0,0:0:0:0:
64,192,136552,1,0,0:0:0:0:
320,192,136632,1,0,0:0:0:0:
448,192,136632,1,0,0:0:0:0:
192,192,136713,1,0,0:0:0:0:
64,192,136794,1,0,0:0:0:0:
320,192,136794,1,0,0:0:0:0:
448,192,136794,1,0,0:0:0:0:
