osu file format v14

[General]
AudioFilename: audio.mp3
AudioLeadIn: 0
PreviewTime: 56580
Countdown: 0
SampleSet: Soft
StackLeniency: 0.7
Mode: 0
LetterboxInBreaks: 0
WidescreenStoryboard: 0

[Editor]
DistanceSpacing: 0.4
BeatDivisor: 4
GridSize: 4
TimelineZoom: 1.7

[Metadata]
Title:Bokura no Seiza
TitleUnicode:ぼくらの星座
Artist:Mikoi Sasaki
ArtistUnicode:佐々木未来
Creator:joker-
Version:Yohanes' Insane
Source:星恋*ティンクル
Tags:eroge opening Akitoshi Corinn Yohanes yaldo_27 Nanashima Asami Left
BeatmapID:1162559
BeatmapSetID:539139

[Difficulty]
HPDrainRate:6
CircleSize:4.2
OverallDifficulty:7
ApproachRate:9
SliderMultiplier:1.8
SliderTickRate:1

[Events]
//Background and Video events
0,0,"bg.jpg",0,0
Video,-80,"video.avi"
//Break Periods
2,78905,80505
//Storyboard Layer 0 (Background)
//Storyboard Layer 1 (Fail)
//Storyboard Layer 2 (Pass)
//Storyboard Layer 3 (Foreground)
//Storyboard Sound Samples

[TimingPoints]
705,300,4,2,55,40,1,0
705,-125,4,2,55,40,0,0
4905,-125,4,2,55,15,0,0
5205,-125,4,2,55,40,0,0
9255,-100,4,2,55,60,0,0
10605,-142.857142857143,4,2,55,40,0,0
11505,-100,4,2,55,60,0,0
18705,-125,4,2,55,40,0,0
47505,-100,4,2,55,70,0,0
54705,-125,4,2,55,70,0,0
56505,-125,4,2,55,15,0,0
56655,-125,4,2,55,40,0,0
57105,-100,4,2,55,70,0,1
78705,-100,4,2,55,70,0,0
100155,-100,4,2,55,40,0,0

[Colours]
Combo1 : 255,94,55
Combo2 : 173,255,95
Combo3 : 17,254,176
Combo4 : 255,88,100

[HitObjects]
168,184,1455,6,0,P|128:188|88:168,2,72
240,144,1905,2,0,P|300:132|396:152,1,144,2|0,0:0|0:0,0:0:0:0:
444,92,2355,2,0,P|471:146|476:244,1,144
436,296,2805,1,0,0:0:0:0:
160,356,3105,6,0,B|232:340|232:376|304:356,1,144,2|0,0:0|0:0,0:0:0:0:
304,276,3555,2,0,B|232:292|232:256|160:276,1,144
87,314,4005,2,0,P|64:284|65:157,1,144,0|2,0:0|0:0,0:0:0:0:
160,44,4605,5,0,0:0:0:0:
208,108,4755,2,0,P|264:128|344:108,1,144
408,156,5205,2,0,P|408:200|393:226,1,72
256,244,5505,6,0,B|292:136|220:136|256:32,2,216,2|0|0,0:0|0:0|0:0,0:0:0:0:
348,84,6705,5,2,0:0:0:0:
160,192,7005,1,0,0:0:0:0:
160,192,7155,2,0,P|88:204|12:172,1,144
0,100,7605,1,0,0:0:0:0:
256,228,7905,6,0,B|272:155|236:156|256:84,1,144,2|0,0:0|0:0,0:0:0:0:
316,28,8355,2,0,B|388:4|464:36,1,144
500,104,8805,2,0,L|528:256,1,144
352,308,9255,6,0,P|445:352|515:302,1,180,4|0,0:0|0:0,0:0:0:0:
351,214,9705,2,0,P|265:272|274:358,1,180,4|0,0:0|0:0,0:0:0:0:
432,260,10155,2,0,P|423:156|345:121,1,180,4|0,0:0|0:0,0:0:0:0:
132,176,10605,6,0,B|192:148|248:176|248:176|288:124|288:124|228:80|143:100,1,314.999990386963,4|0,0:0|0:0,0:0:0:0:
44,143,11505,6,0,P|38:187|54:230,1,90,4|0,0:0|0:0,0:0:0:0:
132,176,11805,1,2,2:0:0:0:
186,254,11955,1,2,2:0:0:0:
90,343,12105,2,0,P|133:356|177:347,1,90,8|0,0:0|0:0,0:0:0:0:
264,308,12405,1,2,0:0:0:0:
348,232,12555,6,0,L|372:344,1,90,2|0,0:0|0:0,0:0:0:0:
456,252,12855,2,0,P|460:232|432:164,1,90,8|2,0:0|0:0,0:0:0:0:
296,168,13155,1,2,0:0:0:0:
448,60,13305,1,8,0:0:0:0:
370,110,13455,2,0,P|352:69|360:26,1,90,4|0,0:0|0:0,0:0:0:0:
448,60,13755,1,8,0:0:0:0:
278,60,13905,6,0,L|186:60,1,90,4|0,0:0|0:0,0:0:0:0:
10,122,14205,1,2,0:0:0:0:
29,30,14355,1,2,0:0:0:0:
99,93,14505,2,0,P|101:149|67:195,1,90,8|2,0:0|0:0,0:0:0:0:
0,288,14805,2,0,P|47:258|104:264,1,90,2|0,0:0|0:0,0:0:0:0:
219,277,15105,2,0,P|169:250|146:198,1,90,2|8,0:0|0:0,0:0:0:0:
277,60,15405,5,2,0:0:0:0:
328,192,15555,1,2,0:0:0:0:
277,60,15705,1,8,0:0:0:0:
361,102,15855,2,0,P|371:58|359:16,1,90,4|0,0:0|0:0,0:0:0:0:
277,60,16155,1,8,0:0:0:0:
328,192,16305,6,0,P|416:180|456:92,1,180,6|0,0:0|0:0,0:0:0:0:
244,149,16755,2,0,P|224:240|264:325,1,180,14|0,0:0|0:0,0:0:0:0:
500,276,17205,2,0,B|412:248|412:304|324:276,2,180,14|0|4,0:0|0:0|0:0,0:0:0:0:
256,192,17880,12,2,18705,0:0:0:0:
36,88,19005,5,0,0:0:0:0:
104,136,19155,1,0,0:0:0:0:
168,84,19305,2,0,P|208:72|320:84,1,144
448,340,19905,2,0,P|472:276|448:188,1,144,2|0,0:0|0:0,0:0:0:0:
384,164,20355,2,0,B|235:242|258:121|104:213,1,288
109,209,21105,5,2,0:0:0:0:
289,9,21405,2,0,P|300:44|295:80,1,72
218,50,21705,2,0,P|136:50|56:86,2,144,0|0|2,0:0|0:0|0:0,0:0:0:0:
436,148,22605,1,0,0:0:0:0:
367,203,22755,2,0,B|260:253|184:229|123:127,1,288
123,127,23505,5,2,0:0:0:0:
436,148,23805,2,0,P|454:197|451:224,1,72
396,293,24105,2,0,P|317:325|253:317,1,144
123,127,24705,2,0,P|202:95|266:103,1,144,2|0,0:0|0:0,0:0:0:0:
344,135,25155,1,0,0:0:0:0:
66,340,25605,2,0,L|27:267,1,72
119,270,25905,6,0,L|123:99,1,144,2|0,0:0|0:0,0:0:0:0:
208,162,26355,2,0,P|195:68|132:33,1,144
68,51,26805,1,0,0:0:0:0:
208,162,27105,2,0,B|316:122|316:202|420:162,1,216,2|0,0:0|0:0,0:0:0:0:
462,91,27705,2,0,B|523:148|515:252|443:292,1,216,2|0,0:0|0:0,0:0:0:0:
385,328,28305,5,2,0:0:0:0:
148,164,28605,1,0,0:0:0:0:
121,246,28755,1,0,0:0:0:0:
207,229,28905,2,0,L|295:211,1,72
353,254,29205,2,0,P|363:215|350:176,1,72
272,124,29505,2,0,P|346:98|362:28,1,144,2|0,0:0|0:0,0:0:0:0:
284,43,29955,2,0,B|204:64|136:20|136:20,1,144
52,108,30405,2,0,B|132:87|200:131|200:131,1,144,0|2,0:0|0:0,0:0:0:0:
356,304,31005,5,0,0:0:0:0:
393,226,31155,1,0,0:0:0:0:
468,268,31305,2,0,B|508:208|480:124,2,144,0|0|2,0:0|0:0|0:0,0:0:0:0:
288,360,32205,1,0,0:0:0:0:
223,303,32355,2,0,P|152:295|83:315,1,144
41,239,32805,2,0,L|5:167,1,72
40,92,33105,6,0,P|108:76|240:128,1,216,2|0,0:0|0:0,0:0:0:0:
368,328,33855,2,0,P|408:328|444:312,2,72
290,292,34305,2,0,P|184:279|83:315,1,216,2|0,0:0|0:0,0:0:0:0:
24,252,34905,2,0,P|16:216|24:176,2,72
82,315,35355,1,0,0:0:0:0:
136,212,35505,6,0,B|276:172|360:244|360:244,2,216,2|0|0,0:0|0:0|0:0,0:0:0:0:
82,315,36555,1,0,0:0:0:0:
21,181,36705,1,2,0:0:0:0:
256,192,36780,12,0,37755,0:0:0:0:
184,154,37905,6,0,L|202:257,1,72,2|0,0:0|0:0,0:0:0:0:
308,270,38205,2,0,L|290:167,1,72
164,142,38505,2,0,L|182:245,1,72
288,258,38805,2,0,L|270:155,1,72
256,80,39105,5,0,0:0:0:0:
416,234,39405,1,0,0:0:0:0:
416,234,39555,2,0,P|448:166|428:86,1,144
353,34,40005,2,0,L|345:106,1,72
308,270,40305,6,0,L|290:167,1,72,2|0,0:0|0:0,0:0:0:0:
184,154,40605,2,0,L|202:257,1,72
288,258,40905,2,0,L|270:155,1,72
164,142,41205,2,0,L|182:245,1,72
196,320,41505,5,0,0:0:0:0:
36,166,41805,1,0,0:0:0:0:
36,166,41955,2,0,P|4:234|24:314,1,144
99,366,42405,2,0,L|107:294,1,72
164,142,42705,6,0,P|208:134|244:142,1,72,2|0,0:0|0:0,0:0:0:0:
376,210,43005,2,0,P|332:218|296:210,1,72
304,70,43305,2,0,P|312:114|304:150,1,72
236,282,43605,2,0,P|228:238|236:202,1,72
368,34,43905,6,0,P|388:138|300:318,1,288
36,166,44805,2,0,P|28:202|52:254,1,72
111,199,45105,6,0,P|168:182|272:202,1,144,2|0,0:0|0:0,0:0:0:0:
329,226,45555,2,0,P|346:169|326:65,1,144,2|0,0:0|0:0,0:0:0:0:
273,30,46005,2,0,B|229:16|173:52|129:38,1,144,2|2,0:0|0:0,0:0:0:0:
45,28,46455,5,0,0:0:0:0:
10,106,46605,1,0,0:0:0:0:
74,164,46755,1,0,0:0:0:0:
8,275,46905,2,0,P|-7:233|9:193,1,72,2|2,0:0|0:0,0:0:0:0:
149,122,47205,2,0,P|164:164|148:204,1,72,2|2,0:0|0:0,0:0:0:0:
74,164,47505,5,6,0:0:0:0:
240,257,47655,2,0,B|333:292|332:232|416:256,1,180,2|2,0:0|0:0,0:0:0:0:
180,334,48105,2,0,P|148:282|188:156,1,180,8|0,0:0|0:0,0:0:0:0:
310,83,48555,6,0,P|258:154|172:171,1,180,2|0,0:0|0:0,0:0:0:0:
27,96,49005,2,0,P|114:104|172:171,1,180,12|2,0:0|0:0,0:0:0:0:
72,204,49455,1,2,0:0:0:0:
240,257,49605,2,0,P|196:269|148:257,1,90,8|0,0:0|0:0,0:0:0:0:
235,79,49905,5,6,0:0:0:0:
364,189,50055,2,0,P|378:146|371:103,1,90,2|0,0:0|0:0,0:0:0:0:
314,26,50355,1,2,0:0:0:0:
171,170,50505,2,0,P|83:169|19:107,1,180,8|0,0:0|0:0,0:0:0:0:
235,79,50955,6,0,P|278:155|256:240,1,180,2|0,0:0|0:0,0:0:0:0:
42,270,51405,2,0,P|86:194|171:170,1,180,12|0,0:0|0:0,0:0:0:0:
256,240,51855,1,2,0:0:0:0:
154,86,52005,2,0,P|150:130|174:174,1,90,8|0,0:0|0:0,0:0:0:0:
383,310,52305,6,0,B|279:282|319:342|207:310,1,180,6|8,0:0|0:0,0:0:0:0:
154,86,52755,2,0,B|266:54|226:114|330:86,1,180,6|0,0:0|0:0,0:0:0:0:
285,0,53205,1,8,0:0:0:0:
120,309,53505,6,0,P|80:233|92:113,1,180,6|8,0:0|0:0,0:0:0:0:
285,0,53955,2,0,P|325:76|313:196,1,180,6|2,0:0|0:0,0:0:0:0:
191,258,54405,2,0,P|231:238|283:242,1,90,8|0,0:0|0:0,0:0:0:0:
383,310,54705,5,2,0:0:0:0:
476,84,55005,1,0,0:0:0:0:
476,84,55155,1,0,0:0:0:0:
256,192,55230,12,0,56505,0:0:0:0:
252,156,56655,6,0,L|236:244,1,72,2|0,0:0|0:0,0:0:0:0:
158,134,56955,1,0,0:0:0:0:
312,72,57105,6,0,P|364:64|416:84,1,90,4|0,0:0|0:0,0:0:0:0:
492,184,57405,2,0,P|504:148|488:88,1,90,8|0,0:0|0:0,0:0:0:0:
400,184,57705,1,2,0:0:0:0:
484,284,57855,1,2,0:0:0:0:
400,184,58005,2,0,P|349:178|312:192,1,90,8|0,0:0|0:0,0:0:0:0:
385,359,58305,6,0,L|363:271,1,90,2|0,0:0|0:0,0:0:0:0:
256,252,58605,2,0,L|256:342,1,90,8|0,0:0|0:0,0:0:0:0:
128,360,58905,2,0,L|149:272,1,90,2|2,0:0|0:0,0:0:0:0:
180,100,59205,1,8,0:0:0:0:
224,184,59355,1,0,0:0:0:0:
117,50,59505,6,0,P|100:91|108:136,1,90,2|0,0:0|0:0,0:0:0:0:
314,184,59805,2,0,L|218:184,1,90,8|0,0:0|0:0,0:0:0:0:
104,292,60105,2,0,L|194:292,1,90,2|2,0:0|0:0,0:0:0:0:
314,184,60405,2,0,L|340:269,1,90,8|0,0:0|0:0,0:0:0:0:
441,319,60705,6,0,P|453:275|441:223,1,90,2|0,0:0|0:0,0:0:0:0:
379,45,61005,2,0,L|419:161,1,90,8|0,0:0|0:0,0:0:0:0:
340,269,61305,2,0,P|300:277|232:249,1,90,2|2,0:0|0:0,0:0:0:0:
195,95,61605,2,0,P|235:87|303:115,1,90,8|0,0:0|0:0,0:0:0:0:
112,188,61905,6,0,P|77:133|105:9,2,180,6|8|2,0:0|0:0|0:0,0:0:0:0:
195,95,62655,1,2,0:0:0:0:
252,196,62805,2,0,L|241:299,1,90,8|0,0:0|0:0,0:0:0:0:
112,188,63105,6,0,L|101:85,1,90,2|0,0:0|0:0,0:0:0:0:
252,196,63405,1,8,0:0:0:0:
40,244,63555,2,0,L|29:141,1,90,2|0,0:0|0:0,0:0:0:0:
185,5,63855,2,0,L|196:108,1,90,2|8,0:0|0:0,0:0:0:0:
360,128,64155,6,0,B|290:61|194:94,1,180,4|2,0:0|0:0,0:0:0:0:
176,108,64530,1,8,0:0:0:0:
156,120,64605,2,0,P|104:128|52:108,1,90,8|0,0:0|0:0,0:0:0:0:
20,37,64905,1,2,0:0:0:0:
116,34,65055,1,2,0:0:0:0:
69,118,65205,1,8,0:0:0:0:
20,37,65355,1,8,0:3:0:0:
116,196,65505,6,0,P|178:203|220:177,1,90,6|2,0:0|0:0,0:0:0:0:
220,170,65730,1,2,0:0:0:0:
229,142,65805,1,8,0:0:0:0:
116,34,65955,2,0,L|69:-11,2,45,2|8|8,0:0|0:3|0:0,0:0:0:0:
229,142,66255,2,0,L|319:134,1,90,8|8,0:3|0:0,0:0:0:0:
392,296,66555,1,2,0:0:0:0:
392,296,66630,1,2,0:0:0:0:
392,296,66705,6,0,L|264:284,1,90,6|0,0:0|0:0,0:0:0:0:
113,272,67005,2,0,P|114:317|136:356,1,90,8|0,0:0|0:0,0:0:0:0:
208,208,67305,2,0,L|192:119,1,90,2|2,0:0|0:0,0:0:0:0:
63,47,67605,2,0,L|48:136,1,90,8|0,0:0|0:0,0:0:0:0:
180,36,67905,6,0,P|236:32|284:48,1,90,2|0,0:0|0:0,0:0:0:0:
396,200,68205,2,0,P|340:204|292:188,1,90,8|0,0:0|0:0,0:0:0:0:
412,8,68505,1,2,0:0:0:0:
432,100,68655,1,2,0:0:0:0:
342,71,68805,1,8,0:0:0:0:
412,8,68955,1,0,0:0:0:0:
506,152,69105,6,0,P|521:110|513:67,1,90,2|0,0:0|0:0,0:0:0:0:
340,184,69405,2,0,L|432:184,1,90,8|0,0:0|0:0,0:0:0:0:
488,328,69705,2,0,P|440:340|384:324,1,90,2|0,0:0|0:0,0:0:0:0:
244,184,70005,6,0,B|148:156|72:216,2,180,10|2|8,0:0|0:0|0:0,0:0:0:0:
348,260,70755,1,4,0:0:0:0:
436,160,70905,2,0,L|456:256,1,90,2|2,0:0|0:0,0:0:0:0:
344,136,71205,1,8,0:0:0:0:
244,264,71355,6,0,B|160:288|160:232|60:264,1,180,6|2,0:0|0:0,0:0:0:0:
204,192,71805,2,0,L|220:92,1,90,8|0,0:0|0:0,0:0:0:0:
410,68,72105,1,2,0:0:0:0:
436,160,72255,1,2,0:0:0:0:
344,136,72405,1,8,0:0:0:0:
410,68,72555,1,2,0:0:0:0:
360,229,72705,6,0,P|315:227|278:204,1,90,2|0,0:0|0:0,0:0:0:0:
327,42,73005,2,0,P|372:44|410:68,1,90,8|0,0:0|0:0,0:0:0:0:
436,160,73305,1,10,0:0:0:0:
218,103,73455,1,2,0:0:0:0:
218,103,73755,6,0,B|256:212|172:272,1,180,6|2,0:0|0:0,0:0:0:0:
36,216,74205,2,0,P|76:200|152:220,1,90,8|0,0:0|0:0,0:0:0:0:
150,352,74505,2,0,P|116:325|95:249,1,90,2|2,0:0|0:0,0:0:0:0:
218,103,74805,1,8,0:0:0:0:
277,203,74955,1,8,0:3:0:0:
372,16,75105,1,8,0:0:0:0:
431,116,75255,2,0,L|476:8,1,90,8|0,0:3|0:0,0:0:0:0:
500,199,75555,6,0,B|464:240|380:248|300:190,1,180,6|2,0:0|0:0,0:0:0:0:
218,103,76005,1,8,0:0:0:0:
186,92,76080,1,8,0:0:0:0:
152,92,76155,1,8,0:3:0:0:
120,102,76230,1,8,0:3:0:0:
89,124,76305,6,0,P|34:134|-12:110,1,90,6|0,0:0|0:0,0:0:0:0:
140,261,76605,2,0,L|168:149,1,90,8|0,0:0|0:0,0:0:0:0:
284,13,76905,2,0,L|308:125,1,90,2|2,0:0|0:0,0:0:0:0:
268,309,77205,2,0,L|244:197,1,90,12|2,0:0|0:0,0:0:0:0:
400,17,77505,6,0,P|432:100|403:184,1,180,6|2,0:0|0:0,0:0:0:0:
302,101,77955,2,0,P|272:97|230:113,2,45,8|8|2,0:0|0:0|0:0,0:0:0:0:
249,220,78255,1,2,0:0:0:0:
302,101,78405,1,8,0:0:0:0:
344,269,78555,1,8,0:0:0:0:
344,269,78630,1,8,0:0:0:0:
344,269,78705,1,6,0:0:0:0:
144,48,81105,5,8,0:0:0:0:
144,48,81255,1,8,0:0:0:0:
368,336,81555,5,8,0:0:0:0:
368,336,81705,1,8,0:0:0:0:
400,80,82005,5,8,0:0:0:0:
400,80,82155,1,8,0:0:0:0:
112,304,82455,5,8,0:0:0:0:
112,304,82605,1,8,0:0:0:0:
144,48,82905,5,8,0:0:0:0:
324,268,83055,1,4,0:0:0:0:
324,268,83505,6,0,L|351:159,1,90,6|0,0:0|0:0,0:0:0:0:
394,19,83805,1,8,2:0:0:0:
259,120,83955,1,8,2:3:0:0:
426,117,84105,1,8,2:0:0:0:
289,21,84255,1,8,2:3:0:0:
345,180,84405,1,8,2:0:0:0:
394,19,84555,1,6,2:0:0:0:
256,192,84630,12,8,85755,0:0:0:0:
252,100,85905,6,0,P|188:88|132:108,1,90,6|0,0:0|0:0,0:0:0:0:
80,144,86205,1,8,0:0:0:0:
175,260,86355,2,0,L|158:172,1,90,2|0,0:0|0:0,0:0:0:0:
74,228,86655,1,2,0:0:0:0:
260,290,86805,2,0,L|243:201,1,90,8|0,0:0|0:0,0:0:0:0:
108,340,87105,6,0,P|184:344|216:324,1,90,2|0,0:0|0:0,0:0:0:0:
336,232,87405,1,8,0:0:0:0:
412,332,87555,2,0,P|428:288|408:232,1,90,2|0,0:0|0:0,0:0:0:0:
332,150,87855,1,2,0:0:0:0:
175,260,88005,2,0,P|156:223|158:171,1,90,8|0,0:0|0:0,0:0:0:0:
209,23,88305,6,0,L|240:116,1,90,2|0,0:0|0:0,0:0:0:0:
332,150,88605,1,8,0:0:0:0:
392,56,88755,2,0,P|346:38|306:42,1,90,2|0,0:0|0:0,0:0:0:0:
332,150,89055,1,2,0:0:0:0:
458,8,89205,2,0,P|474:54|454:108,1,90,8|0,0:0|0:0,0:0:0:0:
332,150,89505,5,2,0:0:0:0:
422,256,89655,1,2,0:0:0:0:
430,158,89805,1,8,0:0:0:0:
324,248,89955,2,0,P|263:255|223:235,1,90,6|0,0:0|0:0,0:0:0:0:
90,163,90255,1,2,0:0:0:0:
146,239,90405,1,8,0:0:0:0:
146,87,90555,1,8,0:0:0:0:
146,87,90630,1,8,0:0:0:0:
146,87,90705,6,0,P|101:69|48:76,1,90,6|0,0:0|0:0,0:0:0:0:
90,163,91005,1,8,0:0:0:0:
230,101,91155,2,0,L|210:5,1,90,2|0,0:0|0:0,0:0:0:0:
146,87,91455,1,2,0:0:0:0:
314,129,91605,2,0,L|294:225,1,90,8|0,0:0|0:0,0:0:0:0:
403,161,91905,6,0,P|407:113|366:51,1,90,2|0,0:0|0:0,0:0:0:0:
314,129,92205,1,8,0:0:0:0:
442,246,92355,2,0,L|536:232,1,90,6|0,0:0|0:0,0:0:0:0:
403,161,92655,1,2,0:0:0:0:
326,284,92805,2,0,P|278:288|230:252,1,90,8|0,0:0|0:0,0:0:0:0:
205,91,93105,6,0,L|225:187,1,90,2|0,0:0|0:0,0:0:0:0:
314,129,93405,1,8,0:0:0:0:
421,249,93555,2,0,L|402:160,1,90,2|4,0:0|0:0,0:0:0:0:
385,67,93855,1,2,0:0:0:0:
223,179,94005,2,0,P|173:175|129:140,1,90,8|0,0:0|0:0,0:0:0:0:
205,91,94305,5,8,0:0:0:0:
326,284,94455,1,8,0:3:0:0:
326,284,94605,1,2,0:0:0:0:
314,129,94755,5,12,0:0:0:0:
207,330,94905,1,8,0:3:0:0:
207,330,95055,1,2,0:0:0:0:
205,91,95205,5,8,0:0:0:0:
326,284,95355,1,6,0:0:0:0:
256,192,95430,12,2,100155,0:0:0:0:
