osu file format v14

[General]
AudioFilename: audio.mp3
AudioLeadIn: 0
PreviewTime: 56580
Countdown: 0
SampleSet: Soft
StackLeniency: 0.4
Mode: 0
LetterboxInBreaks: 0
WidescreenStoryboard: 0

[Editor]
Bookmarks: 47955
DistanceSpacing: 0.6
BeatDivisor: 4
GridSize: 4
TimelineZoom: 1

[Metadata]
Title:Bokura no Seiza
TitleUnicode:ぼくらの星座
Artist:Mikoi Sasaki
ArtistUnicode:佐々木未来
Creator:joker-
Version:Left's Sparkle
Source:星恋*ティンクル
Tags:eroge opening Akitoshi Corinn Yohanes yaldo_27 Nanashima Asami Left
BeatmapID:1145319
BeatmapSetID:539139

[Difficulty]
HPDrainRate:6
CircleSize:4.3
OverallDifficulty:8.5
ApproachRate:9.3
SliderMultiplier:1.8
SliderTickRate:1

[Events]
//Background and Video events
0,0,"bg.jpg",0,0
Video,-80,"video.avi"
//Break Periods
//Storyboard Layer 0 (Background)
//Storyboard Layer 1 (Fail)
//Storyboard Layer 2 (Pass)
//Storyboard Layer 3 (Foreground)
//Storyboard Sound Samples

[TimingPoints]
705,300,4,2,0,55,1,0
705,-166.666666666667,4,2,0,55,0,0
9105,-76.9230769230769,4,2,69,70,0,0
10605,-200,4,2,69,70,0,0
11355,-117.647058823529,4,2,69,70,0,0
11430,-117.647058823529,4,2,69,5,0,0
11505,-117.647058823529,4,2,69,70,0,0
13455,-90.9090909090909,4,2,69,70,0,0
13905,-117.647058823529,4,2,69,70,0,0
15855,-90.9090909090909,4,2,69,70,0,0
16230,-90.9090909090909,4,2,69,5,0,0
16305,-83.3333333333333,4,2,69,70,0,0
17505,-66.6666666666667,4,2,69,70,0,0
17580,-66.6666666666667,4,2,69,5,0,0
17655,-66.6666666666667,4,2,69,70,0,0
17730,-66.6666666666667,4,2,69,5,0,0
17805,-153.846153846154,4,2,69,70,0,0
18705,-100,4,2,0,55,0,0
28305,-166.666666666667,4,2,0,55,0,0
37905,-133.333333333333,4,2,0,55,0,0
38505,-200,4,2,0,55,0,0
40305,-133.333333333333,4,2,0,55,0,0
41505,-200,4,2,0,55,0,0
42705,-133.333333333333,4,2,0,55,0,0
43305,-200,4,2,0,55,0,0
45105,-133.333333333333,4,2,0,55,0,0
47505,-111.111111111111,4,2,69,70,0,0
52305,-76.9230769230769,4,2,69,70,0,0
53205,-71.4285714285714,4,2,69,70,0,0
53505,-71.4285714285714,4,2,69,70,0,0
54255,-62.5,4,2,69,70,0,0
54330,-62.5,4,2,69,5,0,0
54405,-62.5,4,2,69,70,0,0
54555,-83.3333333333333,4,2,69,70,0,0
54705,-133.333333333333,4,2,0,55,0,0
57105,-90.9090909090909,4,2,69,80,0,1
64605,-76.9230769230769,4,2,69,80,0,1
64905,-76.9230769230769,4,2,69,80,0,1
66255,-66.6666666666667,4,2,0,80,0,1
66330,-66.6666666666667,4,2,0,5,0,1
66405,-66.6666666666667,4,2,0,80,0,1
66480,-66.6666666666667,4,2,0,5,0,1
66555,-66.6666666666667,4,2,0,80,0,1
66630,-66.6666666666667,4,2,0,5,0,1
66705,-66.6666666666667,4,2,69,80,0,1
67305,-90.9090909090909,4,2,69,80,0,1
70755,-76.9230769230769,4,2,69,80,0,1
71355,-71.4285714285714,4,2,69,80,0,1
71805,-90.9090909090909,4,2,69,80,0,1
78705,-100,4,2,0,55,0,0
81105,-100,4,2,69,70,0,0
83055,-166.666666666667,4,2,69,70,0,0
83505,-90.9090909090909,4,2,69,70,0,0
84555,-100,4,2,69,70,0,0
85905,-90.9090909090909,4,2,69,70,0,0
100155,-90.9090909090909,4,2,69,5,0,0

[Colours]
Combo1 : 255,255,57
Combo2 : 74,255,255
Combo3 : 166,255,77
Combo4 : 255,157,206

[HitObjects]
31,329,1455,5,0,0:0:0:0:
67,263,1605,1,0,0:0:0:0:
143,252,1755,1,0,0:0:0:0:
207,295,1905,6,0,P|262:317|323:303,1,107.999996704102,2|0,0:0|0:0,0:0:0:0:
355,89,2355,2,0,P|333:132|340:189,1,107.999996704102,2|0,0:0|0:0,0:0:0:0:
374,263,2805,1,0,0:0:0:0:
66,162,3105,6,0,B|102:120|102:120|118:174,1,107.999996704102,2|0,0:0|0:0,0:0:0:0:
242,225,3555,2,0,B|203:201|162:232|162:232|117:260|68:229,1,161.999995056153,2|0,0:0|0:0,0:0:0:0:
345,316,4305,6,0,P|405:341|451:325,1,107.999996704102,2|0,0:0|0:0,0:0:0:0:
422,150,4755,2,0,L|404:260,1,107.999996704102,2|0,0:0|0:0,0:0:0:0:
353,369,5205,2,0,L|344:315,1,53.9999983520508,2|0,0:0|0:0,0:0:0:0:
261,224,5505,6,0,B|244:196|215:187|215:187|176:214|113:216,2,161.999995056153,2|0|0,0:0|0:0|0:0,0:0:0:0:
429,166,6705,6,0,P|420:112|405:55,1,107.999996704102,2|0,0:0|0:0,0:0:0:0:
270,234,7155,2,0,P|259:282|255:346,1,107.999996704102,2|0,0:0|0:0,0:0:0:0:
348,200,7605,1,0,0:0:0:0:
83,166,7905,6,0,P|92:112|107:55,1,107.999996704102,2|0,0:0|0:0,0:0:0:0:
238,233,8355,2,0,P|250:286|254:340,1,107.999996704102,2|0,0:0|0:0,0:0:0:0:
164,200,8805,1,0,0:0:0:0:
344,129,9105,5,0,0:0:0:0:
450,149,9255,2,0,P|392:157|327:97,1,116.999994644165,6|0,0:0|0:0,0:0:0:0:
225,253,9555,5,0,0:0:0:0:
119,273,9705,2,0,P|177:281|242:221,1,116.999994644165,6|0,0:0|0:0,0:0:0:0:
180,177,10005,5,0,0:0:0:0:
394,205,10155,2,0,B|323:220|323:220|244:164|244:164|158:182,1,233.999989288331,6|0,0:0|0:0,0:0:0:0:
457,253,10605,6,0,P|472:200|457:157,1,90,6|0,0:0|0:0,0:0:0:0:
396,123,11055,1,0,0:0:0:0:
396,123,11130,1,0,0:0:0:0:
396,123,11205,1,0,0:0:0:0:
273,273,11355,2,0,L|288:342,1,38.2500007295609,0|0,1:0|0:0,0:0:0:0:
414,349,11505,6,0,P|328:299|260:323,1,153.000002918243,6|0,0:0|0:0,0:0:0:0:
218,359,11955,1,0,0:0:0:0:
95,187,12105,2,0,L|110:89,1,76.5000014591217,8|0,0:0|0:0,0:0:0:0:
141,253,12405,2,0,P|108:267|57:261,1,76.5000014591217,2|0,0:0|0:0,0:0:0:0:
213,210,12705,5,0,0:0:0:0:
359,194,12855,2,0,P|320:179|267:188,1,76.5000014591217,8|2,0:0|0:0,0:0:0:0:
360,325,13155,1,0,0:0:0:0:
188,384,13305,5,8,0:0:0:0:
213,210,13455,2,0,L|198:322,1,99.0000030212403,6|0,0:0|0:0,0:0:0:0:
75,82,13755,1,8,0:0:0:0:
26,149,13905,6,0,P|101:160|159:88,1,153.000002918243,6|0,0:0|0:0,0:0:0:0:
76,82,14355,1,0,0:0:0:0:
233,137,14505,6,0,L|251:41,1,76.5000014591217,8|0,0:0|0:0,0:0:0:0:
112,249,14805,2,0,L|132:347,1,76.5000014591217,2|0,0:0|0:0,0:0:0:0:
233,137,15105,5,0,3:0:0:0:
375,186,15255,2,0,B|338:194|338:194|282:169,1,76.5000014591217,8|2,0:0|0:0,0:0:0:0:
112,249,15555,5,0,0:0:0:0:
233,137,15705,1,8,0:0:0:0:
364,284,15855,2,0,L|376:173,1,99.0000030212403,6|0,0:0|0:0,0:0:0:0:
233,137,16155,2,0,L|301:129,1,49.5000015106202,8|0,0:0|0:0,0:0:0:0:
388,112,16305,5,6,0:0:0:0:
178,228,16455,1,0,0:0:0:0:
346,318,16605,1,0,0:0:0:0:
124,112,16755,5,6,0:0:0:0:
334,228,16905,1,0,0:0:0:0:
166,318,17055,1,0,0:0:0:0:
389,144,17205,5,6,0:0:0:0:
100,249,17355,1,0,0:0:0:0:
334,340,17505,6,0,P|341:300|336:243,1,67.5000025749208
197,168,17655,2,0,P|189:208|187:251,1,67.5000025749208
349,353,17805,6,0,B|373:259|331:183|331:183|378:236|460:206,1,292.499986610413,6|0,0:0|0:0,0:0:0:0:
403,126,18705,5,2,0:0:0:0:
339,190,19905,1,2,0:0:0:0:
256,202,21105,1,2,0:0:0:0:
173,190,22305,1,2,0:0:0:0:
112,127,22905,5,0,0:0:0:0:
192,108,23205,1,0,0:0:0:0:
145,271,23505,5,2,0:0:0:0:
213,335,24705,1,2,0:0:0:0:
228,134,25905,1,2,0:0:0:0:
163,207,27105,5,2,0:0:0:0:
129,113,27705,1,2,0:0:0:0:
64,189,28305,6,0,P|110:211|180:196,1,107.999996704102,2|0,0:0|0:0,0:0:0:0:
165,204,28905,2,0,L|175:281,1,53.9999983520508
245,288,29205,2,0,L|235:365,1,53.9999983520508
74,271,29505,6,0,B|120:242|120:242|190:262,1,107.999996704102,2|0,0:0|0:0,0:0:0:0:
245,288,29955,2,0,B|296:302|296:302|342:273,1,107.999996704102
171,256,30405,1,0,0:0:0:0:
398,44,30705,5,2,0:0:0:0:
398,44,31005,2,0,L|389:115,1,53.9999983520508
327,203,31305,2,0,L|307:83,1,107.999996704102,0|0,0:0|0:0,0:0:0:0:
327,203,31905,6,0,P|386:214|435:173,1,107.999996704102,2|0,0:0|0:0,0:0:0:0:
248,159,32355,2,0,P|189:148|140:189,1,107.999996704102,0|0,0:0|0:0,0:0:0:0:
321,256,32805,2,0,L|328:189,1,53.9999983520508,0|0,0:0|0:0,0:0:0:0:
134,65,33105,6,0,L|153:190,1,107.999996704102,2|0,0:0|0:0,0:0:0:0:
108,246,33555,2,0,P|56:272|-4:257,1,107.999996704102
97,161,34005,2,0,L|171:176,1,53.9999983520508,0|0,0:0|0:0,0:0:0:0:
241,307,34305,6,0,L|363:287,1,107.999996704102,2|0,0:0|0:0,0:0:0:0:
372,202,34755,1,0,0:0:0:0:
400,298,34905,6,0,L|335:287,1,53.9999983520508,0|0,0:0|0:0,0:0:0:0:
341,122,35205,2,0,L|394:112,1,53.9999983520508,0|0,0:0|0:0,0:0:0:0:
372,202,35505,6,0,B|328:217|293:195|293:195|254:169|194:194,2,161.999995056153,2|0|0,0:0|0:0|0:0,0:0:0:0:
248,266,36555,1,0,0:0:0:0:
178,211,36705,6,0,P|146:141|211:194,1,215.999993408203,2|0,0:0|0:0,0:0:0:0:
177,171,37605,2,0,P|161:118|162:98,1,53.9999983520508,0|0,3:0|0:0,0:0:0:0:
338,30,37905,6,0,P|376:96|350:165,1,135.000005149842,4|0,0:0|0:0,0:0:0:0:
362,149,38355,1,0,0:0:0:0:
436,241,38505,6,0,P|462:248|499:241,3,45,2|0|0|0,0:0|0:0|0:0|0:0,0:0:0:0:
361,265,39105,2,0,P|341:284|329:319,3,45,2|0|0|0,0:0|0:0|0:0|0:0,0:0:0:0:
378,190,39705,2,0,P|371:163|346:135,3,45,2|0|0|0,0:0|0:0|0:0|0:0,0:0:0:0:
155,78,40305,6,0,B|129:112|129:112|145:213,1,135.000005149842,4|0,0:0|0:0,0:0:0:0:
143,203,40755,1,0,0:0:0:0:
270,152,40905,2,0,P|222:135|199:138,1,67.5000025749208,2|0,0:0|0:0,0:0:0:0:
212,282,41205,2,0,L|225:192,1,67.5000025749208
329,330,41505,6,0,L|389:322,3,45,2|0|0|0,0:0|0:0|0:0|0:0,0:0:0:0:
256,287,42105,2,0,L|196:279,3,45,2|0|0|0,0:0|0:0|0:0|0:0,0:0:0:0:
371,203,42705,6,0,P|320:166|252:189,1,135.000005149842,4|0,0:0|0:0,0:0:0:0:
255,185,43155,1,0,0:0:0:0:
125,158,43305,6,0,L|119:97,3,45,2|0|0|0,0:0|0:0|0:0|0:0,0:0:0:0:
257,62,43905,2,0,L|257:122,3,45,2|0|0|0,0:0|0:0|0:0|0:0,0:0:0:0:
387,158,44505,2,0,L|393:97,1,45,2|0,0:0|0:0,0:0:0:0:
314,200,44805,1,2,0:0:0:0:
314,200,44955,1,0,0:0:0:0:
488,299,45105,6,0,P|433:270|342:283,1,135.000005149842,4|0,0:0|0:0,0:0:0:0:
278,371,45555,2,0,P|330:337|364:252,1,135.000005149842,2|0,0:0|0:0,0:0:0:0:
320,151,46005,2,0,P|322:213|379:285,1,135.000005149842,2|2,0:0|0:0,0:0:0:0:
421,180,46455,5,0,0:0:0:0:
384,113,46605,1,0,0:0:0:0:
320,151,46755,1,0,0:0:0:0:
361,272,46905,5,0,0:0:0:0:
296,316,47055,1,0,0:0:0:0:
218,333,47205,1,2,0:0:0:0:
143,306,47355,1,0,0:0:0:0:
162,145,47505,5,6,0:0:0:0:
162,145,47655,2,0,L|141:319,1,161.999995056153,0|0,0:0|0:0,0:0:0:0:
387,219,48105,6,0,P|313:182|286:182,1,80.9999975280763,8|0,0:0|0:0,0:0:0:0:
238,194,48405,1,0,0:0:0:0:
291,336,48555,2,0,P|364:284|387:206,1,161.999995056153,2|0,0:0|0:0,0:0:0:0:
238,194,49005,2,0,P|245:283|302:342,1,161.999995056153,8|2,0:0|0:0,0:0:0:0:
447,90,49455,5,0,0:0:0:0:
284,121,49605,2,0,L|380:106,1,80.9999975280763,8|0,0:0|0:0,0:0:0:0:
502,290,49905,5,6,0:0:0:0:
502,290,50055,2,0,L|338:271,1,161.999995056153,0|0,0:0|0:0,0:0:0:0:
63,301,50505,6,0,L|81:192,1,80.9999975280763,8|0,0:0|0:0,0:0:0:0:
131,357,50805,1,0,0:0:0:0:
222,241,50955,2,0,B|151:197|151:197|45:230,1,161.999995056153,6|0,0:0|0:0,0:0:0:0:
131,357,51405,2,0,B|204:317|204:317|229:209,1,161.999995056153,8|2,0:0|0:0,0:0:0:0:
404,75,51855,5,0,0:0:0:0:
416,160,52005,2,0,L|428:246,1,80.9999975280763,8|0,0:0|0:0,0:0:0:0:
116,111,52305,6,0,B|186:98|186:98|264:138|264:138|376:120,1,233.999989288331,6|0,0:0|0:0,0:0:0:0:
50,292,52755,2,0,P|118:205|246:244,1,233.999989288331,6|0,0:0|0:0,0:0:0:0:
441,365,53205,2,0,L|421:186,1,125.999996154785,8|0,0:0|0:0,0:0:0:0:
157,94,53505,5,6,0:0:0:0:
254,312,53655,1,0,0:0:0:0:
413,142,53805,1,8,0:0:0:0:
129,333,53955,6,0,L|296:304,1,125.999996154785,6|0,0:0|0:0,0:0:0:0:
413,142,54255,2,0,L|397:229,1,72
377,326,54405,1,6,0:0:0:0:
157,94,54555,2,0,L|149:53,2,35.9999989013672
136,162,54705,6,0,P|174:164|219:129,1,67.5000025749208
261,94,55005,1,0,0:0:0:0:
100,178,56655,5,0,0:0:0:0:
133,71,56805,1,0,0:0:0:0:
239,110,56955,1,0,0:0:0:0:
53,107,57105,6,0,B|98:77|145:106|145:106|200:141|252:102,1,198.000006042481,6|8,0:0|0:0,0:0:0:0:
396,15,57555,1,0,0:0:0:0:
461,76,57705,2,0,P|482:120|470:181,1,99.0000030212403,2|0,0:0|0:0,0:0:0:0:
342,261,58005,1,8,0:0:0:0:
377,106,58155,1,0,0:0:0:0:
487,243,58305,5,2,0:0:0:0:
280,190,58455,1,0,0:0:0:0:
487,243,58605,1,8,0:0:0:0:
390,363,58755,2,0,L|372:236,1,99.0000030212403,0|2,0:0|0:0,0:0:0:0:
185,247,59055,5,0,0:0:0:0:
295,91,59205,2,0,L|278:200,1,99.0000030212403,8|0,0:0|0:0,0:0:0:0:
139,381,59505,6,0,B|193:375|216:332|216:332|264:384|335:367,1,198.000006042481,2|8,0:0|0:0,0:0:0:0:
168,133,59955,1,0,0:0:0:0:
120,203,60105,2,0,P|114:252|160:315,1,99.0000030212403,2|0,0:0|0:0,0:0:0:0:
299,229,60405,1,8,0:0:0:0:
168,133,60555,1,0,0:0:0:0:
134,295,60705,1,2,0:0:0:0:
134,295,60855,1,0,0:0:0:0:
238,159,61005,6,0,P|253:113|231:70,1,99.0000030212403,8|0,0:0|0:0,0:0:0:0:
336,253,61305,2,0,P|288:263|263:304,1,99.0000030212403,2|0,0:0|0:0,0:0:0:0:
360,121,61605,2,0,P|392:157|441:159,1,99.0000030212403,8|0,0:0|0:0,0:0:0:0:
422,342,61905,6,0,B|423:303|409:277|409:277|442:234|442:234|422:190|451:140,1,198.000006042481,6|8,0:0|0:0,0:0:0:0:
340,332,62355,2,0,P|318:282|331:230,2,99.0000030212403,0|2|0,0:0|0:0|0:0,0:0:0:0:
441,159,62805,2,0,L|311:135,1,99.0000030212403,8|0,0:0|0:0,0:0:0:0:
242,348,63105,6,0,L|370:326,1,99.0000030212403,2|0,0:0|0:0,0:0:0:0:
421,220,63405,1,8,0:0:0:0:
421,313,63555,2,0,P|436:264|411:208,1,99.0000030212403,2|0,0:0|0:0,0:0:0:0:
282,102,63855,1,2,0:0:0:0:
181,288,64005,1,8,0:0:0:0:
434,331,64155,6,0,B|449:291|449:291|429:240|429:240|477:197|442:121,1,198.000006042481,6|0,0:0|0:0,0:0:0:0:
444,128,64530,1,0,0:0:0:0:
434,111,64605,1,8,0:0:0:0:
250,178,64755,1,0,0:0:0:0:
430,241,64905,5,2,0:0:0:0:
353,21,65055,1,0,0:0:0:0:
237,185,65205,5,8,0:0:0:0:
449,108,65355,1,0,0:0:0:0:
151,342,65505,5,6,0:0:0:0:
133,226,65655,1,0,0:0:0:0:
133,226,65730,1,0,0:0:0:0:
133,226,65805,1,8,0:0:0:0:
361,342,65955,2,0,L|379:227,1,116.999994644165
379,227,66255,6,0,P|334:209|295:222,1,67.5000025749208,2|0,0:0|0:0,0:0:0:0:
176,283,66405,2,0,P|215:253|223:212,1,67.5000025749208,2|0,0:0|0:0,0:0:0:0:
231,76,66555,2,0,P|238:123|269:151,1,67.5000025749208,2|0,0:0|0:0,0:0:0:0:
361,342,66705,6,0,B|440:425|536:357|536:357|499:316|430:342,1,270.000010299683,6|8,0:0|0:0,0:0:0:0:
361,342,67155,1,0,0:0:0:0:
288,298,67305,6,0,P|235:291|181:341,1,99.0000030212403,2|0,0:0|0:0,0:0:0:0:
361,342,67605,1,8,0:0:0:0:
234,189,67755,1,0,0:0:0:0:
130,363,67905,6,0,B|110:322|110:322|143:164,1,198.000006042481,2|8,0:0|0:0,0:0:0:0:
388,96,68355,2,0,P|412:141|396:209,1,99.0000030212403,0|2,0:0|0:0,0:0:0:0:
243,164,68655,1,0,0:0:0:0:
388,96,68805,1,8,0:0:0:0:
365,260,68955,1,0,0:0:0:0:
179,104,69105,6,0,B|156:148|156:148|165:198,1,99.0000030212403,2|0,0:0|0:0,0:0:0:0:
351,352,69405,2,0,B|374:308|374:308|366:259,1,99.0000030212403,8|0,0:0|0:0,0:0:0:0:
137,43,69705,5,2,0:0:0:0:
364,103,69855,1,0,0:0:0:0:
126,177,70005,5,8,0:0:0:0:
326,194,70155,1,0,0:0:0:0:
169,292,70305,5,2,0:0:0:0:
193,120,70455,1,0,0:0:0:0:
169,292,70605,1,8,0:0:0:0:
337,226,70755,6,0,B|261:235|261:235|195:204|195:204|97:214,1,233.999989288331,4|0,0:0|0:0,0:0:0:0:
53,264,71130,1,0,0:0:0:0:
53,264,71205,1,8,0:0:0:0:
337,226,71355,6,0,B|279:270|230:222|230:222|166:164|107:218,1,251.999992309571,4|0,0:0|0:0,0:0:0:0:
53,264,71805,1,8,0:0:0:0:
53,264,71955,1,0,0:0:0:0:
287,164,72105,5,2,0:0:0:0:
241,334,72255,1,0,0:0:0:0:
158,225,72405,1,8,0:0:0:0:
356,276,72555,1,0,0:0:0:0:
265,75,72705,6,0,P|292:117|283:170,1,99.0000030212403,2|0,0:0|0:0,0:0:0:0:
132,302,73005,2,0,P|167:272|221:277,1,99.0000030212403,8|0,0:0|0:0,0:0:0:0:
230,285,73230,1,0,0:0:0:0:
239,296,73305,1,4,3:0:0:0:
265,75,73455,1,4,3:0:0:0:
230,144,73755,6,0,B|276:167|321:133|321:133|373:90|431:130,1,198.000006042481,6|0,0:0|0:0,0:0:0:0:
475,248,74205,2,0,P|433:279|363:259,1,99.0000030212403,8|0,0:0|0:0,0:0:0:0:
314,226,74505,1,2,0:0:0:0:
314,226,74655,1,0,0:0:0:0:
448,314,74805,5,8,0:0:0:0:
394,135,74955,1,0,0:0:0:0:
226,279,75105,5,4,0:0:0:0:
490,206,75255,1,0,0:0:0:0:
226,279,75405,1,0,0:0:0:0:
375,43,75555,6,0,B|401:86|401:86|392:144,1,99.0000030212403,12|0,0:0|0:0,0:0:0:0:
373,212,75855,1,2,0:0:0:0:
136,241,76005,1,8,0:0:0:0:
161,206,76080,1,0,0:0:0:0:
198,185,76155,1,0,0:0:0:0:
240,181,76230,1,0,0:0:0:0:
279,202,76305,6,0,P|328:220|403:188,1,99.0000030212403,6|0,0:0|0:0,0:0:0:0:
151,333,76605,2,0,B|127:288|127:288|136:238,1,99.0000030212403,8|0,0:0|0:0,0:0:0:0:
357,118,76905,2,0,B|381:163|381:163|372:213,1,99.0000030212403,2|0,0:0|0:0,0:0:0:0:
145,108,77205,2,0,L|265:90,1,99.0000030212403,8|0,0:0|0:0,0:0:0:0:
504,345,77505,6,0,B|454:360|422:325|422:325|380:347|380:347|352:326|307:339,1,198.000006042481,6|0,0:0|0:0,0:0:0:0:
233,309,77955,6,0,L|251:387,1,49.5000015106202
366,253,78105,2,0,P|386:192|359:142,1,99.0000030212403,8|0,3:0|0:0,0:0:0:0:
81,178,78405,5,8,3:0:0:0:
366,253,78555,1,0,0:0:0:0:
386,208,78630,1,0,0:0:0:0:
375,161,78705,1,2,0:0:0:0:
382,142,81105,5,2,0:0:0:0:
136,109,81255,1,0,0:0:0:0:
114,213,81555,5,2,0:0:0:0:
382,142,81705,1,8,0:0:0:0:
409,245,82005,5,2,0:0:0:0:
114,213,82155,1,8,0:0:0:0:
92,318,82455,5,2,0:0:0:0:
409,245,82605,1,8,0:0:0:0:
433,348,82905,5,2,0:0:0:0:
92,318,83055,2,0,B|55:316|46:290|46:290|54:269|98:250,1,107.999996704102,12|0,0:0|0:0,0:0:0:0:
433,348,83505,6,0,L|448:230,1,99.0000030212403,6|0,0:0|0:0,0:0:0:0:
177,142,83805,5,8,0:0:0:0:
334,311,83955,1,0,0:0:0:0:
209,267,84105,1,8,3:0:0:0:
445,249,84255,1,0,0:0:0:0:
334,311,84405,5,0,3:0:0:0:
386,10,84555,1,6,0:0:0:0:
256,192,84630,12,8,85755,0:0:0:0:
40,164,85905,6,0,B|109:92|109:92|204:137,1,198.000006042481,6|8,0:0|0:0,0:0:0:0:
317,226,86355,2,0,P|369:236|410:212,1,99.0000030212403,0|0,0:0|0:0,0:0:0:0:
352,143,86655,5,0,0:0:0:0:
409,224,86805,2,0,P|366:246|319:236,1,99.0000030212403,8|0,0:0|0:0,0:0:0:0:
109,96,87105,6,0,B|123:161|123:161|95:222|95:222|111:315,1,198.000006042481,2|8,0:0|0:0,0:0:0:0:
316,225,87555,2,0,P|272:202|225:213,1,99.0000030212403,0|0,3:0|0:0,0:0:0:0:
259,295,87855,5,0,0:0:0:0:
226,204,88005,2,0,P|273:193|316:215,1,99.0000030212403,8|0,0:0|0:0,0:0:0:0:
105,285,88305,6,0,P|35:222|75:119,1,198.000006042481,2|8,0:0|0:0,0:0:0:0:
292,176,88755,2,0,B|246:158|246:158|162:179,1,99.0000030212403,0|0,0:0|0:0,0:0:0:0:
117,197,89055,1,0,0:0:0:0:
263,343,89205,1,8,0:0:0:0:
138,321,89355,1,0,0:0:0:0:
232,122,89505,5,2,0:0:0:0:
263,343,89655,1,0,0:0:0:0:
232,122,89805,1,8,0:0:0:0:
344,246,89955,6,0,B|302:269|249:234|249:234|195:196|129:239,1,198.000006042481,0|0,3:0|0:0,0:0:0:0:
416,191,90405,1,8,0:0:0:0:
164,324,90555,1,0,0:0:0:0:
164,324,90630,1,0,0:0:0:0:
164,324,90705,6,0,L|146:113,1,198.000006042481,6|8,0:0|0:0,0:0:0:0:
321,46,91155,2,0,B|347:87|347:87|332:151,1,99.0000030212403,0|0,0:0|0:0,0:0:0:0:
250,105,91455,5,0,0:0:0:0:
344,135,91605,2,0,B|356:86|356:86|330:45,1,99.0000030212403,8|0,0:0|0:0,0:0:0:0:
168,231,91905,6,0,P|241:204|328:284,1,198.000006042481,2|8,0:0|0:0,0:0:0:0:
90,293,92355,2,0,B|64:252|64:252|79:188,1,99.0000030212403,0|0,3:0|0:0,0:0:0:0:
168,231,92655,5,0,0:0:0:0:
69,206,92805,2,0,B|57:255|57:255|83:296,1,99.0000030212403,8|0,0:0|0:0,0:0:0:0:
29,112,93105,6,0,B|97:102|97:102|148:132|148:132|235:120,1,198.000006042481,2|8,0:0|0:0,0:0:0:0:
346,96,93555,1,0,0:0:0:0:
280,159,93705,2,0,P|256:111|264:62,1,99.0000030212403,0|0,0:0|0:0,0:0:0:0:
415,37,94005,2,0,P|439:85|431:134,1,99.0000030212403,8|0,0:0|0:0,0:0:0:0:
160,269,94305,5,8,3:0:0:0:
377,288,94455,1,0,0:0:0:0:
271,280,94605,1,2,0:0:0:0:
484,291,94755,5,4,0:0:0:0:
271,280,94905,1,8,3:0:0:0:
377,288,95055,1,0,0:0:0:0:
160,269,95205,5,8,3:0:0:0:
484,291,95355,1,6,0:0:0:0:
256,192,95430,12,0,100155,0:0:0:0:
