osu file format v14

[General]
AudioFilename: audio.mp3
AudioLeadIn: 0
PreviewTime: 56580
Countdown: 0
SampleSet: Soft
StackLeniency: 0.7
Mode: 0
LetterboxInBreaks: 0
WidescreenStoryboard: 0

[Editor]
Bookmarks: 18705,47505
DistanceSpacing: 1.5
BeatDivisor: 4
GridSize: 4
TimelineZoom: 1

[Metadata]
Title:Bokura no Seiza
TitleUnicode:ぼくらの星座
Artist:Mikoi Sasaki
ArtistUnicode:佐々木未来
Creator:joker-
Version:Hard
Source:星恋*ティンクル
Tags:eroge opening Akitoshi Corinn Yohanes yaldo_27 Nanashima Asami Left
BeatmapID:1142462
BeatmapSetID:539139

[Difficulty]
HPDrainRate:5
CircleSize:4
OverallDifficulty:6
ApproachRate:8
SliderMultiplier:1.3
SliderTickRate:1

[Events]
//Background and Video events
0,0,"bg.jpg",0,0
Video,-80,"video.avi"
//Break Periods
//Storyboard Layer 0 (Background)
//Storyboard Layer 1 (Fail)
//Storyboard Layer 2 (Pass)
//Storyboard Layer 3 (Foreground)
//Storyboard Sound Samples

[TimingPoints]
705,300,4,2,1,40,1,0
705,-133.333333333333,4,2,1,40,0,0
9255,-111.111111111111,4,2,2,50,0,0
18705,-133.333333333333,4,2,1,40,0,0
37905,-125,4,2,1,40,0,0
47505,-111.111111111111,4,2,2,50,0,0
52305,-100,4,2,2,60,0,0
54705,-100,4,2,1,60,0,0
56355,-100,4,2,1,20,0,0
57105,-100,4,2,2,70,0,1
78705,-133.333333333333,4,2,1,50,0,0
81105,-111.111111111111,4,2,2,60,0,0
84555,-133.333333333333,4,2,2,50,0,0
85905,-111.111111111111,4,2,2,60,0,0

[Colours]
Combo1 : 255,255,57
Combo2 : 74,255,255
Combo3 : 166,255,77
Combo4 : 255,157,206

[HitObjects]
200,216,1455,6,0,L|136:204,2,48.750001859665,0|0|0,0:0|0:0|0:0,0:0:0:0:
269,238,1905,6,0,P|312:258|370:251,1,97.50000371933,2|0,0:0|0:0,0:0:0:0:
413,204,2355,2,0,P|389:131|429:68,1,146.250005578995,2|2,0:0|0:0,0:0:0:0:
509,150,3105,2,0,L|498:253,1,97.50000371933,2|0,0:0|0:0,0:0:0:0:
443,295,3555,2,0,P|368:320|291:294,1,146.250005578995,2|0,0:0|0:0,0:0:0:0:
177,232,4305,5,2,0:0:0:0:
42,289,4605,1,0,0:0:0:0:
42,289,4755,2,0,P|28:237|46:145,1,146.250005578995,2|2,0:0|0:0,0:0:0:0:
104,14,5505,2,0,P|146:37|256:43,2,146.250005578995,2|0|2,0:0|0:0|0:0,0:0:0:0:
146,154,6705,6,0,P|157:192|152:266,1,97.50000371933,2|0,0:0|0:0,0:0:0:0:
179,318,7155,2,0,P|239:341|320:307,1,146.250005578995,2|2,0:0|0:0,0:0:0:0:
420,215,7905,2,0,L|428:104,1,97.50000371933,2|0,0:0|0:0,0:0:0:0:
367,74,8355,2,0,P|310:103|216:71,1,146.250005578995,2|2,0:0|0:0,0:0:0:0:
184,344,9255,6,0,L|169:207,1,116.999996429443,6|0,0:0|0:0,0:0:0:0:
252,263,9705,2,0,P|312:281|379:256,1,116.999996429443,6|0,0:0|0:0,0:0:0:0:
443,230,10155,2,0,P|458:174|441:119,1,116.999996429443,6|0,0:0|0:0,0:0:0:0:
367,72,10605,2,0,B|294:47|294:47|177:79|177:79|89:42,1,292.499991073609,6|0,0:0|0:3,0:0:0:0:
16,120,11505,6,0,P|15:184|40:245,1,116.999996429443,6|0,0:0|0:0,0:0:0:0:
75,310,11955,2,0,L|67:381,2,58.4999982147217,0|8|0,0:0|0:0|0:0,0:0:0:0:
128,239,12405,2,0,P|181:216|244:231,1,116.999996429443,2|0,0:0|0:0,0:0:0:0:
321,253,12855,1,8,0:0:0:0:
383,314,13005,2,0,P|407:256|381:187,1,116.999996429443,2|8,0:0|0:0,0:0:0:0:
349,129,13455,2,0,L|357:10,1,116.999996429443,6|2,0:0|0:0,0:0:0:0:
276,47,13905,6,0,P|228:70|156:56,1,116.999996429443,6|0,0:0|0:0,0:0:0:0:
80,42,14355,2,0,L|9:51,2,58.4999982147217,0|8|0,0:0|0:0|0:0,0:0:0:0:
117,121,14805,1,2,0:0:0:0:
144,296,15105,2,0,L|64:308,2,58.4999982147217,0|8|0,0:0|0:0|0:0,0:0:0:0:
224,256,15555,2,0,L|292:267,1,58.4999982147217,0|8,0:0|0:0,0:0:0:0:
368,279,15855,2,0,P|384:231|372:160,1,116.999996429443,6|2,0:0|0:0,0:0:0:0:
268,141,16305,6,0,L|148:122,1,116.999996429443,6|0,0:0|0:0,0:0:0:0:
74,163,16755,2,0,P|67:100|95:51,1,116.999996429443,6|0,0:0|0:0,0:0:0:0:
167,10,17205,2,0,L|308:28,1,116.999996429443,6|0,0:0|0:0,0:0:0:0:
448,81,17805,2,0,B|478:159|433:226|433:226|355:193|284:243,1,292.499991073609,6|0,0:0|0:0,0:0:0:0:
245,285,18705,5,2,0:0:0:0:
245,285,19005,2,0,L|188:275,1,48.750001859665
145,328,19305,2,0,P|95:347|41:330,1,97.50000371933
0,200,19905,2,0,L|111:213,1,97.50000371933,2|0,0:0|0:0,0:0:0:0:
145,156,20355,2,0,P|232:120|298:187,1,195.00000743866
330,253,21105,5,2,0:0:0:0:
330,253,21405,2,0,L|394:243,1,48.750001859665
449,231,21705,2,0,P|454:183|432:130,1,97.50000371933
349,20,22305,2,0,L|249:36,1,97.50000371933,2|0,0:0|0:0,0:0:0:0:
210,95,22755,2,0,B|188:143|222:186|222:186|253:228|232:279,1,195.00000743866
201,351,23505,5,2,0:0:0:0:
201,351,23805,2,0,L|136:359,1,48.750001859665
84,330,24105,2,0,P|69:281|81:226,1,97.50000371933
136,102,24705,2,0,P|211:90|275:134,2,146.250005578995,2|0|0,0:0|0:0|0:0,0:0:0:0:
178,242,25905,6,0,P|225:262|281:257,1,97.50000371933,2|0,0:0|0:0,0:0:0:0:
342,245,26355,2,0,B|380:204|378:145|378:145|340:112,1,146.250005578995
226,41,27105,2,0,P|161:14|66:80,2,195.00000743866,2|2|2,0:0|0:0|0:0,0:0:0:0:
230,187,28605,6,0,P|259:188|282:181,1,48.750001859665
341,144,28905,2,0,P|395:140|437:161,1,97.50000371933,0|2,0:0|0:0,0:0:0:0:
473,298,29505,2,0,P|427:306|367:278,1,97.50000371933,2|0,0:0|0:0,0:0:0:0:
321,244,29955,2,0,P|264:215|153:276,1,195.00000743866,2|0,0:0|0:0,0:0:0:0:
126,337,30705,5,2,0:0:0:0:
126,337,31005,2,0,P|98:333|65:323,1,48.750001859665
14,292,31305,2,0,P|3:244|18:186,1,97.50000371933,0|2,0:0|0:0,0:0:0:0:
64,60,31905,2,0,P|112:50|166:62,1,97.50000371933,2|0,0:0|0:0,0:0:0:0:
226,87,32355,2,0,L|217:192,1,97.50000371933
211,257,32805,1,2,0:0:0:0:
211,257,32955,1,0,0:0:0:0:
257,313,33105,6,0,P|327:331|392:287,2,146.250005578995,2|2|2,0:0|0:0|0:0,0:0:0:0:
211,257,34155,1,0,0:0:0:0:
271,215,34305,2,0,P|317:198|368:202,1,97.50000371933,2|0,0:0|0:0,0:0:0:0:
456,86,34905,2,0,P|410:69|359:73,1,97.50000371933,2|0,0:0|0:0,0:0:0:0:
295,101,35355,1,0,0:0:0:0:
249,159,35505,6,0,B|188:192|133:162|133:162|62:121|1:169,1,243.750009298325,2|0,0:0|0:0,0:0:0:0:
25,231,36405,2,0,L|31:290,1,48.750001859665,2|0,0:0|0:0,0:0:0:0:
74,338,36705,2,0,P|124:351|180:329,1,97.50000371933,2|0,0:0|0:0,0:0:0:0:
307,297,37305,2,0,P|353:284|399:297,1,97.50000371933,0|0,0:0|3:0,0:0:0:0:
498,175,37905,6,0,L|384:184,1,104,4|0,0:0|0:0,0:0:0:0:
316,193,38355,1,0,0:0:0:0:
238,194,38505,2,0,P|245:140|227:85,1,104,2|0,0:0|0:0,0:0:0:0:
88,28,39105,2,0,P|83:81|104:138,1,104,2|0,0:0|0:0,0:0:0:0:
145,191,39555,1,0,0:0:0:0:
145,191,39705,2,0,L|138:254,1,52,2|0,0:0|0:0,0:0:0:0:
204,286,40005,2,0,L|195:342,1,52
274,247,40305,6,0,P|325:241|371:266,1,104,4|0,0:0|0:0,0:0:0:0:
431,313,40755,1,0,0:0:0:0:
476,255,40905,2,0,L|467:142,1,104,2|0,0:0|0:0,0:0:0:0:
352,45,41505,2,0,P|305:30|241:51,1,104,2|0,0:0|0:0,0:0:0:0:
201,101,41955,1,0,0:0:0:0:
201,101,42105,2,0,L|205:165,1,52,2|0,0:0|0:0,0:0:0:0:
210,230,42405,1,2,0:0:0:0:
210,230,42555,1,0,0:0:0:0:
111,173,42705,6,0,P|61:166|9:209,1,104,4|0,0:0|0:0,0:0:0:0:
6,270,43155,1,0,0:0:0:0:
45,337,43305,2,0,L|155:352,1,104,2|0,0:0|0:0,0:0:0:0:
278,266,43905,2,0,P|333:259|388:285,1,104,2|0,0:0|0:0,0:0:0:0:
441,320,44355,1,0,0:0:0:0:
492,261,44505,2,0,L|503:194,1,52,2|0,0:0|0:0,0:0:0:0:
430,175,44805,2,0,L|442:106,1,52
346,186,45105,6,0,P|293:181|231:199,1,104,4|0,0:0|0:0,0:0:0:0:
169,216,45555,1,2,0:0:0:0:
123,152,45705,2,0,L|134:27,1,104,0|2,0:0|0:0,0:0:0:0:
282,90,46305,2,0,P|335:96|392:76,1,104,2|0,0:0|0:0,0:0:0:0:
455,52,46755,1,0,0:0:0:0:
455,52,46905,2,0,L|462:120,1,52,2|0,0:0|0:0,0:0:0:0:
475,180,47205,1,2,0:0:0:0:
475,180,47355,1,0,0:0:0:0:
383,244,47505,6,0,P|322:253|266:220,1,116.999996429443,6|0,0:0|0:0,0:0:0:0:
200,180,47955,1,0,0:0:0:0:
139,244,48105,2,0,L|123:366,1,116.999996429443,8|0,0:0|0:0,0:0:0:0:
42,326,48555,1,0,0:0:0:0:
8,244,48705,6,0,L|24:125,1,116.999996429443,4|8,0:0|0:0,0:0:0:0:
91,72,49155,1,0,0:0:0:0:
165,117,49305,2,0,P|194:117|228:109,1,58.4999982147217,2|0,0:0|0:0,0:0:0:0:
303,76,49605,1,2,1:3:0:0:
419,207,49905,6,0,P|365:194|305:209,1,116.999996429443,6|0,0:0|0:0,0:0:0:0:
224,241,50355,1,0,0:0:0:0:
165,306,50505,2,0,P|143:251|164:179,1,116.999996429443,8|0,0:0|0:0,0:0:0:0:
198,119,50955,6,0,P|256:132|319:114,1,116.999996429443,6|0,0:0|0:0,0:0:0:0:
394,91,51405,2,0,L|390:166,1,58.4999982147217,8|0,0:0|0:0,0:0:0:0:
443,219,51705,2,0,P|454:279|424:337,1,116.999996429443,2|8,0:3|0:0,0:0:0:0:
353,368,52155,1,0,0:0:0:0:
297,288,52305,6,0,P|234:264|162:290,1,130,6|0,0:0|0:0,0:0:0:0:
129,193,52755,2,0,L|148:60,1,130,6|0,0:0|0:0,0:0:0:0:
238,30,53205,1,8,0:0:0:0:
313,208,53505,6,0,L|455:220,1,130,6|8,0:0|0:0,0:0:0:0:
508,146,53955,1,6,0:0:0:0:
428,89,54105,2,0,L|419:24,1,65
331,65,54405,1,6,0:0:0:0:
238,30,54555,1,0,0:0:0:0:
155,81,54705,5,2,0:0:0:0:
256,192,54855,12,0,56355,0:0:0:0:
173,248,57105,6,0,L|160:115,1,130,6|8,0:0|0:0,0:0:0:0:
219,40,57555,1,0,0:0:0:0:
314,59,57705,2,0,P|350:64|383:83,1,65,2|0,0:0|0:0,0:0:0:0:
444,145,58005,2,0,P|412:151|385:169,1,65,8|0,0:0|0:0,0:0:0:0:
315,237,58305,6,0,P|331:308|292:380,2,130,2|8|0,0:0|0:0|0:0,0:0:0:0:
251,161,59055,1,0,0:0:0:0:
157,190,59205,2,0,P|116:197|71:188,1,65,8|0,0:0|0:0,0:0:0:0:
53,104,59505,6,0,P|100:61|190:65,1,130,2|8,0:0|0:0,0:0:0:0:
259,75,59955,1,0,0:0:0:0:
349,110,60105,2,0,P|420:121|480:67,1,130,0|10,0:0|0:0,0:0:0:0:
321,204,60705,5,2,0:0:0:0:
321,204,60855,1,0,0:0:0:0:
239,150,61005,2,0,P|201:141|152:147,1,65,8|0,0:0|0:0,0:0:0:0:
197,237,61305,2,0,P|158:246|117:273,1,65,2|0,0:0|0:0,0:0:0:0:
193,336,61605,2,0,P|161:361|136:403,1,65,8|0,0:0|0:0,0:0:0:0:
273,292,61905,6,0,P|333:314|402:279,1,130,6|8,0:0|0:0,0:0:0:0:
466,226,62355,1,0,0:0:0:0:
415,142,62505,2,0,L|408:61,1,65,2|0,0:0|0:0,0:0:0:0:
325,139,62805,2,0,L|330:203,1,65,8|0,0:0|0:0,0:0:0:0:
233,219,63105,6,0,P|169:233|115:194,1,130,2|8,0:0|0:0,0:0:0:0:
117,100,63555,1,2,0:0:0:0:
117,100,63855,2,0,L|124:16,1,65,2|8,0:0|0:0,0:0:0:0:
196,152,64155,6,0,P|260:138|314:177,1,130,4|0,0:0|0:0,0:0:0:0:
310,171,64530,1,0,0:0:0:0:
310,171,64605,2,0,L|298:313,1,130,8|2,0:0|0:0,0:0:0:0:
217,354,65055,1,0,0:0:0:0:
131,304,65205,2,0,P|96:305|57:320,1,65,8|4,0:0|3:0,0:0:0:0:
58,217,65505,6,0,P|24:225|-10:249,2,65,2|4|8,0:0|3:0|0:0,0:0:0:0:
118,140,65955,2,0,P|177:170|254:155,1,130,2|0,0:0|3:0,0:0:0:0:
323,115,66405,1,8,0:0:0:0:
405,166,66555,1,0,3:0:0:0:
405,166,66630,1,0,3:0:0:0:
405,166,66705,6,0,L|393:305,1,130,6|8,0:0|0:0,0:0:0:0:
326,366,67155,1,0,0:0:0:0:
254,299,67305,2,0,P|242:268|242:236,1,65,2|0,0:0|0:0,0:0:0:0:
303,159,67605,2,0,P|303:126|291:96,1,65,8|0,0:0|0:0,0:0:0:0:
213,36,67905,6,0,P|168:19|83:65,2,130,2|8|0,0:0|0:0|0:0,0:0:0:0:
160,117,68655,1,0,0:0:0:0:
62,126,68805,2,0,L|71:198,1,65,8|0,0:0|0:0,0:0:0:0:
95,284,69105,6,0,P|161:300|217:264,1,130,2|8,0:0|0:0,0:0:0:0:
289,210,69555,1,0,0:0:0:0:
382,238,69705,2,0,P|398:187|399:152,1,65,2|0,0:0|0:0,0:0:0:0:
418,79,70005,6,0,P|358:53|279:91,1,130,8|2,0:0|0:0,0:0:0:0:
235,145,70455,1,0,0:0:0:0:
147,101,70605,2,0,P|113:98|83:106,1,65,8|4,0:0|0:0,0:0:0:0:
124,194,70905,2,0,P|92:206|68:226,1,65,2|0,0:0|0:0,0:0:0:0:
144,288,71205,1,8,0:0:0:0:
236,230,71355,6,0,P|291:206|365:238,1,130,6|0,0:0|0:0,0:0:0:0:
424,158,71805,2,0,L|437:28,1,130,8|2,0:0|0:0,0:0:0:0:
344,59,72255,1,0,0:0:0:0:
251,29,72405,2,0,P|205:44|177:43,1,65,8|0,0:0|0:0,0:0:0:0:
108,99,72705,6,0,L|93:241,2,130,2|8|4,0:0|0:0|3:0,0:0:0:0:
223,139,73455,1,4,3:0:0:0:
223,139,73755,6,0,P|208:209|228:272,1,130,6|0,0:0|0:0,0:0:0:0:
284,341,74205,2,0,L|423:329,1,130,8|2,0:0|0:0,0:0:0:0:
490,270,74655,1,0,0:0:0:0:
415,207,74805,2,0,P|409:174|414:136,1,65,8|4,0:0|3:0,0:0:0:0:
450,45,75105,6,0,P|390:23|326:44,1,130,4|2,0:0|0:0,0:0:0:0:
250,100,75555,2,0,P|188:118|128:96,1,130,12|0,0:0|0:0,0:0:0:0:
41,50,76005,1,8,0:0:0:0:
6,141,76155,1,0,3:0:0:0:
6,141,76230,1,0,3:0:0:0:
6,141,76305,6,0,L|13:231,1,65,6|0,0:0|0:0,0:0:0:0:
106,184,76605,2,0,P|136:193|177:189,1,65,8|0,0:0|0:0,0:0:0:0:
184,287,76905,2,0,P|220:284|265:252,1,65,2|0,0:0|0:0,0:0:0:0:
307,347,77205,2,0,P|337:323|350:291,1,65,12|0,0:0|0:0,0:0:0:0:
400,199,77505,6,0,P|413:145|392:65,1,130,6|0,0:0|0:0,0:0:0:0:
313,21,77955,1,8,3:0:0:0:
228,70,78105,2,0,L|243:212,1,130,0|8,0:0|3:0,0:0:0:0:
185,279,78555,1,0,0:0:0:0:
185,279,78630,1,0,0:0:0:0:
185,279,78705,6,0,L|120:279,1,48.750001859665,6|0,0:0|0:0,0:0:0:0:
69,217,79005,2,0,P|53:167|62:105,2,97.50000371933,2|2|2,0:0|0:0|0:0,0:0:0:0:
125,81,79905,6,0,P|173:82|219:98,1,97.50000371933,2|2,0:0|0:0,0:0:0:0:
294,132,80355,1,0,0:0:0:0:
294,132,80505,2,0,L|285:248,1,97.50000371933,2|2,0:0|0:0,0:0:0:0:
338,281,80955,1,0,0:0:0:0:
403,245,81105,6,0,L|408:183,1,58.4999982147217,0|2,1:2|0:0,0:0:0:0:
288,73,81555,2,0,L|293:131,1,58.4999982147217,0|2,1:2|0:0,0:0:0:0:
160,245,82005,2,0,L|166:182,1,58.4999982147217,0|2,1:2|0:0,0:0:0:0:
25,79,82455,2,0,L|30:138,1,58.4999982147217,0|2,1:2|0:0,0:0:0:0:
38,308,82905,1,0,1:2:0:0:
38,308,83055,2,0,P|99:327|162:302,1,116.999996429443,6|0,0:0|0:0,0:0:0:0:
226,270,83505,6,0,P|281:248|355:270,1,116.999996429443,6|8,0:0|0:0,0:0:0:0:
421,280,83955,1,8,3:0:0:0:
483,217,84105,2,0,P|491:176|487:149,1,58.4999982147217,0|8,3:0|3:0,0:0:0:0:
471,73,84405,1,0,3:0:0:0:
392,139,84555,6,0,B|355:173|302:171|302:171|270:125,1,146.250005578995,6|0,0:0|0:0,0:0:0:0:
251,61,85155,2,0,B|300:49|300:49|350:59,2,97.50000371933
153,82,85905,6,0,P|105:91|26:48,1,116.999996429443,6|8,0:0|0:0,0:0:0:0:
22,151,86355,2,0,L|34:278,1,116.999996429443
104,318,86805,2,0,P|115:287|115:253,1,58.4999982147217,8|0,0:0|0:0,0:0:0:0:
165,188,87105,6,0,P|218:168|287:181,1,116.999996429443,2|8,0:0|0:0,0:0:0:0:
360,204,87555,2,0,L|345:325,1,116.999996429443,2|0,0:3|0:0,0:0:0:0:
265,341,88005,1,8,0:0:0:0:
265,341,88305,6,0,P|189:367|149:364,1,116.999996429443,2|8,0:3|0:0,0:0:0:0:
66,347,88755,2,0,L|57:218,1,116.999996429443,0|0,0:0|0:0,0:0:0:0:
85,146,89205,2,0,P|125:159|156:159,1,58.4999982147217,8|0,0:0|0:0,0:0:0:0:
225,137,89505,6,0,P|222:87|256:21,1,116.999996429443,2|8,0:0|0:0,0:0:0:0:
334,4,89955,2,0,P|378:26|418:88,1,116.999996429443,2|0,0:3|0:0,0:0:0:0:
446,162,90405,1,8,0:0:0:0:
432,248,90555,1,0,0:0:0:0:
432,248,90630,1,0,0:0:0:0:
432,248,90705,6,0,P|369:263|311:253,1,116.999996429443,6|8,0:0|0:0,0:0:0:0:
232,231,91155,2,0,P|169:216|111:226,1,116.999996429443,0|0,0:0|0:0,0:0:0:0:
34,251,91605,2,0,L|14:177,1,58.4999982147217,8|0,0:0|0:0,0:0:0:0:
43,109,91905,6,0,P|96:86|158:97,1,116.999996429443,2|8,0:0|0:0,0:0:0:0:
226,143,92355,2,0,L|213:278,1,116.999996429443,2|0,0:3|0:0,0:0:0:0:
206,346,92805,1,8,0:0:0:0:
206,346,93105,6,0,P|263:370|326:371,1,116.999996429443,0|8,3:0|0:0,0:0:0:0:
399,339,93555,2,0,L|393:222,1,116.999996429443,0|0,0:0|0:0,0:0:0:0:
322,169,94005,2,0,P|312:137|313:96,1,58.4999982147217,8|0,0:0|0:0,0:0:0:0:
319,24,94305,6,0,L|257:32,1,58.4999982147217,8|2,0:3|0:0,0:0:0:0:
214,105,94605,1,4,3:0:0:0:
141,55,94755,1,4,0:0:0:0:
112,137,94905,2,0,P|115:176|127:213,1,58.4999982147217,2|2,0:0|0:0,0:0:0:0:
149,277,95205,1,4,3:0:0:0:
240,212,95355,5,4,0:0:0:0:
256,192,95505,12,0,100155,0:0:0:0:
