osu file format v14

[General]
AudioFilename: audio.mp3
AudioLeadIn: 0
PreviewTime: 56580
Countdown: 0
SampleSet: Soft
StackLeniency: 0.7
Mode: 0
LetterboxInBreaks: 0
WidescreenStoryboard: 0

[Editor]
Bookmarks: 18705,37905,47505,95505,100305
DistanceSpacing: 1
BeatDivisor: 4
GridSize: 4
TimelineZoom: 1

[Metadata]
Title:Bokura no Seiza
TitleUnicode:ぼくらの星座
Artist:Mikoi Sasaki
ArtistUnicode:佐々木未来
Creator:joker-
Version:Akitoshi's Normal
Source:星恋*ティンクル
Tags:eroge opening Akitoshi Corinn Yohanes yaldo_27 Nanashima Asami Left
BeatmapID:1143995
BeatmapSetID:539139

[Difficulty]
HPDrainRate:3.5
CircleSize:3
OverallDifficulty:3.5
ApproachRate:4.5
SliderMultiplier:0.89
SliderTickRate:1

[Events]
//Background and Video events
0,0,"bg.jpg",0,0
Video,-80,"video.avi"
//Break Periods
//Storyboard Layer 0 (Background)
//Storyboard Layer 1 (Fail)
//Storyboard Layer 2 (Pass)
//Storyboard Layer 3 (Foreground)
//Storyboard Sound Samples

[TimingPoints]
705,300,4,2,0,40,1,0
9105,-100,4,2,69,60,0,0
18405,-100,4,2,69,40,0,0
18705,-100,4,2,0,40,0,0
47505,-100,4,2,69,60,0,0
56205,-100,4,2,69,30,0,0
56280,-100,4,2,69,15,0,0
56355,-100,4,2,69,5,0,0
57105,-100,4,2,69,70,0,1
78705,-100,4,2,0,70,0,0
81105,-100,4,2,69,60,0,0
100155,-100,4,2,69,10,0,0

[Colours]
Combo1 : 255,255,57
Combo2 : 74,255,255
Combo3 : 166,255,77
Combo4 : 255,157,206

[HitObjects]
324,184,1905,6,0,B|411:171|411:171|471:182,2,133.5,2|2|0,0:0|0:0|0:0,0:0:0:0:
237,206,3105,2,0,B|150:219|150:219|90:208,2,133.5,2|2|0,0:0|0:0|0:0,0:0:0:0:
324,184,4305,6,0,P|316:248|262:292,2,133.5,2|2|0,0:0|0:0|0:0,0:0:0:0:
270,112,5505,1,2,0:0:0:0:
270,112,6705,6,0,B|203:98|203:133|138:117,2,133.5,2|2|0,0:0|0:0|0:0,0:0:0:0:
358,123,7905,2,0,P|399:127|477:74,2,133.5,2|2|0,0:0|0:0|0:0,0:0:0:0:
249,201,9255,6,0,L|263:342,2,133.5,6|6|6,0:0|0:0|0:0,0:0:0:0:
184,84,10605,2,0,P|108:74|67:197,1,222.5,6|0,0:0|1:0,0:0:0:0:
81,233,11505,6,0,B|196:235|196:235|259:195,1,178,6|8,0:0|0:0,0:0:0:0:
324,152,12405,1,2,0:0:0:0:
392,208,12705,2,0,P|404:248|395:297,1,89,8|2,0:0|0:0,0:0:0:0:
334,357,13305,1,8,0:0:0:0:
334,357,13455,2,0,L|237:353,1,89,6|0,0:0|0:0,0:0:0:0:
200,347,13905,6,0,P|170:264|205:174,1,178,6|8,0:0|0:0,0:0:0:0:
259,117,14805,1,2,0:0:0:0:
204,46,15105,2,0,B|160:35|160:35|99:41,1,89,0|2,3:0|0:0,0:0:0:0:
52,100,15705,1,8,0:0:0:0:
52,100,15855,2,0,P|40:145|52:199,1,89,6|0,0:0|0:0,0:0:0:0:
70,224,16305,6,0,L|214:208,1,133.5,6|6,0:0|0:0,0:0:0:0:
297,114,17205,2,0,L|441:98,1,133.5,6|0,0:0|0:0,0:0:0:0:
474,101,17805,2,0,P|498:175|470:272,1,178,6|0,0:0|0:0,0:0:0:0:
403,326,18705,6,0,B|362:342|317:320|317:320|274:337|274:337|236:317|236:317|195:342|142:328,1,267,2|0,0:0|0:0,0:0:0:0:
63,310,19905,2,0,B|78:261|120:247|120:247|81:214|77:170|77:170|124:163|148:107,1,267,2|0,0:0|0:0,0:0:0:0:
61,81,21105,6,0,P|149:28|229:144,1,267,2|0,0:0|0:0,0:0:0:0:
198,223,22305,2,0,B|242:240|280:214|280:214|324:184|367:195|367:195|369:247|429:278,1,267,2|0,0:0|0:0,0:0:0:0:
456,190,23505,6,0,B|459:66|459:66|404:39,1,178,2|0,0:0|0:0,0:0:0:0:
323,23,24405,1,0,0:0:0:0:
252,77,24705,2,0,B|181:101|112:59|112:59|160:124|133:182,1,267,2|0,0:0|0:0,0:0:0:0:
76,237,25905,6,0,P|96:303|89:375,2,133.5,2|0|0,0:0|0:0|0:0,0:0:0:0:
137,172,27105,2,0,B|230:143|217:206|320:170,1,178,2|2,0:0|0:0,0:0:0:0:
485,139,28305,6,0,B|471:317|471:317|396:271,1,267,2|0,0:0|0:0,0:0:0:0:
316,234,29505,2,0,P|240:226|188:274,2,133.5,2|0|0,0:0|0:0|0:0,0:0:0:0:
270,311,30705,6,0,P|187:348|124:207,1,267,2|0,0:0|0:0,0:0:0:0:
176,153,31905,2,0,P|188:92|168:16,2,133.5,2|0|0,0:0|0:0|0:0,0:0:0:0:
227,225,33105,6,0,B|280:253|333:230|333:230|387:205|458:224|458:224|412:190|402:117,1,356,2|2,0:0|0:0,0:0:0:0:
263,29,34905,2,0,P|207:25|167:40,1,89
144,118,35505,6,0,B|222:152|299:115|299:115|349:131|349:131|412:122,1,267,2|0,0:0|0:0,0:0:0:0:
464,58,36705,2,0,P|492:116|430:209,1,178,2|0,0:0|0:0,0:0:0:0:
355,239,37605,1,0,3:0:0:0:
282,186,37905,6,0,B|193:176|193:176|94:210,1,178,4|2,0:0|0:0,0:0:0:0:
24,231,38805,1,0,0:0:0:0:
64,310,39105,2,0,P|129:318|196:279,2,133.5,2|0|0,0:0|0:0|0:0,0:0:0:0:
24,231,40305,6,0,B|19:112|19:112|60:64,1,178,4|2,0:0|0:0,0:0:0:0:
134,23,41205,1,0,0:0:0:0:
199,82,41505,2,0,L|353:87,2,133.5,2|0|0,0:0|0:0|0:0,0:0:0:0:
134,23,42705,6,0,P|112:92|191:169,1,178,4|2,0:0|0:0,0:0:0:0:
261,188,43605,1,0,0:0:0:0:
346,211,43905,2,0,B|360:299|360:299|336:350|278:362,1,178,2|0,0:0|0:0,0:0:0:0:
207,353,44805,1,2,0:0:0:0:
135,299,45105,6,0,L|-9:307,2,133.5,4|2|2,0:0|0:0|0:0,0:0:0:0:
209,251,46305,2,0,B|219:196|219:196|200:139|200:139|211:73,1,178,2|0,0:0|0:0,0:0:0:0:
285,30,47205,1,2,0:0:0:0:
371,51,47505,6,0,P|394:95|396:141,2,89,6|0|8,0:0|0:0|0:0,0:0:0:0:
285,30,48405,1,0,0:0:0:0:
208,76,48705,2,0,L|114:73,2,89,2|8|2,0:0|0:0|0:0,0:0:0:0:
285,120,49605,1,8,0:0:0:0:
334,194,49905,6,0,P|334:252|316:285,1,89,6|0,0:0|0:0,0:0:0:0:
233,298,50505,2,0,L|140:294,1,89,6|0,0:0|0:0,0:0:0:0:
100,289,50955,2,0,B|91:243|91:243|102:194,1,89,6|0,0:0|0:0,0:0:0:0:
117,157,51405,1,8,0:0:0:0:
125,68,51705,2,0,P|81:54|29:63,1,89,2|8,0:0|0:0,0:0:0:0:
0,139,52305,6,0,L|9:293,2,133.5,6|6|8,0:0|0:0|0:0,0:0:0:0:
39,59,53505,2,0,P|83:54|125:68,1,89,6|8,0:0|0:0,0:0:0:0:
164,88,53955,2,0,B|207:94|207:94|261:86,1,89,6|0,0:0|0:0,0:0:0:0:
294,74,54405,2,0,P|332:107|346:155,1,89,6|0,0:0|3:0,0:0:0:0:
256,192,54855,12,0,56355,0:0:0:0:
79,183,57105,6,0,P|126:173|183:185,1,89,6|8,0:0|0:0,0:0:0:0:
247,215,57705,2,0,L|250:273,2,44.5,2|0|8,0:0|0:0|0:0,0:0:0:0:
278,131,58305,2,0,B|320:116|320:116|372:119,1,89,2|8,0:0|0:0,0:0:0:0:
452,127,58905,2,0,L|455:185,2,44.5,2|0|8,0:0|0:0|0:0,0:0:0:0:
426,41,59505,6,0,P|383:21|329:26,1,89,2|8,0:0|0:0,0:0:0:0:
260,56,60105,2,0,L|200:52,2,44.5,2|0|8,0:0|0:0|0:0,0:0:0:0:
327,113,60705,2,0,B|336:156|336:156|332:203,1,89,2|8,0:0|0:0,0:0:0:0:
276,270,61305,2,0,L|279:320,2,44.5,2|0|8,0:0|0:0|0:0,0:0:0:0:
217,202,61905,6,0,P|165:196|116:213,1,89,6|8,0:0|0:0,0:0:0:0:
51,247,62505,2,0,L|55:297,2,44.5,2|0|8,0:0|0:0|0:0,0:0:0:0:
50,157,63105,2,0,P|107:116|184:111,1,133.5,2|2,0:0|0:0,0:0:0:0:
256,125,63855,1,2,0:0:0:0:
321,185,64155,6,0,B|364:187|364:187|411:179,1,89,6|0,0:0|0:0,0:0:0:0:
452,168,64605,1,8,0:0:0:0:
493,89,64905,2,0,L|494:39,2,44.5,2|0|8,0:0|0:0|0:0,0:0:0:0:
452,168,65505,2,0,B|447:214|447:214|458:268,1,89,6|8,0:0|3:0,0:0:0:0:
475,342,66105,1,8,0:0:0:0:
386,348,66405,2,0,P|359:344|334:333,1,44.5,0|8,3:0|3:0,0:0:0:0:
304,316,66705,6,0,P|265:303|212:305,1,89,6|8,0:0|0:0,0:0:0:0:
133,333,67305,2,0,L|139:391,2,44.5,2|0|8,0:0|0:0|0:0,0:0:0:0:
134,244,67905,2,0,P|166:214|225:202,1,89,2|8,0:0|0:0,0:0:0:0:
284,154,68505,2,0,L|329:157,2,44.5,2|0|8,0:0|0:0|0:0,0:0:0:0:
215,96,69105,6,0,L|110:103,1,89,2|8,0:0|0:0,0:0:0:0:
37,105,69705,2,0,L|33:55,2,44.5,2|0|8,0:0|0:0|0:0,0:0:0:0:
59,191,70305,2,0,P|96:210|156:209,1,89,2|8,0:0|0:0,0:0:0:0:
191,211,70755,1,4,0:0:0:0:
191,211,70905,2,0,L|198:314,1,89,2|8,0:0|0:0,0:0:0:0:
213,341,71355,6,0,P|271:359|346:326,1,133.5,6|8,0:0|0:0,0:0:0:0:
406,279,72105,2,0,L|456:282,2,44.5,2|0|8,0:0|0:0|0:0,0:0:0:0:
324,242,72705,2,0,B|314:195|314:195|326:141,1,89,2|8,0:0|0:0,0:0:0:0:
388,94,73305,2,0,L|382:33,1,44.5,0|0,3:0|3:0,3:0:0:0:
297,26,73755,6,0,P|223:34|183:96,1,133.5,6|8,0:0|0:0,0:0:0:0:
139,151,74505,2,0,L|78:149,2,44.5,2|0|8,0:0|0:0|0:0,0:0:0:0:
179,168,74955,2,0,P|210:213|219:296,1,133.5,8|0,3:0|0:0,0:0:0:0:
195,327,75555,2,0,B|150:339|150:339|92:332,1,89,8|2,0:0|0:0,0:0:0:0:
64,322,76005,1,8,0:0:0:0:
7,253,76305,6,0,L|13:148,1,89,6|8,0:0|0:0,0:0:0:0:
71,97,76905,2,0,L|68:45,2,44.5,2|0|8,0:0|0:0|0:0,0:0:0:0:
135,158,77505,2,0,B|183:174|183:174|274:164,1,133.5,6|0,0:0|0:0,0:0:0:0:
309,157,78105,2,0,P|343:189|358:239,1,89,8|8,3:0|3:0,0:0:0:0:
349,316,78705,5,2,0:0:0:0:
349,316,81105,6,0,L|205:308,1,133.5,2|2,0:0|0:0,0:0:0:0:
155,189,82005,2,0,L|299:197,1,133.5,2|2,0:0|0:0,0:0:0:0:
421,190,82905,2,0,L|419:135,1,44.5,2|4,0:0|0:0,0:0:0:0:
370,23,83505,6,0,P|328:8|269:11,1,89,6|8,0:0|0:0,0:0:0:0:
218,66,84105,2,0,P|176:81|117:78,1,89,8|0,3:0|3:0,0:0:0:0:
87,81,84555,2,0,L|97:225,1,133.5,6|0,0:0|0:0,0:0:0:0:
102,258,85155,1,0,0:0:0:0:
182,295,85455,1,0,0:0:0:0:
276,278,85755,1,8,0:0:0:0:
276,278,85905,6,0,B|366:283|366:283|419:266,2,133.5,6|0|8,0:0|0:0|0:0,0:0:0:0:
230,201,87105,2,0,P|225:142|274:73,2,133.5,2|0|8,0:0|3:0|0:0,0:0:0:0:
276,278,88305,6,0,P|204:287|153:248,2,133.5,2|0|8,0:0|0:0|0:0,0:0:0:0:
342,218,89505,2,0,L|444:220,1,89,2|8,0:0|0:0,0:0:0:0:
469,197,89955,2,0,P|497:138|463:62,1,133.5,0|8,3:0|0:0,0:0:0:0:
407,132,90705,6,0,B|319:130|319:130|271:149,2,133.5,6|0|8,0:0|0:0|0:0,0:0:0:0:
469,197,91905,2,0,P|496:245|470:327,2,133.5,2|0|8,0:0|3:0|0:0,0:0:0:0:
407,132,93105,6,0,P|380:180|406:262,2,133.5,2|0|8,0:0|0:0|0:0,0:0:0:0:
477,76,94305,2,0,P|443:52|391:45,1,89,8|2,3:0|0:0,0:0:0:0:
359,63,94755,1,4,0:0:0:0:
359,63,94905,2,0,L|258:59,1,89,8|8,3:0|3:0,0:0:0:0:
225,59,95355,5,6,0:0:0:0:
256,192,95505,12,0,100155,0:0:0:0:
