osu file format v14

[General]
AudioFilename: audio.mp3
AudioLeadIn: 0
PreviewTime: 56580
Countdown: 0
SampleSet: Soft
StackLeniency: 0.7
Mode: 0
LetterboxInBreaks: 0
WidescreenStoryboard: 0

[Editor]
Bookmarks: 24105,81105
DistanceSpacing: 1.5
BeatDivisor: 4
GridSize: 4
TimelineZoom: 1

[Metadata]
Title:Bokura no Seiza
TitleUnicode:ぼくらの星座
Artist:Mikoi Sasaki
ArtistUnicode:佐々木未来
Creator:joker-
Version:Advanced
Source:星恋*ティンクル
Tags:eroge opening Akitoshi Corinn Yohanes yaldo_27 Nanashima Asami Left
BeatmapID:1143994
BeatmapSetID:539139

[Difficulty]
HPDrainRate:4
CircleSize:3.5
OverallDifficulty:4.5
ApproachRate:6
SliderMultiplier:1.05
SliderTickRate:1

[Events]
//Background and Video events
0,0,"bg.jpg",0,0
Video,-80,"video.avi"
//Break Periods
//Storyboard Layer 0 (Background)
//Storyboard Layer 1 (Fail)
//Storyboard Layer 2 (Pass)
//Storyboard Layer 3 (Foreground)
//Storyboard Sound Samples

[TimingPoints]
705,300,4,2,1,40,1,0
9255,-100,4,2,2,50,0,0
18705,-100,4,2,1,40,0,0
37905,-100,4,2,1,40,0,0
47505,-100,4,2,2,50,0,0
52305,-100,4,2,2,60,0,0
54705,-100,4,2,1,60,0,0
56355,-100,4,2,1,20,0,0
57105,-100,4,2,2,70,0,1
78705,-100,4,2,1,50,0,0
81105,-100,4,2,2,60,0,0
84555,-100,4,2,2,50,0,0
85905,-100,4,2,2,60,0,0

[Colours]
Combo1 : 255,255,57
Combo2 : 74,255,255
Combo3 : 166,255,77
Combo4 : 255,157,206

[HitObjects]
216,215,1455,6,0,L|204:147,2,52.5,0|0|0,0:0|0:0|0:0,0:0:0:0:
255,283,1905,6,0,P|341:302|404:261,2,157.5,2|2|2,0:0|0:0|0:0,0:0:0:0:
316,137,3105,2,0,P|384:102|458:122,2,157.5,2|2|0,0:0|0:0|0:0,0:0:0:0:
184,50,4305,6,0,P|122:35|67:50,1,105,2|0,0:0|0:0,0:0:0:0:
15,85,4755,2,0,P|3:157|28:241,1,157.5,2|2,0:0|0:0,0:0:0:0:
98,376,5505,2,0,P|170:355|255:371,2,157.5,2|0|2,0:0|0:0|0:0,0:0:0:0:
171,236,6705,6,0,P|228:236|285:257,1,105,2|0,0:0|0:0,0:0:0:0:
348,272,7155,2,0,P|406:257|468:171,1,157.5,2|2,0:0|0:0,0:0:0:0:
472,25,7905,2,0,P|416:20|356:44,1,105,2|0,0:0|0:0,0:0:0:0:
310,86,8355,2,0,P|272:119|175:86,1,157.5,2|2,0:0|0:0,0:0:0:0:
43,285,9255,6,0,P|102:286|156:256,1,105,6|0,0:0|0:0,0:0:0:0:
204,218,9705,2,0,P|269:213|320:239,1,105,6|0,0:0|0:0,0:0:0:0:
378,256,10155,2,0,P|410:214|430:146,1,105,6|0,0:0|0:0,0:0:0:0:
433,86,10605,2,0,B|360:44|309:77|309:77|251:113|177:51,1,262.5,6|0,0:0|1:0,0:0:0:0:
114,29,11505,6,0,P|91:97|94:149,1,105,6|0,0:0|0:0,0:0:0:0:
91,286,12105,2,0,P|145:305|198:295,1,105,8|2,0:0|0:0,0:0:0:0:
280,167,12705,1,0,0:0:0:0:
280,167,12855,2,0,P|357:145|437:170,1,157.5,8|8,0:0|0:0,0:0:0:0:
493,212,13455,2,0,L|485:323,1,105,6|0,0:0|0:0,0:0:0:0:
414,351,13905,6,0,P|362:361|306:337,1,105,6|0,0:0|0:0,0:0:0:0:
180,260,14505,2,0,P|127:256|68:288,1,105,8|2,0:0|0:0,0:0:0:0:
13,134,15105,1,0,0:0:0:0:
13,134,15255,2,0,P|79:150|153:85,1,157.5,8|8,0:0|0:0,0:0:0:0:
190,34,15855,2,0,L|305:42,1,105,6|2,0:0|0:0,0:0:0:0:
371,59,16305,6,0,P|384:114|364:182,1,105,6|0,0:0|0:0,0:0:0:0:
336,230,16755,2,0,P|323:284|343:352,1,105,6|0,0:0|0:0,0:0:0:0:
411,333,17205,2,0,P|423:278|403:210,1,105,6|0,0:0|0:0,0:0:0:0:
281,147,17805,2,0,B|208:105|157:138|157:138|99:174|25:112,1,262.5,6|0,0:0|0:0,0:0:0:0:
58,45,18705,6,0,P|112:35|172:57,1,105,2|0,0:0|0:0,0:0:0:0:
281,147,19305,2,0,L|294:267,1,105
437,313,19905,2,0,L|455:194,1,105,2|0,0:0|0:0,0:0:0:0:
462,134,20355,2,0,P|368:96|278:150,1,210,0|0,0:0|0:0,0:0:0:0:
245,217,21105,6,0,L|255:338,1,105,2|0,0:0|0:0,0:0:0:0:
102,364,21705,2,0,L|110:259,1,105,0|0,0:0|0:0,0:0:0:0:
43,116,22305,2,0,P|94:94|158:102,1,105,2|0,0:0|0:0,0:0:0:0:
219,115,22755,2,0,B|321:147|321:147|420:76,1,210,0|0,0:0|0:0,0:0:0:0:
453,24,23505,6,0,P|481:69|476:121,1,105,2|0,0:0|0:0,0:0:0:0:
401,257,24105,2,0,P|356:285|303:280,1,105,0|0,0:0|0:0,0:0:0:0:
155,235,24705,2,0,P|80:222|-3:269,2,157.5,2|0|0,0:0|0:0|0:0,0:0:0:0:
305,280,25905,6,0,L|314:168,1,105,2|0,0:0|0:0,0:0:0:0:
270,109,26355,2,0,P|205:81|128:115,1,157.5,0|0,0:0|0:0,0:0:0:0:
43,245,27105,1,2,0:0:0:0:
43,245,27705,1,2,0:0:0:0:
43,245,28305,6,0,L|161:251,1,105,2|0,0:0|0:0,0:0:0:0:
278,338,28905,2,0,L|382:343,1,105,0|2,0:0|0:0,0:0:0:0:
487,225,29505,2,0,P|498:174|477:111,1,105,2|0,0:0|0:0,0:0:0:0:
419,79,29955,2,0,P|345:107|246:34,1,210,2|0,0:0|0:0,0:0:0:0:
182,81,30705,6,0,L|192:191,1,105,2|0,0:0|0:0,0:0:0:0:
93,308,31305,2,0,L|82:182,1,105,0|2,0:0|0:0,0:0:0:0:
229,263,31905,2,0,P|284:266|340:231,1,105,2|0,0:0|0:0,0:0:0:0:
391,196,32355,2,0,L|385:83,1,105,0|2,0:0|0:0,0:0:0:0:
325,39,32805,2,0,P|300:40|267:48,1,52.5,2|0,0:0|0:0,0:0:0:0:
199,73,33105,6,0,P|119:75|64:20,2,157.5,2|2|2,0:0|0:0|0:0,0:0:0:0:
273,45,34155,1,0,0:0:0:0:
309,114,34305,2,0,L|300:238,1,105,2|0,0:0|0:0,0:0:0:0:
198,337,34905,2,0,L|93:329,1,105,0|0,0:0|0:0,0:0:0:0:
38,273,35355,1,0,0:0:0:0:
91,214,35505,6,0,P|62:112|142:54,1,210,2|0,0:0|0:0,0:0:0:0:
255,155,36405,1,0,0:0:0:0:
215,307,36705,2,0,P|267:310|316:294,1,105,2|0,0:0|0:0,0:0:0:0:
437,192,37305,2,0,P|384:188|335:204,1,105,0|0,0:0|3:0,0:0:0:0:
215,307,37905,6,0,P|164:310|99:282,1,105,4|0,0:0|0:0,0:0:0:0:
53,241,38355,1,0,0:0:0:0:
86,169,38505,2,0,L|78:42,1,105,2|0,0:0|0:0,0:0:0:0:
224,125,39105,2,0,P|281:131|328:106,1,105,2|0,0:0|0:0,0:0:0:0:
383,59,39555,1,0,0:0:0:0:
439,113,39705,2,0,L|426:239,1,105,2|0,0:0|0:0,0:0:0:0:
338,347,40305,6,0,L|328:230,1,105,4|0,0:0|0:0,0:0:0:0:
265,195,40755,1,0,0:0:0:0:
192,224,40905,2,0,P|141:242|81:231,1,105,2|0,0:0|0:0,0:0:0:0:
65,138,41505,2,0,L|76:26,1,105,2|0,0:0|0:0,0:0:0:0:
152,17,41955,1,0,0:0:0:0:
152,17,42105,2,0,L|212:22,1,52.5,2|0,0:0|0:0,0:0:0:0:
194,100,42405,2,0,L|254:105,1,52.5,2|0,0:0|0:0,0:0:0:0:
325,113,42705,6,0,P|336:176|314:233,1,105,4|0,0:0|0:0,0:0:0:0:
278,278,43155,1,0,0:0:0:0:
325,341,43305,2,0,L|436:333,1,105,2|0,0:0|0:0,0:0:0:0:
511,197,43905,2,0,L|405:205,1,105,2|0,0:0|0:0,0:0:0:0:
325,214,44355,1,0,0:0:0:0:
262,166,44505,2,0,P|219:160|156:189,1,105,2|0,0:0|0:0,0:0:0:0:
25,259,45105,6,0,L|39:147,1,105,4|0,0:0|0:0,0:0:0:0:
111,125,45555,1,2,0:0:0:0:
163,182,45705,2,0,L|151:289,1,105,0|2,0:0|0:0,0:0:0:0:
287,365,46305,2,0,P|340:370|389:346,1,105,2|0,0:0|0:0,0:0:0:0:
428,282,46755,1,0,0:0:0:0:
428,282,46905,2,0,P|419:251|419:224,1,52.5,2|0,0:0|0:0,0:0:0:0:
450,158,47205,2,0,P|447:117|440:100,1,52.5,2|0,0:0|0:0,0:0:0:0:
379,59,47505,6,0,P|326:52|259:79,1,105,6|0,0:0|0:0,0:0:0:0:
137,140,48105,2,0,P|130:194|151:246,1,105,8|0,0:0|0:0,0:0:0:0:
196,301,48555,1,0,0:0:0:0:
271,277,48705,2,0,P|324:262|388:279,1,105,4|8,0:0|0:0,0:0:0:0:
433,221,49155,1,0,0:0:0:0:
462,147,49305,2,0,L|456:76,2,52.5,2|0|2,0:0|0:0|1:3,0:0:0:0:
346,39,49905,6,0,L|356:151,1,105,6|0,0:0|0:0,0:0:0:0:
271,277,50505,2,0,P|223:298|159:294,1,105,8|0,0:0|0:0,0:0:0:0:
92,290,50955,2,0,P|73:241|78:189,1,105,6|0,0:0|0:0,0:0:0:0:
103,114,51405,1,8,0:0:0:0:
242,186,51705,2,0,L|353:168,1,105,2|8,0:3|0:0,0:0:0:0:
396,109,52155,1,0,0:0:0:0:
454,161,52305,6,0,P|463:210|440:277,1,105,6|0,0:0|0:0,0:0:0:0:
400,324,52755,2,0,P|345:312|293:320,1,105,6|0,0:0|0:0,0:0:0:0:
223,347,53205,1,8,0:0:0:0:
160,202,53505,2,0,L|173:93,1,105,6|8,0:0|0:0,0:0:0:0:
234,48,53955,2,0,P|283:41|339:68,1,105,6|0,0:0|0:0,0:0:0:0:
386,119,54405,2,0,L|381:172,2,52.5,6|0|2,0:0|0:0|0:0,0:0:0:0:
256,192,54855,12,0,56355,0:0:0:0:
422,160,57105,6,0,L|410:277,1,105,6|8,0:0|0:0,0:0:0:0:
277,348,57705,2,0,P|227:355|178:333,1,105,2|8,0:0|0:0,0:0:0:0:
101,195,58305,2,0,P|53:175|0:181,2,105,2|8|2,0:0|0:0|0:0,0:0:0:0:
239,269,59205,2,0,L|245:215,1,52.5,8|0,0:0|0:0,0:0:0:0:
313,176,59505,6,0,P|365:183|418:159,1,105,2|8,0:0|0:0,0:0:0:0:
284,70,60105,2,0,P|232:65|173:93,1,105,2|8,0:0|0:0,0:0:0:0:
161,240,60705,1,2,0:0:0:0:
46,131,61005,2,0,L|32:26,2,105,8|2|8,0:0|0:0|0:0,0:0:0:0:
73,286,61905,5,6,0:0:0:0:
173,164,62205,2,0,P|228:159|284:182,1,105,8|2,0:0|0:0,0:0:0:0:
412,252,62805,2,0,P|423:230|429:192,1,52.5,8|0,0:0|0:0,0:0:0:0:
471,136,63105,2,0,P|422:125|360:156,1,105,2|8,0:0|0:0,0:0:0:0:
341,217,63555,1,2,0:0:0:0:
232,330,63855,2,0,L|239:273,1,52.5,2|8,0:0|0:0,0:0:0:0:
214,202,64155,6,0,P|166:190|112:208,1,105,6|0,0:0|0:0,0:0:0:0:
50,253,64605,2,0,L|65:126,1,105,8|2,0:0|0:0,0:0:0:0:
91,75,65055,2,0,L|84:7,1,52.5,0|8,0:0|0:0,0:0:0:0:
234,74,65505,2,0,L|239:21,2,52.5,6|4|8,0:0|3:0|0:0,0:0:0:0:
191,140,65955,2,0,P|238:120|300:139,1,105,2|0,0:0|3:0,0:0:0:0:
344,188,66405,2,0,L|358:257,1,52.5,8|0,0:0|3:0,0:0:0:0:
348,320,66705,6,0,P|301:341|242:338,1,105,6|8,0:0|0:0,0:0:0:0:
92,308,67305,2,0,L|77:185,1,105,2|8,0:0|0:0,0:0:0:0:
158,68,67905,2,0,P|209:62|260:75,2,105,2|8|2,0:0|0:0|0:0,0:0:0:0:
214,215,68805,2,0,L|268:220,1,52.5,8|0,0:0|0:0,0:0:0:0:
327,169,69105,6,0,P|344:218|319:279,1,105,2|8,0:0|0:0,0:0:0:0:
201,360,69705,2,0,L|85:356,1,105,2|8,0:0|0:0,0:0:0:0:
35,210,70305,2,0,P|29:142|51:96,1,105,2|8,0:0|0:0,0:0:0:0:
101,56,70755,1,4,0:0:0:0:
167,97,70905,2,0,L|282:87,1,105,0|8,0:0|0:0,0:0:0:0:
342,123,71355,6,0,P|346:175|334:225,1,105,6|0,0:0|0:0,0:0:0:0:
267,267,71805,2,0,L|276:390,2,105,8|2|8,0:0|0:0|0:0,0:0:0:0:
342,123,72705,2,0,P|394:118|446:131,1,105,2|8,0:0|0:0,0:0:0:0:
497,278,73305,1,4,3:0:0:0:
497,278,73455,1,4,3:0:0:0:
361,358,73755,6,0,L|241:346,1,105,6|0,0:0|0:0,0:0:0:0:
200,291,74205,2,0,P|150:307|98:306,1,105,8|2,0:0|0:0,0:0:0:0:
53,241,74655,2,0,L|-5:249,2,52.5,0|8|0,0:0|0:0|0:0,0:0:0:0:
86,169,75105,2,0,P|136:156|189:157,1,105,4|2,0:0|0:0,0:0:0:0:
258,196,75555,2,0,P|267:145|241:95,1,105,12|2,0:0|0:0,0:0:0:0:
190,40,76005,1,8,0:0:0:0:
346,55,76305,5,6,0:0:0:0:
346,55,76605,2,0,L|471:69,2,105,8|2|8,0:0|0:0|0:0,0:0:0:0:
190,40,77505,2,0,P|162:83|178:188,1,157.5,6|8,0:0|3:0,3:0:0:0:
222,247,78105,2,0,B|267:213|319:213|319:213|359:250,1,157.5,0|4,0:0|0:3,0:0:0:0:
408,309,78705,5,6,0:0:0:0:
175,274,81105,6,0,L|168:201,1,52.5,0|2,1:2|0:0,0:0:0:0:
324,189,81555,2,0,L|331:262,1,52.5,0|2,1:2|0:0,0:0:0:0:
212,346,82005,2,0,P|181:353|146:350,1,52.5,0|2,1:2|0:0,0:0:0:0:
11,298,82455,2,0,P|4:267|7:232,1,52.5,0|2,1:2|0:0,0:0:0:0:
62,99,82905,1,0,1:2:0:0:
62,99,83055,2,0,P|115:109|170:89,1,105,6|0,0:0|0:0,0:0:0:0:
226,48,83505,6,0,L|212:175,1,105,6|8,0:0|0:0,0:0:0:0:
260,216,83955,1,8,3:0:0:0:
326,258,84105,2,0,L|317:319,2,52.5,0|8|0,3:0|3:0|3:0,0:0:0:0:
397,225,84555,2,0,B|387:164|411:123|411:123|376:77,1,157.5,14|0,0:0|0:0,0:0:0:0:
312,40,85155,2,0,P|261:27|200:46,2,105,0|0|0,0:0|0:0|0:0,0:0:0:0:
312,118,85905,6,0,L|195:142,1,105,6|8,0:0|0:0,0:0:0:0:
146,85,86355,2,0,L|29:106,1,105
5,173,86805,1,8,0:0:0:0:
5,173,87105,2,0,P|1:242|12:288,1,105,2|8,0:0|0:0,0:0:0:0:
80,319,87555,2,0,L|188:308,1,105,2|0,3:0|0:0,0:0:0:0:
254,259,88005,1,8,0:0:0:0:
254,259,88305,6,0,P|242:206|251:146,1,105,2|8,0:3|0:0,0:0:0:0:
288,89,88755,2,0,L|398:103,1,105,0|0,0:0|0:0,0:0:0:0:
460,153,89205,1,8,0:0:0:0:
460,153,89505,2,0,L|523:147,2,52.5,2|0|8,0:0|0:0|0:0,0:0:0:0:
416,218,89955,2,0,P|348:245|315:241,1,105,0|0,3:0|0:0,0:0:0:0:
239,237,90405,2,0,L|229:288,1,52.5,8|0,0:0|0:0,0:0:0:0:
159,324,90705,6,0,P|107:327|48:294,1,105,6|8,0:0|0:0,0:0:0:0:
2,250,91155,2,0,P|-1:198|32:139,1,105,0|0,0:0|0:0,0:0:0:0:
81,100,91605,1,8,0:0:0:0:
81,100,91905,2,0,L|196:109,1,105,2|8,0:0|0:0,0:0:0:0:
250,62,92355,2,0,P|298:40|360:49,1,105,2|0,3:0|0:0,0:0:0:0:
420,90,92805,1,8,0:0:0:0:
420,90,93105,6,0,L|408:199,1,105,0|8,3:0|0:0,0:0:0:0:
392,271,93555,2,0,P|340:288|284:281,1,105
209,269,94005,1,8,0:0:0:0:
209,269,94305,2,0,L|197:335,2,52.5,8|2|4,0:3|0:0|3:0,0:0:0:0:
167,201,94755,1,4,0:0:0:0:
196,127,94905,2,0,L|186:66,2,52.5,2|2|4,0:0|0:0|3:0,0:0:0:0:
270,153,95355,5,4,0:0:0:0:
256,192,95505,12,0,100155,0:0:0:0:
