osu file format v14

[General]
AudioFilename: audio.mp3
AudioLeadIn: 0
PreviewTime: 91767
Countdown: 0
SampleSet: Soft
StackLeniency: 0.4
Mode: 0
LetterboxInBreaks: 0
WidescreenStoryboard: 0

[Editor]
Bookmarks: 1876,21267,31214,51582,71793,91845,112056,122161,133688,142530,150109,155003,165109,175214,195582,198109,200477,220688,223056
DistanceSpacing: 1.2
BeatDivisor: 4
GridSize: 16
TimelineZoom: 2.1

[Metadata]
Title:Shinzou Democracy
TitleUnicode:心臓デモクラシー
Artist:MikitoP
ArtistUnicode:みきとP
Creator:moph
Version:Extreme
Source:
Tags:vocaloid hatsune miku j-rock 僕は初音ミクとキスをした 初音ミク exittunes
BeatmapID:1940170
BeatmapSetID:928939

[Difficulty]
HPDrainRate:6
CircleSize:4
OverallDifficulty:9
ApproachRate:9.5
SliderMultiplier:1.8
SliderTickRate:1

[Events]
//Background and Video events
0,0,"bg.jpg",0,0
//Break Periods
2,155203,157688
//Storyboard Layer 0 (Background)
//Storyboard Layer 1 (Fail)
//Storyboard Layer 2 (Pass)
//Storyboard Layer 3 (Foreground)
//Storyboard Layer 4 (Overlay)
//Storyboard Sound Samples

[TimingPoints]
1876,571.428571428571,4,2,1,20,1,0
1876,-333.333333333333,4,2,1,20,0,0
3018,631.578947368421,4,2,1,20,1,0
4281,-333.333333333333,4,2,1,20,0,0
6807,612.244897959184,4,2,1,20,1,0
6807,-333.333333333333,4,2,1,20,0,0
8031,714.285714285714,4,2,1,20,1,0
9465,597.014925373134,4,2,1,20,1,0
9465,-333.333333333333,4,2,1,20,0,0
10659,566.037735849057,4,2,1,20,1,0
11791,625,4,2,1,20,1,0
11791,-333.333333333333,4,2,1,20,0,0
13041,769.230769230769,4,2,1,20,1,0
13804,600,4,2,1,20,1,0
14404,631.578947368421,4,2,1,20,1,0
14404,-333.333333333333,4,2,1,20,0,0
15667,638.297872340426,4,2,1,20,1,0
16943,600,4,2,1,20,1,0
16943,-333.333333333333,4,2,1,20,0,0
18143,674.157303370787,4,2,1,20,1,0
19491,461.538461538462,4,2,1,20,1,0
20991,-100,4,2,1,5,0,0
21110,315.789473684211,4,2,1,50,1,0
21267,315.789473684211,4,2,1,50,1,0
21267,-133.333333333333,4,2,1,50,0,0
26082,-133.333333333333,4,2,1,5,0,0
26161,-133.333333333333,4,2,1,50,0,0
30148,-133.333333333333,4,2,1,10,0,0
30188,-133.333333333333,4,2,1,15,0,0
30227,-133.333333333333,4,2,1,20,0,0
30267,-133.333333333333,4,2,1,25,0,0
30306,-133.333333333333,4,2,1,30,0,0
30345,-133.333333333333,4,2,1,35,0,0
30385,-133.333333333333,4,2,1,40,0,0
30424,-133.333333333333,4,2,1,45,0,0
30464,-133.333333333333,4,2,1,50,0,0
30503,-133.333333333333,4,2,1,55,0,0
30543,-133.333333333333,4,2,1,60,0,0
30582,-133.333333333333,4,2,1,65,0,0
30622,-133.333333333333,4,2,1,70,0,0
30661,-133.333333333333,4,2,1,75,0,0
30701,-133.333333333333,4,2,1,80,0,0
30740,-200,4,2,1,70,0,0
30977,-200,4,2,1,5,0,0
31056,-66.6666666666667,4,2,1,70,0,0
31214,-66.6666666666667,4,2,1,75,0,0
31451,-66.6666666666667,4,2,1,5,0,0
31530,-66.6666666666667,4,2,1,75,0,0
32082,-66.6666666666667,4,2,1,5,0,0
32161,-66.6666666666667,4,2,1,75,0,0
32714,-66.6666666666667,4,2,1,5,0,0
32793,-66.6666666666667,4,2,1,75,0,0
33345,-66.6666666666667,4,2,1,5,0,0
33424,-66.6666666666667,4,2,1,75,0,0
33977,-66.6666666666667,4,2,1,5,0,0
34056,-66.6666666666667,4,2,1,75,0,0
36503,-66.6666666666667,4,2,1,5,0,0
36582,-66.6666666666667,4,2,1,75,0,0
37135,-66.6666666666667,4,2,1,5,0,0
37214,-66.6666666666667,4,2,1,75,0,0
37767,-66.6666666666667,4,2,1,5,0,0
37845,-66.6666666666667,4,2,1,75,0,0
38398,-66.6666666666667,4,2,1,5,0,0
38477,-66.6666666666667,4,2,1,75,0,0
39030,-66.6666666666667,4,2,1,5,0,0
39109,-66.6666666666667,4,2,1,75,0,0
39503,-66.6666666666667,4,2,1,5,0,0
39582,-66.6666666666667,4,2,1,75,0,0
41556,-66.6666666666667,4,2,1,5,0,0
41635,-66.6666666666667,4,2,1,75,0,0
42030,-66.6666666666667,4,2,1,5,0,0
42109,-66.6666666666667,4,2,1,75,0,0
42819,-66.6666666666667,4,2,1,5,0,0
42898,-66.6666666666667,4,2,1,75,0,0
44082,-66.6666666666667,4,2,1,5,0,0
44161,-66.6666666666667,4,2,1,75,0,0
45819,-66.6666666666667,4,2,1,5,0,0
45898,-66.6666666666667,4,2,1,75,0,0
46609,-66.6666666666667,4,2,1,5,0,0
46688,-66.6666666666667,4,2,1,75,0,0
51582,-100,4,2,1,65,0,0
51819,-100,4,2,1,5,0,0
51898,-100,4,2,1,65,0,0
70767,-100,4,2,1,5,0,0
70845,-100,4,2,1,65,0,0
71082,-100,4,2,1,5,0,0
71161,-100,4,2,1,65,0,0
71793,-200,4,2,1,50,0,0
86635,-100,4,2,1,50,0,0
86951,-133.333333333333,4,2,1,60,0,0
89477,-100,4,2,1,75,0,0
90740,-100,4,2,1,60,0,0
90977,-100,4,2,1,5,0,0
91056,-100,4,2,1,60,0,0
91293,-100,4,2,1,5,0,0
91372,-100,4,2,1,60,0,0
91845,-74.0740740740741,4,2,1,75,0,1
92082,-74.0740740740741,4,2,1,5,0,1
92161,-74.0740740740741,4,2,1,75,0,1
93345,-74.0740740740741,4,2,1,5,0,1
93424,-74.0740740740741,4,2,1,75,0,1
94609,-74.0740740740741,4,2,1,5,0,1
94688,-74.0740740740741,4,2,1,75,0,1
95872,-74.0740740740741,4,2,1,5,0,1
95951,-74.0740740740741,4,2,1,75,0,1
97135,-74.0740740740741,4,2,1,5,0,1
97214,-74.0740740740741,4,2,1,75,0,1
98398,-74.0740740740741,4,2,1,5,0,1
98477,-74.0740740740741,4,2,1,75,0,1
99661,-74.0740740740741,4,2,1,5,0,1
99740,-74.0740740740741,4,2,1,75,0,1
102188,-74.0740740740741,4,2,1,5,0,1
102267,-74.0740740740741,4,2,1,75,0,1
103451,-74.0740740740741,4,2,1,5,0,1
103530,-74.0740740740741,4,2,1,75,0,1
104714,-74.0740740740741,4,2,1,5,0,1
104793,-74.0740740740741,4,2,1,75,0,1
105977,-74.0740740740741,4,2,1,5,0,1
106056,-74.0740740740741,4,2,1,75,0,1
107240,-74.0740740740741,4,2,1,5,0,1
107319,-74.0740740740741,4,2,1,75,0,1
108503,-74.0740740740741,4,2,1,5,0,1
108582,-74.0740740740741,4,2,1,75,0,1
109767,-74.0740740740741,4,2,1,5,0,1
109845,-74.0740740740741,4,2,1,75,0,1
112056,-100,4,2,1,65,0,0
114345,-100,4,2,1,5,0,0
114424,-100,4,2,1,65,0,0
116556,-100,4,2,1,5,0,0
116635,-100,4,2,1,65,0,0
119398,-100,4,2,1,5,0,0
119477,-100,4,2,1,65,0,0
120661,-100,4,2,1,5,0,0
120740,-100,4,2,1,65,0,0
122003,-74.0740740740741,4,2,1,75,0,0
123661,-74.0740740740741,4,2,1,5,0,0
123740,-74.0740740740741,4,2,1,75,0,0
124924,-74.0740740740741,4,2,1,5,0,0
125003,-74.0740740740741,4,2,1,75,0,0
128714,-74.0740740740741,4,2,1,5,0,0
128793,-74.0740740740741,4,2,1,75,0,0
129740,-57.1428571428571,4,2,1,75,0,0
129977,-57.1428571428571,4,2,1,5,0,0
130056,-57.1428571428571,4,2,1,75,0,0
130293,-57.1428571428571,4,2,1,5,0,0
130372,-66.6666666666667,4,2,1,75,0,0
130609,-66.6666666666667,4,2,1,5,0,0
130688,-66.6666666666667,4,2,1,75,0,0
130924,-66.6666666666667,4,2,1,5,0,0
131003,-80,4,2,1,75,0,0
131240,-80,4,2,1,5,0,0
131319,-80,4,2,1,75,0,0
131635,-100,4,2,1,75,0,0
131872,-100,4,2,1,5,0,0
131951,-100,4,2,1,75,0,0
132267,-200,4,2,1,60,0,0
133688,-133.333333333333,4,2,1,60,0,0
142530,-250,4,2,1,50,0,0
147582,-666.666666666667,4,2,1,60,0,0
147740,-666.666666666667,4,2,1,5,0,0
148688,-666.666666666667,4,2,1,10,0,0
149635,-133.333333333333,4,2,1,60,0,0
150030,-133.333333333333,4,2,1,5,0,0
150109,-66.6666666666667,4,2,1,75,0,0
158635,-100,4,2,1,60,0,0
165109,-100,4,2,1,65,0,0
172845,-100,4,2,1,75,0,0
175214,-74.0740740740741,4,2,1,75,0,1
175451,-74.0740740740741,4,2,1,5,0,1
175530,-74.0740740740741,4,2,1,75,0,1
176714,-74.0740740740741,4,2,1,5,0,1
176793,-74.0740740740741,4,2,1,75,0,1
177977,-74.0740740740741,4,2,1,5,0,1
178056,-74.0740740740741,4,2,1,75,0,1
179240,-74.0740740740741,4,2,1,5,0,1
179319,-74.0740740740741,4,2,1,75,0,1
180503,-74.0740740740741,4,2,1,5,0,1
180582,-74.0740740740741,4,2,1,75,0,1
181767,-74.0740740740741,4,2,1,5,0,1
181845,-74.0740740740741,4,2,1,75,0,1
183030,-74.0740740740741,4,2,1,5,0,1
183109,-74.0740740740741,4,2,1,75,0,1
184293,-74.0740740740741,4,2,1,5,0,1
184372,-74.0740740740741,4,2,1,75,0,1
185556,-74.0740740740741,4,2,1,5,0,1
185635,-74.0740740740741,4,2,1,75,0,1
186819,-74.0740740740741,4,2,1,5,0,1
186898,-74.0740740740741,4,2,1,75,0,1
188082,-74.0740740740741,4,2,1,5,0,1
188161,-74.0740740740741,4,2,1,75,0,1
189345,-74.0740740740741,4,2,1,5,0,1
189424,-74.0740740740741,4,2,1,75,0,1
190609,-74.0740740740741,4,2,1,5,0,1
190688,-74.0740740740741,4,2,1,75,0,1
191872,-74.0740740740741,4,2,1,5,0,1
191951,-74.0740740740741,4,2,1,75,0,1
193135,-74.0740740740741,4,2,1,5,0,1
193214,-74.0740740740741,4,2,1,75,0,1
195582,-200,4,2,1,65,0,0
198109,-66.6666666666667,4,2,1,75,0,1
200477,-66.6666666666667,4,2,1,75,0,0
200714,-66.6666666666667,4,2,1,5,0,0
200793,-66.6666666666667,4,2,1,75,0,0
201345,-66.6666666666667,4,2,1,5,0,0
201424,-66.6666666666667,4,2,1,75,0,0
201977,-66.6666666666667,4,2,1,5,0,0
202056,-66.6666666666667,4,2,1,75,0,0
202609,-66.6666666666667,4,2,1,5,0,0
202688,-66.6666666666667,4,2,1,75,0,0
203240,-66.6666666666667,4,2,1,5,0,0
203319,-66.6666666666667,4,2,1,75,0,0
205767,-66.6666666666667,4,2,1,5,0,0
205845,-66.6666666666667,4,2,1,75,0,0
206398,-66.6666666666667,4,2,1,5,0,0
206477,-66.6666666666667,4,2,1,75,0,0
207030,-66.6666666666667,4,2,1,5,0,0
207109,-66.6666666666667,4,2,1,75,0,0
207661,-66.6666666666667,4,2,1,5,0,0
207740,-66.6666666666667,4,2,1,75,0,0
208293,-66.6666666666667,4,2,1,5,0,0
208372,-66.6666666666667,4,2,1,75,0,0
210819,-66.6666666666667,4,2,1,5,0,0
210898,-66.6666666666667,4,2,1,75,0,0
211293,-66.6666666666667,4,2,1,5,0,0
211372,-66.6666666666667,4,2,1,75,0,0
212082,-66.6666666666667,4,2,1,5,0,0
212161,-66.6666666666667,4,2,1,75,0,0
213345,-66.6666666666667,4,2,1,5,0,0
213424,-66.6666666666667,4,2,1,75,0,0
215872,-66.6666666666667,4,2,1,5,0,0
215951,-66.6666666666667,4,2,1,75,0,0
218082,-66.6666666666667,4,2,1,5,0,0
218161,-57.1428571428571,4,2,1,75,0,0
218398,-57.1428571428571,4,2,1,5,0,0
218477,-57.1428571428571,4,2,1,75,0,0
219030,-57.1428571428571,4,2,1,5,0,0
219109,-57.1428571428571,4,2,1,75,0,0
219661,-57.1428571428571,4,2,1,5,0,0
219740,-57.1428571428571,4,2,1,75,0,0
220767,-57.1428571428571,4,2,1,50,0,0

[Colours]
Combo1 : 193,183,170
Combo2 : 168,166,196
Combo3 : 193,145,145
Combo4 : 179,162,193

[HitObjects]
197,333,1876,6,0,L|87:345,1,107.999996704102,2|0,0:0|0:0,0:0:0:0:
315,333,4281,6,0,L|425:345,1,107.999996704102,2|0,0:0|0:0,0:0:0:0:
160,237,6807,6,0,P|109:231|63:195,1,107.999996704102,2|0,0:0|0:0,0:0:0:0:
352,237,9465,6,0,P|403:231|449:195,1,107.999996704102,2|2,0:0|0:0,0:0:0:0:
167,53,11791,6,0,P|135:93|135:149,1,107.999996704102,2|0,0:0|0:0,0:0:0:0:
345,53,14404,6,0,P|377:93|377:149,1,107.999996704102,2|0,0:0|0:0,0:0:0:0:
256,328,16943,6,0,B|252:280|252:280|260:272|260:272|256:224,1,107.999996704102,2|0,0:0|0:0,0:0:0:0:
256,192,19491,12,0,20991,0:0:0:0:
204,240,21110,5,2,0:0:0:0:
204,240,21188,1,2,0:0:0:0:
204,240,21267,2,0,P|138:232|88:274,1,135.000005149842,6|2,0:0|0:3,0:0:0:0:
326,362,21740,1,0,0:0:0:0:
326,362,21898,2,0,L|322:208,1,135.000005149842,2|2,0:0|3:0,0:0:0:0:
322,227,22530,6,0,P|368:268|451:252,2,135.000005149842,2|2|0,0:0|3:0|0:0,0:0:0:0:
322,227,23477,2,0,P|317:194|335:149,1,67.5000025749208,2|0,3:0|0:0,0:0:0:0:
379,98,23793,1,2,0:0:0:0:
379,98,24109,5,2,3:0:0:0:
301,75,24267,1,0,0:0:0:0:
224,51,24424,2,0,L|364:15,1,135.000005149842,2|2,0:0|3:0,0:0:0:0:
163,143,25056,2,0,L|23:179,2,135.000005149842,2|2|0,0:0|3:0|0:0,0:0:0:0:
163,143,26003,2,0,L|155:195,1,33.7500012874604,8|0,0:0|0:0,0:0:0:0:
101,362,26240,5,0,1:2:0:0:
101,362,26319,2,0,L|87:282,1,67.5000025749208,4|0,1:2|0:0,0:0:0:0:
310,315,26635,2,0,P|298:346|274:369,1,67.5000025749208,2|0,3:0|0:0,0:0:0:0:
181,296,26951,2,0,P|192:264|216:241,1,67.5000025749208,2|0,0:0|0:0,0:0:0:0:
391,262,27267,2,0,L|405:342,1,67.5000025749208,2|0,3:0|0:0,0:0:0:0:
200,375,27582,6,0,L|219:220,2,135.000005149842,2|2|0,0:0|3:0|0:0,0:0:0:0:
200,375,28530,2,0,P|163:359|128:365,1,67.5000025749208,2|0,3:0|0:0,0:0:0:0:
0,290,28845,6,0,P|49:300|125:242,1,135.000005149842,2|2,0:0|3:0,0:0:0:0:
126,175,29319,1,0,0:0:0:0:
252,199,29477,2,0,P|219:220|182:221,1,67.5000025749208,2|0,0:0|0:0,0:0:0:0:
65,151,29793,2,0,P|98:155|125:174,1,67.5000025749208,0|0,3:0|0:0,0:0:0:0:
175,361,30109,6,0,L|193:356,7,16.8750006437302,2|0|0|0|0|0|0|0,3:0|0:0|0:0|0:0|0:0|0:0|0:0|0:0,0:0:0:0:
207,354,30424,2,0,L|232:347,7,16.8750006437302,2|0|0|0|0|0|0|0,3:0|0:0|0:0|0:0|0:0|0:0|0:0|0:0,0:0:0:0:
238,346,30740,6,0,L|317:329,1,67.5,8|0,0:0|0:0,0:0:0:0:
398,293,31056,6,0,P|369:294|379:303,1,67.5000025749208,2|0,0:0|0:0,0:0:0:0:
416,372,31214,6,0,L|426:162,1,202.500007724762,4|0,1:2|0:0,0:0:0:0:
427,146,31530,1,0,0:0:0:0:
236,0,31688,2,0,P|256:33|303:43,1,67.5000025749208,8|0,0:0|0:0,0:0:0:0:
456,55,31845,2,0,B|323:58|393:125|252:130,1,202.500007724762,0|0,1:0|0:0,0:0:0:0:
252,128,32161,1,0,0:0:0:0:
327,318,32319,2,0,P|324:281|281:241,1,67.5000025749208,8|0,0:0|0:0,0:0:0:0:
47,331,32477,2,0,P|117:364|211:263,1,202.500007724762,0|0,1:0|0:0,0:0:0:0:
211,274,32793,1,0,0:0:0:0:
0,79,32951,2,0,P|-3:115|27:144,1,67.5000025749208,8|0,0:0|0:0,0:0:0:0:
120,274,33109,2,0,L|107:66,1,202.500007724762,2|0,1:2|0:0,0:0:0:0:
105,49,33424,1,0,0:0:0:0:
286,213,33582,2,0,P|245:207|216:173,1,67.5000025749208,8|0,0:0|0:0,0:0:0:0:
346,5,33740,6,0,P|407:60|380:181,1,202.500007724762,6|0,1:2|0:0,0:0:0:0:
376,187,34056,1,0,1:0:0:0:
482,349,34214,5,8,0:0:0:0:
286,213,34372,1,0,0:0:0:0:
404,312,34530,5,0,1:0:0:0:
250,296,34688,1,0,1:0:0:0:
488,323,34845,5,8,0:0:0:0:
273,379,35003,1,0,1:0:0:0:
113,169,35161,6,0,P|46:158|-4:209,1,135.000005149842,2|0,1:2|0:0,0:0:0:0:
208,364,35477,2,0,P|272:375|321:333,1,135.000005149842,10|0,0:0|0:0,0:0:0:0:
332,234,35793,1,2,1:2:0:0:
109,378,35951,1,2,1:2:0:0:
396,370,36109,2,0,P|408:336|402:303,1,67.5000025749208,8|0,0:0|0:0,0:0:0:0:
358,33,36267,6,0,L|331:236,1,202.500007724762,4|0,1:2|0:0,0:0:0:0:
328,260,36582,1,0,0:0:0:0:
488,169,36740,2,0,P|450:169|417:189,1,67.5000025749208,8|0,0:0|0:0,0:0:0:0:
154,78,36898,2,0,P|254:63|319:148,1,202.500007724762,0|0,1:0|0:0,0:0:0:0:
318,156,37214,1,0,0:0:0:0:
167,305,37372,2,0,P|180:273|216:250,1,67.5000025749208,8|0,0:0|0:0,0:0:0:0:
467,366,37530,2,0,L|257:332,1,202.500007724762,0|0,1:0|0:0,0:0:0:0:
249,331,37845,1,0,0:0:0:0:
402,217,38003,2,0,P|424:240|431:298,1,67.5000025749208,8|0,0:0|0:0,0:0:0:0:
162,381,38161,2,0,B|167:281|167:281|174:277|174:277|181:168,1,202.500007724762,2|0,1:2|0:0,0:0:0:0:
180,164,38477,1,0,0:0:0:0:
0,293,38635,2,0,P|37:310|85:291,1,67.5000025749208,8|0,0:0|0:0,0:0:0:0:
314,283,38793,6,0,P|220:253|179:164,1,202.500007724762,6|0,1:2|0:0,0:0:0:0:
182,144,39109,1,0,0:0:0:0:
8,60,39267,2,0,B|150:59|150:59|156:52|156:52|211:51,1,202.500007724762,8|0,0:0|0:0,0:0:0:0:
228,52,39582,1,0,1:0:0:0:
83,189,39740,1,0,1:0:0:0:
396,192,39898,1,8,0:0:0:0:
251,329,40056,6,0,P|251:287|288:251,1,67.5000025749208,8|8,0:3|0:3,0:0:0:0:
444,356,40214,2,0,P|387:361|316:291,1,135.000005149842,4|0,1:3|0:0,0:0:0:0:
488,150,40530,2,0,P|520:196|495:293,1,135.000005149842,8|0,0:0|0:0,0:0:0:0:
177,378,40845,1,8,1:3:0:0:
151,333,40924,1,8,0:3:0:0:
155,283,41003,1,8,0:3:0:0:
184,242,41082,1,8,0:3:0:0:
230,226,41161,2,0,P|264:230|299:251,1,67.5000025749208,8|0,0:2|0:0,0:0:0:0:
24,333,41319,6,0,B|127:319|127:319|128:328|128:328|238:312,1,202.500007724762,4|0,1:2|0:0,0:0:0:0:
236,312,41635,1,0,0:0:0:0:
487,377,41793,2,0,P|411:341|419:221,1,202.500007724762,10|0,0:0|0:0,0:0:0:0:
424,215,42109,1,2,1:2:0:0:
313,373,42267,1,2,1:2:0:0:
450,130,42424,6,0,P|481:142|501:168,1,67.5000025749208,8|0,0:0|0:0,0:0:0:0:
319,241,42582,2,0,L|336:29,1,202.500007724762,2|0,1:2|0:0,0:0:0:0:
337,20,42898,1,2,0:0:0:0:
170,196,43056,1,8,0:0:0:0:
418,333,43214,2,0,B|453:272|453:272|417:201,1,135.000005149842,2|0,1:2|0:0,0:0:0:0:
330,115,43530,1,2,1:2:0:0:
274,364,43688,6,0,P|262:332|239:307,1,67.5000025749208,8|0,0:0|0:0,0:0:0:0:
32,268,43845,2,0,P|106:288|169:189,1,202.500007724762,6|0,1:2|0:0,0:0:0:0:
167,178,44161,1,0,1:0:0:0:
350,270,44319,5,8,0:0:0:0:
188,94,44477,1,0,0:0:0:0:
299,199,44635,5,2,1:2:0:0:
267,49,44793,1,2,1:2:0:0:
331,281,44951,5,8,0:0:0:0:
352,64,45109,1,0,1:0:0:0:
350,270,45267,5,2,1:2:0:0:
167,178,45424,1,0,1:0:0:0:
69,359,45582,2,0,P|184:352|219:277,1,202.500007724762,8|0,0:0|0:0,0:0:0:0:
219,264,45898,1,0,1:2:0:0:
8,232,46056,1,0,1:0:0:0:
182,356,46214,6,0,P|210:374|243:380,1,67.5000025749208,8|0,0:0|0:0,0:0:0:0:
489,270,46372,2,0,P|403:239|325:338,1,202.500007724762,6|0,1:2|0:0,0:0:0:0:
327,331,46688,1,0,0:0:0:0:
253,165,46845,2,0,P|332:177|371:221,1,135.000005149842,10|0,0:2|0:0,0:0:0:0:
421,329,47161,1,2,1:2:0:0:
339,77,47319,1,2,1:2:0:0:
124,238,47477,6,0,P|83:228|53:201,1,67.5000025749208,8|0,0:0|0:0,0:0:0:0:
226,45,47635,2,0,P|257:81|236:184,1,135.000005149842,2|0,1:2|0:0,0:0:0:0:
2,230,47951,6,0,B|30:210|30:210|74:214,1,67.5000025749208,10|0,0:0|0:0,0:0:0:0:
175,359,48109,2,0,B|207:361|207:361|235:341,1,67.5000025749208,8|0,0:0|0:0,0:0:0:0:
367,215,48267,1,2,1:2:0:0:
367,215,48582,5,2,1:2:0:0:
220,84,48740,1,2,0:2:0:0:
180,276,48898,1,2,1:2:0:0:
256,192,48977,12,2,50003,0:0:0:0:
256,192,50319,5,0,1:0:0:0:
112,219,50477,5,8,0:3:0:0:
127,248,50556,1,8,0:3:0:0:
161,250,50635,1,4,0:3:0:0:
207,330,50793,5,8,0:3:0:0:
240,331,50872,1,8,0:3:0:0:
259,303,50951,1,4,0:3:0:0:
351,303,51109,5,8,0:3:0:0:
369,274,51188,1,8,0:3:0:0:
354,244,51267,6,0,B|432:263,1,67.5000025749208,8|0,0:0|0:0,0:0:0:0:
472,188,51424,2,0,B|394:169,1,67.5000025749208,8|0,0:0|0:0,0:0:0:0:
328,36,51582,6,0,P|340:103|297:160,1,135,4|0,1:2|0:0,0:0:0:0:
290,163,51898,2,0,P|242:165|207:144,1,90,10|0,0:0|0:0,0:0:0:0:
181,57,52214,1,0,0:0:0:0:
181,57,52372,1,0,0:0:0:0:
42,150,52530,2,0,P|80:128|124:131,1,90,10|0,0:0|0:0,0:0:0:0:
71,297,52845,6,0,P|76:240|108:210,1,90,2|0,1:2|0:0,0:0:0:0:
279,271,53161,2,0,P|274:328|242:358,1,90,10|0,0:0|0:0,0:0:0:0:
162,381,53477,1,2,0:0:0:0:
162,381,53635,1,0,0:0:0:0:
363,328,53793,1,10,0:0:0:0:
166,287,53951,5,0,0:0:0:0:
166,287,54030,1,0,0:0:0:0:
166,287,54109,2,0,L|190:83,1,180,0|10,1:0|0:0,0:0:0:0:
244,38,54582,1,0,0:0:0:0:
79,140,54740,2,0,P|73:82|91:50,1,90,0|0,0:0|0:0,0:0:0:0:
244,38,55056,2,0,P|274:87|272:123,1,90,10|0,0:0|0:0,0:0:0:0:
214,186,55372,5,2,1:2:0:0:
214,186,55530,1,0,0:0:0:0:
366,326,55688,1,10,0:0:0:0:
283,369,55845,2,0,P|238:367|202:341,2,90,0|2|0,0:0|0:0|0:0,0:0:0:0:
342,145,56319,1,10,0:0:0:0:
494,253,56477,5,0,0:0:0:0:
494,253,56556,1,0,0:0:0:0:
494,253,56635,2,0,B|414:249|414:249|402:238|402:238|306:232,1,180,0|10,1:0|0:0,0:0:0:0:
210,275,57109,1,0,0:0:0:0:
41,194,57267,1,0,0:0:0:0:
41,194,57424,1,0,0:0:0:0:
74,368,57582,2,0,L|170:363,1,90,10|0,0:0|0:0,0:0:0:0:
126,130,57898,6,0,P|125:175|165:224,1,90,2|0,1:2|0:0,0:0:0:0:
303,169,58214,2,0,P|303:123|263:74,1,90,10|0,0:0|0:0,0:0:0:0:
203,40,58530,1,2,0:0:0:0:
203,40,58688,1,0,0:0:0:0:
383,102,58845,1,10,0:0:0:0:
256,249,59003,5,0,0:0:0:0:
256,249,59082,1,0,0:0:0:0:
256,249,59161,2,0,B|353:249|326:311|421:311,1,180,0|10,1:0|0:0,0:0:0:0:
497,265,59635,1,0,0:0:0:0:
327,376,59793,1,0,0:0:0:0:
327,376,59951,1,0,0:0:0:0:
314,173,60109,2,0,P|303:129|273:96,1,90,10|0,0:0|0:0,0:0:0:0:
116,176,60424,6,0,P|126:219|156:252,1,90,2|0,1:2|0:0,0:0:0:0:
72,99,60740,2,0,P|39:129|26:172,1,90,10|0,0:2|0:0,0:0:0:0:
115,23,61056,2,0,P|72:10|28:20,1,90,2|0,0:0|1:0,0:0:0:0:
167,99,61293,1,0,0:0:0:0:
167,99,61372,2,0,L|235:94,1,45,10|0,0:0|0:0,0:0:0:0:
295,90,61530,1,0,1:0:0:0:
392,240,61688,6,0,B|406:158|406:158|399:141|399:141|414:44,1,180,4|10,1:2|0:0,0:0:0:0:
495,20,62161,1,0,0:0:0:0:
295,90,62319,1,0,0:0:0:0:
295,90,62477,1,0,0:0:0:0:
469,204,62635,2,0,P|412:218|379:267,1,90,10|0,0:0|0:0,0:0:0:0:
334,368,62951,6,0,P|326:324|296:290,1,90,2|0,1:2|0:0,0:0:0:0:
144,251,63267,2,0,P|100:262|70:294,1,90,10|0,0:0|0:0,0:0:0:0:
49,382,63582,1,2,0:0:0:0:
49,382,63740,1,0,0:0:0:0:
95,170,63898,1,10,0:0:0:0:
223,373,64056,5,0,0:0:0:0:
223,373,64135,1,0,0:0:0:0:
223,373,64214,2,0,B|218:283|218:283|224:273|224:273|218:183,1,180,0|10,1:0|0:0,0:0:0:0:
177,114,64688,1,0,0:0:0:0:
357,123,64845,2,0,P|336:168|279:197,1,90,0|0,0:0|0:0,0:0:0:0:
95,170,65161,1,10,0:0:0:0:
219,34,65319,1,0,0:0:0:0:
219,34,65477,6,0,P|254:62|264:118,1,90,2|0,1:2|0:0,0:0:0:0:
129,198,65793,2,0,P|94:170|84:114,1,90,10|0,0:0|0:0,0:0:0:0:
100,39,66109,1,2,0:0:0:0:
100,39,66267,1,0,0:0:0:0:
8,235,66424,1,10,0:0:0:0:
247,329,66582,5,0,0:0:0:0:
247,329,66661,1,0,0:0:0:0:
247,329,66740,2,0,B|140:327|191:379|69:374,1,180,0|10,1:0|0:0,0:0:0:0:
100,286,67214,1,0,0:0:0:0:
329,384,67372,1,0,0:0:0:0:
329,384,67530,1,0,0:0:0:0:
342,295,67688,2,0,L|363:179,1,90,10|0,0:0|0:0,0:0:0:0:
494,371,68003,6,0,P|441:368|402:321,1,90,2|0,1:2|0:0,0:0:0:0:
277,231,68319,2,0,P|313:205|357:205,1,90,10|0,0:0|0:0,0:0:0:0:
441,249,68635,1,2,0:0:0:0:
441,249,68793,1,0,0:0:0:0:
411,94,68951,2,0,P|451:112|473:150,1,90,10|0,0:0|0:0,0:0:0:0:
399,354,69267,6,0,L|398:164,1,180,2|10,1:2|0:0,0:0:0:0:
411,94,69740,1,0,0:0:0:0:
241,71,69898,2,0,P|276:122|311:132,1,90,2|0,1:2|0:0,0:0:0:0:
405,9,70214,2,0,P|422:51|410:94,1,90,10|0,0:0|0:0,0:0:0:0:
350,229,70530,6,0,P|392:178|465:183,1,135,2|0,1:2|0:0,0:0:0:0:
471,188,70845,2,0,P|494:249|453:310,1,135,8|0,0:0|1:0,0:0:0:0:
445,316,71161,1,2,1:2:0:0:
350,229,71319,1,0,1:0:0:0:
291,355,71477,2,0,P|238:344|198:374,1,90,10|0,0:0|0:0,0:0:0:0:
204,370,71714,1,0,0:0:0:0:
198,378,71793,6,0,L|207:188,1,180,4|2,0:0|0:0,0:0:0:0:
34,238,72582,2,0,B|8:275|8:275|38:322,1,90,2|0,1:2|0:0,0:0:0:0:
206,198,73056,6,0,L|212:97,1,90,2|0,1:2|0:0,0:0:0:0:
363,91,73530,1,0,1:0:0:0:
293,140,73688,1,2,0:0:0:0:
211,108,73845,1,4,0:3:0:0:
193,25,74003,1,4,0:3:0:0:
84,168,74161,5,4,0:3:0:0:
84,168,74240,1,4,0:3:0:0:
84,168,74319,2,0,P|148:187|206:87,1,180,0|0,1:0|0:0,0:0:0:0:
33,97,75109,2,0,P|2:140|1:185,1,90,0|0,1:0|0:0,0:0:0:0:
127,359,75582,6,0,P|121:314|93:280,1,90,2|0,1:2|0:0,0:0:0:0:
11,273,76056,1,0,0:0:0:0:
216,327,76214,2,0,L|278:322,1,45,2|0,1:2|0:0,0:0:0:0:
440,272,76530,2,0,L|502:267,1,45,10|0,0:2|0:0,0:0:0:0:
349,376,76845,6,0,B|354:307|354:307|349:300|349:300|354:227,1,135,4|0,0:2|0:0,0:0:0:0:
291,190,77477,1,0,0:0:0:0:
414,93,77635,2,0,P|402:143|360:170,1,90,8|4,0:3|0:3,0:0:0:0:
235,89,78109,6,0,P|247:39|289:12,1,90,2|0,1:2|0:0,0:0:0:0:
414,93,78582,1,0,1:0:0:0:
478,43,78740,2,0,L|472:-12,2,45,2|8|8,1:2|0:3|0:3,0:0:0:0:
490,123,79214,1,4,0:3:0:0:
401,252,79372,6,0,P|398:207|429:169,1,90,2|0,1:2|0:0,0:0:0:0:
347,366,79845,2,0,P|320:330|323:286,1,90,0|0,1:0|1:0,0:0:0:0:
210,357,80319,2,0,L|164:368,1,45,8|0,0:3|0:0,0:0:0:0:
157,372,80556,1,0,1:0:0:0:
147,376,80635,6,0,L|191:288,1,90,2|0,1:2|0:0,0:0:0:0:
156,219,81109,1,0,0:0:0:0:
49,282,81267,2,0,P|77:288|103:278,1,45,2|0,1:2|0:0,0:0:0:0:
55,163,81582,2,0,P|63:190|85:207,1,45,8|0,0:0|0:0,0:0:0:0:
206,31,81898,6,0,P|170:53|138:148,1,135,4|0,1:2|0:0,0:0:0:0:
156,219,82530,1,2,0:2:0:0:
302,138,82688,2,0,P|259:137|213:163,1,90,2|0,1:2|0:0,0:0:0:0:
52,115,83161,6,0,P|91:135|135:136,1,90,2|0,1:2|0:0,0:0:0:0:
255,54,83635,1,0,1:0:0:0:
310,118,83793,1,10,0:2:0:0:
395,107,83951,1,8,0:3:0:0:
430,32,84109,1,4,0:3:0:0:
512,205,84267,5,4,0:3:0:0:
512,205,84345,1,4,0:3:0:0:
512,205,84424,2,0,L|362:221,1,135,2|0,1:2|0:0,0:0:0:0:
292,227,85056,1,0,0:0:0:0:
469,323,85214,1,8,0:3:0:0:
385,316,85372,2,0,P|360:335|349:356,1,45,2|0,1:2|0:0,0:0:0:0:
353,357,85609,1,0,0:0:0:0:
354,369,85688,6,0,L|251:357,1,90,2|2,1:2|0:2,0:0:0:0:
180,345,86161,1,0,0:0:0:0:
23,365,86319,1,2,1:2:0:0:
78,306,86477,1,8,0:3:0:0:
82,297,86556,1,8,0:3:0:0:
87,288,86635,2,0,L|79:230,1,45,10|0,0:2|0:0,0:0:0:0:
180,249,86793,2,0,L|188:191,1,45,8|0,0:0|0:0,0:0:0:0:
109,82,86951,6,0,P|99:55|101:16,1,67.5000025749208,6|0,1:2|0:0,0:0:0:0:
192,42,87267,2,0,P|214:24|252:13,1,67.5000025749208,2|0,1:2|0:0,0:0:0:0:
256,110,87582,2,0,P|279:125|301:158,1,67.5000025749208,2|0,1:2|0:0,0:0:0:0:
211,191,87898,2,0,P|203:218|178:249,1,67.5000025749208,2|0,1:2|0:0,0:0:0:0:
120,173,88214,2,0,P|91:174|54:160,1,67.5000025749208,2|0,1:2|0:0,0:0:0:0:
13,328,88530,6,0,P|78:307|140:353,2,135.000005149842,2|2|2,1:2|1:2|0:0,0:0:0:0:
13,328,89477,5,8,0:0:0:0:
94,89,89635,1,0,1:0:0:0:
131,339,89793,1,0,1:0:0:0:
311,148,89951,5,8,0:0:0:0:
363,310,90109,1,0,1:0:0:0:
448,165,90267,1,0,1:0:0:0:
361,324,90424,6,0,B|369:219,1,90,8|0,0:0|0:0,0:0:0:0:
257,45,90740,6,0,P|303:71|304:158,1,135,10|0,0:0|0:0,0:0:0:0:
306,158,91056,2,0,P|260:184|184:142,1,135,2|0,0:0|0:0,0:0:0:0:
183,138,91372,5,2,0:0:0:0:
256,348,91530,1,2,0:0:0:0:
256,348,91845,6,0,P|180:297|95:328,1,182.250000695229,6|0,1:2|0:0,0:0:0:0:
86,342,92161,1,0,0:0:0:0:
0,183,92319,2,0,P|65:182|109:226,1,121.500000463486,10|0,0:0|0:0,0:0:0:0:
169,384,92635,1,2,1:2:0:0:
279,152,92793,2,0,P|215:163|180:215,1,121.500000463486,2|8,0:0|0:0,0:0:0:0:
379,367,93109,6,0,B|389:277|389:277|382:267|382:267|390:176,1,182.250000695229,2|0,1:2|0:0,0:0:0:0:
390,168,93424,1,0,0:0:0:0:
503,351,93582,1,8,0:0:0:0:
274,298,93740,1,0,0:0:0:0:
512,207,93898,5,2,1:2:0:0:
279,152,94056,1,2,1:2:0:0:
362,322,94214,6,0,P|353:351|323:381,1,60.7500002317429,8|0,0:0|0:0,0:0:0:0:
117,257,94372,2,0,P|206:243|282:321,1,182.250000695229,6|0,1:2|0:0,0:0:0:0:
280,315,94688,1,0,0:0:0:0:
389,130,94845,2,0,P|328:121|277:156,1,121.500000463486,10|0,0:0|0:0,0:0:0:0:
274,163,95082,1,0,0:0:0:0:
270,175,95161,1,2,1:2:0:0:
420,251,95319,1,2,0:2:0:0:
278,45,95477,1,8,0:0:0:0:
67,181,95635,6,0,B|125:162|160:207|160:207|168:252|219:268,1,182.250000695229,2|0,1:2|0:0,0:0:0:0:
225,265,95951,1,0,0:0:0:0:
8,376,96109,1,8,0:0:0:0:
0,109,96267,1,0,0:0:0:0:
109,332,96424,6,0,P|88:305|87:261,1,60.7500002317429,2|0,1:2|0:0,0:0:0:0:
215,137,96582,2,0,P|235:159|241:188,1,60.7500002317429,2|0,0:2|0:0,0:0:0:0:
329,381,96740,5,8,0:0:0:0:
326,369,96819,1,0,0:0:0:0:
323,357,96898,2,0,L|359:155,1,182.250000695229,6|0,1:2|0:0,0:0:0:0:
358,158,97214,1,0,0:0:0:0:
483,351,97372,2,0,L|466:225,1,121.500000463486,10|0,0:0|0:0,0:0:0:0:
444,110,97688,1,2,1:2:0:0:
253,173,97845,1,0,0:0:0:0:
466,230,98003,6,0,P|490:204|490:154,1,60.7500002317429,10|0,0:2|0:0,0:0:0:0:
298,36,98161,2,0,P|368:109|446:109,1,182.250000695229,2|0,1:2|0:0,0:0:0:0:
460,101,98477,1,0,0:0:0:0:
253,173,98635,2,0,P|220:205|216:287,1,121.500000463486,10|0,0:2|0:0,0:0:0:0:
454,341,98951,2,0,P|479:287|465:229,1,121.500000463486,2|0,1:2|1:0,0:0:0:0:
184,361,99267,6,0,P|148:341|135:309,1,60.7500002317429,10|0,0:2|0:0,0:0:0:0:
201,78,99424,2,0,B|201:169|201:169|209:180|209:180|211:267,1,182.250000695229,6|0,1:2|0:0,0:0:0:0:
212,277,99740,1,0,0:0:0:0:
6,309,99898,1,8,0:2:0:0:
184,361,100056,1,0,1:0:0:0:
280,146,100214,5,0,1:0:0:0:
73,251,100372,1,0,1:0:0:0:
270,371,100530,2,0,P|259:313|204:275,1,121.500000463486,8|0,0:2|0:0,0:0:0:0:
73,251,100845,1,0,1:0:0:0:
350,353,101003,1,0,1:0:0:0:
385,362,101082,1,0,1:0:0:0:
413,339,101161,1,8,0:0:0:0:
280,313,101319,6,0,P|268:340|269:370,1,60.7500002317429,8|0,0:3|0:0,0:0:0:0:
492,322,101477,2,0,P|481:293|459:271,1,60.7500002317429,8|0,0:3|0:0,0:0:0:0:
326,108,101635,1,8,0:3:0:0:
348,148,101714,1,8,0:3:0:0:
391,172,101793,1,8,0:0:0:0:
439,164,101872,1,4,0:3:0:0:
475,131,101951,6,0,L|280:160,1,182.250000695229,6|0,1:2|0:0,0:0:0:0:
272,165,102267,1,0,0:0:0:0:
384,373,102424,2,0,P|396:303|351:254,1,121.500000463486,10|0,0:0|0:0,0:0:0:0:
156,241,102740,2,0,P|112:281|109:340,1,121.500000463486,2|0,1:2|0:0,0:0:0:0:
139,114,103056,6,0,P|115:93|99:55,1,60.7500002317429,10|0,0:2|0:0,0:0:0:0:
286,25,103214,2,0,L|269:216,1,182.250000695229,2|0,1:2|0:0,0:0:0:0:
267,230,103530,1,0,0:0:0:0:
403,59,103688,1,8,0:0:0:0:
139,114,103845,1,0,0:0:0:0:
393,218,104003,5,2,1:2:0:0:
136,135,104161,1,2,1:2:0:0:
271,318,104319,6,0,P|316:311|339:287,1,60.7500002317429,8|0,0:0|0:0,0:0:0:0:
472,139,104477,2,0,B|478:251|478:251|470:260|470:260|475:322,1,182.250000695229,6|0,1:2|0:0,0:0:0:0:
477,339,104793,1,0,0:0:0:0:
264,361,104951,2,0,P|312:319|367:324,1,121.500000463486,10|0,0:0|0:0,0:0:0:0:
102,284,105267,2,0,P|42:287|0:247,1,121.500000463486,2|0,1:2|0:0,0:0:0:0:
197,276,105582,6,0,P|193:310|168:346,1,60.7500002317429,10|0,0:2|0:0,0:0:0:0:
44,126,105740,2,0,B|147:123|112:185|221:178,1,182.250000695229,2|0,1:2|0:0,0:0:0:0:
232,177,106056,1,0,0:0:0:0:
111,9,106214,1,8,0:0:0:0:
68,211,106372,1,0,0:0:0:0:
245,62,106530,6,0,P|212:72|191:100,1,60.7500002317429,2|0,1:2|0:0,0:0:0:0:
359,183,106688,2,0,P|366:149|353:117,1,60.7500002317429,2|0,1:2|0:0,0:0:0:0:
491,27,106845,1,8,0:0:0:0:
491,27,106924,1,0,0:0:0:0:
491,27,107003,6,0,L|467:259,1,182.250000695229,4|0,1:2|0:0,0:0:0:0:
471,230,107319,1,0,0:0:0:0:
337,354,107477,2,0,P|339:293|394:253,1,121.500000463486,10|0,0:0|0:0,0:0:0:0:
359,30,107793,1,2,1:2:0:0:
484,104,107951,1,0,0:0:0:0:
354,166,108109,6,0,P|327:160|302:137,1,60.7500002317429,10|0,0:2|0:0,0:0:0:0:
75,93,108267,2,0,L|272:66,1,182.250000695229,0|0,1:0|0:0,0:0:0:0:
274,65,108582,1,0,0:0:0:0:
146,229,108740,2,0,P|140:160|170:119,1,121.500000463486,10|0,0:2|0:0,0:0:0:0:
354,166,109056,2,0,P|362:224|331:275,1,121.500000463486,2|0,1:2|0:0,0:0:0:0:
193,306,109372,6,0,P|227:290|268:290,1,60.7500002317429,10|0,0:2|0:0,0:0:0:0:
453,384,109530,2,0,P|391:351|357:227,1,182.250000695229,4|0,1:2|0:0,0:0:0:0:
358,228,109845,1,0,1:0:0:0:
240,382,110003,1,8,0:0:0:0:
112,235,110161,6,0,P|152:232|181:216,1,60.7500002317429,8|0,0:3|0:0,0:0:0:0:
235,133,110319,1,0,1:0:0:0:
136,62,110477,1,8,0:3:0:0:
96,343,110635,5,8,0:0:0:0:
18,96,110793,1,0,1:0:0:0:
85,346,110951,5,8,0:0:0:0:
136,62,111109,1,0,1:0:0:0:
73,350,111267,5,8,0:0:0:0:
235,133,111424,1,0,1:0:0:0:
402,338,111582,6,0,L|321:333,1,60.7500002317429,10|0,0:2|0:0,0:0:0:0:
204,370,111740,1,8,0:3:0:0:
183,326,111819,1,8,0:3:0:0:
207,283,111898,1,8,0:3:0:0:
306,194,112056,6,0,P|351:208|382:253,1,90,2|0,1:2|0:0,0:0:0:0:
512,111,112372,2,0,P|484:142|436:152,2,90,2|2|0,1:2|1:2|0:0,0:0:0:0:
401,18,112845,2,0,P|371:68|462:150,1,180,10|0,0:2|0:0,0:0:0:0:
512,111,113319,1,0,0:0:0:0:
409,231,113477,2,0,P|453:238|502:210,1,90,2|0,1:2|0:0,0:0:0:0:
331,190,113793,2,0,L|264:178,1,45,2|0,0:0|0:0,0:0:0:0:
240,112,113951,2,0,L|195:119,1,45,2|0,0:0|0:0,0:0:0:0:
103,212,114109,2,0,B|111:150|111:150|107:148|107:148|116:75,1,135,10|0,0:0|0:0,0:0:0:0:
118,64,114424,1,0,0:0:0:0:
54,300,114582,6,0,P|105:291|149:323,2,90,2|0|2,1:2|0:0|0:0,0:0:0:0:
9,368,115056,1,0,1:0:0:0:
103,212,115214,1,0,0:0:0:0:
186,374,115372,2,0,P|233:384|312:283,1,180,10|0,0:0|0:0,0:0:0:0:
286,219,115845,1,2,0:0:0:0:
462,278,116003,5,2,1:2:0:0:
390,319,116161,1,2,0:0:0:0:
313,295,116319,2,0,P|285:218|321:166,1,135,2|0,0:2|0:0,0:0:0:0:
321,166,116635,5,10,0:2:0:0:
487,157,116793,1,2,0:2:0:0:
333,80,116951,1,2,0:2:0:0:
406,127,117109,6,0,P|420:81|408:35,1,90,0|0,1:0|0:0,0:0:0:0:
262,30,117424,1,2,0:2:0:0:
254,111,117582,2,0,P|282:149|327:166,1,90,2|0,1:2|0:0,0:0:0:0:
240,268,117898,2,0,P|338:269|405:208,1,180,10|0,0:2|0:0,0:0:0:0:
397,130,118372,1,0,0:0:0:0:
245,284,118530,2,0,P|342:274|402:207,1,180,2|0,1:2|0:0,0:0:0:0:
397,130,119003,1,0,0:0:0:0:
480,310,119161,2,0,P|499:245|478:178,1,135,10|0,0:2|0:0,0:0:0:0:
471,169,119477,1,0,0:0:0:0:
317,306,119635,6,0,P|359:333|418:329,1,90,2|0,1:2|0:0,0:0:0:0:
269,229,119951,1,10,0:2:0:0:
152,380,120109,1,2,1:2:0:0:
152,380,120267,1,0,1:0:0:0:
253,372,120424,2,0,P|222:314|157:284,1,135,10|0,0:2|0:0,0:0:0:0:
147,286,120740,2,0,P|116:292|96:305,1,45,8|0,0:0|0:0,0:0:0:0:
49,357,120898,1,2,1:2:0:0:
172,197,121056,6,0,L|178:85,1,90,2|0,1:2|0:0,0:0:0:0:
228,32,121372,1,10,0:2:0:0:
34,144,121530,1,0,1:0:0:0:
255,317,121688,1,8,0:3:0:0:
279,278,121767,1,8,0:3:0:0:
279,233,121845,1,4,0:3:0:0:
262,190,121924,1,4,0:3:0:0:
222,165,122003,2,0,P|188:179|167:202,1,60.7500002317429,8|0,0:0|0:0,0:0:0:0:
19,313,122161,6,0,B|41:261|112:260|140:299|140:299|147:363|199:371,1,243.000000926971,6|0,1:2|0:0,0:0:0:0:
371,215,122635,2,0,P|306:234|277:316,1,121.500000463486,10|0,0:0|0:0,0:0:0:0:
321,366,122951,1,2,1:2:0:0:
295,130,123109,1,2,1:2:0:0:
492,316,123267,1,8,0:0:0:0:
455,226,123424,6,0,L|490:27,1,182.250000695229,2|0,1:2|0:0,0:0:0:0:
492,27,123740,1,2,0:0:0:0:
295,130,123898,1,8,0:0:0:0:
378,293,124056,2,0,L|368:172,1,121.500000463486,2|0,1:2|0:0,0:0:0:0:
358,74,124372,1,2,0:2:0:0:
455,226,124530,1,10,0:2:0:0:
295,130,124688,6,0,P|196:143|160:233,1,182.250000695229,2|0,1:2|0:0,0:0:0:0:
161,230,125003,1,2,0:0:0:0:
199,356,125161,5,10,0:2:0:0:
28,174,125319,1,0,0:2:0:0:
185,360,125477,5,2,1:2:0:0:
91,80,125635,1,0,1:2:0:0:
172,366,125793,5,10,0:2:0:0:
209,63,125951,1,0,0:2:0:0:
159,371,126109,5,2,1:2:0:0:
321,136,126267,1,2,0:2:0:0:
273,127,126345,1,0,0:2:0:0:
238,160,126424,1,10,0:2:0:0:
352,373,126582,1,2,0:0:0:0:
398,163,126740,1,2,1:2:0:0:
235,290,126898,1,2,1:2:0:0:
512,247,127056,1,10,0:2:0:0:
352,373,127214,6,0,B|343:264|343:264|333:256|333:256|321:136,1,243.000000926971,6|0,1:2|0:0,0:0:0:0:
151,41,127688,2,0,P|161:102|231:136,1,121.500000463486,10|0,0:0|0:0,0:0:0:0:
320,135,128003,1,2,1:2:0:0:
42,43,128161,1,2,1:2:0:0:
113,325,128319,1,8,0:0:0:0:
179,254,128477,6,0,P|82:234|24:289,1,182.250000695229,2|0,1:2|0:0,0:0:0:0:
19,308,128793,1,2,0:2:0:0:
210,362,128951,1,10,0:2:0:0:
155,156,129109,5,8,0:3:0:0:
155,156,129188,1,8,0:3:0:0:
155,156,129267,2,0,L|140:98,1,60.7500002317429,8|0,0:0|0:0,0:0:0:0:
118,0,129424,2,0,L|75:41,1,60.7500002317429,8|0,0:0|0:0,0:0:0:0:
1,109,129582,2,0,L|58:125,1,60.7500002317429,8|0,0:0|0:0,0:0:0:0:
360,28,129740,6,0,P|262:31|251:152,1,236.250002253056,4|0,1:2|0:0,0:0:0:0:
256,168,130056,1,8,0:0:0:0:
1,109,130214,1,8,0:0:0:0:
159,61,130372,6,0,P|256:111|260:194,1,202.500007724762,4|0,1:2|0:0,0:0:0:0:
256,216,130688,1,8,0:0:0:0:
467,210,130845,1,8,0:0:0:0:
359,144,131003,6,0,P|264:179|260:260,1,168.75,4|0,1:2|0:0,0:0:0:0:
256,256,131319,1,8,0:0:0:0:
80,283,131477,1,8,0:0:0:0:
183,192,131635,6,0,P|250:232|256:290,1,135,4|0,1:2|0:0,0:0:0:0:
256,304,131951,1,8,0:0:0:0:
403,344,132109,1,8,0:0:0:0:
256,383,132267,5,2,1:2:0:0:
256,383,133688,6,0,L|290:372,4,33.7500012874604,2|0|0|0|0,0:3|0:3|0:3|0:3|0:3,0:0:0:0:
67,331,134161,5,2,0:3:0:0:
146,293,134319,2,0,P|180:293|219:317,1,67.5000025749208,0|0,0:0|0:0,0:0:0:0:
392,281,134635,2,0,P|361:295|328:295,1,67.5000025749208,2|0,0:3|0:0,0:0:0:0:
318,291,134872,1,0,0:0:0:0:
308,284,134951,6,0,L|325:134,1,135.000005149842,2|0,1:3|0:0,0:0:0:0:
484,165,135424,1,2,0:3:0:0:
430,95,135582,2,0,L|420:21,1,67.5000025749208,0|0,0:0|0:0,0:0:0:0:
228,41,135898,6,0,P|226:74|243:110,1,67.5000025749208,2|0,0:3|0:0,0:0:0:0:
78,67,136214,2,0,P|108:79|148:74,1,67.5000025749208,2|0,0:3|0:0,0:0:0:0:
58,217,136530,2,0,P|79:191|86:152,1,67.5000025749208,0|2,0:0|0:3,0:0:0:0:
194,283,136845,2,0,P|176:255|141:235,1,67.5000025749208
58,217,137161,1,2,0:3:0:0:
0,284,137319,1,0,0:0:0:0:
115,357,137477,6,0,L|81:357,2,33.7500012874604,2|0|0,1:3|0:0|0:0,0:0:0:0:
196,365,137714,1,0,0:0:0:0:
205,366,137793,2,0,L|294:368,1,67.5000025749208,0|2,0:0|0:3,0:0:0:0:
360,332,138109,1,0,1:0:0:0:
284,275,138267,1,0,0:0:0:0:
439,241,138424,2,0,L|350:239,1,67.5000025749208,2|0,0:3|0:0,0:0:0:0:
162,188,138740,6,0,B|230:188|230:188|234:193|234:193|296:190,1,135.000005149842,2|0,1:3|0:0,0:0:0:0:
381,151,139214,1,2,0:3:0:0:
289,46,139372,2,0,P|265:76|269:115,1,67.5000025749208,0|0,0:0|0:0,0:0:0:0:
439,86,139688,2,0,P|423:50|388:35,1,67.5000025749208,2|0,1:3|0:0,0:0:0:0:
389,40,139924,1,0,0:0:0:0:
378,45,140003,6,0,L|235:15,1,135.000005149842,2|0,1:3|0:0,0:0:0:0:
206,279,140477,2,0,P|159:272|119:173,1,135.000005149842,2|0,1:3|0:0,0:0:0:0:
63,141,140872,5,0,0:0:0:0:
65,131,140951,2,0,P|87:100|116:84,1,67.5000025749208,2|0,0:3|0:0,0:0:0:0:
145,16,141188,1,0,0:0:0:0:
154,13,141267,2,0,P|191:16|220:33,1,67.5000025749208,2|0,1:3|0:0,0:0:0:0:
292,23,141503,1,0,0:0:0:0:
299,29,141582,2,0,P|314:63|314:96,1,67.5000025749208,2|0,1:3|0:0,0:0:0:0:
236,227,141898,5,8,0:3:0:0:
305,185,142056,1,8,0:3:0:0:
384,201,142214,1,4,0:3:0:0:
426,270,142372,1,4,0:3:0:0:
315,322,142530,6,0,P|303:341|280:358,3,36,2|0|0|0,0:0|0:0|0:0|0:0,0:0:0:0:
216,378,143161,6,0,P|193:378|167:367,1,36,2|0,0:0|0:0,0:0:0:0:
109,331,143477,2,0,P|97:311|94:283,1,36,2|0,0:0|0:0,0:0:0:0:
70,218,143793,6,0,L|105:210,3,36,2|0|0|0,0:0|0:0|0:0|0:0,0:0:0:0:
126,130,144424,6,0,L|168:139,1,36,2|0,0:0|0:0,0:0:0:0:
241,159,144740,2,0,L|283:168,1,36,2|0,0:0|0:0,0:0:0:0:
315,92,145056,6,0,L|350:84,5,36,2|0|0|0|0|0,0:0|0:0|0:0|0:0|0:0|0:0,0:0:0:0:
409,26,146003,6,0,P|423:43|432:69,1,36,2|0,0:0|0:0,0:0:0:0:
443,137,146319,6,0,P|429:154|420:180,1,36,2|0,0:0|0:0,0:0:0:0:
342,188,146635,2,0,P|349:208|367:229,1,36,2|0,0:0|0:0,0:0:0:0:
324,296,146951,2,0,P|344:303|372:302,1,36,2|0,0:0|0:0,0:0:0:0:
397,377,147267,2,0,P|415:365|433:344,1,36,2|0,0:0|0:0,0:0:0:0:
195,294,147582,6,0,P|149:295|90:321,1,107.999996704102,2|0,0:0|0:0,0:0:0:0:
92,319,149635,2,0,P|66:336|53:348,1,33.7500012874604,2|0,0:0|0:0,0:0:0:0:
266,336,149793,6,0,P|226:300|170:294,1,101.250003862381,0|0,1:0|0:0,0:0:0:0:
166,293,150109,5,8,0:0:0:0:
346,282,150267,1,0,1:0:0:0:
469,150,150424,1,0,1:0:0:0:
198,202,150582,5,8,0:0:0:0:
381,358,150740,1,0,1:0:0:0:
379,117,150898,1,0,1:0:0:0:
166,293,151056,5,8,0:0:0:0:
469,150,151214,1,8,0:0:0:0:
106,218,151372,5,8,0:0:0:0:
346,282,151530,1,0,1:0:0:0:
447,48,151688,1,0,1:0:0:0:
220,375,151845,5,8,0:0:0:0:
248,65,152003,1,0,1:0:0:0:
498,249,152161,1,0,1:0:0:0:
301,290,152319,6,0,P|314:204|380:260,1,202.500007724762,8|0,0:0|0:0,0:0:0:0:
372,344,152635,5,8,0:3:0:0:
334,373,152714,1,8,0:3:0:0:
287,380,152793,1,8,0:3:0:0:
244,359,152872,1,8,0:3:0:0:
213,323,152951,5,8,0:0:0:0:
172,347,153030,1,8,0:3:0:0:
124,350,153109,1,8,0:3:0:0:
84,325,153188,1,8,0:3:0:0:
59,284,153267,1,8,0:3:0:0:
64,237,153345,1,8,0:3:0:0:
92,199,153424,5,8,0:0:0:0:
46,186,153503,1,8,0:3:0:0:
12,152,153582,1,8,0:3:0:0:
7,104,153661,1,8,0:3:0:0:
26,61,153740,1,8,0:0:0:0:
67,38,153819,1,8,0:3:0:0:
113,43,153898,6,0,L|183:59,1,67.5000025749208,8|0,0:0|0:0,0:0:0:0:
416,161,154056,1,0,1:0:0:0:
46,186,154214,6,0,L|140:179,1,67.5000025749208,8|0,0:0|0:0,0:0:0:0:
426,161,154372,1,0,1:0:0:0:
121,320,154530,6,0,L|187:289,1,67.5000025749208,8|0,0:0|0:0,0:0:0:0:
435,161,154688,2,0,L|355:167,1,67.5000025749208,8|0,0:0|0:0,0:0:0:0:
113,43,154845,2,0,L|183:59,1,67.5000025749208,8|0,0:0|0:0,0:0:0:0:
511,158,155003,5,4,1:2:0:0:
222,293,158793,6,0,P|201:315|194:333,2,45,8|8|0,0:0|0:0|0:0,0:0:0:0:
269,358,159030,6,0,L|259:216,1,135,0|0,1:0|1:0,0:0:0:0:
260,223,160056,1,12,0:0:0:0:
260,223,161595,6,0,B|257:198|257:198|268:172,2,45,8|8|10,0:0|0:0|0:0,0:0:0:0:
372,281,161990,6,0,L|381:120,1,157.5,8|8,0:0|0:0,0:0:0:0:
380,123,162582,5,0,1:0:0:0:
385,42,163056,1,2,0:0:0:0:
385,42,163688,5,0,0:0:0:0:
372,263,163845,1,8,0:0:0:0:
372,272,163924,1,8,0:0:0:0:
372,281,164003,1,0,1:0:0:0:
372,281,164477,5,0,1:0:0:0:
385,42,164635,1,8,0:0:0:0:
385,42,164951,5,8,0:0:0:0:
372,281,165109,2,0,P|296:266|224:351,1,180,2|0,1:2|0:0,0:0:0:0:
125,173,165582,2,0,P|181:189|208:233,1,90,10|0,0:0|0:0,0:0:0:0:
97,372,165898,5,2,1:2:0:0:
31,324,166056,1,0,0:0:0:0:
227,332,166214,5,10,0:0:0:0:
161,284,166372,2,0,B|182:188|182:188|178:180|178:180|197:99,1,180,2|0,1:2|0:2,0:0:0:0:
9,71,166845,5,8,0:0:0:0:
75,119,167003,1,0,0:0:0:0:
202,26,167161,5,2,1:2:0:0:
268,74,167319,1,2,1:2:0:0:
83,39,167477,5,8,0:0:0:0:
194,109,167635,2,0,B|178:180|178:180|182:188|182:188|161:284,1,180,2|0,1:2|0:0,0:0:0:0:
9,243,168109,2,0,P|57:220|98:231,1,90,10|0,0:0|0:0,0:0:0:0:
252,319,168424,5,2,1:2:0:0:
277,239,168582,1,0,0:0:0:0:
392,366,168740,5,10,0:0:0:0:
420,287,168898,2,0,B|378:270|314:292|352:316|288:339|238:313,1,180,2|0,1:2|0:0,0:0:0:0:
80,366,169372,5,8,0:0:0:0:
148,322,169530,1,0,0:0:0:0:
0,208,169688,5,2,1:2:0:0:
66,162,169845,2,0,P|113:173|145:218,1,90,2|8,1:2|0:0,0:0:0:0:
240,101,170161,6,0,P|196:97|142:210,1,180,2|0,1:2|0:0,0:0:0:0:
313,228,170635,2,0,P|277:206|226:215,1,90,10|0,0:0|0:0,0:0:0:0:
179,280,170951,1,2,1:2:0:0:
179,280,171109,1,0,0:0:0:0:
33,362,171267,2,0,P|76:368|114:345,1,90,10|0,0:0|0:0,0:0:0:0:
49,197,171582,6,0,L|61:296,1,90,2|0,1:2|0:0,0:0:0:0:
251,380,171898,2,0,L|263:281,1,90,10|0,0:2|0:0,0:0:0:0:
166,105,172214,1,10,0:0:0:0:
130,101,172293,1,8,0:0:0:0:
94,97,172372,1,8,0:0:0:0:
58,95,172451,1,8,0:0:0:0:
22,92,172530,1,10,0:0:0:0:
451,131,172845,5,6,1:2:0:0:
22,92,173161,5,0,1:0:0:0:
166,105,173319,1,0,1:0:0:0:
309,117,173477,1,0,1:0:0:0:
451,131,173635,1,0,1:0:0:0:
249,28,173793,6,0,P|240:55|241:85,1,45,8|0,0:0|0:0,0:0:0:0:
375,169,173951,2,0,P|373:191|365:212,1,45,8|0,0:0|0:0,0:0:0:0:
263,304,174109,5,8,0:3:0:0:
211,286,174188,1,8,0:3:0:0:
159,302,174267,1,8,0:3:0:0:
133,348,174345,1,8,0:3:0:0:
80,361,174424,1,4,0:3:0:0:
27,346,174503,1,4,0:3:0:0:
0,299,174582,1,4,0:3:0:0:
15,247,174661,1,4,0:3:0:0:
57,213,174740,6,0,L|102:233,1,45,8|0,0:0|0:0,0:0:0:0:
263,304,174898,1,0,1:0:0:0:
263,304,175214,6,0,P|195:245|231:119,1,182.250000695229,6|0,1:2|0:0,0:0:0:0:
205,142,175530,1,0,0:0:0:0:
19,142,175688,2,0,P|42:201|108:224,1,121.500000463486,10|0,0:0|0:0,0:0:0:0:
284,209,176003,1,2,1:2:0:0:
139,38,176161,2,0,P|98:87|112:156,1,121.500000463486,2|8,0:0|0:0,0:0:0:0:
195,319,176477,6,0,B|204:229|204:229|196:222|196:222|206:128,1,182.250000695229,2|0,1:2|0:0,0:0:0:0:
207,121,176793,1,0,0:0:0:0:
326,297,176951,1,8,0:0:0:0:
92,224,177109,1,0,0:0:0:0:
386,173,177267,5,2,1:2:0:0:
195,319,177424,1,2,1:2:0:0:
425,378,177582,6,0,P|407:325|384:302,1,60.7500002317429,8|0,0:0|0:0,0:0:0:0:
235,240,177740,2,0,P|331:254|384:181,1,182.250000695229,6|0,1:2|0:0,0:0:0:0:
386,173,178056,1,0,0:0:0:0:
494,311,178214,2,0,P|505:250|481:195,1,121.500000463486,10|0,0:0|0:0,0:0:0:0:
476,188,178451,1,0,0:0:0:0:
469,179,178530,1,2,1:2:0:0:
328,255,178688,1,2,0:2:0:0:
459,50,178845,1,8,0:0:0:0:
220,39,179003,6,0,P|335:59|386:17,1,182.250000695229,2|0,1:2|0:0,0:0:0:0:
390,8,179319,1,0,0:0:0:0:
132,80,179477,1,8,0:0:0:0:
328,255,179635,1,0,0:0:0:0:
319,65,179793,6,0,P|289:88|279:118,1,60.7500002317429,2|0,1:2|0:0,0:0:0:0:
104,175,179951,2,0,P|119:200|144:217,1,60.7500002317429,2|0,0:2|0:0,0:0:0:0:
232,356,180109,5,8,0:0:0:0:
232,356,180188,1,0,0:0:0:0:
232,356,180267,2,0,L|221:161,1,182.250000695229,6|0,1:2|0:0,0:0:0:0:
221,153,180582,1,0,0:0:0:0:
401,339,180740,2,0,L|427:207,1,121.500000463486,10|0,0:0|0:0,0:0:0:0:
501,124,181056,1,2,1:2:0:0:
328,253,181214,1,0,0:0:0:0:
427,79,181372,6,0,P|421:54|377:17,1,60.7500002317429,10|0,0:2|0:0,0:0:0:0:
162,100,181530,2,0,P|260:107|301:10,1,182.250000695229,2|0,1:2|0:0,0:0:0:0:
307,25,181845,1,0,0:0:0:0:
303,207,182003,2,0,P|257:163|266:93,1,121.500000463486,10|0,0:2|0:0,0:0:0:0:
467,26,182319,2,0,P|513:70|504:140,1,121.500000463486,2|0,1:2|1:0,0:0:0:0:
373,267,182635,6,0,P|390:242|418:230,1,60.7500002317429,10|0,0:2|0:0,0:0:0:0:
512,362,182793,2,0,B|404:344|404:344|388:353|388:353|329:341,1,182.250000695229,6|0,1:2|0:0,0:0:0:0:
314,338,183109,1,0,0:0:0:0:
60,368,183267,1,8,0:2:0:0:
279,254,183424,1,0,1:0:0:0:
25,284,183582,5,0,1:0:0:0:
314,338,183740,1,0,1:0:0:0:
112,133,183898,6,0,P|89:164|82:199,1,60.7500002317429,8|0,0:2|0:0,0:0:0:0:
185,379,184056,2,0,B|171:281|171:281|176:273|176:273|165:182,1,182.250000695229,4|0,1:2|0:0,0:0:0:0:
112,133,184372,1,0,1:0:0:0:
152,107,184451,1,0,1:0:0:0:
196,120,184530,1,8,0:0:0:0:
272,8,184688,6,0,P|235:24|210:67,1,60.7500002317429,8|0,0:3|0:0,0:0:0:0:
21,30,184845,2,0,P|59:40|90:79,1,60.7500002317429,8|0,0:3|0:0,0:0:0:0:
90,253,185003,1,8,0:3:0:0:
127,284,185082,1,8,0:3:0:0:
174,293,185161,1,8,0:0:0:0:
219,275,185240,1,4,0:3:0:0:
248,236,185319,6,0,P|318:210|412:280,1,182.250000695229,6|0,1:2|0:0,0:0:0:0:
413,280,185635,1,0,0:0:0:0:
447,120,185793,2,0,P|495:177|491:229,1,121.500000463486,10|0,0:0|0:0,0:0:0:0:
365,380,186109,2,0,P|369:320|412:279,1,121.500000463486,2|0,1:2|0:0,0:0:0:0:
197,367,186424,6,0,P|166:351|145:312,1,60.7500002317429,10|0,0:2|0:0,0:0:0:0:
28,262,186582,2,0,B|125:254|125:254|128:247|128:247|208:242,1,182.250000695229,2|0,1:2|0:0,0:0:0:0:
225,239,186898,5,0,0:0:0:0:
5,380,187056,1,8,0:0:0:0:
120,163,187214,1,0,0:0:0:0:
305,341,187372,5,2,1:2:0:0:
142,162,187530,1,2,1:2:0:0:
121,380,187688,6,0,P|142:359|150:330,1,60.7500002317429,8|0,0:0|0:0,0:0:0:0:
223,153,187845,2,0,L|42:170,1,182.250000695229,6|0,1:2|0:0,0:0:0:0:
23,173,188161,1,0,0:0:0:0:
169,19,188319,2,0,P|126:61|121:120,1,121.500000463486,10|0,0:0|0:0,0:0:0:0:
353,138,188635,2,0,P|365:79|338:26,1,121.500000463486,2|0,1:2|0:0,0:0:0:0:
135,239,188951,6,0,P|155:263|191:278,1,60.7500002317429,10|0,0:2|0:0,0:0:0:0:
438,318,189109,2,0,P|403:245|296:262,1,182.250000695229,2|0,1:2|0:0,0:0:0:0:
294,259,189424,1,0,0:0:0:0:
466,124,189582,1,8,0:0:0:0:
437,339,189740,1,0,0:0:0:0:
243,178,189898,6,0,P|263:163|305:161,1,60.7500002317429,2|0,1:2|0:0,0:0:0:0:
504,248,190056,2,0,P|473:246|448:230,1,60.7500002317429,2|0,1:2|0:0,0:0:0:0:
409,5,190214,5,8,0:0:0:0:
409,5,190293,1,0,0:0:0:0:
409,5,190372,2,0,L|377:228,1,182.250000695229,4|0,1:2|0:0,0:0:0:0:
381,204,190688,1,0,0:0:0:0:
220,35,190845,2,0,B|183:82|183:82|217:154,1,121.500000463486,10|0,0:0|0:0,0:0:0:0:
231,362,191161,1,2,1:2:0:0:
353,282,191319,1,0,0:0:0:0:
209,220,191477,6,0,P|200:248|203:279,1,60.7500002317429,10|0,0:2|0:0,0:0:0:0:
59,324,191635,2,0,B|162:307|136:380|240:361,1,182.250000695229,0|0,1:0|0:0,0:0:0:0:
253,359,191951,1,0,0:0:0:0:
259,188,192109,2,0,P|213:217|203:279,1,121.500000463486,10|0,0:2|0:0,0:0:0:0:
393,381,192424,2,0,P|439:352|448:289,1,121.500000463486,2|0,1:2|0:0,0:0:0:0:
335,206,192740,6,0,P|357:229|408:232,1,60.7500002317429,8|0,0:0|0:0,0:0:0:0:
507,119,192898,2,0,B|427:123|427:123|416:110|416:110|307:118,1,182.250000695229,6|0,1:2|0:0,0:0:0:0:
313,120,193214,1,0,1:0:0:0:
492,209,193372,1,8,0:0:0:0:
512,11,193530,6,0,P|483:19|462:41,1,60.7500002317429,8|0,0:3|0:0,0:0:0:0:
335,206,193688,1,0,1:0:0:0:
141,59,193845,1,0,0:0:0:0:
259,265,194003,5,8,0:0:0:0:
217,0,194161,1,0,0:0:0:0:
14,166,194319,2,0,L|95:165,1,60.7500002317429,8|0,0:2|0:0,0:0:0:0:
204,198,194477,5,8,0:0:0:0:
228,156,194556,1,8,0:3:0:0:
195,119,194635,1,4,0:3:0:0:
74,165,194793,1,0,1:0:0:0:
58,344,194951,5,8,1:3:0:0:
133,304,195109,1,8,1:3:0:0:
217,313,195267,1,4,1:3:0:0:
276,373,195424,1,4,1:3:0:0:
484,193,195582,6,0,B|459:121|334:141|323:209|323:209|358:209|385:238,1,270,4|2,1:2|0:0,0:0:0:0:
339,322,196845,2,0,B|364:394|489:374|500:306|500:306|465:306|438:277,1,270,4|2,1:2|0:0,0:0:0:0:
444,283,198109,5,8,0:3:0:0:
392,261,198188,1,8,0:3:0:0:
379,208,198267,1,8,0:3:0:0:
407,163,198345,1,8,0:3:0:0:
460,153,198424,1,4,0:3:0:0:
488,108,198502,1,4,0:3:0:0:
474,55,198581,1,4,0:3:0:0:
423,33,198660,1,4,0:3:0:0:
373,57,198740,2,0,L|285:74,1,67.5000025749208,8|0,0:0|0:0,0:0:0:0:
184,344,198898,5,4,0:3:0:0:
226,367,198978,1,4,0:3:0:0:
274,363,199057,2,0,P|302:340|319:305,1,67.5000025749208,8|0,0:0|0:0,0:0:0:0:
187,34,199214,2,0,P|160:55|144:85,1,67.5000025749208,8|0,0:0|0:0,0:0:0:0:
29,333,199372,6,0,L|95:319,1,67.5000025749208,8|0,0:0|0:0,0:0:0:0:
392,261,199530,1,0,1:0:0:0:
0,227,199688,6,0,L|67:233,1,67.5000025749208,8|0,0:0|0:0,0:0:0:0:
407,262,199845,1,0,1:0:0:0:
54,132,200003,6,0,L|116:157,1,67.5000025749208,8|0,0:0|0:0,0:0:0:0:
422,263,200161,2,0,L|458:266,7,33.7500012874604,0|0|0|0|0|0|0|0,1:0|0:0|0:0|0:0|0:0|0:0|0:0|0:0,0:0:0:0:
410,352,200477,6,0,B|420:246|420:246|416:238|416:238|426:139,1,202.500007724762,4|0,1:2|0:0,0:0:0:0:
427,129,200793,1,0,0:0:0:0:
261,205,200951,2,0,P|295:210|332:195,1,67.5000025749208,8|0,0:0|0:0,0:0:0:0:
382,15,201109,2,0,P|291:14|298:126,1,202.500007724762,0|0,1:0|0:0,0:0:0:0:
287,127,201424,1,0,0:0:0:0:
109,42,201582,2,0,P|144:23|185:28,1,67.5000025749208,8|0,0:0|0:0,0:0:0:0:
197,324,201740,2,0,L|161:100,1,202.500007724762,0|0,1:0|0:0,0:0:0:0:
160,105,202056,1,0,0:0:0:0:
36,329,202214,2,0,P|75:350|112:342,1,67.5000025749208,8|0,0:0|0:0,0:0:0:0:
334,299,202372,2,0,P|244:275|205:398,1,202.500007724762,2|0,1:2|0:0,0:0:0:0:
190,376,202688,1,0,0:0:0:0:
98,205,202845,2,0,P|131:205|158:224,1,67.5000025749208,8|0,0:0|0:0,0:0:0:0:
340,384,203003,6,0,B|351:301|351:301|358:302|358:302|376:182,1,202.500007724762,6|0,1:2|0:0,0:0:0:0:
379,170,203319,1,0,1:0:0:0:
225,285,203477,5,8,0:0:0:0:
356,84,203635,1,0,0:0:0:0:
259,205,203793,5,0,1:0:0:0:
272,49,203951,1,0,1:0:0:0:
250,288,204109,5,8,0:0:0:0:
191,74,204267,1,0,1:0:0:0:
0,185,204424,6,0,P|65:198|127:153,1,135.000005149842,2|0,1:2|0:0,0:0:0:0:
320,239,204740,2,0,P|264:204|199:217,1,135.000005149842,10|0,0:0|0:0,0:0:0:0:
142,293,205056,1,2,1:2:0:0:
49,111,205214,1,2,1:2:0:0:
14,362,205372,2,0,P|22:329|44:304,1,67.5000025749208,8|0,0:0|0:0,0:0:0:0:
308,372,205530,6,0,P|232:373|139:284,1,202.500007724762,4|0,1:2|0:0,0:0:0:0:
136,272,205845,1,0,0:0:0:0:
413,275,206003,2,0,P|402:311|370:341,1,67.5000025749208,8|0,0:0|0:0,0:0:0:0:
258,86,206161,2,0,P|338:154|334:246,1,202.500007724762,0|0,1:0|0:0,0:0:0:0:
324,264,206477,1,0,0:0:0:0:
490,157,206635,2,0,P|465:135|433:129,1,67.5000025749208,8|0,0:0|0:0,0:0:0:0:
161,98,206793,2,0,B|250:82|250:82|260:88|260:88|373:67,1,202.500007724762,0|0,1:0|0:0,0:0:0:0:
377,66,207109,1,0,0:0:0:0:
250,193,207267,2,0,P|206:190|177:167,1,67.5000025749208,8|0,0:0|0:0,0:0:0:0:
6,36,207424,2,0,P|77:93|40:207,1,202.500007724762,2|0,1:2|0:0,0:0:0:0:
45,209,207740,1,0,0:0:0:0:
228,227,207898,2,0,P|213:196|186:176,1,67.5000025749208,8|0,0:0|0:0,0:0:0:0:
13,305,208056,6,0,B|133:284|82:379|217:354,1,202.500007724762,6|0,1:2|0:0,0:0:0:0:
221,353,208372,1,0,0:0:0:0:
387,187,208530,2,0,P|321:240|314:298,1,135.000005149842,8|0,0:0|0:0,0:0:0:0:
373,377,208845,1,0,1:0:0:0:
228,227,209003,1,0,1:0:0:0:
490,199,209161,1,8,0:0:0:0:
353,33,209319,6,0,P|323:49|301:74,1,67.5000025749208,8|8,0:3|0:3,0:0:0:0:
108,99,209477,2,0,P|172:91|237:141,1,135.000005149842,4|0,1:3|0:0,0:0:0:0:
58,309,209793,2,0,P|19:254|25:188,1,135.000005149842,8|0,0:0|0:0,0:0:0:0:
287,246,210109,5,8,1:3:0:0:
298,297,210188,1,8,0:3:0:0:
332,333,210267,1,8,0:3:0:0:
381,345,210345,1,8,0:3:0:0:
427,328,210424,2,0,P|450:303|463:272,1,67.5000025749208,8|0,0:2|0:0,0:0:0:0:
199,280,210582,6,0,P|109:265|49:365,1,202.500007724762,4|0,1:2|0:0,0:0:0:0:
53,368,210898,1,0,0:0:0:0:
292,383,211056,2,0,B|284:311|284:311|293:299|293:299|279:168,1,202.500007724762,10|0,0:0|0:0,0:0:0:0:
278,164,211372,1,2,1:2:0:0:
141,352,211530,1,2,1:2:0:0:
42,139,211688,6,0,P|15:159|1:190,1,67.5000025749208,8|0,0:0|0:0,0:0:0:0:
205,102,211845,2,0,P|118:38|-11:80,1,202.500007724762,2|0,1:2|0:0,0:0:0:0:
13,60,212161,1,2,0:0:0:0:
279,38,212319,1,8,0:0:0:0:
332,185,212477,2,0,P|403:184|453:117,1,135.000005149842,2|0,1:2|0:0,0:0:0:0:
449,33,212793,1,2,1:2:0:0:
245,209,212951,6,0,P|255:236|290:263,1,67.5000025749208,8|0,0:0|0:0,0:0:0:0:
512,294,213109,2,0,P|441:267|340:350,1,202.500007724762,6|0,1:2|0:0,0:0:0:0:
341,356,213424,1,0,1:0:0:0:
111,331,213582,5,8,0:0:0:0:
341,266,213740,1,0,0:0:0:0:
190,297,213898,5,2,1:2:0:0:
297,186,214056,1,2,1:2:0:0:
120,349,214214,5,8,0:0:0:0:
216,154,214372,1,0,1:0:0:0:
111,331,214530,5,2,1:2:0:0:
341,356,214688,1,0,1:0:0:0:
480,155,214845,2,0,P|420:186|410:265,1,135.000005149842,8|0,0:0|0:0,0:0:0:0:
444,364,215161,1,0,1:2:0:0:
189,301,215319,1,0,1:0:0:0:
408,204,215477,6,0,P|395:172|372:148,1,67.5000025749208,8|0,0:0|0:0,0:0:0:0:
172,106,215635,2,0,P|269:113|329:37,1,202.500007724762,6|0,1:2|0:0,0:0:0:0:
334,17,215951,1,0,0:0:0:0:
494,144,216109,2,0,P|413:169|355:125,1,135.000005149842,10|0,0:2|0:0,0:0:0:0:
229,25,216424,1,2,1:2:0:0:
309,268,216582,1,2,1:2:0:0:
63,193,216740,6,0,P|90:174|123:168,1,67.5000025749208,8|0,0:0|0:0,0:0:0:0:
129,379,216898,2,0,P|100:291|125:250,1,135.000005149842,2|0,1:2|0:0,0:0:0:0:
22,48,217214,6,0,B|9:81|9:81|15:122,1,67.5000025749208,10|0,0:0|0:0,0:0:0:0:
204,212,217372,2,0,B|217:179|217:179|211:138,1,67.5000025749208,8|0,0:0|0:0,0:0:0:0:
114,20,217530,6,0,P|173:66|240:38,1,135.000005149842,2|0,1:2|0:0,0:0:0:0:
402,29,217845,6,0,P|362:47|341:87,1,67.5000025749208,2|0,1:2|0:0,0:0:0:0:
504,148,218003,2,0,P|508:104|484:66,1,67.5000025749208,2|0,1:2|0:0,0:0:0:0:
309,185,218161,6,0,B|355:147|439:197|441:249|441:249|405:249|376:268,1,236.250002253056,4|0,1:2|0:0,0:0:0:0:
336,324,218477,1,8,0:3:0:0:
359,343,218556,1,8,0:3:0:0:
390,339,218635,1,8,0:0:0:0:
205,177,218793,6,0,B|150:155|150:58|194:30|194:30|212:62|243:77,1,236.250002253056,4|0,1:2|0:0,0:0:0:0:
312,84,219109,1,8,0:3:0:0:
317,54,219188,1,8,0:3:0:0:
298,30,219267,1,8,0:0:0:0:
250,270,219424,6,0,B|259:329|175:377|129:353|129:353|147:321|145:287,1,236.250002253056,4|0,1:2|0:0,0:0:0:0:
116,224,219740,1,8,0:3:0:0:
88,235,219819,1,8,0:3:0:0:
76,263,219898,1,8,0:0:0:0:
258,196,220056,5,8,0:3:0:0:
266,220,220135,1,8,0:3:0:0:
239,214,220214,1,8,0:0:0:0:
194,30,220372,5,8,0:0:0:0:
440,248,220530,1,8,0:0:0:0:
131,352,220688,1,4,1:2:0:0:
256,192,220767,12,8,223056,0:0:0:0:
