osu file format v14

[General]
AudioFilename: audio.mp3
AudioLeadIn: 0
PreviewTime: 69021
Countdown: 0
SampleSet: Soft
StackLeniency: 0.7
Mode: 0
LetterboxInBreaks: 0
WidescreenStoryboard: 1

[Editor]
Bookmarks: 6286,6638,56933,117638,118080,175521,232168,232521,274344,308227,308580
DistanceSpacing: 2.2
BeatDivisor: 4
GridSize: 4
TimelineZoom: 2.2

[Metadata]
Title:Akaito
TitleUnicode:アカイト
Artist:MikitoP
ArtistUnicode:みきとP
Creator:Narcissu
Version:Inseparable
Source:
Tags:Little CloudSplash16 red string thread of fate vocaloid 初音ミク hatsune miku Japanese Jrock J-rock rock
BeatmapID:1426407
BeatmapSetID:674084

[Difficulty]
HPDrainRate:5
CircleSize:4.2
OverallDifficulty:7.5
ApproachRate:8.8
SliderMultiplier:0.999999999999999
SliderTickRate:1

[Events]
//Background and Video events
0,0,"BG.jpg",0,0
Video,0,"audio.mp4"
//Break Periods
2,223891,231533
2,243480,253062
//Storyboard Layer 0 (Background)
//Storyboard Layer 1 (Fail)
//Storyboard Layer 2 (Pass)
//Storyboard Layer 3 (Foreground)
//Storyboard Layer 4 (Overlay)
//Storyboard Sound Samples

[TimingPoints]
633,352.941176470588,4,2,17,40,1,0
6280,-83.3333333333333,4,2,17,40,0,0
11750,-62.5,4,2,17,70,0,0
23044,-62.5,4,2,17,60,0,0
45632,-83.3333333333333,4,2,17,60,0,0
56927,-62.5,4,2,17,60,0,0
69632,-58.8235294117647,4,2,17,70,0,1
95044,-62.5,4,2,17,70,0,0
106338,-62.5,4,2,17,60,0,0
128927,-83.3333333333333,4,2,17,60,0,0
140221,-62.5,4,2,17,60,0,0
152927,-58.8235294117647,4,2,17,70,0,1
175427,-58.8235294117647,4,2,17,60,0,0
175515,-58.8235294117647,4,2,17,70,0,1
175603,-58.8235294117647,4,2,17,70,0,0
198103,-62.5,4,2,17,60,0,0
221044,-83.3333333333333,4,2,17,40,0,0
237809,-62.5,4,2,17,60,0,0
263044,-55.5555555555556,4,2,17,80,0,1
287221,-83.3333333333333,4,2,17,40,0,1
288368,-55.5555555555556,4,2,17,80,0,0
288456,-55.5555555555556,4,2,17,80,0,1
288544,-55.5555555555556,4,2,17,80,0,0
308221,-166.666666666667,4,2,17,60,0,0
308397,-166.666666666667,4,2,17,40,0,0
314044,-166.666666666667,4,2,17,20,0,0
328338,-166.666666666667,4,2,17,10,0,0

[Colours]
Combo1 : 192,0,0
Combo2 : 0,225,255
Combo3 : 225,225,192
Combo4 : 255,128,255
Combo5 : 255,255,128

[HitObjects]
128,248,6280,5,4,1:0:0:0:
216,200,6632,1,0,1:0:0:0:
99,88,6985,1,0,1:0:0:0:
55,178,7338,1,0,1:0:0:0:
198,102,7691,1,0,1:0:0:0:
314,186,8044,1,0,1:0:0:0:
216,200,8397,1,0,1:0:0:0:
296,88,8750,1,0,1:0:0:0:
407,211,9103,6,0,P|468:208|516:164,1,119.999996337891,4|2,1:2|0:0,0:0:0:0:
216,200,9809,2,0,L|208:320,1,119.999996337891,0|2,3:0|0:0,0:0:0:0:
428,120,10515,1,4,0:0:0:0:
452,312,10868,1,4,0:0:0:0:
320,236,11221,1,4,3:2:0:0:
320,236,11309,1,0,3:0:0:0:
320,236,11397,2,0,L|368:240,3,29.9999990844727,0|0|0|0,3:0|3:0|3:0|3:0,0:0:0:0:
288,312,11750,6,0,L|116:324,1,160,4|0,1:0|1:0,0:0:0:0:
44,276,12280,2,0,P|28:236|28:184,1,79.9999999999999,8|0,0:0|0:0,0:0:0:0:
168,64,12632,1,0,1:0:0:0:
124,212,12809,1,0,1:0:0:0:
36,92,12985,1,8,0:0:0:0:
236,140,13162,1,0,3:0:0:0:
236,140,13250,1,0,3:0:0:0:
236,139,13338,6,0,P|259:108|269:69,1,79.9999999999999,0|0,1:0|1:0,0:0:0:0:
452,72,13691,2,0,P|415:87|378:135,1,79.9999999999999,8|0,0:0|0:0,0:0:0:0:
412,280,14044,1,0,1:0:0:0:
472,168,14221,1,0,1:0:0:0:
412,280,14397,1,8,0:0:0:0:
263,211,14574,22,0,P|186:222|134:281,1,160,4|0,1:0|1:0,0:0:0:0:
348,168,15103,2,0,P|356:128|356:76,1,79.9999999999999,8|0,0:0|0:0,0:0:0:0:
148,32,15456,2,0,P|149:71|157:111,2,79.9999999999999,0|0|8,1:0|1:0|0:0,0:0:0:0:
256,60,15985,1,0,3:0:0:0:
256,60,16074,1,0,3:0:0:0:
256,60,16162,5,0,1:0:0:0:
220,192,16338,1,0,1:0:0:0:
157,111,16515,1,8,0:0:0:0:
332,124,16691,1,0,0:0:0:0:
220,192,16868,2,0,P|208:232|208:296,1,79.9999999999999,0|0,1:0|1:0,0:0:0:0:
268,340,17221,1,8,0:0:0:0:
486,325,17397,6,0,P|422:279|344:280,1,160,4|0,1:0|1:0,0:0:0:0:
205,269,17927,2,0,P|167:279|127:280,1,79.9999999999999,8|0,0:0|0:0,0:0:0:0:
240,180,18280,1,0,1:0:0:0:
268,340,18456,1,0,1:0:0:0:
240,180,18632,2,0,L|244:88,1,79.9999999999999,8|0,0:0|0:0,0:0:0:0:
136,40,18985,5,0,1:0:0:0:
148,136,19162,1,0,1:0:0:0:
348,24,19338,1,8,0:0:0:0:
336,120,19515,1,0,1:0:0:0:
148,136,19691,1,0,1:0:0:0:
360,216,19868,1,0,1:0:0:0:
360,216,19956,1,0,1:0:0:0:
360,216,20044,1,8,0:0:0:0:
140,328,20397,21,8,0:0:0:0:
140,328,20574,1,8,0:0:0:0:
256,300,20927,5,8,0:0:0:0:
256,300,21103,1,8,0:0:0:0:
372,328,21456,5,8,0:0:0:0:
372,328,21632,1,4,1:0:0:0:
176,156,21985,5,2,0:0:0:0:
176,156,22074,1,2,0:0:0:0:
176,156,22162,2,0,P|176:204|184:248,1,79.9999999999999,2|2,0:0|0:0,0:0:0:0:
328,212,22515,2,0,P|333:172|332:132,2,79.9999999999999,2|2|2,0:0|0:0|0:0,0:0:0:0:
252,84,23044,22,0,P|330:86|394:41,1,160,6|2,1:2|1:2,0:0:0:0:
188,12,23574,1,10,0:2:0:0:
188,12,23750,1,2,0:2:0:0:
96,40,23927,2,0,P|80:76|76:124,1,79.9999999999999,2|0,1:2|1:2,0:0:0:0:
16,218,24280,2,0,L|96:212,1,79.9999999999999,10|2,0:0|0:0,0:0:0:0:
168,148,24632,5,2,1:2:0:0:
188,244,24809,1,2,1:2:0:0:
96,212,24985,1,8,0:0:0:0:
260,180,25162,2,0,P|278:215|284:254,1,79.9999999999999,2|0,0:0|1:2,0:0:0:0:
152,356,25515,2,0,B|156:308|156:308|163:277,1,79.9999999999999,2|8,1:2|0:0,0:0:0:0:
248,344,25868,6,0,L|432:340,1,160,2|0,1:2|1:0,0:0:0:0:
468,268,26397,1,8,0:0:0:0:
364,168,26574,1,0,1:0:0:0:
364,168,26662,1,0,1:0:0:0:
364,168,26750,2,0,P|363:207|371:247,1,79.9999999999999,0|0,1:0|1:0,0:0:0:0:
440,112,27103,2,0,P|408:84|368:72,1,79.9999999999999,8|0,0:0|0:0,0:0:0:0:
284,112,27456,5,2,1:2:0:0:
140,40,27632,2,0,L|220:40,1,79.9999999999999,2|8,1:2|0:0,0:0:0:0:
47,119,27985,2,0,L|44:40,1,79.9999999999999,2|0,0:0|1:0,0:0:0:0:
168,160,28338,2,0,L|160:248,1,79.9999999999999,2|8,1:2|0:0,0:0:0:0:
80,292,28691,22,0,P|156:271|232:304,1,160,2|2,1:2|1:2,0:0:0:0:
304,236,29221,2,0,L|408:232,1,79.9999999999999,10|0,0:0|0:0,0:0:0:0:
464,284,29574,1,0,1:0:0:0:
464,284,29750,1,0,1:0:0:0:
384,232,29927,2,0,P|376:192|384:136,1,79.9999999999999,8|2,0:0|0:0,0:0:0:0:
452,28,30280,5,2,1:2:0:0:
360,48,30456,1,2,1:2:0:0:
472,148,30632,1,8,0:0:0:0:
291,115,30809,2,0,P|268:84|261:45,1,79.9999999999999,2|0,0:0|1:0,0:0:0:0:
151,71,31162,2,0,P|112:71|72:79,1,79.9999999999999,2|8,1:2|0:0,0:0:0:0:
196,156,31515,6,0,P|171:231|180:320,1,160,2|2,1:2|1:2,0:0:0:0:
64,296,32044,2,0,P|64:252|60:216,1,79.9999999999999,10|0,0:0|1:0,0:0:0:0:
32,188,32309,1,0,1:0:0:0:
32,188,32397,1,0,1:0:0:0:
52,96,32574,1,0,1:0:0:0:
144,76,32750,1,8,0:0:0:0:
196,156,32927,1,2,3:0:0:0:
292,144,33103,6,0,P|320:112|328:68,2,79.9999999999999,0|0|8,1:0|1:0|0:0,0:0:0:0:
144,76,33632,1,0,1:0:0:0:
144,76,33721,1,0,1:0:0:0:
144,76,33809,1,0,1:0:0:0:
196,156,33985,1,0,1:0:0:0:
160,244,34162,1,8,0:0:0:0:
292,144,34338,22,0,P|368:148|448:216,1,160,6|2,1:2|1:2,0:0:0:0:
460,288,34868,1,10,0:2:0:0:
460,288,35044,1,2,0:2:0:0:
434,195,35221,2,0,P|445:157|469:126,1,79.9999999999999,2|0,1:2|1:2,0:0:0:0:
364,260,35574,2,0,P|328:272|284:268,1,79.9999999999999,10|2,0:0|0:0,0:0:0:0:
216,204,35926,5,2,1:2:0:0:
124,228,36103,1,2,1:2:0:0:
216,204,36279,1,8,0:0:0:0:
32,252,36456,2,0,L|24:340,1,79.9999999999999,2|0,0:0|1:2,0:0:0:0:
68,148,36809,2,0,B|64:68,1,79.9999999999999,2|8,1:2|0:0,0:0:0:0:
124,228,37162,6,0,P|208:232|280:184,1,160,2|0,1:2|1:0,0:0:0:0:
288,100,37691,1,8,0:0:0:0:
443,163,37868,1,0,1:0:0:0:
443,163,37956,1,0,1:0:0:0:
443,163,38044,2,0,L|364:160,1,79.9999999999999,2|0,1:2|1:0,0:0:0:0:
284,20,38397,2,0,L|287:99,1,79.9999999999999,8|0,0:0|0:0,0:0:0:0:
220,168,38750,5,2,1:2:0:0:
136,48,38926,2,0,L|132:127,1,79.9999999999999,2|8,1:2|0:0,0:0:0:0:
68,199,39279,2,0,P|44:167|40:111,1,79.9999999999999,2|0,0:0|1:0,0:0:0:0:
220,168,39632,2,0,L|308:168,1,79.9999999999999,2|8,1:2|0:0,0:0:0:0:
231,271,39985,22,0,P|153:264|83:300,1,160,2|2,1:2|1:2,0:0:0:0:
272,360,40515,2,0,P|304:336|328:292,1,79.9999999999999,10|0,0:0|0:0,0:0:0:0:
304,208,40868,1,0,1:0:0:0:
304,208,41044,1,0,1:0:0:0:
412,280,41221,2,0,L|504:288,1,79.9999999999999,8|2,0:0|0:0,0:0:0:0:
404,184,41574,5,2,1:2:0:0:
500,188,41750,1,2,1:2:0:0:
396,88,41926,1,8,0:0:0:0:
508,80,42103,2,0,P|512:40|504:-4,1,79.9999999999999,2|0,0:0|1:0,0:0:0:0:
308,36,42456,2,0,P|296:76|296:124,1,79.9999999999999,2|8,1:2|0:0,0:0:0:0:
432,299,42809,6,0,P|436:220|409:146,1,160,2|2,1:2|1:2,0:0:0:0:
324,220,43338,2,0,L|236:212,1,79.9999999999999,10|0,0:0|1:0,0:0:0:0:
216,240,43603,1,0,1:0:0:0:
216,240,43691,1,0,1:0:0:0:
56,184,43868,1,0,1:0:0:0:
120,256,44044,2,0,P|120:292|96:344,1,79.9999999999999,8|0,0:0|1:0,0:0:0:0:
56,184,44397,5,2,1:2:0:0:
196,148,44574,1,0,1:0:0:0:
120,256,44750,1,10,0:0:0:0:
96,96,44927,1,0,1:0:0:0:
96,96,45015,1,8,0:0:0:0:
96,96,45103,1,10,0:0:0:0:
204,184,45280,1,8,0:3:0:0:
208,40,45456,1,10,0:0:0:0:
292,96,45632,22,0,B|416:92|416:92|464:52,1,179.999994506836,6|0,1:2|1:0,0:0:0:0:
504,144,46515,1,2,0:3:0:0:
360,312,46868,6,0,P|328:304|284:304,1,59.9999981689453,0|0,0:0|1:0,0:0:0:0:
360,312,47221,2,0,L|364:172,2,119.999996337891,0|0|2,1:0|1:0|0:3,0:0:0:0:
144,336,48456,6,0,B|140:280|140:280|156:216|156:216|152:152,1,179.999994506836,4|0,1:2|1:0,0:0:0:0:
80,92,49338,1,2,0:3:0:0:
360,128,49691,6,0,P|351:99|352:64,1,59.9999981689453,0|0,0:0|1:0,0:0:0:0:
360,128,50044,2,0,P|300:108|236:120,1,119.999996337891,0|0,1:0|1:0,0:0:0:0:
156,92,50574,1,0,1:0:0:0:
156,92,50750,2,0,L|152:24,2,59.9999981689453,2|0|2,0:3|1:0|0:3,0:0:0:0:
244,116,51280,22,0,P|244:236|204:292,1,179.999994506836,0|0,1:0|1:0,0:0:0:0:
120,320,52162,1,2,0:3:0:0:
400,304,52515,1,0,0:0:0:0:
404,220,52691,5,0,3:0:0:0:
404,220,52780,1,0,3:0:0:0:
404,220,52868,2,0,L|284:216,2,119.999996337891,0|0|2,1:0|1:0|0:3,0:0:0:0:
484,308,53750,1,0,1:0:0:0:
400,304,53927,1,2,0:3:0:0:
488,224,54103,6,0,L|496:88,1,119.999996337891,4|0,1:2|1:0,0:0:0:0:
500,20,54632,1,0,1:0:0:0:
404,220,54985,2,0,L|412:96,1,119.999996337891,2|2,0:3|0:3,0:0:0:0:
416,20,55515,1,0,1:0:0:0:
328,96,55691,5,0,1:0:0:0:
411,100,55868,1,0,1:0:0:0:
312,20,56044,1,8,0:3:0:0:
248,120,56221,1,0,1:0:0:0:
248,120,56309,1,2,0:3:0:0:
248,120,56397,1,2,0:3:0:0:
328,96,56574,1,0,1:0:0:0:
212,48,56750,1,8,0:0:0:0:
184,176,56927,22,0,P|112:208|24:196,1,160,6|2,1:2|1:2,0:0:0:0:
136,68,57456,1,2,0:3:0:0:
248,120,57632,1,2,0:0:0:0:
248,120,57721,1,2,0:0:0:0:
248,120,57809,1,2,1:2:0:0:
120,244,57985,1,0,1:0:0:0:
240,316,58162,2,0,L|319:306,1,79.9999999999999,2|0,0:3|0:0,0:0:0:0:
440,200,58515,5,2,1:2:0:0:
275,132,58691,2,0,P|260:168|260:208,1,79.9999999999999,2|2,1:2|0:3,0:0:0:0:
396,364,59044,1,2,0:0:0:0:
396,364,59221,2,0,P|411:327|411:287,1,79.9999999999999,0|2,1:0|1:2,0:0:0:0:
364,140,59574,1,2,0:3:0:0:
180,232,59750,6,0,B|260:252|260:252|334:232,1,160,2|2,1:2|1:2,0:0:0:0:
468,196,60280,2,0,L|454:274,1,79.9999999999999,2|2,0:3|0:0,0:0:0:0:
272,360,60632,2,0,L|258:281,1,79.9999999999999,2|2,1:2|1:2,0:0:0:0:
228,108,60985,1,2,0:3:0:0:
228,108,61338,6,0,P|159:75|92:114,1,160,2|2,1:2|0:3,0:0:0:0:
160,260,61868,1,2,0:0:0:0:
163,157,62044,1,2,1:2:0:0:
8,192,62221,2,0,L|86:206,1,79.9999999999999,2|2,1:2|0:3,0:0:0:0:
232,232,62574,1,2,1:2:0:0:
84,352,62750,22,0,P|163:345|243:340,1,160,4|0,0:0|1:0,0:0:0:0:
388,296,63280,2,0,B|400:256|400:256|393:218,1,79.9999999999999,2|0,0:3|0:0,0:0:0:0:
237,154,63632,1,2,1:2:0:0:
237,154,63809,2,0,B|225:194|225:194|232:232,1,79.9999999999999,2|2,0:3|0:0,0:0:0:0:
472,196,64162,6,0,P|417:141|341:155,1,160,4|2,0:0|1:2,0:0:0:0:
232,232,64691,2,0,L|132:224,1,79.9999999999999,2|0,0:3|0:0,0:0:0:0:
68,88,65044,1,0,1:0:0:0:
68,88,65221,2,0,L|147:94,1,79.9999999999999,2|2,0:3|0:0,0:0:0:0:
342,156,65574,6,0,L|335:76,1,79.9999999999999,6|0,0:0|0:0,0:0:0:0:
152,225,65927,1,0,1:0:0:0:
248,336,66103,2,0,L|254:256,1,79.9999999999999,2|0,0:3|0:0,0:0:0:0:
456,224,66456,1,2,1:2:0:0:
360,335,66632,2,0,L|353:255,1,79.9999999999999,2|2,0:3|0:0,0:0:0:0:
340,104,66985,5,4,1:2:0:0:
256,192,67162,12,2,69103,0:0:0:0:
80,192,69632,22,0,P|125:258|205:246,1,170.000003242493,6|0,1:2|1:0,0:0:0:0:
316,152,70162,2,0,L|320:64,1,85.0000016212463,10|0,0:0|0:0,0:0:0:0:
156,188,70515,1,2,1:2:0:0:
315,264,70691,2,0,P|357:253|399:248,1,85.0000016212463,0|10,1:0|0:0,0:0:0:0:
512,136,71044,6,0,P|428:118|344:112,1,170.000003242493,2|2,1:2|1:2,0:0:0:0:
216,204,71574,2,0,L|219:288,1,85.0000016212463,8|0,0:0|0:0,0:0:0:0:
352,224,71927,1,2,1:2:0:0:
240,100,72103,2,0,P|198:89|156:84,1,85.0000016212463,2|10,1:2|0:0,0:0:0:0:
13,206,72456,6,0,B|69:234|69:234|176:220,1,170.000003242493,6|0,1:2|1:0,0:0:0:0:
352,224,72985,1,10,0:0:0:0:
236,372,73162,1,0,1:0:0:0:
236,372,73250,1,0,1:0:0:0:
236,372,73338,2,0,P|225:330|220:288,1,85.0000016212463,2|0,1:2|1:0,0:0:0:0:
288,132,73691,1,10,0:0:0:0:
428,228,73868,6,0,P|382:294|302:282,1,170.000003242493,2|2,1:2|1:2,0:0:0:0:
302,282,74309,1,0,3:0:0:0:
302,282,74397,1,8,0:0:0:0:
192,124,74574,1,0,0:0:0:0:
367,140,74750,2,0,P|362:182|352:224,1,85.0000016212463,2|2,1:2|1:2,0:0:0:0:
220,288,75103,1,10,0:0:0:0:
92,176,75280,22,0,B|146:166|146:166|213:184|213:184|258:176,1,170.000003242493,6|0,1:2|1:0,0:0:0:0:
328,48,75809,2,0,L|243:36,1,85.0000016212463,10|0,0:0|0:0,0:0:0:0:
108,88,76162,1,2,1:2:0:0:
220,243,76338,2,0,P|227:202|230:159,1,85.0000016212463,2|10,1:2|0:0,0:0:0:0:
48,192,76691,6,0,P|19:269|53:345,1,170.000003242493,2|0,1:2|1:0,0:0:0:0:
136,368,77132,1,0,3:0:0:0:
136,368,77221,2,0,L|221:356,1,85.0000016212463,10|0,0:0|0:0,0:0:0:0:
388,268,77574,1,2,1:2:0:0:
220,243,77750,2,0,L|135:231,1,85.0000016212463,2|8,1:2|0:0,0:0:0:0:
308,148,78103,6,0,B|320:192|320:192|300:268|300:268|312:312,1,170.000003242493,6|0,1:2|1:0,0:0:0:0:
463,320,78632,2,0,P|479:280|474:238,1,85.0000016212463,10|0,0:0|0:0,0:0:0:0:
392,132,78985,1,2,1:2:0:0:
392,132,79162,2,0,L|475:116,1,85.0000016212463,2|8,1:2|0:0,0:0:0:0:
387,268,79515,6,0,P|310:295|237:256,1,170.000003242493,6|2,1:2|1:2,0:0:0:0:
148,160,80044,1,10,0:0:0:0:
44,236,80221,1,0,1:0:0:0:
44,236,80309,1,0,1:0:0:0:
44,236,80397,2,0,L|52:324,1,85.0000016212463,0|2,1:0|1:2,0:0:0:0:
164,376,80750,1,10,0:0:0:0:
292,308,80927,22,0,P|231:253|152:275,1,170.000003242493,6|0,1:2|1:0,0:0:0:0:
64,156,81456,1,8,0:0:0:0:
192,92,81632,1,2,1:2:0:0:
192,92,81721,1,0,1:0:0:0:
192,92,81809,2,0,L|280:100,1,85.0000016212463,2|0,1:2|1:0,0:0:0:0:
376,208,82162,1,10,0:0:0:0:
376,208,82338,6,0,L|464:200,1,85.0000016212463,2|0,0:0|1:0,0:0:0:0:
352,336,82691,1,2,1:2:0:0:
352,336,82780,1,0,3:0:0:0:
352,336,82868,2,0,P|310:344|271:330,1,85.0000016212463,8|0,0:0|0:0,0:0:0:0:
208,240,83221,1,2,1:2:0:0:
56,220,83397,1,2,1:2:0:0:
152,340,83574,1,10,0:0:0:0:
136,184,83750,6,0,L|128:100,1,85.0000016212463,6|0,1:2|0:0,0:0:0:0:
284,32,84103,1,0,1:0:0:0:
284,32,84191,1,0,3:0:0:0:
284,32,84280,2,0,L|276:116,1,85.0000016212463,8|2,0:0|0:0,0:0:0:0:
260,288,84632,1,2,1:2:0:0:
432,200,84809,1,0,1:0:0:0:
448,304,84985,1,10,0:0:0:0:
299,207,85162,6,0,P|258:199|218:210,1,85.0000016212463,2|0,1:2|0:0,0:0:0:0:
48,280,85515,2,0,P|89:288|129:277,1,85.0000016212463,2|8,1:2|0:0,0:0:0:0:
260,288,85868,2,0,L|252:372,1,85.0000016212463,2|0,0:0|1:0,0:0:0:0:
124,184,86221,2,0,L|131:99,1,85.0000016212463,2|8,1:2|0:0,0:0:0:0:
351,169,86574,1,2,0:0:0:0:
351,169,86750,22,0,P|296:229|217:211,1,170.000003242493,4|8,1:2|0:0,0:0:0:0:
248,36,87280,1,0,1:0:0:0:
248,36,87368,1,0,1:0:0:0:
248,36,87456,1,0,1:0:0:0:
273,152,87632,1,0,1:0:0:0:
460,92,87809,1,8,0:0:0:0:
460,92,88162,6,0,B|476:140|476:140|456:257,1,170.000003242493,2|10,1:2|0:0,0:0:0:0:
336,340,88691,1,2,1:2:0:0:
336,340,88780,1,0,1:0:0:0:
336,340,88868,2,0,P|284:344|240:332,1,85.0000016212463,0|2,1:0|1:2,0:0:0:0:
124,268,89221,1,8,0:0:0:0:
288,208,89397,1,2,0:0:0:0:
184,104,89574,6,0,L|205:272,1,170.000003242493,4|8,1:2|0:0,0:0:0:0:
364,264,90103,2,0,P|380:224|375:182,1,85.0000016212463,0|0,0:0|1:0,0:0:0:0:
296,72,90456,1,0,1:0:0:0:
128,172,90632,2,0,L|212:178,1,85.0000016212463,8|0,0:0|0:0,0:0:0:0:
252,332,90985,6,0,P|167:328|82:337,1,170.000003242493,0|8,1:0|0:0,0:0:0:0:
32,200,91515,1,0,0:0:0:0:
171,236,91691,2,0,P|186:196|184:154,1,85.0000016212463,2|2,1:2|1:2,0:0:0:0:
40,92,92044,2,0,P|66:124|104:143,1,85.0000016212463,10|2,0:0|0:0,0:0:0:0:
252,108,92397,22,0,P|336:98|420:103,1,170.000003242493,4|2,1:2|1:2,0:0:0:0:
488,184,92927,1,8,0:0:0:0:
352,248,93103,1,2,0:0:0:0:
456,296,93280,1,0,1:0:0:0:
352,344,93456,1,8,0:0:0:0:
456,296,93633,1,2,1:2:0:0:
248,292,93809,5,10,0:0:0:0:
248,292,94162,1,2,1:2:0:0:
248,292,94515,1,2,1:2:0:0:
248,292,94868,1,10,0:0:0:0:
120,264,95044,6,0,P|107:188|165:138,1,160,4|0,1:0|1:0,0:0:0:0:
276,132,95574,2,0,L|354:146,1,79.9999999999999,8|0,0:0|0:0,0:0:0:0:
444,296,95927,1,0,1:0:0:0:
300,236,96103,1,0,1:0:0:0:
460,196,96280,1,8,0:0:0:0:
352,340,96456,1,0,1:0:0:0:
352,340,96544,1,0,1:0:0:0:
352,340,96632,6,0,P|314:351|274:346,1,79.9999999999999,0|0,1:0|1:0,0:0:0:0:
104,336,96985,2,0,P|142:327|174:303,1,79.9999999999999,8|0,0:0|0:0,0:0:0:0:
192,124,97338,1,0,1:0:0:0:
100,240,97515,1,0,1:0:0:0:
192,124,97691,1,8,0:0:0:0:
292,236,97868,22,0,P|364:260|427:216,1,160,4|0,1:0|1:0,0:0:0:0:
327,64,98397,2,0,P|306:97|294:135,1,79.9999999999999,8|0,0:0|0:0,0:0:0:0:
220,284,98750,2,0,P|207:246|186:212,1,79.9999999999999,0|0,1:0|1:0,0:0:0:0:
68,112,99103,1,8,0:0:0:0:
16,264,99280,1,0,1:0:0:0:
16,264,99368,1,0,1:0:0:0:
16,264,99456,5,0,1:0:0:0:
176,356,99632,1,0,1:0:0:0:
188,212,99809,2,0,P|150:202|110:197,1,79.9999999999999,8|0,0:0|0:0,0:0:0:0:
256,296,100162,1,0,1:0:0:0:
256,296,100250,1,0,1:0:0:0:
256,296,100338,2,0,P|294:286|334:281,1,79.9999999999999,0|8,1:0|0:0,0:0:0:0:
479,203,100691,6,0,P|421:155|349:183,1,160,4|0,1:0|1:0,0:0:0:0:
232,284,101221,2,0,P|194:274|154:269,1,79.9999999999999,8|0,0:0|0:0,0:0:0:0:
36,196,101574,1,0,1:0:0:0:
204,136,101750,1,0,1:0:0:0:
52,72,101927,1,8,0:0:0:0:
140,240,102103,1,0,0:0:0:0:
140,240,102280,6,0,P|178:230|218:225,1,79.9999999999999,0|0,1:0|1:0,0:0:0:0:
380,184,102632,2,0,P|340:179|301:168,1,79.9999999999999,8|0,0:0|0:0,0:0:0:0:
160,96,102985,1,0,3:0:0:0:
160,96,103074,1,8,3:0:0:0:
160,96,103162,1,0,1:0:0:0:
316,8,103338,2,0,P|311:47|300:86,1,79.9999999999999,8|0,0:0|0:0,0:0:0:0:
176,268,103691,21,8,0:0:0:0:
176,268,103868,1,8,0:0:0:0:
256,160,104221,5,8,0:0:0:0:
256,160,104397,1,8,0:0:0:0:
336,268,104750,5,8,0:0:0:0:
336,268,104927,1,4,1:0:0:0:
156,348,105280,5,2,0:0:0:0:
156,348,105368,1,2,0:0:0:0:
156,348,105456,2,0,P|117:345|80:330,1,79.9999999999999,2|2,0:0|0:0,0:0:0:0:
32,208,105809,2,0,P|68:193|108:190,2,79.9999999999999,2|2|2,0:0|0:0|0:0,0:0:0:0:
176,267,106338,22,0,P|211:198|186:125,1,160,6|2,1:2|1:2,0:0:0:0:
76,72,106868,1,10,0:2:0:0:
108,190,107044,1,2,0:2:0:0:
185,124,107221,2,0,P|223:116|263:120,1,79.9999999999999,2|0,1:2|1:2,0:0:0:0:
348,168,107574,2,0,P|386:176|426:172,1,79.9999999999999,10|2,0:0|0:0,0:0:0:0:
280,280,107927,5,2,1:2:0:0:
280,280,108103,2,0,P|240:276|201:284,1,79.9999999999999,2|8,1:2|0:0,0:0:0:0:
100,316,108456,2,0,L|110:236,1,79.9999999999999,2|0,0:0|1:2,0:0:0:0:
196,192,108809,2,0,L|185:112,1,79.9999999999999,2|8,1:2|0:0,0:0:0:0:
112,52,109162,6,0,P|183:81|252:46,1,160,2|0,1:2|1:0,0:0:0:0:
360,79,109691,2,0,P|397:68|437:73,1,79.9999999999999,8|0,0:0|0:0,0:0:0:0:
320,184,110044,1,0,1:0:0:0:
440,232,110221,1,0,1:0:0:0:
356,328,110397,2,0,L|276:318,1,79.9999999999999,8|0,0:0|0:0,0:0:0:0:
124,240,110750,5,2,1:2:0:0:
124,240,110927,2,0,L|203:230,1,79.9999999999999,2|8,1:2|0:0,0:0:0:0:
320,184,111280,2,0,P|331:146|326:106,1,79.9999999999999,2|0,0:0|1:0,0:0:0:0:
184,52,111632,2,0,P|178:91|190:129,1,79.9999999999999,2|8,1:2|0:0,0:0:0:0:
256,258,111985,22,0,P|195:212|124:239,1,160,2|2,1:2|1:2,0:0:0:0:
64,324,112515,1,10,0:0:0:0:
340,344,112868,2,0,L|261:355,1,79.9999999999999,0|0,1:2|1:0,0:0:0:0:
436,328,113221,1,8,0:0:0:0:
292,212,113574,6,0,L|212:201,1,79.9999999999999,2|2,1:2|1:2,0:0:0:0:
100,184,113927,1,8,0:0:0:0:
176,32,114103,2,0,P|195:66|199:106,1,79.9999999999999,2|0,0:0|1:0,0:0:0:0:
100,184,114456,2,0,P|80:218|76:258,1,79.9999999999999,2|8,1:2|0:0,0:0:0:0:
191,343,114809,6,0,P|267:366|342:342,1,160,2|2,1:2|1:2,0:0:0:0:
416,260,115338,2,0,L|412:172,1,79.9999999999999,10|0,0:0|0:0,0:0:0:0:
260,120,115691,1,0,1:0:0:0:
328,252,115868,1,0,1:0:0:0:
360,96,116044,1,8,0:0:0:0:
232,216,116221,1,0,1:0:0:0:
232,216,116397,6,0,P|192:228|132:216,1,79.9999999999999,0|0,1:0|1:0,0:0:0:0:
48,59,116750,2,0,P|85:48|125:51,1,79.9999999999999,8|0,0:0|3:0,0:0:0:0:
164,64,117015,1,0,3:0:0:0:
164,64,117103,1,0,1:0:0:0:
260,120,117280,1,0,1:0:0:0:
360,72,117456,1,8,0:0:0:0:
456,128,117632,22,0,L|444:296,1,160,6|2,1:2|1:2,0:0:0:0:
368,348,118162,1,10,0:2:0:0:
368,348,118338,1,2,0:2:0:0:
225,279,118515,2,0,P|264:270|304:276,1,79.9999999999999,2|0,1:2|1:2,0:0:0:0:
348,192,118868,2,0,L|344:104,1,79.9999999999999,10|2,0:0|0:0,0:0:0:0:
244,60,119220,5,2,1:2:0:0:
148,120,119397,1,2,1:2:0:0:
256,184,119573,1,8,0:0:0:0:
148,120,119750,2,0,L|60:116,1,79.9999999999999,2|0,0:0|1:2,0:0:0:0:
24,236,120103,2,0,B|116:240,1,79.9999999999999,2|8,1:2|0:0,0:0:0:0:
256,184,120456,6,0,P|208:248|232:336,1,160,2|0,1:2|1:0,0:0:0:0:
300,268,120985,1,8,0:0:0:0:
412,332,121162,1,0,1:0:0:0:
412,332,121250,1,0,1:0:0:0:
412,332,121338,2,0,L|491:329,1,79.9999999999999,2|0,1:2|1:0,0:0:0:0:
400,232,121691,2,0,L|392:152,1,79.9999999999999,8|0,0:0|0:0,0:0:0:0:
476,108,122044,5,2,1:2:0:0:
304,116,122220,2,0,L|312:32,1,79.9999999999999,2|8,1:2|0:0,0:0:0:0:
204,88,122573,2,0,P|164:88|124:76,1,79.9999999999999,2|0,0:0|1:0,0:0:0:0:
228,184,122926,2,0,B|240:228|240:228|240:272,1,79.9999999999999,2|8,1:2|0:0,0:0:0:0:
64,316,123279,22,0,P|68:232|104:156,1,160,2|2,1:2|1:2,0:0:0:0:
204,88,123809,2,0,P|248:72|280:40,1,79.9999999999999,10|0,0:0|0:0,0:0:0:0:
104,68,124162,1,0,1:2:0:0:
104,68,124338,1,0,1:0:0:0:
200,184,124515,2,0,L|292:184,1,79.9999999999999,8|2,0:0|0:0,0:0:0:0:
352,120,124868,5,2,1:2:0:0:
440,164,125044,1,2,1:2:0:0:
296,216,125220,1,8,0:0:0:0:
436,256,125397,2,0,P|450:291|458:339,1,79.9999999999999,2|0,0:0|1:0,0:0:0:0:
352,120,125750,2,0,P|353:80|365:41,1,79.9999999999999,2|8,1:2|0:0,0:0:0:0:
316,236,126103,6,0,B|268:240|268:240|208:224|208:224|144:228,1,160,2|2,1:2|1:2,0:0:0:0:
68,264,126632,2,0,P|48:304|44:344,1,79.9999999999999,10|0,0:0|3:0,0:0:0:0:
64,364,126897,1,0,3:0:0:0:
64,364,126985,1,0,1:0:0:0:
192,320,127162,1,0,1:0:0:0:
144,200,127338,2,0,L|140:112,1,79.9999999999999,8|0,0:0|1:0,0:0:0:0:
136,24,127691,5,0,1:0:0:0:
48,140,127868,1,0,1:0:0:0:
168,128,128044,1,8,0:0:0:0:
24,32,128221,1,0,1:0:0:0:
24,32,128309,1,8,0:0:0:0:
24,32,128397,1,8,0:0:0:0:
48,140,128574,1,4,3:0:0:0:
196,136,128750,1,8,0:0:0:0:
244,52,128927,22,0,B|368:56|368:56|440:88,1,179.999994506836,4|0,1:2|1:0,0:0:0:0:
504,28,129809,1,2,0:3:0:0:
368,256,130162,6,0,L|292:248,1,59.9999981689453,0|0,0:0|1:0,0:0:0:0:
368,256,130515,2,0,P|340:204|352:124,2,119.999996337891,0|0|2,1:0|1:0|0:3,0:0:0:0:
460,288,131750,6,0,B|276:296,1,179.999994506836,4|0,1:2|1:0,0:0:0:0:
184,300,132632,1,2,0:3:0:0:
272,204,132985,6,0,L|348:200,1,59.9999981689453,0|0,0:0|1:0,0:0:0:0:
272,204,133338,2,0,L|264:84,1,119.999996337891,0|0,1:0|1:0,0:0:0:0:
168,72,133868,1,0,1:0:0:0:
168,72,134044,2,0,L|164:152,2,59.9999981689453,2|0|2,0:3|1:0|0:3,0:0:0:0:
72,80,134574,22,0,P|24:184|32:256,1,179.999994506836,0|0,1:0|1:0,0:0:0:0:
104,312,135456,1,2,0:3:0:0:
252,144,135809,1,0,0:0:0:0:
256,240,135985,5,0,3:0:0:0:
256,240,136074,1,0,3:0:0:0:
256,240,136162,2,0,L|260:360,2,119.999996337891,0|0|2,1:0|1:0|0:3,0:0:0:0:
340,192,137044,1,0,1:0:0:0:
428,232,137221,1,2,0:3:0:0:
512,184,137397,6,0,P|532:120|520:64,1,119.999996337891,4|0,1:2|1:0,0:0:0:0:
440,16,137926,1,0,1:0:0:0:
192,88,138279,2,0,L|311:84,1,119.999996337891,2|2,0:3|0:3,0:0:0:0:
136,24,138809,1,0,1:0:0:0:
232,168,138985,5,0,1:0:0:0:
56,148,139162,2,0,L|4:144,2,29.9999990844727,0|2|2,1:0|0:3|0:3,0:0:0:0:
232,168,139515,1,0,1:0:0:0:
232,168,139603,1,2,0:3:0:0:
232,168,139691,1,2,0:3:0:0:
120,252,139868,1,0,1:0:0:0:
76,120,140044,1,2,0:3:0:0:
120,252,140221,22,0,P|184:304|272:284,1,160,6|2,1:2|1:2,0:0:0:0:
304,212,140750,1,2,0:3:0:0:
208,212,140926,1,2,0:0:0:0:
208,212,141015,1,2,0:0:0:0:
208,212,141103,1,2,1:2:0:0:
284,328,141279,1,0,1:0:0:0:
392,296,141456,2,0,L|472:304,1,79.9999999999999,2|0,0:3|0:0,0:0:0:0:
344,196,141809,5,2,1:2:0:0:
484,164,141985,2,0,P|499:128|499:88,1,79.9999999999999,2|2,1:2|0:3,0:0:0:0:
316,32,142338,1,2,0:0:0:0:
316,32,142515,2,0,P|301:69|301:109,1,79.9999999999999,0|2,1:0|1:2,0:0:0:0:
344,196,142868,1,2,0:3:0:0:
300,108,143044,6,0,B|128:104,1,160,2|2,1:2|1:2,0:0:0:0:
40,52,143574,2,0,L|24:136,1,79.9999999999999,2|0,0:3|0:0,0:0:0:0:
224,228,143926,2,0,L|216:148,1,79.9999999999999,2|2,1:2|1:2,0:0:0:0:
104,224,144279,1,2,0:3:0:0:
196,324,144456,6,0,P|273:317|318:254,1,160,2|2,1:2|1:2,0:0:0:0:
448,240,144985,1,2,0:3:0:0:
304,160,145162,1,2,0:0:0:0:
448,124,145338,1,2,1:2:0:0:
348,252,145515,2,0,P|336:288|340:344,1,79.9999999999999,2|2,1:2|0:3,0:0:0:0:
448,240,145868,1,2,1:2:0:0:
304,160,146044,22,0,P|225:153|144:180,1,160,4|0,1:2|1:0,0:0:0:0:
412,144,146574,2,0,B|420:88|420:88|412:52,1,79.9999999999999,2|0,0:3|0:0,0:0:0:0:
224,32,146926,1,2,1:2:0:0:
224,32,147015,1,2,1:2:0:0:
224,32,147103,2,0,B|216:88|216:88|220:112,1,79.9999999999999,2|2,0:3|0:0,0:0:0:0:
312,316,147456,6,0,L|308:152,1,160,4|2,1:2|1:2,0:0:0:0:
208,264,147985,2,0,L|104:256,1,79.9999999999999,2|0,0:3|0:0,0:0:0:0:
308,156,148338,1,0,1:0:0:0:
408,236,148515,2,0,L|492:232,1,79.9999999999999,2|2,0:3|0:0,0:0:0:0:
512,200,148780,1,2,0:0:0:0:
512,200,148868,6,0,P|520:160|512:116,1,79.9999999999999,6|0,1:2|0:0,0:0:0:0:
488,92,149132,1,0,1:0:0:0:
488,92,149221,1,0,1:0:0:0:
308,156,149397,2,0,L|388:160,1,79.9999999999999,2|0,0:3|0:0,0:0:0:0:
240,48,149750,1,2,1:2:0:0:
156,120,149926,2,0,L|60:124,1,79.9999999999999,2|2,0:3|0:0,0:0:0:0:
256,256,150279,5,4,1:2:0:0:
160,252,151691,22,0,L|164:192,3,40,0|0|0|0,3:0|3:0|3:0|3:0,0:0:0:0:
244,228,152044,2,0,L|240:184,3,40,0|0|0|0,3:0|3:0|3:0|3:0,0:0:0:0:
320,188,152397,2,0,L|308:128,3,40,0|0|0|0,3:0|3:0|3:0|3:0,0:0:0:0:
236,108,152750,1,10,0:0:0:0:
352,287,152927,6,0,P|412:231|415:148,1,170.000003242493,6|0,1:2|1:0,0:0:0:0:
296,92,153456,2,0,P|292:48|300:-4,1,85.0000016212463,10|0,0:0|0:0,0:0:0:0:
432,52,153809,1,2,1:2:0:0:
320,188,153985,2,0,P|280:188|236:168,1,85.0000016212463,0|10,1:0|0:0,0:0:0:0:
24,100,154338,6,0,P|108:82|192:76,1,170.000003242493,2|2,1:2|1:2,0:0:0:0:
180,252,154868,2,0,P|156:224|140:160,1,85.0000016212463,8|0,0:0|0:0,0:0:0:0:
191,76,155221,1,2,1:2:0:0:
288,224,155397,2,0,L|276:318,1,85.0000016212463,2|10,1:2|0:0,0:0:0:0:
300,120,155750,6,0,P|376:96|476:136,1,170.000003242493,6|0,1:2|1:0,0:0:0:0:
492,288,156279,1,10,0:0:0:0:
392,280,156456,1,0,1:0:0:0:
392,280,156544,1,0,1:0:0:0:
392,280,156632,2,0,P|381:238|376:196,1,85.0000016212463,2|0,1:2|1:0,0:0:0:0:
459,122,156985,1,10,0:0:0:0:
324,52,157162,22,0,L|144:36,1,170.000003242493,2|2,1:2|1:2,0:0:0:0:
154,36,157603,1,0,3:0:0:0:
154,36,157691,1,8,0:0:0:0:
184,152,157868,1,0,0:0:0:0:
88,112,158044,2,0,L|-4:116,1,85.0000016212463,2|2,1:2|1:2,0:0:0:0:
184,152,158397,1,10,0:0:0:0:
52,208,158574,6,0,B|56:332|56:332|88:376,1,170.000003242493,6|0,1:2|1:0,0:0:0:0:
248,252,159103,2,0,L|259:167,1,85.0000016212463,10|0,0:0|0:0,0:0:0:0:
156,292,159456,1,2,1:2:0:0:
300,344,159632,2,0,B|336:308|336:308|352:268,1,85.0000016212463,2|10,1:2|0:0,0:0:0:0:
259,167,159985,6,0,P|336:196|412:162,1,170.000003242493,2|0,1:2|1:0,0:0:0:0:
467,95,160426,1,0,3:0:0:0:
467,95,160515,2,0,L|471:11,1,85.0000016212463,10|0,0:0|0:0,0:0:0:0:
492,208,160868,1,2,1:2:0:0:
332,104,161044,2,0,L|324:8,1,85.0000016212463,2|8,1:2|0:0,0:0:0:0:
392,192,161397,6,0,P|408:280|360:360,1,170.000003242493,6|0,1:2|1:0,0:0:0:0:
195,311,161926,2,0,L|280:308,1,85.0000016212463,10|0,0:0|0:0,0:0:0:0:
308,128,162279,1,2,1:2:0:0:
308,128,162456,2,0,L|220:120,1,85.0000016212463,2|8,1:2|0:0,0:0:0:0:
4,236,162809,22,0,P|76:195|158:211,1,170.000003242493,6|2,1:2|1:2,0:0:0:0:
92,292,163338,1,10,0:0:0:0:
68,104,163515,2,0,L|72:12,1,85.0000016212463,2|2,0:0|1:2,0:0:0:0:
280,60,163868,1,2,1:2:0:0:
280,60,163956,1,2,1:2:0:0:
280,60,164044,1,10,0:0:0:0:
248,156,164221,6,0,P|186:100|187:18,1,170.000003242493,6|0,1:2|1:0,0:0:0:0:
348,136,164750,1,8,0:0:0:0:
424,200,164926,1,2,1:2:0:0:
424,200,165015,1,0,1:0:0:0:
424,200,165103,2,0,L|428:292,1,85.0000016212463,2|0,1:2|1:0,0:0:0:0:
348,136,165456,1,10,0:0:0:0:
420,64,165632,6,0,L|508:60,1,85.0000016212463,2|0,0:0|1:0,0:0:0:0:
328,232,165985,1,2,1:2:0:0:
328,232,166074,1,0,3:0:0:0:
328,232,166162,2,0,L|232:224,1,85.0000016212463,8|0,0:0|0:0,0:0:0:0:
176,144,166515,1,2,1:2:0:0:
16,164,166691,1,2,1:2:0:0:
84,240,166868,1,10,0:0:0:0:
89,93,167044,6,0,P|51:68|11:63,1,85.0000016212463,6|0,1:2|0:0,0:0:0:0:
204,44,167397,1,0,1:0:0:0:
204,44,167485,1,0,3:0:0:0:
204,44,167574,2,0,L|208:132,1,85.0000016212463,8|2,0:0|0:0,0:0:0:0:
216,264,167926,1,0,1:0:0:0:
376,160,168103,1,0,1:0:0:0:
360,260,168279,1,10,0:0:0:0:
207,128,168456,22,0,P|166:120|126:131,1,85.0000016212463,2|0,1:2|0:0,0:0:0:0:
376,160,168809,2,0,P|420:148|456:112,1,85.0000016212463,2|8,1:2|0:0,0:0:0:0:
216,264,169162,2,0,L|220:352,1,85.0000016212463,2|0,0:0|1:0,0:0:0:0:
304,100,169515,2,0,L|311:15,1,85.0000016212463,2|8,1:2|0:0,0:0:0:0:
360,260,169868,1,2,0:0:0:0:
199,152,170044,6,0,P|117:157|63:220,1,170.000003242493,4|8,1:2|0:0,0:0:0:0:
260,236,170574,1,0,1:0:0:0:
260,236,170662,1,0,1:0:0:0:
260,236,170750,1,0,1:0:0:0:
224,56,170926,1,0,1:0:0:0:
364,156,171103,1,8,0:0:0:0:
364,156,171456,6,0,P|448:132|500:56,1,170.000003242493,2|10,1:2|0:0,0:0:0:0:
468,264,171985,1,2,1:2:0:0:
468,264,172074,1,0,1:0:0:0:
468,264,172162,2,0,P|424:252|372:256,1,85.0000016212463,0|2,1:0|1:2,0:0:0:0:
292,352,172515,1,8,0:0:0:0:
412,344,172691,1,2,0:0:0:0:
224,276,172868,5,4,1:0:0:0:
123,297,173221,1,0,1:0:0:0:
72,208,173574,1,0,1:0:0:0:
141,132,173927,1,0,1:0:0:0:
233,174,174280,22,0,P|252:136|256:84,1,85.0000016212463,8|0,0:0|0:0,0:0:0:0:
376,156,174632,1,0,3:0:0:0:
368,168,174721,1,0,3:0:0:0:
360,180,174809,1,0,3:0:0:0:
352,192,174897,1,0,3:0:0:0:
344,204,174985,2,0,P|341:256|352:300,1,85.0000016212463,8|0,0:0|1:0,0:0:0:0:
435,362,175338,1,8,0:0:0:0:
452,196,175515,6,0,B|444:240|444:240|452:292|452:292|436:362,1,170.000003242493,6|0,1:2|1:0,0:0:0:0:
268,305,176044,2,0,P|305:285|347:287,1,85.0000016212463,8|0,0:0|0:0,0:0:0:0:
452,196,176397,2,0,L|368:179,1,85.0000016212463,0|0,1:0|1:0,0:0:0:0:
216,160,176750,1,8,0:0:0:0:
332,104,176927,1,0,0:0:0:0:
240,236,177103,6,0,P|198:237|161:217,1,85.0000016212463,2|0,1:2|1:0,0:0:0:0:
84,136,177456,2,0,L|67:52,1,85.0000016212463,10|0,0:0|0:0,0:0:0:0:
233,76,177809,1,2,1:2:0:0:
233,76,177985,2,0,L|216:160,1,85.0000016212463,0|10,1:0|0:0,0:0:0:0:
68,244,178338,6,0,B|104:272|104:272|228:264,1,170.000003242493,4|0,1:2|1:0,0:0:0:0:
343,196,178868,2,0,P|384:182|425:173,1,85.0000016212463,8|0,0:0|0:0,0:0:0:0:
480,328,179221,1,0,1:0:0:0:
324,296,179397,2,0,P|310:336|301:377,2,85.0000016212463,0|10|0,1:0|0:0|0:0,0:0:0:0:
425,173,179927,22,0,L|408:89,1,85.0000016212463,2|0,1:2|1:0,0:0:0:0:
236,48,180280,1,8,0:0:0:0:
308,164,180456,1,0,3:0:0:0:
308,164,180544,1,0,3:0:0:0:
308,164,180632,1,0,1:0:0:0:
188,240,180809,2,0,P|132:228|80:228,1,85.0000016212463,0|8,1:0|0:0,0:0:0:0:
24,360,181162,6,0,P|107:372|189:351,1,170.000003242493,6|0,1:2|1:0,0:0:0:0:
308,296,181691,2,0,L|391:311,1,85.0000016212463,8|0,0:0|0:0,0:0:0:0:
332,176,182044,1,0,1:0:0:0:
464,148,182221,1,0,1:0:0:0:
332,176,182397,2,0,L|248:160,1,85.0000016212463,8|0,0:0|0:0,0:0:0:0:
124,168,182750,6,0,P|104:208|112:276,1,85.0000016212463,0|0,1:0|1:0,0:0:0:0:
220,340,183103,2,0,P|268:332|316:332,1,85.0000016212463,10|0,0:0|0:0,0:0:0:0:
440,252,183456,1,2,1:2:0:0:
332,176,183632,2,0,P|319:135|328:94,1,85.0000016212463,0|10,1:0|0:0,0:0:0:0:
508,56,183985,6,0,P|483:131|404:131,1,170.000003242493,4|0,1:2|1:0,0:0:0:0:
236,80,184515,2,0,P|192:72|132:72,1,85.0000016212463,8|0,0:0|0:0,0:0:0:0:
60,192,184868,1,0,1:0:0:0:
208,208,185044,2,0,P|216:252|216:312,2,85.0000016212463,0|10|0,1:0|0:0|0:0,0:0:0:0:
56,336,185574,22,0,L|140:356,1,85.0000016212463,2|0,1:2|1:0,0:0:0:0:
320,344,185927,2,0,L|309:302,3,42.5000008106231,8|0|0|0,3:2|3:2|3:2|3:2,0:0:0:0:
384,236,186280,2,0,L|343:224,3,42.5000008106231,0|0|0|0,3:2|3:2|3:2|3:2,0:0:0:0:
276,164,186632,1,8,0:0:0:0:
352,59,186809,6,0,P|430:77|451:155,1,170.000003242493,6|0,1:2|1:0,0:0:0:0:
384,236,187338,2,0,P|379:278|383:320,1,85.0000016212463,10|0,0:0|0:0,0:0:0:0:
224,344,187691,1,2,1:2:0:0:
272,224,187868,1,0,1:0:0:0:
136,264,188044,2,0,L|44:248,1,85.0000016212463,10|0,0:0|0:0,0:0:0:0:
24,120,188397,5,2,1:2:0:0:
188,168,188574,1,0,1:0:0:0:
244,40,188750,1,10,0:0:0:0:
100,92,188927,1,0,3:0:0:0:
100,92,189015,1,0,3:0:0:0:
100,92,189103,1,0,1:0:0:0:
272,128,189280,2,0,L|356:120,1,85.0000016212463,2|8,1:2|0:0,0:0:0:0:
464,264,189632,6,0,B|408:288|408:288|299:278,1,170.000003242493,6|0,1:2|1:0,0:0:0:0:
152,272,190162,2,0,P|127:306|118:347,1,85.0000016212463,10|0,0:0|0:0,0:0:0:0:
52,224,190515,2,0,P|43:182|18:148,1,85.0000016212463,2|0,1:2|1:0,0:0:0:0:
104,60,190868,1,10,0:0:0:0:
203,132,191044,22,0,P|288:121|373:119,1,170.000003242493,0|0,1:2|1:0,0:0:0:0:
364,233,191574,2,0,P|322:227|280:224,1,85.0000016212463,10|0,0:0|0:0,0:0:0:0:
192,300,191927,1,0,1:0:0:0:
360,356,192103,2,0,L|448:332,1,85.0000016212463,6|8,1:2|0:0,0:0:0:0:
497,247,192456,6,0,P|435:195|364:233,1,170.000003242493,4|0,1:0|1:0,0:0:0:0:
192,300,192985,2,0,P|149:293|107:290,1,85.0000016212463,10|0,0:0|0:0,0:0:0:0:
56,136,193338,1,2,1:2:0:0:
56,136,193515,1,0,1:0:0:0:
180,184,193691,2,0,L|192:92,1,85.0000016212463,10|0,0:0|0:0,0:0:0:0:
360,80,194044,5,2,1:2:0:0:
360,80,194221,1,0,1:0:0:0:
284,204,194397,2,0,P|336:224|376:228,1,85.0000016212463,10|0,0:0|0:0,0:0:0:0:
456,328,194750,2,0,P|414:335|375:351,1,85.0000016212463,0|2,1:0|1:2,0:0:0:0:
176,296,195103,1,8,0:0:0:0:
284,204,195280,6,0,L|262:372,1,170.000003242493,6|0,1:2|1:0,0:0:0:0:
108,236,195809,2,0,P|100:180|104:128,1,85.0000016212463,10|0,0:0|0:0,0:0:0:0:
212,44,196162,1,2,1:2:0:0:
212,44,196338,1,0,1:0:0:0:
260,184,196515,1,10,0:0:0:0:
396,92,196691,1,0,3:0:0:0:
396,92,196780,1,0,3:0:0:0:
396,92,196868,22,0,L|300:76,1,85.0000016212463,6|0,1:2|0:0,0:0:0:0:
156,140,197221,1,0,1:0:0:0:
252,272,197397,2,0,L|420:250,1,170.000003242493,14|10,0:0|3:0,0:0:0:0:
396,92,197927,1,10,3:0:0:0:
396,92,198103,6,0,P|334:121|382:170,1,160,6|0,1:2|1:0,0:0:0:0:
460,228,198632,2,0,L|448:307,1,79.9999999999999,10|0,0:0|0:0,0:0:0:0:
356,264,198985,2,0,L|344:343,1,79.9999999999999,2|0,1:2|1:0,0:0:0:0:
252,300,199338,2,0,L|240:379,1,79.9999999999999,10|0,0:0|0:0,0:0:0:0:
160,280,199691,6,0,P|128:256|64:248,1,79.9999999999999,2|0,1:2|1:0,0:0:0:0:
16,152,200044,2,0,P|54:142|86:118,1,79.9999999999999,10|0,0:0|0:0,0:0:0:0:
232,24,200397,2,0,L|216:168,1,120,2|0,1:2|3:0,0:0:0:0:
228,176,200750,2,0,P|259:199|298:209,1,79.9999999999999,8|0,0:0|0:0,0:0:0:0:
456,160,201103,5,2,1:2:0:0:
456,160,201280,1,0,1:0:0:0:
400,284,201456,2,0,L|388:363,1,79.9999999999999,10|0,0:0|0:0,0:0:0:0:
279,355,201809,2,0,P|230:323|172:329,1,120,2|0,1:2|3:0,0:0:0:0:
136,352,202162,2,0,L|124:272,1,79.9999999999999,8|2,0:0|0:0,0:0:0:0:
104,132,202515,21,0,1:0:0:0:
268,200,202691,1,0,1:0:0:0:
232,64,202868,1,8,0:0:0:0:
172,200,203044,1,0,3:0:0:0:
172,200,203132,1,0,3:0:0:0:
172,200,203221,1,0,1:0:0:0:
312,116,203397,2,0,L|391:104,1,79.9999999999999,4|8,1:2|0:0,0:0:0:0:
480,212,203750,1,2,3:2:0:0:
480,212,203838,1,0,3:2:0:0:
479,212,203927,6,0,P|443:227|404:222,1,79.9999999999999,2|0,1:2|1:0,0:0:0:0:
320,268,204280,2,0,P|283:252|244:257,1,79.9999999999999,10|0,0:0|0:0,0:0:0:0:
116,320,204632,1,2,1:2:0:0:
116,320,204809,1,0,1:0:0:0:
132,208,204985,2,0,L|143:128,1,79.9999999999999,10|0,0:0|0:0,0:0:0:0:
252,48,205338,6,0,P|276:88|272:140,1,79.9999999999999,2|0,1:2|1:0,0:0:0:0:
212,240,205691,1,10,0:0:0:0:
368,188,205868,1,0,3:0:0:0:
368,188,205956,1,0,3:0:0:0:
368,188,206044,1,2,1:2:0:0:
348,304,206221,2,0,L|336:383,1,79.9999999999999,0|8,1:0|0:0,0:0:0:0:
212,240,206574,1,2,0:0:0:0:
212,240,206750,6,0,P|172:216|120:220,1,79.9999999999999,2|0,1:2|1:0,0:0:0:0:
32,148,207103,1,10,0:0:0:0:
144,88,207280,1,0,3:0:0:0:
144,88,207368,1,0,3:0:0:0:
144,88,207456,2,0,L|216:55,1,79.9999999999999,2|2,1:2|1:2,0:0:0:0:
344,120,207809,1,8,0:0:0:0:
248,320,207985,22,0,P|228:243|241:164,1,160,2|0,1:2|1:0,0:0:0:0:
408,192,208515,2,0,B|416:236|416:236|407:270,1,79.9999999999999,8|0,0:0|0:0,0:0:0:0:
248,320,208868,1,2,1:2:0:0:
88,204,209044,1,8,0:0:0:0:
88,204,209132,1,8,0:0:0:0:
88,204,209221,2,0,L|64:164,3,40,0|0|0|0,3:0|3:0|3:0|3:0,0:0:0:0:
152,144,209574,6,0,P|196:164|288:112,1,160,4|10,1:2|0:0,0:0:0:0:
416,136,210103,1,0,0:0:0:0:
356,240,210280,2,0,L|356:288,2,40,2|0|0,1:2|3:0|3:0,0:0:0:0:
456,280,210632,1,8,0:0:0:0:
328,368,210809,1,2,1:2:0:0:
328,368,210985,6,0,P|256:348|160:336,1,160,0|8,1:0|0:0,0:0:0:0:
56,256,211515,1,0,0:0:0:0:
180,200,211691,2,0,L|180:248,2,40,0|0|0,1:0|3:0|3:0,0:0:0:0:
88,116,212044,1,8,0:0:0:0:
248,44,212221,1,2,1:2:0:0:
248,43,212397,6,0,P|314:80|309:155,1,160,2|10,1:2|0:0,0:0:0:0:
180,200,212927,1,0,0:0:0:0:
296,288,213103,2,0,L|344:288,2,40,2|0|0,1:2|3:0|3:0,0:0:0:0:
140,288,213456,1,8,0:0:0:0:
296,184,213632,1,2,1:2:0:0:
296,183,213809,22,0,P|334:174|374:168,1,79.9999999999999,0|0,1:0|1:0,0:0:0:0:
480,348,214162,2,0,P|440:342|401:332,1,79.9999999999999,8|0,0:0|3:0,0:0:0:0:
336,288,214427,2,0,L|296:288,1,40,0|2,3:0|1:2,0:0:0:0:
196,356,214691,1,0,0:0:0:0:
84,284,214868,2,0,P|72:240|88:184,1,79.9999999999999,14|0,0:0|0:0,0:0:0:0:
172,48,215221,6,0,P|224:104|208:180,1,160,4|2,1:2|1:2,0:0:0:0:
31,139,215750,1,0,1:0:0:0:
143,127,215927,2,0,L|302:110,1,160,8|0,0:0|1:0,0:0:0:0:
408,232,216456,1,0,1:0:0:0:
272,304,216632,5,0,1:0:0:0:
272,304,216809,2,0,P|264:344|268:384,1,79.9999999999999,8|0,0:0|0:0,0:0:0:0:
308,212,217162,1,0,1:0:0:0:
308,212,217338,2,0,P|277:185|240:168,1,79.9999999999999,8|0,0:0|0:0,0:0:0:0:
160,312,217691,2,0,P|168:272|164:232,1,79.9999999999999,8|2,0:0|1:2,0:0:0:0:
40,124,218044,6,0,P|108:156|168:109,1,160,6|2,1:2|1:2,0:0:0:0:
324,52,218574,1,2,1:2:0:0:
324,52,218750,2,0,L|308:212,1,160,8|2,0:0|1:2,0:0:0:0:
196,316,219280,1,0,3:0:0:0:
196,316,219368,1,0,3:0:0:0:
196,316,219456,22,0,P|160:304|104:296,1,79.9999999999999,0|8,1:0|0:0,0:0:0:0:
64,188,219809,2,0,L|120:176,2,53.3333333333333,0|0|8,1:0|1:0|0:0,0:0:0:0:
152,112,220162,2,0,L|208:100,2,53.3333333333333,10|8|0,0:0|0:0|1:0,0:0:0:0:
264,148,220515,2,0,L|320:136,2,53.3333333333333,2|0|0,1:2|1:0|1:0,0:0:0:0:
356,72,220868,5,4,0:0:0:0:
256,192,221044,12,0,223691,1:0:0:0:
80,148,232162,6,0,P|124:108|204:112,1,119.999996337891,0|0,1:0|3:0,0:0:0:0:
256,148,232691,1,0,3:0:0:0:
256,148,232868,2,0,L|376:144,1,119.999996337891,0|0,1:0|3:0,0:0:0:0:
164,308,233574,6,0,L|160:180,1,119.999996337891,0|0,1:0|3:0,0:0:0:0:
296,232,234103,1,0,3:0:0:0:
296,232,234280,2,0,L|288:368,1,119.999996337891,0|0,1:0|3:0,0:0:0:0:
503,256,234985,22,0,P|456:291|397:295,1,119.999996337891,0|0,1:0|3:0,0:0:0:0:
472,176,235515,1,0,3:0:0:0:
472,176,235692,2,0,L|468:52,1,119.999996337891,0|0,1:0|3:0,0:0:0:0:
284,152,236398,6,0,L|292:20,1,119.999996337891,0|0,1:0|3:0,0:0:0:0:
184,104,236927,1,0,3:0:0:0:
184,104,237104,2,0,L|52:96,1,119.999996337891,0|4,1:0|3:2,0:0:0:0:
340,105,237809,6,0,P|378:126|402:178,1,79.9999999999999,0|0,1:0|3:0,0:0:0:0:
184,104,238162,2,0,P|165:64|176:8,1,79.9999999999999,0|0,1:0|3:0,0:0:0:0:
310,196,238515,2,0,P|301:239|259:277,1,79.9999999999999,0|0,1:0|3:0,0:0:0:0:
262,48,238868,2,0,P|294:18|350:11,1,79.9999999999999,0|0,1:0|3:0,0:0:0:0:
214,196,239221,5,0,1:0:0:0:
214,196,239398,1,0,1:0:0:0:
64,100,239574,1,0,1:0:0:0:
64,100,239751,1,0,1:0:0:0:
84,220,239927,1,0,1:0:0:0:
84,220,240104,1,0,1:0:0:0:
172,84,240280,1,0,1:0:0:0:
172,84,240457,1,0,1:0:0:0:
320,220,240633,21,8,0:0:0:0:
184,192,240809,1,2,3:0:0:0:
312,260,241162,5,0,3:0:0:0:
204,224,241338,1,0,3:0:0:0:
320,296,241691,5,0,3:0:0:0:
188,260,241867,1,0,3:0:0:0:
256,96,243280,21,4,0:0:0:0:
344,68,253691,6,0,L|248:76,1,79.9999999999999,2|0,0:3|0:0,0:0:0:0:
244,108,253956,1,0,3:0:0:0:
244,108,254044,2,0,L|180:104,2,40,2|2|0,0:3|0:3|1:0,0:0:0:0:
316,172,254397,1,0,3:0:0:0:
155,195,254574,6,0,P|107:134|114:56,1,160,6|0,1:2|1:0,0:0:0:0:
188,288,255103,2,0,P|144:292|96:272,1,79.9999999999999,8|2,0:0|0:0,0:0:0:0:
280,232,255456,1,2,1:2:0:0:
280,232,255632,2,0,L|288:328,2,79.9999999999999,0|10|2,1:0|0:0|0:0,0:0:0:0:
424,208,256162,5,0,1:0:0:0:
420,304,256338,1,2,1:2:0:0:
424,208,256515,2,0,P|456:184|500:168,1,79.9999999999999,8|0,0:0|0:0,0:0:0:0:
344,40,256868,1,2,1:2:0:0:
328,156,257044,1,2,1:2:0:0:
464,56,257221,1,10,0:2:0:0:
316,64,257397,6,0,P|236:48|176:-4,1,160,6|0,1:2|1:0,0:0:0:0:
116,76,257927,2,0,P|80:64|16:64,1,79.9999999999999,8|2,0:0|0:0,0:0:0:0:
112,264,258280,1,2,1:2:0:0:
192,216,258456,2,0,L|196:104,1,79.9999999999999,2|8,1:2|0:0,0:0:0:0:
36,212,258809,22,0,P|20:252|24:304,1,79.9999999999999,2|0,1:2|0:0,0:0:0:0:
192,216,259162,2,0,L|284:212,1,79.9999999999999,2|8,1:2|0:0,0:0:0:0:
76,112,259515,2,0,L|72:27,1,79.9999999999999,2|0,0:0|1:0,0:0:0:0:
112,264,259868,2,0,L|108:352,1,79.9999999999999,2|8,1:2|0:0,0:0:0:0:
180,128,260221,1,2,1:2:0:0:
180,128,260309,1,0,1:0:0:0:
180,128,260397,6,0,L|348:116,1,160,4|8,1:2|0:0,0:0:0:0:
404,44,260927,1,0,0:0:0:0:
339,116,261103,1,0,1:0:0:0:
472,140,261280,1,0,1:0:0:0:
404,204,261456,2,0,L|400:300,1,79.9999999999999,8|0,0:0|0:0,0:0:0:0:
252,212,261809,6,0,L|220:160,3,40,0|0|0|0,3:0|3:0|3:0|3:0,0:0:0:0:
180,280,262162,2,0,L|164:228,3,40,2|0|0|0,3:0|3:0|3:0|3:0,0:0:0:0:
96,320,262515,2,0,L|94:265,3,40,2|0|0|0,3:0|3:0|3:0|3:0,0:0:0:0:
92,200,262868,1,8,0:0:0:0:
4,56,263044,6,0,P|88:92|196:60,1,179.999994506836,4|0,1:0|1:0,0:0:0:0:
336,96,263574,2,0,P|376:80|444:80,1,89.999997253418,10|0,0:0|0:0,0:0:0:0:
428,288,263927,1,2,1:2:0:0:
404,184,264103,2,0,P|452:184|512:216,1,89.999997253418,0|10,1:0|0:0,0:0:0:0:
252,212,264456,22,0,P|212:140|220:28,1,179.999994506836,2|2,1:2|1:2,0:0:0:0:
112,172,264986,2,0,L|20:168,1,89.999997253418,8|0,0:0|0:0,0:0:0:0:
232,80,265339,1,2,1:2:0:0:
168,248,265515,1,2,1:2:0:0:
104,64,265691,1,10,0:0:0:0:
268,176,265868,6,0,P|372:160|424:80,1,179.999994506836,6|0,1:2|1:0,0:0:0:0:
312,76,266397,1,10,0:0:0:0:
480,32,266574,1,0,1:0:0:0:
480,32,266662,1,0,1:0:0:0:
480,32,266750,2,0,P|504:72|508:128,1,89.999997253418,2|0,1:2|1:0,0:0:0:0:
416,105,267103,1,10,0:0:0:0:
488,240,267280,6,0,B|448:276|448:276|320:292,1,179.999994506836,2|2,1:2|1:2,0:0:0:0:
322,291,267721,1,0,3:0:0:0:
322,291,267809,1,8,0:0:0:0:
224,212,267986,1,0,0:0:0:0:
40,260,268162,2,0,L|144:264,1,89.999997253418,2|2,1:2|1:2,0:0:0:0:
224,212,268515,1,10,0:0:0:0:
84,176,268692,6,0,P|60:100|72:-3,1,179.999994506836,6|0,1:2|1:0,0:0:0:0:
244,56,269221,2,0,P|204:77|160:85,1,89.999997253418,10|0,0:0|0:0,0:0:0:0:
348,88,269574,1,2,1:2:0:0:
456,80,269750,2,0,P|472:124|476:172,1,89.999997253418,2|10,1:2|0:0,0:0:0:0:
376,352,270103,22,0,P|341:276|384:180,1,179.999994506836,2|0,1:2|1:0,0:0:0:0:
320,128,270544,1,0,3:0:0:0:
320,128,270633,2,0,L|208:120,1,89.999997253418,10|0,0:0|0:0,0:0:0:0:
300,292,270986,1,2,1:2:0:0:
192,236,271162,2,0,L|96:241,1,89.999997253418,2|8,1:2|0:0,0:0:0:0:
4,160,271515,6,0,P|52:224|44:336,1,179.999994506836,6|0,1:2|1:0,0:0:0:0:
120,132,272044,2,0,L|124:36,1,89.999997253418,10|0,0:0|0:0,0:0:0:0:
336,72,272397,1,2,1:2:0:0:
224,189,272574,2,0,L|231:99,1,89.999997253418,2|8,1:2|0:0,0:0:0:0:
384,184,272927,6,0,P|448:124|455:36,1,179.999994506836,6|2,1:2|1:2,0:0:0:0:
336,72,273456,1,10,0:0:0:0:
356,292,273632,1,0,1:0:0:0:
480,164,273809,1,8,0:0:0:0:
236,224,273985,1,2,1:2:0:0:
236,224,274074,1,8,0:0:0:0:
236,224,274162,1,8,0:0:0:0:
356,292,274338,6,0,B|408:300|456:280|456:280|448:324|405:331,1,179.999994506836,6|0,1:2|1:0,0:0:0:0:
272,364,274868,2,0,P|232:342|188:335,1,89.999997253418,8|0,0:0|1:0,0:0:0:0:
100,308,275132,1,0,1:0:0:0:
100,308,275221,2,0,L|88:212,1,89.999997253418,2|0,1:2|1:0,0:0:0:0:
288,120,275574,1,10,0:0:0:0:
192,232,275750,1,2,0:0:0:0:
340,232,275927,21,0,1:0:0:0:
196,140,276103,1,2,1:2:0:0:
348,60,276280,2,0,P|369:98|368:143,1,89.999997253418,8|0,0:0|0:0,0:0:0:0:
264,288,276632,2,0,L|252:377,1,89.999997253418,2|2,1:2|1:2,0:0:0:0:
392,296,276985,1,10,0:0:0:0:
264,196,277162,6,0,P|174:187|85:199,1,179.999994506836,6|0,1:2|1:0,0:0:0:0:
12,108,277691,1,8,0:0:0:0:
172,24,277868,1,2,1:2:0:0:
172,24,277956,1,0,1:0:0:0:
172,24,278044,2,0,L|184:116,1,89.999997253418,2|0,1:2|1:0,0:0:0:0:
85,199,278397,1,10,0:0:0:0:
176,296,278574,6,0,P|232:284|292:284,1,89.999997253418,2|0,1:2|0:0,0:0:0:0:
416,336,278927,2,0,P|428:280|428:220,1,89.999997253418,2|8,1:2|0:0,0:0:0:0:
304,160,279280,2,0,P|292:104|292:44,1,89.999997253418,2|0,0:0|1:0,0:0:0:0:
440,128,279632,1,2,1:2:0:0:
344,240,279809,1,8,0:0:0:0:
180,206,279985,1,2,1:2:0:0:
180,206,280074,1,0,1:0:0:0:
180,206,280162,6,0,L|92:188,1,89.999997253418,4|0,1:2|0:0,0:0:0:0:
20,304,280515,2,0,P|64:328|120:320,1,89.999997253418,8|0,0:0|0:0,0:0:0:0:
280,152,280868,1,0,1:0:0:0:
264,320,281044,1,0,1:0:0:0:
424,352,281221,1,8,0:0:0:0:
423,352,281574,22,0,P|455:274|391:220,1,179.999994506836,2|10,1:2|0:0,0:0:0:0:
280,152,282103,1,2,1:2:0:0:
280,152,282191,1,0,1:0:0:0:
280,152,282280,2,0,L|261:63,1,89.999997253418,0|2,1:2|1:2,0:0:0:0:
136,12,282632,1,8,0:0:0:0:
16,72,282809,1,2,0:0:0:0:
132,140,282985,6,0,L|124:236,1,89.999997253418,4|0,1:2|1:0,0:0:0:0:
28,348,283338,2,0,P|108:311|194:333,1,179.999994506836,8|0,0:0|1:0,0:0:0:0:
368,296,283868,1,0,1:0:0:0:
263,243,284044,2,0,P|245:203|245:158,1,89.999997253418,8|0,0:0|0:0,0:0:0:0:
422,47,284397,6,0,P|455:129|436:215,1,179.999994506836,0|8,1:0|0:0,0:0:0:0:
263,243,284927,1,0,1:0:0:0:
263,243,285015,1,0,1:0:0:0:
263,243,285103,1,2,1:2:0:0:
368,296,285280,1,2,1:2:0:0:
256,360,285456,2,0,L|164:348,1,89.999997253418,10|2,0:0|0:0,0:0:0:0:
32,264,285809,6,0,P|24:216|24:168,1,89.999997253418,4|2,1:2|0:0,0:0:0:0:
192,72,286162,1,2,1:2:0:0:
192,72,286338,2,0,L|164:252,1,179.999994506836,8|2,0:0|1:2,0:0:0:0:
23,174,286868,1,10,0:0:0:0:
217,159,287044,1,2,1:2:0:0:
217,159,287132,1,0,1:0:0:0:
217,159,287221,22,0,L|337:149,2,119.999996337891,4|2|2,1:0|1:2|1:2,0:0:0:0:
132,136,288103,2,0,L|116:64,1,59.9999981689453,10|0,0:0|0:0,0:0:0:0:
337,71,288456,6,0,P|408:118|394:202,1,179.999994506836,6|0,1:2|1:0,0:0:0:0:
271,268,288985,2,0,P|263:312|263:357,1,89.999997253418,8|0,0:0|0:0,0:0:0:0:
104,204,289338,1,0,1:0:0:0:
104,204,289515,1,0,1:0:0:0:
249,169,289691,2,0,L|337:149,1,89.999997253418,8|0,0:0|0:0,0:0:0:0:
444,304,290044,6,0,B|396:328|396:328|271:308,1,179.999994506836,0|10,1:0|0:0,0:0:0:0:
92,280,290574,1,0,1:0:0:0:
92,280,290662,1,0,1:0:0:0:
92,280,290750,1,2,1:2:0:0:
252,204,290927,1,0,1:0:0:0:
60,168,291103,1,10,0:0:0:0:
216,92,291280,6,0,L|200:271,1,179.999994506836,4|0,1:2|1:0,0:0:0:0:
396,216,291809,1,8,0:0:0:0:
356,344,291985,1,0,1:0:0:0:
356,344,292074,1,0,1:0:0:0:
356,344,292162,2,0,P|308:352|256:328,1,89.999997253418,0|0,1:0|1:0,0:0:0:0:
176,184,292515,1,10,0:0:0:0:
176,184,292868,22,0,L|265:173,1,89.999997253418,2|0,1:2|1:0,0:0:0:0:
444,148,293221,1,8,0:0:0:0:
320,72,293397,1,0,0:0:0:0:
360,244,293574,1,0,1:0:0:0:
360,244,293662,1,0,1:0:0:0:
360,244,293750,1,0,1:0:0:0:
444,148,293927,1,8,0:0:0:0:
265,173,294103,6,0,P|254:262|252:352,1,179.999994506836,6|0,1:2|1:0,0:0:0:0:
360,244,294632,1,8,0:0:0:0:
160,220,294809,1,0,1:0:0:0:
160,220,294897,1,0,1:0:0:0:
160,220,294985,2,0,L|70:212,1,89.999997253418,0|0,1:0|1:0,0:0:0:0:
232,88,295338,1,8,0:0:0:0:
232,88,295691,6,0,L|321:80,1,89.999997253418,0|0,1:0|1:0,0:0:0:0:
456,148,296044,1,10,0:0:0:0:
324,220,296221,1,0,1:0:0:0:
324,220,296309,1,0,1:0:0:0:
324,220,296397,1,2,1:2:0:0:
408,320,296574,2,0,L|497:312,1,89.999997253418,0|10,1:0|0:0,0:0:0:0:
324,220,296927,6,0,B|232:200|232:200|147:215,1,179.999994506836,4|0,1:2|1:0,0:0:0:0:
44,144,297456,2,0,L|131:122,1,89.999997253418,8|0,0:0|0:0,0:0:0:0:
260,88,297809,1,0,1:0:0:0:
260,88,297897,1,0,1:0:0:0:
260,88,297985,1,0,1:0:0:0:
212,292,298162,1,10,0:0:0:0:
212,292,298515,22,0,L|200:336,3,44.999998626709,2|0|0|0,1:2|3:0|3:0|3:0,0:0:0:0:
296,284,298868,2,0,L|283:327,3,44.999998626709,8|0|0|0,0:0|3:0|3:0|3:0,0:0:0:0:
368,236,299221,2,0,L|355:192,3,44.999998626709,0|0|0|0,1:0|3:0|3:0|3:0,0:0:0:0:
451,244,299574,1,8,0:0:0:0:
404,112,299750,6,0,P|318:102|262:168,1,179.999994506836,6|0,1:2|1:0,0:0:0:0:
283,327,300280,1,10,0:0:0:0:
368,236,300456,1,0,1:0:0:0:
368,236,300544,1,0,1:0:0:0:
368,236,300632,1,2,1:2:0:0:
184,264,300809,1,0,1:0:0:0:
96,176,300985,2,0,L|104:80,1,89.999997253418,10|0,0:0|0:0,0:0:0:0:
236,36,301338,6,0,P|288:106|281:194,1,179.999994506836,2|10,1:2|0:0,0:0:0:0:
184,264,301868,1,0,0:0:0:0:
96,176,302044,2,0,L|4:164,1,89.999997253418,0|2,1:0|1:2,0:0:0:0:
72,320,302397,1,8,0:0:0:0:
71,320,302574,6,0,P|161:310|251:310,1,179.999994506836,6|0,1:2|1:0,0:0:0:0:
396,336,303103,2,0,P|408:284|404:232,1,89.999997253418,10|0,0:0|1:0,0:0:0:0:
336,184,303368,1,0,1:0:0:0:
336,184,303456,2,0,L|324:92,1,89.999997253418,2|0,1:2|1:0,0:0:0:0:
492,229,303809,1,10,0:0:0:0:
492,229,304162,22,0,P|451:247|406:247,1,89.999997253418,2|0,1:2|1:0,0:0:0:0:
276,288,304515,2,0,P|235:269|190:269,1,89.999997253418,10|0,0:0|0:0,0:0:0:0:
84,221,304868,2,0,L|40:228,2,44.999998626709,0|0|2,1:0|1:0|1:2,0:0:0:0:
184,148,305221,2,0,L|195:58,1,89.999997253418,8|0,0:0|0:0,0:0:0:0:
64,100,305574,5,8,0:0:0:0:
64,100,305750,1,8,0:0:0:0:
384,80,306103,5,8,0:0:0:0:
384,80,306279,1,8,0:0:0:0:
315,315,306632,5,8,0:0:0:0:
315,315,306809,1,0,1:0:0:0:
164,360,308221,6,0,B|184:296|256:248|256:248|448:144|392:84|368:-4|256:52|256:52|144:-4|120:84|64:144|256:248|256:248|304:276|320:328,1,989.999969787598,4|0,0:0|0:0,0:0:0:0:
256,192,314221,12,0,328338,0:0:0:0:
