osu file format v14

[General]
AudioFilename: Miku+HatsuneAkaitoMikitoPP+Original+MV.mp3
AudioLeadIn: 0
PreviewTime: 68928
Countdown: 0
SampleSet: Normal
StackLeniency: 0.7
Mode: 1
LetterboxInBreaks: 0
WidescreenStoryboard: 0

[Editor]
Bookmarks: 188305
DistanceSpacing: 1.1
BeatDivisor: 4
GridSize: 32
TimelineZoom: 1.6

[Metadata]
Title:Akaito
TitleUnicode:アカイト
Artist:MikitoP
ArtistUnicode:みきとP
Creator:EdamaMe411
Version:Oni
Source:
Tags:VOCALOID Hatsune Miku Sarishinohara song series Red Thread
BeatmapID:794172
BeatmapSetID:361462

[Difficulty]
HPDrainRate:5
CircleSize:2
OverallDifficulty:5
ApproachRate:5
SliderMultiplier:1.4
SliderTickRate:2

[Events]
//Background and Video events
0,0,"385cbe3a.jpg",0,-100
//Break Periods
//Storyboard Layer 0 (Background)
//Storyboard Layer 1 (Fail)
//Storyboard Layer 2 (Pass)
//Storyboard Layer 3 (Foreground)
//Storyboard Sound Samples

[TimingPoints]
573,352.941176470588,4,1,0,80,1,0
67543,-100,4,1,0,70,0,0
69572,-100,4,1,0,90,0,1
93749,-100,4,1,0,80,0,0
152867,-100,4,1,0,90,0,1
175455,-100,4,1,0,80,0,0
243131,-133.333333333333,4,1,0,65,0,0
253455,-100,4,1,0,80,0,0
262984,-90.9090909090909,4,1,0,90,0,1
287161,-90.9090909090909,4,1,0,90,0,0
288396,-100,4,1,0,90,0,1
306749,-100,4,1,0,90,0,0
308072,-100,4,1,0,60,0,0

[HitObjects]
256,192,573,5,4,0:0:0:0:
192,192,1278,1,0,0:0:0:0:
256,192,1984,1,8,0:0:0:0:
256,192,2690,1,8,0:0:0:0:
224,192,3396,1,4,0:0:0:0:
256,192,4102,1,8,0:0:0:0:
224,192,4808,1,0,0:0:0:0:
256,192,5514,1,0,0:0:0:0:
256,192,6220,1,4,0:0:0:0:
256,192,6572,1,8,0:0:0:0:
192,192,6925,1,0,0:0:0:0:
256,192,7278,1,8,0:0:0:0:
256,192,7631,1,0,0:0:0:0:
256,192,7984,1,8,0:0:0:0:
224,192,8337,1,0,0:0:0:0:
256,192,8514,1,0,0:0:0:0:
224,192,8690,1,8,0:0:0:0:
224,192,9043,1,4,0:0:0:0:
256,192,9749,1,0,0:0:0:0:
224,192,10102,1,8,0:0:0:0:
224,192,10455,1,0,0:0:0:0:
224,192,10631,1,0,0:0:0:0:
224,192,10808,1,8,0:0:0:0:
224,192,10984,1,8,0:0:0:0:
224,192,11161,1,0,0:0:0:0:
224,192,11249,1,0,0:0:0:0:
224,192,11337,1,0,0:0:0:0:
224,192,11425,1,0,0:0:0:0:
224,192,11514,1,0,0:0:0:0:
224,192,11690,1,12,0:0:0:0:
256,192,12043,1,0,0:0:0:0:
256,192,12220,1,8,0:0:0:0:
256,192,12396,1,0,0:0:0:0:
256,192,12484,1,0,0:0:0:0:
256,192,12572,1,0,0:0:0:0:
256,192,12749,1,0,0:0:0:0:
256,192,12925,1,8,0:0:0:0:
256,192,13102,1,0,0:0:0:0:
256,192,13278,1,0,0:0:0:0:
256,192,13455,1,0,0:0:0:0:
256,192,13543,1,0,0:0:0:0:
256,192,13631,1,8,0:0:0:0:
256,192,13808,1,0,0:0:0:0:
256,192,13984,1,8,0:0:0:0:
256,192,14072,1,8,0:0:0:0:
256,192,14161,1,0,0:0:0:0:
256,192,14337,1,8,0:0:0:0:
256,192,14514,1,4,0:0:0:0:
256,192,14867,1,0,0:0:0:0:
256,192,15043,1,8,0:0:0:0:
256,192,15220,1,0,0:0:0:0:
256,192,15308,1,0,0:0:0:0:
256,192,15396,1,0,0:0:0:0:
256,192,15572,1,0,0:0:0:0:
256,192,15749,1,8,0:0:0:0:
256,192,15925,1,0,0:0:0:0:
256,192,16102,1,0,0:0:0:0:
256,192,16278,1,0,0:0:0:0:
256,192,16367,1,0,0:0:0:0:
256,192,16455,1,8,0:0:0:0:
256,192,16631,1,0,0:0:0:0:
256,192,16808,1,8,0:0:0:0:
256,192,16896,1,8,0:0:0:0:
256,192,16984,1,8,0:0:0:0:
256,192,17161,1,8,0:0:0:0:
256,192,17337,1,4,0:0:0:0:
256,192,17690,1,0,0:0:0:0:
256,192,17867,1,8,0:0:0:0:
256,192,18043,1,0,0:0:0:0:
256,192,18220,1,8,0:0:0:0:
256,192,18308,1,0,0:0:0:0:
256,192,18396,1,0,0:0:0:0:
256,192,18484,1,0,0:0:0:0:
256,192,18572,1,8,0:0:0:0:
256,192,18749,1,0,0:0:0:0:
256,192,18925,1,8,0:0:0:0:
256,192,19014,1,8,0:0:0:0:
256,192,19102,1,0,0:0:0:0:
256,192,19278,1,8,0:0:0:0:
256,192,19455,1,0,0:0:0:0:
256,192,19631,1,0,0:0:0:0:
256,192,19720,1,0,0:0:0:0:
256,192,19808,1,0,0:0:0:0:
256,192,19984,1,12,0:0:0:0:
256,192,20337,1,4,0:0:0:0:
256,192,20514,1,4,0:0:0:0:
256,192,20867,1,4,0:0:0:0:
256,192,21043,1,12,0:0:0:0:
256,192,21396,1,12,0:0:0:0:
256,192,21572,1,4,0:0:0:0:
256,192,22984,1,4,0:0:0:0:
256,192,23337,1,0,0:0:0:0:
256,192,23514,1,8,0:0:0:0:
256,192,23867,1,0,0:0:0:0:
256,192,24043,1,0,0:0:0:0:
256,192,24220,1,8,0:0:0:0:
256,192,24572,1,0,0:0:0:0:
256,192,24749,1,0,0:0:0:0:
256,192,24925,1,8,0:0:0:0:
256,192,25102,1,0,0:0:0:0:
256,192,25455,1,0,0:0:0:0:
256,192,25631,1,8,0:0:0:0:
288,192,25808,1,0,0:0:0:0:
256,192,26161,1,0,0:0:0:0:
256,192,26337,1,8,0:0:0:0:
256,192,26690,1,0,0:0:0:0:
224,192,26778,1,0,0:0:0:0:
224,192,26867,1,0,0:0:0:0:
224,192,27043,1,8,0:0:0:0:
224,192,27396,1,0,0:0:0:0:
256,192,27572,1,0,0:0:0:0:
256,192,27749,1,8,0:0:0:0:
256,192,27925,1,0,0:0:0:0:
256,192,28278,1,0,0:0:0:0:
256,192,28455,1,8,0:0:0:0:
256,192,28631,1,0,0:0:0:0:
256,192,28984,1,0,0:0:0:0:
256,192,29161,1,8,0:0:0:0:
256,192,29514,1,0,0:0:0:0:
256,192,29690,1,0,0:0:0:0:
256,192,29867,1,8,0:0:0:0:
256,192,30220,1,0,0:0:0:0:
256,192,30308,1,0,0:0:0:0:
256,192,30396,1,0,0:0:0:0:
256,192,30572,1,8,0:0:0:0:
256,192,30749,1,0,0:0:0:0:
256,192,31102,1,0,0:0:0:0:
256,192,31278,1,8,0:0:0:0:
256,192,31455,1,0,0:0:0:0:
256,192,31808,1,0,0:0:0:0:
256,192,31984,1,8,0:0:0:0:
256,192,32337,1,0,0:0:0:0:
256,192,32514,1,0,0:0:0:0:
256,192,32690,1,8,0:0:0:0:
256,192,33043,1,0,0:0:0:0:
256,192,33220,1,0,0:0:0:0:
256,192,33396,1,8,0:0:0:0:
256,192,33572,1,0,0:0:0:0:
256,192,33749,1,8,0:0:0:0:
256,192,33837,1,8,0:0:0:0:
256,192,33925,1,0,0:0:0:0:
256,192,34014,1,0,0:0:0:0:
256,192,34102,1,8,0:0:0:0:
256,192,34278,1,4,0:0:0:0:
256,192,34631,1,0,0:0:0:0:
256,192,34808,1,8,0:0:0:0:
256,192,34984,1,0,0:0:0:0:
256,192,35072,1,0,0:0:0:0:
256,192,35161,1,8,0:0:0:0:
256,192,35337,1,0,0:0:0:0:
256,192,35514,1,8,0:0:0:0:
256,192,35867,1,0,0:0:0:0:
256,192,36043,1,0,0:0:0:0:
256,192,36220,1,8,0:0:0:0:
224,192,36396,1,0,0:0:0:0:
224,192,36749,1,0,0:0:0:0:
224,192,36925,1,8,0:0:0:0:
224,192,37102,1,0,0:0:0:0:
224,192,37455,1,0,0:0:0:0:
256,192,37631,1,8,0:0:0:0:
256,160,37808,1,0,0:0:0:0:
256,160,37896,1,0,0:0:0:0:
192,192,37984,1,0,0:0:0:0:
224,192,38161,1,0,0:0:0:0:
192,192,38337,1,8,0:0:0:0:
256,160,38690,1,0,0:0:0:0:
256,160,38867,1,0,0:0:0:0:
224,160,39043,1,8,0:0:0:0:
256,160,39220,1,0,0:0:0:0:
256,160,39308,1,0,0:0:0:0:
256,160,39396,1,0,0:0:0:0:
256,160,39572,1,8,0:0:0:0:
288,160,39749,1,8,0:0:0:0:
256,160,39925,1,0,0:0:0:0:
256,192,40278,1,0,0:0:0:0:
256,192,40455,1,8,0:0:0:0:
256,192,40808,1,0,0:0:0:0:
256,192,40984,1,0,0:0:0:0:
256,192,41161,1,8,0:0:0:0:
256,192,41514,1,0,0:0:0:0:
256,192,41690,1,0,0:0:0:0:
256,192,41867,1,8,0:0:0:0:
256,192,42043,1,0,0:0:0:0:
256,192,42131,1,0,0:0:0:0:
256,192,42220,1,8,0:0:0:0:
256,192,42396,1,0,0:0:0:0:
256,192,42572,1,8,0:0:0:0:
256,192,42749,1,0,0:0:0:0:
256,192,43102,1,0,0:0:0:0:
256,192,43278,1,8,0:0:0:0:
256,192,43631,1,0,0:0:0:0:
256,192,43808,1,0,0:0:0:0:
256,192,43984,1,8,0:0:0:0:
256,192,44161,1,0,0:0:0:0:
256,192,44249,1,0,0:0:0:0:
256,192,44337,1,8,0:0:0:0:
256,192,44514,1,0,0:0:0:0:
256,192,44690,1,8,0:0:0:0:
256,192,44867,1,0,0:0:0:0:
256,192,44955,1,8,0:0:0:0:
256,192,45043,1,8,0:0:0:0:
256,192,45220,1,0,0:0:0:0:
224,192,45396,1,8,0:0:0:0:
256,192,45572,1,4,0:0:0:0:
224,192,45925,1,0,0:0:0:0:
224,192,46102,1,0,0:0:0:0:
224,192,46455,1,8,0:0:0:0:
224,192,46984,1,0,0:0:0:0:
224,192,47161,1,8,0:0:0:0:
224,192,47337,1,0,0:0:0:0:
224,192,47514,1,0,0:0:0:0:
224,192,47867,1,8,0:0:0:0:
224,192,48220,1,0,0:0:0:0:
256,192,48396,1,4,0:0:0:0:
256,192,48749,1,8,0:0:0:0:
224,192,48925,1,0,0:0:0:0:
224,192,49278,1,8,0:0:0:0:
224,192,49808,1,8,0:0:0:0:
224,192,49984,1,0,0:0:0:0:
224,192,50161,1,0,0:0:0:0:
224,192,50337,1,8,0:0:0:0:
224,192,50690,1,8,0:0:0:0:
224,192,50867,1,0,0:0:0:0:
224,192,51220,1,4,0:0:0:0:
256,192,51572,1,8,0:0:0:0:
256,192,51749,1,0,0:0:0:0:
256,192,52102,1,8,0:0:0:0:
224,192,52631,1,0,0:0:0:0:
224,192,52808,1,0,0:0:0:0:
256,192,53161,1,0,0:0:0:0:
256,192,53514,1,8,0:0:0:0:
256,192,53690,1,0,0:0:0:0:
256,160,53867,1,8,0:0:0:0:
256,192,54043,1,4,0:0:0:0:
256,192,54396,1,0,0:0:0:0:
256,160,54572,1,8,0:0:0:0:
256,160,54925,1,8,0:0:0:0:
256,160,55278,1,8,0:0:0:0:
256,160,55455,1,0,0:0:0:0:
256,160,55631,1,0,0:0:0:0:
256,160,55808,1,8,0:0:0:0:
256,160,55984,1,0,0:0:0:0:
256,160,56161,1,0,0:0:0:0:
256,160,56249,1,0,0:0:0:0:
256,160,56337,1,8,0:0:0:0:
256,160,56514,1,0,0:0:0:0:
256,160,56690,1,8,0:0:0:0:
256,160,56867,1,4,0:0:0:0:
256,192,57220,1,0,0:0:0:0:
256,192,57396,1,8,0:0:0:0:
256,192,57572,1,8,0:0:0:0:
256,192,57749,1,0,0:0:0:0:
256,192,57925,1,0,0:0:0:0:
256,192,58014,1,0,0:0:0:0:
256,192,58102,1,8,0:0:0:0:
256,192,58278,1,0,0:0:0:0:
256,192,58455,1,8,0:0:0:0:
256,192,58631,1,0,0:0:0:0:
256,192,58808,1,8,0:0:0:0:
256,192,58984,1,0,0:0:0:0:
256,192,59072,1,0,0:0:0:0:
256,192,59161,1,0,0:0:0:0:
256,192,59337,1,0,0:0:0:0:
256,192,59514,1,8,0:0:0:0:
256,192,59690,1,0,0:0:0:0:
256,224,59867,1,8,0:0:0:0:
256,192,60043,1,0,0:0:0:0:
256,192,60220,1,8,0:0:0:0:
256,192,60396,1,0,0:0:0:0:
256,192,60484,1,0,0:0:0:0:
256,192,60572,1,8,0:0:0:0:
256,192,60749,1,0,0:0:0:0:
256,192,60925,1,8,0:0:0:0:
256,192,61278,1,8,0:0:0:0:
256,192,61631,1,8,0:0:0:0:
256,192,61808,1,0,0:0:0:0:
256,192,61896,1,0,0:0:0:0:
256,192,61984,1,8,0:0:0:0:
256,192,62161,1,0,0:0:0:0:
256,192,62337,1,8,0:0:0:0:
256,192,62514,1,0,0:0:0:0:
256,192,62690,1,12,0:0:0:0:
224,192,62867,1,0,0:0:0:0:
256,192,62955,1,0,0:0:0:0:
256,192,63043,1,0,0:0:0:0:
224,192,63220,1,8,0:0:0:0:
256,192,63572,1,0,0:0:0:0:
256,192,63749,1,8,0:0:0:0:
256,192,63925,1,0,0:0:0:0:
256,192,64102,1,12,0:0:0:0:
256,192,64278,1,0,0:0:0:0:
256,192,64367,1,0,0:0:0:0:
256,192,64455,1,8,0:0:0:0:
256,192,64631,1,8,0:0:0:0:
256,192,64984,1,0,0:0:0:0:
256,192,65161,1,8,0:0:0:0:
256,224,65337,1,0,0:0:0:0:
256,192,65514,1,4,0:0:0:0:
256,192,65867,1,0,0:0:0:0:
256,192,66043,1,8,0:0:0:0:
256,192,66220,1,0,0:0:0:0:
256,192,66396,1,0,0:0:0:0:
224,160,66484,1,0,0:0:0:0:
256,192,66572,1,8,0:0:0:0:
256,192,66749,1,0,0:0:0:0:
256,192,66925,1,0,0:0:0:0:
256,192,67102,1,8,0:0:0:0:
256,192,67455,1,8,0:0:0:0:
256,192,67631,12,8,69043,0:0:0:0:
256,192,69572,5,4,0:0:0:0:
256,192,69925,1,0,0:0:0:0:
256,192,70102,1,8,0:0:0:0:
256,192,70278,1,0,0:0:0:0:
256,192,70367,1,0,0:0:0:0:
256,192,70455,1,8,0:0:0:0:
256,192,70631,1,0,0:0:0:0:
256,192,70720,1,0,0:0:0:0:
256,192,70808,1,8,0:0:0:0:
256,192,70984,1,8,0:0:0:0:
256,192,71161,1,0,0:0:0:0:
256,192,71337,1,0,0:0:0:0:
256,192,71514,1,8,0:0:0:0:
256,192,71690,1,0,0:0:0:0:
256,192,71778,1,0,0:0:0:0:
256,192,71867,1,0,0:0:0:0:
256,192,72043,1,0,0:0:0:0:
256,192,72220,1,8,0:0:0:0:
256,160,72396,1,4,0:0:0:0:
256,192,72749,1,0,0:0:0:0:
256,192,72925,1,8,0:0:0:0:
256,192,73102,1,0,0:0:0:0:
256,192,73190,1,0,0:0:0:0:
256,192,73278,1,8,0:0:0:0:
256,192,73455,1,8,0:0:0:0:
256,192,73543,1,0,0:0:0:0:
256,192,73631,1,8,0:0:0:0:
256,192,73808,1,8,0:0:0:0:
256,192,73984,1,0,0:0:0:0:
256,192,74161,1,0,0:0:0:0:
256,192,74337,1,8,0:0:0:0:
256,192,74514,1,0,0:0:0:0:
256,192,74602,1,0,0:0:0:0:
256,192,74690,1,0,0:0:0:0:
256,160,74867,1,0,0:0:0:0:
256,160,75043,1,8,0:0:0:0:
224,192,75220,1,4,0:0:0:0:
256,192,75572,1,0,0:0:0:0:
256,192,75749,1,8,0:0:0:0:
256,192,75925,1,0,0:0:0:0:
256,192,76014,1,0,0:0:0:0:
256,192,76102,1,0,0:0:0:0:
256,192,76278,1,0,0:0:0:0:
256,192,76455,1,8,0:0:0:0:
256,192,76631,1,0,0:0:0:0:
256,192,76808,1,8,0:0:0:0:
224,192,76896,1,0,0:0:0:0:
256,192,76984,1,0,0:0:0:0:
256,192,77072,1,0,0:0:0:0:
256,192,77161,1,8,0:0:0:0:
256,192,77337,1,0,0:0:0:0:
256,192,77514,1,8,0:0:0:0:
256,192,77602,1,8,0:0:0:0:
256,192,77690,1,0,0:0:0:0:
256,192,77867,1,8,0:0:0:0:
256,192,78043,1,4,0:0:0:0:
224,192,78396,1,0,0:0:0:0:
224,192,78572,1,8,0:0:0:0:
224,192,78925,1,0,0:0:0:0:
224,192,79102,1,0,0:0:0:0:
224,192,79278,1,8,0:0:0:0:
224,192,79455,1,4,0:0:0:0:
224,192,79808,1,0,0:0:0:0:
224,192,79984,1,8,0:0:0:0:
224,192,80337,1,0,0:0:0:0:
224,192,80514,1,0,0:0:0:0:
224,192,80602,1,8,0:0:0:0:
224,192,80690,1,0,0:0:0:0:
224,192,80867,1,12,0:0:0:0:
224,192,81220,1,0,0:0:0:0:
224,192,81396,1,8,0:0:0:0:
224,192,81572,1,0,0:0:0:0:
224,192,81661,1,0,0:0:0:0:
224,192,81749,1,8,0:0:0:0:
224,192,81925,1,0,0:0:0:0:
224,192,82014,1,0,0:0:0:0:
224,192,82102,1,8,0:0:0:0:
224,192,82278,1,8,0:0:0:0:
224,192,82455,1,0,0:0:0:0:
224,192,82631,1,0,0:0:0:0:
256,192,82808,1,8,0:0:0:0:
224,192,82984,1,0,0:0:0:0:
256,224,83161,1,8,0:0:0:0:
256,192,83249,1,8,0:0:0:0:
256,192,83337,1,0,0:0:0:0:
256,192,83514,1,8,0:0:0:0:
256,192,83690,1,4,0:0:0:0:
256,192,84043,1,0,0:0:0:0:
256,192,84220,1,8,0:0:0:0:
256,192,84396,1,0,0:0:0:0:
256,192,84484,1,0,0:0:0:0:
256,192,84572,1,8,0:0:0:0:
256,192,84749,1,0,0:0:0:0:
256,192,84925,1,8,0:0:0:0:
256,192,85102,1,0,0:0:0:0:
256,192,85190,1,0,0:0:0:0:
256,192,85278,1,0,0:0:0:0:
256,192,85367,1,0,0:0:0:0:
256,192,85455,1,8,0:0:0:0:
256,192,85631,1,8,0:0:0:0:
256,192,85808,1,0,0:0:0:0:
256,192,85896,1,0,0:0:0:0:
256,192,85984,1,0,0:0:0:0:
256,192,86161,1,0,0:0:0:0:
256,192,86337,1,8,0:0:0:0:
224,192,86514,1,8,0:0:0:0:
256,192,86690,1,4,0:0:0:0:
224,192,87043,1,8,0:0:0:0:
224,192,87220,1,0,0:0:0:0:
224,192,87308,1,0,0:0:0:0:
224,192,87396,1,0,0:0:0:0:
224,192,87572,1,0,0:0:0:0:
224,192,87749,1,8,0:0:0:0:
224,192,87925,1,0,0:0:0:0:
224,192,88102,1,8,0:0:0:0:
224,192,88190,1,0,0:0:0:0:
224,192,88278,1,0,0:0:0:0:
224,192,88367,1,0,0:0:0:0:
224,192,88455,1,8,0:0:0:0:
224,192,88631,1,0,0:0:0:0:
224,192,88720,1,0,0:0:0:0:
224,192,88808,1,0,0:0:0:0:
224,192,88984,1,0,0:0:0:0:
256,192,89072,1,0,0:0:0:0:
224,192,89161,1,8,0:0:0:0:
256,192,89337,1,8,0:0:0:0:
224,192,89514,1,4,0:0:0:0:
256,192,89867,1,8,0:0:0:0:
256,192,90043,1,0,0:0:0:0:
256,192,90220,1,0,0:0:0:0:
256,192,90396,1,0,0:0:0:0:
256,192,90572,1,8,0:0:0:0:
256,192,90925,1,0,0:0:0:0:
256,192,91102,1,0,0:0:0:0:
256,192,91190,1,0,0:0:0:0:
256,192,91278,1,8,0:0:0:0:
256,192,91455,1,0,0:0:0:0:
256,192,91631,1,8,0:0:0:0:
256,192,91720,1,8,0:0:0:0:
256,192,91808,1,0,0:0:0:0:
256,192,91896,1,0,0:0:0:0:
256,192,91984,1,8,0:0:0:0:
288,224,92161,1,0,0:0:0:0:
288,224,92337,1,12,0:0:0:0:
288,224,92690,1,0,0:0:0:0:
288,224,92867,1,8,0:0:0:0:
288,224,93043,1,0,0:0:0:0:
256,224,93220,1,0,0:0:0:0:
288,224,93308,1,0,0:0:0:0:
288,224,93396,1,8,0:0:0:0:
288,224,93572,1,0,0:0:0:0:
288,224,93749,1,12,0:0:0:0:
288,224,94808,1,8,0:0:0:0:
288,224,94984,1,4,0:0:0:0:
288,224,95337,1,0,0:0:0:0:
256,192,95514,1,8,0:0:0:0:
256,192,95867,1,0,0:0:0:0:
256,192,96043,1,0,0:0:0:0:
256,192,96220,1,8,0:0:0:0:
256,192,96572,1,0,0:0:0:0:
256,192,96749,1,0,0:0:0:0:
256,192,96837,1,0,0:0:0:0:
256,192,96925,1,8,0:0:0:0:
256,192,97102,1,0,0:0:0:0:
256,192,97278,1,8,0:0:0:0:
256,192,97367,1,8,0:0:0:0:
256,192,97455,1,0,0:0:0:0:
256,192,97631,1,8,0:0:0:0:
256,192,97808,1,4,0:0:0:0:
224,192,98161,1,0,0:0:0:0:
224,192,98337,1,8,0:0:0:0:
256,192,98690,1,0,0:0:0:0:
256,192,98867,1,0,0:0:0:0:
256,192,99043,1,8,0:0:0:0:
256,192,99396,1,0,0:0:0:0:
256,192,99572,1,0,0:0:0:0:
256,192,99661,1,0,0:0:0:0:
256,192,99749,1,8,0:0:0:0:
256,192,99925,1,0,0:0:0:0:
256,192,100102,1,0,0:0:0:0:
256,192,100190,1,8,0:0:0:0:
256,192,100278,1,0,0:0:0:0:
256,192,100367,1,0,0:0:0:0:
256,192,100455,1,8,0:0:0:0:
256,192,100631,1,4,0:0:0:0:
224,128,100984,1,0,0:0:0:0:
224,160,101161,1,8,0:0:0:0:
256,192,101337,1,8,0:0:0:0:
256,192,101514,1,0,0:0:0:0:
256,160,101602,1,0,0:0:0:0:
256,192,101690,1,0,0:0:0:0:
256,160,101778,1,0,0:0:0:0:
256,192,101867,1,8,0:0:0:0:
288,192,102043,1,0,0:0:0:0:
256,192,102220,1,8,0:0:0:0:
256,224,102308,1,8,0:0:0:0:
256,192,102396,1,0,0:0:0:0:
256,192,102572,1,8,0:0:0:0:
256,224,102749,1,0,0:0:0:0:
256,192,102925,1,0,0:0:0:0:
256,192,103014,1,8,0:0:0:0:
256,192,103102,1,0,0:0:0:0:
256,192,103278,1,12,0:0:0:0:
256,224,103631,1,4,0:0:0:0:
256,224,103808,1,4,0:0:0:0:
256,224,104161,1,4,0:0:0:0:
256,224,104337,1,12,0:0:0:0:
256,224,104690,1,12,0:0:0:0:
256,224,104867,1,4,0:0:0:0:
256,224,105220,1,0,0:0:0:0:
256,224,105308,1,0,0:0:0:0:
256,224,105396,1,8,0:0:0:0:
256,224,105572,1,8,0:0:0:0:
256,224,105749,1,0,0:0:0:0:
256,224,105925,1,0,0:0:0:0:
256,224,106102,1,8,0:0:0:0:
256,224,106278,1,4,0:0:0:0:
256,224,106631,1,0,0:0:0:0:
256,224,106808,1,8,0:0:0:0:
256,192,106984,1,0,0:0:0:0:
256,192,107072,1,0,0:0:0:0:
256,192,107161,1,0,0:0:0:0:
256,192,107337,1,0,0:0:0:0:
256,192,107514,1,8,0:0:0:0:
256,192,107866,1,0,0:0:0:0:
256,192,108043,1,0,0:0:0:0:
256,192,108219,1,8,0:0:0:0:
288,192,108572,1,0,0:0:0:0:
256,192,108749,1,0,0:0:0:0:
256,192,108925,1,8,0:0:0:0:
288,192,109102,1,0,0:0:0:0:
256,192,109455,1,0,0:0:0:0:
256,192,109631,1,8,0:0:0:0:
256,192,109808,1,0,0:0:0:0:
224,192,109896,1,0,0:0:0:0:
256,192,109984,1,8,0:0:0:0:
224,192,110161,1,0,0:0:0:0:
224,192,110337,1,8,0:0:0:0:
224,192,110690,1,0,0:0:0:0:
256,192,110866,1,0,0:0:0:0:
256,192,111043,1,8,0:0:0:0:
256,192,111396,1,0,0:0:0:0:
256,192,111572,1,8,0:0:0:0:
256,192,111749,1,8,0:0:0:0:
256,192,111925,1,0,0:0:0:0:
256,192,112278,1,0,0:0:0:0:
256,192,112367,1,0,0:0:0:0:
256,192,112455,1,8,0:0:0:0:
256,192,112631,1,0,0:0:0:0:
256,192,112808,1,0,0:0:0:0:
256,192,112984,1,0,0:0:0:0:
256,192,113161,1,8,0:0:0:0:
256,192,113514,1,0,0:0:0:0:
256,192,113602,1,0,0:0:0:0:
256,192,113690,1,0,0:0:0:0:
256,192,113866,1,8,0:0:0:0:
256,192,114043,1,0,0:0:0:0:
256,128,114220,1,0,0:0:0:0:
256,192,114396,1,0,0:0:0:0:
256,192,114572,1,8,0:0:0:0:
256,192,114749,1,0,0:0:0:0:
256,192,115102,1,0,0:0:0:0:
256,192,115278,1,8,0:0:0:0:
256,128,115455,1,0,0:0:0:0:
256,192,115631,1,0,0:0:0:0:
256,192,115808,1,0,0:0:0:0:
256,192,115984,1,8,0:0:0:0:
256,192,116161,1,0,0:0:0:0:
256,192,116337,1,8,0:0:0:0:
256,192,116514,1,0,0:0:0:0:
256,192,116602,1,0,0:0:0:0:
256,192,116690,1,8,0:0:0:0:
256,192,116866,1,0,0:0:0:0:
256,192,117043,1,8,0:0:0:0:
256,192,117131,1,8,0:0:0:0:
256,192,117219,1,8,0:0:0:0:
256,192,117308,1,8,0:0:0:0:
256,192,117396,1,0,0:0:0:0:
256,192,117572,1,12,0:0:0:0:
256,192,117925,1,0,0:0:0:0:
256,192,118102,1,8,0:0:0:0:
256,192,118278,1,0,0:0:0:0:
256,192,118366,1,0,0:0:0:0:
256,192,118455,1,8,0:0:0:0:
256,192,118631,1,0,0:0:0:0:
256,192,118808,1,8,0:0:0:0:
256,192,118984,1,0,0:0:0:0:
256,160,119161,1,8,0:0:0:0:
224,160,119249,1,8,0:0:0:0:
256,192,119337,1,0,0:0:0:0:
256,192,119425,1,0,0:0:0:0:
256,192,119514,1,8,0:0:0:0:
224,192,119690,1,8,0:0:0:0:
256,192,119867,1,0,0:0:0:0:
224,192,120043,1,0,0:0:0:0:
256,160,120219,1,8,0:0:0:0:
224,192,120396,1,0,0:0:0:0:
224,192,120749,1,0,0:0:0:0:
256,192,120925,1,8,0:0:0:0:
256,160,121102,1,0,0:0:0:0:
256,160,121190,1,0,0:0:0:0:
192,192,121278,1,0,0:0:0:0:
224,192,121455,1,0,0:0:0:0:
192,192,121631,1,8,0:0:0:0:
256,160,121984,1,0,0:0:0:0:
256,160,122161,1,0,0:0:0:0:
224,160,122337,1,8,0:0:0:0:
256,160,122514,1,0,0:0:0:0:
256,192,122602,1,8,0:0:0:0:
256,192,122690,1,0,0:0:0:0:
256,192,122778,1,0,0:0:0:0:
256,160,122866,1,8,0:0:0:0:
288,160,123043,1,8,0:0:0:0:
256,160,123220,1,0,0:0:0:0:
256,192,123572,1,0,0:0:0:0:
256,192,123749,1,8,0:0:0:0:
256,192,123925,1,0,0:0:0:0:
256,192,124014,1,0,0:0:0:0:
256,192,124102,1,0,0:0:0:0:
256,192,124278,1,0,0:0:0:0:
256,192,124455,1,8,0:0:0:0:
256,192,124808,1,0,0:0:0:0:
256,192,124984,1,0,0:0:0:0:
256,192,125161,1,8,0:0:0:0:
256,192,125337,1,0,0:0:0:0:
256,192,125425,1,0,0:0:0:0:
256,192,125514,1,8,0:0:0:0:
256,192,125602,1,0,0:0:0:0:
256,192,125690,1,8,0:0:0:0:
256,192,125866,1,8,0:0:0:0:
256,192,126043,1,4,0:0:0:0:
256,192,126396,1,0,0:0:0:0:
256,192,126572,1,8,0:0:0:0:
256,192,126925,1,0,0:0:0:0:
256,192,127102,1,0,0:0:0:0:
256,192,127278,1,8,0:0:0:0:
256,192,127455,1,0,0:0:0:0:
256,192,127631,1,8,0:0:0:0:
256,192,127808,1,0,0:0:0:0:
256,192,127896,1,0,0:0:0:0:
256,192,127984,1,8,0:0:0:0:
256,192,128161,1,0,0:0:0:0:
256,192,128249,1,8,0:0:0:0:
256,192,128337,1,8,0:0:0:0:
256,192,128425,1,0,0:0:0:0:
256,192,128514,1,0,0:0:0:0:
256,192,128690,1,8,0:0:0:0:
256,192,128866,1,4,0:0:0:0:
224,192,129220,1,0,0:0:0:0:
224,192,129397,1,0,0:0:0:0:
224,192,129750,1,8,0:0:0:0:
224,192,130279,1,0,0:0:0:0:
224,192,130456,1,8,0:0:0:0:
224,192,130632,1,0,0:0:0:0:
224,192,130809,1,0,0:0:0:0:
224,192,131162,1,8,0:0:0:0:
224,192,131515,1,0,0:0:0:0:
256,192,131691,1,4,0:0:0:0:
256,192,132043,1,0,0:0:0:0:
224,192,132220,1,8,0:0:0:0:
224,192,132572,1,8,0:0:0:0:
224,192,133103,1,8,0:0:0:0:
224,192,133279,1,0,0:0:0:0:
224,192,133456,1,0,0:0:0:0:
224,192,133632,1,8,0:0:0:0:
224,192,133985,1,8,0:0:0:0:
256,192,134161,1,0,0:0:0:0:
224,192,134337,1,8,0:0:0:0:
224,192,134515,1,4,0:0:0:0:
256,192,134867,1,0,0:0:0:0:
256,192,135044,1,0,0:0:0:0:
256,192,135397,1,12,0:0:0:0:
256,224,135749,1,8,0:0:0:0:
224,192,135926,1,0,0:0:0:0:
224,192,136103,1,0,0:0:0:0:
256,192,136456,1,0,0:0:0:0:
256,192,136809,1,8,0:0:0:0:
256,192,136985,1,0,0:0:0:0:
256,160,137162,1,8,0:0:0:0:
256,192,137338,1,4,0:0:0:0:
256,192,137691,1,0,0:0:0:0:
256,160,137867,1,8,0:0:0:0:
256,160,138220,1,8,0:0:0:0:
256,160,138573,1,8,0:0:0:0:
256,160,138750,1,0,0:0:0:0:
256,160,138926,1,0,0:0:0:0:
256,160,139103,1,0,0:0:0:0:
256,192,139190,1,0,0:0:0:0:
256,160,139279,1,8,0:0:0:0:
256,160,139456,1,0,0:0:0:0:
256,160,139544,1,8,0:0:0:0:
256,160,139632,1,8,0:0:0:0:
256,128,139720,1,8,0:0:0:0:
256,128,139808,1,0,0:0:0:0:
256,192,139896,1,0,0:0:0:0:
256,160,139985,1,8,0:0:0:0:
256,160,140162,1,4,0:0:0:0:
256,192,140515,1,0,0:0:0:0:
256,192,140691,1,8,0:0:0:0:
256,192,140867,1,0,0:0:0:0:
256,192,140955,1,0,0:0:0:0:
256,192,141043,1,8,0:0:0:0:
256,192,141220,1,0,0:0:0:0:
256,192,141397,1,8,0:0:0:0:
256,192,141573,1,8,0:0:0:0:
256,192,141661,1,0,0:0:0:0:
256,192,141749,1,0,0:0:0:0:
256,192,141837,1,0,0:0:0:0:
256,192,141925,1,8,0:0:0:0:
256,192,142103,1,8,0:0:0:0:
256,192,142279,1,0,0:0:0:0:
256,192,142367,1,0,0:0:0:0:
256,192,142456,1,0,0:0:0:0:
256,192,142632,1,0,0:0:0:0:
256,192,142809,1,8,0:0:0:0:
256,192,142985,1,0,0:0:0:0:
256,192,143337,1,0,0:0:0:0:
256,192,143515,1,8,0:0:0:0:
256,192,143691,1,0,0:0:0:0:
256,192,143779,1,0,0:0:0:0:
256,192,143867,1,8,0:0:0:0:
256,192,144044,1,8,0:0:0:0:
256,192,144131,1,0,0:0:0:0:
256,192,144220,1,8,0:0:0:0:
256,192,144396,1,0,0:0:0:0:
256,192,144573,1,0,0:0:0:0:
256,192,144926,1,8,0:0:0:0:
256,192,145103,1,0,0:0:0:0:
256,192,145191,1,0,0:0:0:0:
256,192,145279,1,8,0:0:0:0:
256,192,145367,1,0,0:0:0:0:
256,192,145543,1,0,0:0:0:0:
256,192,145631,1,8,0:0:0:0:
256,192,145809,1,8,0:0:0:0:
256,192,145985,1,4,0:0:0:0:
224,192,146162,1,0,0:0:0:0:
256,192,146338,1,8,0:0:0:0:
224,192,146515,1,0,0:0:0:0:
256,192,146603,1,0,0:0:0:0:
256,192,146691,1,8,0:0:0:0:
256,192,146867,1,0,0:0:0:0:
256,192,147044,1,12,0:0:0:0:
256,192,147397,1,0,0:0:0:0:
256,160,147484,1,0,0:0:0:0:
256,192,147573,1,0,0:0:0:0:
256,224,147661,1,0,0:0:0:0:
256,192,147750,1,8,0:0:0:0:
256,192,147926,1,0,0:0:0:0:
256,192,148103,1,8,0:0:0:0:
256,192,148190,1,0,0:0:0:0:
256,192,148279,1,8,0:0:0:0:
256,192,148456,1,8,0:0:0:0:
288,160,148631,1,0,0:0:0:0:
256,192,148809,1,12,0:0:0:0:
256,192,149162,1,8,0:0:0:0:
256,192,149338,1,8,0:0:0:0:
256,192,149515,1,0,0:0:0:0:
256,192,149691,1,0,0:0:0:0:
224,160,149779,1,0,0:0:0:0:
256,192,149867,1,8,0:0:0:0:
256,192,150043,1,8,0:0:0:0:
256,192,150220,1,0,0:0:0:0:
256,192,150397,1,0,0:0:0:0:
256,192,150750,1,8,0:0:0:0:
256,192,151102,1,8,0:0:0:0:
256,192,151278,1,0,0:0:0:0:
256,192,151455,1,0,0:0:0:0:
256,192,151631,1,12,0:0:0:0:
256,192,151808,1,0,0:0:0:0:
288,160,151896,1,0,0:0:0:0:
288,160,151984,1,8,0:0:0:0:
256,160,152072,1,0,0:0:0:0:
256,192,152161,1,0,0:0:0:0:
256,160,152249,1,0,0:0:0:0:
256,192,152337,1,8,0:0:0:0:
256,192,152514,1,8,0:0:0:0:
256,192,152690,1,8,0:0:0:0:
256,192,152867,1,4,0:0:0:0:
256,192,153220,1,0,0:0:0:0:
256,192,153397,1,8,0:0:0:0:
256,192,153573,1,0,0:0:0:0:
256,192,153662,1,0,0:0:0:0:
256,192,153750,1,8,0:0:0:0:
256,192,153926,1,0,0:0:0:0:
256,192,154015,1,0,0:0:0:0:
256,192,154102,1,8,0:0:0:0:
256,192,154279,1,0,0:0:0:0:
256,192,154456,1,8,0:0:0:0:
256,192,154631,1,0,0:0:0:0:
224,192,154720,1,0,0:0:0:0:
256,192,154809,1,8,0:0:0:0:
256,160,154896,1,8,0:0:0:0:
256,192,154985,1,0,0:0:0:0:
256,192,155162,1,8,0:0:0:0:
256,192,155338,1,0,0:0:0:0:
256,192,155425,1,0,0:0:0:0:
256,192,155515,1,8,0:0:0:0:
256,160,155691,1,4,0:0:0:0:
256,192,156044,1,0,0:0:0:0:
256,192,156220,1,8,0:0:0:0:
256,192,156397,1,0,0:0:0:0:
256,192,156485,1,0,0:0:0:0:
256,192,156573,1,8,0:0:0:0:
256,192,156750,1,8,0:0:0:0:
256,192,156838,1,0,0:0:0:0:
256,192,156926,1,8,0:0:0:0:
256,192,157103,1,8,0:0:0:0:
256,192,157279,1,0,0:0:0:0:
256,192,157456,1,8,0:0:0:0:
224,160,157543,1,0,0:0:0:0:
224,160,157631,1,8,0:0:0:0:
224,192,157720,1,8,0:0:0:0:
256,192,157809,1,0,0:0:0:0:
224,192,157984,1,8,0:0:0:0:
256,192,158161,1,0,0:0:0:0:
256,192,158249,1,0,0:0:0:0:
256,160,158337,1,8,0:0:0:0:
224,192,158515,1,4,0:0:0:0:
256,192,158867,1,0,0:0:0:0:
256,192,159044,1,8,0:0:0:0:
256,192,159220,1,0,0:0:0:0:
256,192,159309,1,0,0:0:0:0:
256,192,159397,1,0,0:0:0:0:
256,192,159573,1,0,0:0:0:0:
256,192,159661,1,0,0:0:0:0:
256,192,159750,1,8,0:0:0:0:
256,192,159926,1,0,0:0:0:0:
256,192,160103,1,8,0:0:0:0:
224,192,160191,1,0,0:0:0:0:
256,192,160279,1,0,0:0:0:0:
256,192,160367,1,0,0:0:0:0:
256,192,160456,1,8,0:0:0:0:
256,192,160632,1,0,0:0:0:0:
256,192,160809,1,8,0:0:0:0:
256,192,160897,1,8,0:0:0:0:
256,192,160985,1,0,0:0:0:0:
256,192,161162,1,8,0:0:0:0:
256,192,161337,1,4,0:0:0:0:
224,192,161691,1,0,0:0:0:0:
224,192,161867,1,8,0:0:0:0:
256,192,162043,1,0,0:0:0:0:
256,192,162131,1,0,0:0:0:0:
224,192,162220,1,0,0:0:0:0:
224,192,162397,1,0,0:0:0:0:
224,192,162573,1,8,0:0:0:0:
224,192,162750,1,4,0:0:0:0:
224,192,163103,1,0,0:0:0:0:
224,192,163279,1,8,0:0:0:0:
224,192,163632,1,0,0:0:0:0:
224,192,163809,1,0,0:0:0:0:
224,192,163897,1,8,0:0:0:0:
224,192,163985,1,0,0:0:0:0:
224,192,164162,1,12,0:0:0:0:
224,192,164515,1,0,0:0:0:0:
224,192,164691,1,8,0:0:0:0:
224,192,164867,1,0,0:0:0:0:
224,192,164956,1,0,0:0:0:0:
224,192,165044,1,8,0:0:0:0:
224,192,165220,1,0,0:0:0:0:
224,192,165309,1,0,0:0:0:0:
224,192,165397,1,8,0:0:0:0:
224,192,165573,1,8,0:0:0:0:
224,192,165750,1,0,0:0:0:0:
224,192,165926,1,8,0:0:0:0:
224,192,166014,1,8,0:0:0:0:
256,192,166102,1,0,0:0:0:0:
224,192,166279,1,0,0:0:0:0:
256,192,166367,1,0,0:0:0:0:
256,224,166456,1,8,0:0:0:0:
256,192,166544,1,8,0:0:0:0:
256,192,166632,1,0,0:0:0:0:
256,192,166809,1,8,0:0:0:0:
256,192,166984,1,4,0:0:0:0:
256,192,167338,1,0,0:0:0:0:
256,192,167515,1,8,0:0:0:0:
256,192,167691,1,0,0:0:0:0:
256,192,167779,1,0,0:0:0:0:
256,192,167867,1,8,0:0:0:0:
256,192,168044,1,0,0:0:0:0:
256,192,168220,1,8,0:0:0:0:
256,192,168397,1,0,0:0:0:0:
256,192,168485,1,8,0:0:0:0:
256,192,168573,1,0,0:0:0:0:
256,192,168662,1,0,0:0:0:0:
256,192,168750,1,8,0:0:0:0:
256,192,168925,1,0,0:0:0:0:
256,192,169103,1,8,0:0:0:0:
256,192,169190,1,0,0:0:0:0:
256,192,169278,1,8,0:0:0:0:
256,192,169456,1,0,0:0:0:0:
256,160,169631,1,8,0:0:0:0:
256,192,169808,1,8,0:0:0:0:
256,192,169984,1,4,0:0:0:0:
256,192,170337,1,8,0:0:0:0:
256,192,170514,1,0,0:0:0:0:
256,192,170690,1,0,0:0:0:0:
256,192,170867,1,0,0:0:0:0:
256,192,170955,1,0,0:0:0:0:
256,192,171043,1,8,0:0:0:0:
256,192,171220,1,0,0:0:0:0:
256,192,171396,1,0,0:0:0:0:
256,192,171484,1,8,0:0:0:0:
256,192,171572,1,0,0:0:0:0:
256,192,171661,1,0,0:0:0:0:
256,192,171749,1,8,0:0:0:0:
256,192,171925,1,0,0:0:0:0:
256,192,172014,1,0,0:0:0:0:
256,192,172102,1,0,0:0:0:0:
256,192,172278,1,0,0:0:0:0:
256,192,172367,1,0,0:0:0:0:
256,192,172455,1,8,0:0:0:0:
256,192,172631,1,8,0:0:0:0:
256,192,172808,1,4,0:0:0:0:
256,192,173161,1,0,0:0:0:0:
256,160,173337,1,0,0:0:0:0:
256,160,173514,1,8,0:0:0:0:
256,192,173690,1,0,0:0:0:0:
256,192,173778,1,0,0:0:0:0:
256,192,173867,1,0,0:0:0:0:
256,192,174043,1,0,0:0:0:0:
256,192,174220,1,12,0:0:0:0:
256,192,174572,1,8,0:0:0:0:
256,192,174749,1,0,0:0:0:0:
256,192,174925,1,8,0:0:0:0:
256,192,175014,1,8,0:0:0:0:
256,192,175102,1,0,0:0:0:0:
256,160,175190,1,0,0:0:0:0:
256,192,175278,1,0,0:0:0:0:
256,192,175455,1,12,0:0:0:0:
256,192,175808,1,0,0:0:0:0:
256,192,175984,1,8,0:0:0:0:
256,192,176337,1,0,0:0:0:0:
256,192,176514,1,0,0:0:0:0:
256,192,176690,1,8,0:0:0:0:
256,224,177043,1,0,0:0:0:0:
256,192,177220,1,0,0:0:0:0:
256,192,177308,1,0,0:0:0:0:
256,192,177396,1,8,0:0:0:0:
256,192,177572,1,8,0:0:0:0:
256,160,177749,1,0,0:0:0:0:
256,192,177925,1,0,0:0:0:0:
256,192,178102,1,8,0:0:0:0:
256,192,178278,1,4,0:0:0:0:
256,192,178631,1,0,0:0:0:0:
256,192,178808,1,8,0:0:0:0:
256,192,179161,1,0,0:0:0:0:
256,192,179337,1,0,0:0:0:0:
256,192,179514,1,8,0:0:0:0:
256,192,179867,1,0,0:0:0:0:
256,192,180043,1,0,0:0:0:0:
256,192,180220,1,8,0:0:0:0:
256,192,180396,1,0,0:0:0:0:
256,192,180572,1,8,0:0:0:0:
256,192,180661,1,0,0:0:0:0:
256,192,180749,1,0,0:0:0:0:
256,192,180925,1,8,0:0:0:0:
256,192,181102,1,4,0:0:0:0:
256,192,181455,1,0,0:0:0:0:
256,192,181631,1,8,0:0:0:0:
256,192,181984,1,0,0:0:0:0:
256,192,182161,1,0,0:0:0:0:
256,192,182337,1,8,0:0:0:0:
256,192,182690,1,0,0:0:0:0:
256,192,182867,1,0,0:0:0:0:
256,192,182955,1,0,0:0:0:0:
256,192,183043,1,8,0:0:0:0:
256,192,183220,1,0,0:0:0:0:
256,192,183396,1,8,0:0:0:0:
256,192,183484,1,8,0:0:0:0:
256,192,183572,1,0,0:0:0:0:
256,192,183661,1,0,0:0:0:0:
256,192,183749,1,8,0:0:0:0:
256,192,183925,1,4,0:0:0:0:
256,192,184278,1,0,0:0:0:0:
256,192,184455,1,8,0:0:0:0:
256,192,184808,1,0,0:0:0:0:
256,192,184984,1,0,0:0:0:0:
256,192,185161,1,8,0:0:0:0:
256,192,185337,1,0,0:0:0:0:
256,192,185514,1,0,0:0:0:0:
256,192,185690,1,8,0:0:0:0:
256,192,185778,1,0,0:0:0:0:
256,192,185867,1,8,0:0:0:0:
256,192,186043,1,0,0:0:0:0:
256,192,186220,1,8,0:0:0:0:
256,192,186308,1,8,0:0:0:0:
256,192,186396,1,8,0:0:0:0:
256,192,186484,1,8,0:0:0:0:
256,192,186572,1,8,0:0:0:0:
256,192,186749,1,4,0:0:0:0:
256,192,187102,1,0,0:0:0:0:
256,192,187278,1,8,0:0:0:0:
256,192,187455,1,0,0:0:0:0:
256,192,187631,1,0,0:0:0:0:
256,192,187808,1,0,0:0:0:0:
256,192,187984,1,8,0:0:0:0:
256,192,188161,1,0,0:0:0:0:
224,160,188337,1,0,0:0:0:0:
256,192,188514,1,0,0:0:0:0:
256,192,188602,1,0,0:0:0:0:
256,192,188690,1,8,0:0:0:0:
256,192,188867,1,0,0:0:0:0:
256,192,189043,1,8,0:0:0:0:
256,192,189220,1,0,0:0:0:0:
256,192,189396,1,0,0:0:0:0:
256,192,189572,1,12,0:0:0:0:
256,192,189925,1,0,0:0:0:0:
256,192,190102,1,8,0:0:0:0:
256,192,190278,1,0,0:0:0:0:
256,192,190455,1,8,0:0:0:0:
256,192,190543,1,0,0:0:0:0:
256,192,190631,1,0,0:0:0:0:
256,192,190720,1,0,0:0:0:0:
256,192,190808,1,8,0:0:0:0:
256,192,190984,1,0,0:0:0:0:
256,192,191161,1,0,0:0:0:0:
256,192,191337,1,0,0:0:0:0:
256,192,191514,1,8,0:0:0:0:
256,192,191602,1,8,0:0:0:0:
256,192,191690,1,0,0:0:0:0:
256,192,191778,1,0,0:0:0:0:
256,192,191867,1,8,0:0:0:0:
256,192,192043,1,0,0:0:0:0:
256,192,192220,1,8,0:0:0:0:
256,192,192396,1,4,0:0:0:0:
256,192,192749,1,0,0:0:0:0:
256,192,192925,1,8,0:0:0:0:
256,192,193102,1,0,0:0:0:0:
256,192,193278,1,8,0:0:0:0:
256,192,193455,1,8,0:0:0:0:
256,192,193631,1,0,0:0:0:0:
256,192,193808,1,8,0:0:0:0:
256,192,193984,1,8,0:0:0:0:
256,192,194161,1,0,0:0:0:0:
256,192,194337,1,8,0:0:0:0:
256,192,194514,1,8,0:0:0:0:
256,192,194690,1,0,0:0:0:0:
256,192,194778,1,0,0:0:0:0:
256,192,194867,1,0,0:0:0:0:
256,192,195043,1,8,0:0:0:0:
256,192,195220,1,4,0:0:0:0:
256,192,195572,1,0,0:0:0:0:
256,192,195661,1,0,0:0:0:0:
256,192,195749,1,8,0:0:0:0:
256,192,195925,1,0,0:0:0:0:
256,192,196102,1,0,0:0:0:0:
256,192,196190,1,0,0:0:0:0:
256,192,196278,1,0,0:0:0:0:
256,192,196455,1,8,0:0:0:0:
256,192,196631,1,0,0:0:0:0:
256,192,196720,1,0,0:0:0:0:
256,192,196808,1,8,0:0:0:0:
288,192,196896,1,8,0:0:0:0:
288,192,196984,1,8,0:0:0:0:
288,192,197161,1,8,0:0:0:0:
288,192,197337,1,0,0:0:0:0:
256,192,197425,1,0,0:0:0:0:
288,192,197514,1,8,0:0:0:0:
288,192,197690,1,0,0:0:0:0:
288,192,197867,1,8,0:0:0:0:
256,192,198043,1,4,0:0:0:0:
256,192,198396,1,0,0:0:0:0:
256,192,198572,1,8,0:0:0:0:
288,192,198749,1,0,0:0:0:0:
256,192,198925,1,0,0:0:0:0:
288,192,199102,1,0,0:0:0:0:
288,192,199278,1,8,0:0:0:0:
288,192,199455,1,0,0:0:0:0:
288,192,199631,1,8,0:0:0:0:
256,192,199720,1,8,0:0:0:0:
288,192,199808,1,0,0:0:0:0:
256,192,199896,1,0,0:0:0:0:
288,192,199984,1,8,0:0:0:0:
256,160,200161,1,0,0:0:0:0:
256,192,200337,1,0,0:0:0:0:
256,192,200425,1,0,0:0:0:0:
224,160,200602,1,0,0:0:0:0:
256,192,200690,1,8,0:0:0:0:
256,192,200867,1,8,0:0:0:0:
256,192,201043,1,0,0:0:0:0:
256,192,201396,1,8,0:0:0:0:
256,160,201572,1,0,0:0:0:0:
256,160,201749,1,8,0:0:0:0:
256,160,201837,1,8,0:0:0:0:
256,160,201925,1,0,0:0:0:0:
256,160,202102,1,8,0:0:0:0:
256,160,202278,1,0,0:0:0:0:
256,160,202455,1,8,0:0:0:0:
256,160,202631,1,0,0:0:0:0:
256,160,202720,1,0,0:0:0:0:
256,160,202808,1,8,0:0:0:0:
256,160,202984,1,0,0:0:0:0:
256,192,203072,1,0,0:0:0:0:
256,160,203161,1,0,0:0:0:0:
256,192,203337,1,8,0:0:0:0:
256,160,203514,1,8,0:0:0:0:
256,128,203690,1,0,0:0:0:0:
256,160,203867,1,0,0:0:0:0:
256,192,204220,1,8,0:0:0:0:
256,192,204396,1,0,0:0:0:0:
288,160,204484,1,0,0:0:0:0:
288,160,204572,1,8,0:0:0:0:
288,160,204749,1,0,0:0:0:0:
288,160,204925,1,8,0:0:0:0:
288,160,205102,1,0,0:0:0:0:
256,192,205278,1,0,0:0:0:0:
256,192,205367,1,0,0:0:0:0:
256,192,205455,1,0,0:0:0:0:
256,192,205543,1,0,0:0:0:0:
256,192,205631,1,8,0:0:0:0:
256,192,205808,1,8,0:0:0:0:
256,192,205984,1,0,0:0:0:0:
256,192,206072,1,0,0:0:0:0:
256,192,206249,1,0,0:0:0:0:
256,192,206337,1,8,0:0:0:0:
256,192,206514,1,8,0:0:0:0:
256,192,206690,1,0,0:0:0:0:
256,192,207043,1,8,0:0:0:0:
256,192,207220,1,0,0:0:0:0:
256,192,207308,1,0,0:0:0:0:
256,192,207396,1,0,0:0:0:0:
256,192,207572,1,0,0:0:0:0:
256,192,207749,1,8,0:0:0:0:
256,192,207925,1,8,0:0:0:0:
256,192,208102,1,0,0:0:0:0:
256,192,208278,1,0,0:0:0:0:
256,192,208367,1,0,0:0:0:0:
256,192,208454,1,8,0:0:0:0:
256,192,208631,1,0,0:0:0:0:
256,192,208807,1,0,0:0:0:0:
256,192,208896,1,0,0:0:0:0:
224,192,208984,1,8,0:0:0:0:
256,192,209072,1,0,0:0:0:0:
256,192,209161,1,0,0:0:0:0:
224,192,209337,1,8,0:0:0:0:
256,192,209425,1,8,0:0:0:0:
256,192,209514,1,0,0:0:0:0:
256,192,209867,1,8,0:0:0:0:
256,192,210220,1,0,0:0:0:0:
256,192,210396,1,0,0:0:0:0:
256,192,210572,1,8,0:0:0:0:
256,192,210749,1,8,0:0:0:0:
256,192,210837,1,8,0:0:0:0:
256,192,210925,1,0,0:0:0:0:
256,192,211278,1,8,0:0:0:0:
256,192,211631,1,0,0:0:0:0:
256,192,211808,1,0,0:0:0:0:
256,192,211896,1,0,0:0:0:0:
256,192,211984,1,8,0:0:0:0:
256,192,212161,1,8,0:0:0:0:
256,192,212337,1,0,0:0:0:0:
256,192,212690,1,8,0:0:0:0:
256,192,213043,1,0,0:0:0:0:
256,192,213220,1,0,0:0:0:0:
256,192,213396,1,8,0:0:0:0:
256,192,213572,1,8,0:0:0:0:
256,192,213661,1,8,0:0:0:0:
256,192,213749,1,0,0:0:0:0:
256,192,214102,1,8,0:0:0:0:
256,192,214455,1,0,0:0:0:0:
256,192,214631,1,0,0:0:0:0:
256,192,214720,1,0,0:0:0:0:
256,192,214808,1,8,0:0:0:0:
256,192,214984,1,8,0:0:0:0:
256,192,215161,1,4,0:0:0:0:
256,192,215514,1,0,0:0:0:0:
256,192,215690,1,0,0:0:0:0:
256,192,215867,1,8,0:0:0:0:
256,224,216220,1,0,0:0:0:0:
288,192,216396,1,8,0:0:0:0:
256,192,216572,1,0,0:0:0:0:
288,192,216749,1,8,0:0:0:0:
288,192,216837,1,8,0:0:0:0:
288,192,216925,1,0,0:0:0:0:
288,192,217102,1,0,0:0:0:0:
288,192,217278,1,8,0:0:0:0:
256,192,217631,1,0,0:0:0:0:
256,192,217808,1,8,0:0:0:0:
256,192,217984,1,0,0:0:0:0:
192,96,218337,1,8,0:0:0:0:
256,192,218514,1,0,0:0:0:0:
256,192,218690,1,0,0:0:0:0:
256,192,218867,1,0,0:0:0:0:
288,192,218955,1,0,0:0:0:0:
256,192,219043,1,8,0:0:0:0:
256,192,219220,1,0,0:0:0:0:
256,192,219396,1,8,0:0:0:0:
256,192,219572,1,0,0:0:0:0:
256,192,219749,1,8,0:0:0:0:
256,160,219867,1,8,0:0:0:0:
256,192,219984,1,8,0:0:0:0:
256,192,220102,1,0,0:0:0:0:
256,192,220220,1,8,0:0:0:0:
256,192,220337,1,0,0:0:0:0:
256,192,220455,1,0,0:0:0:0:
256,192,220572,1,0,0:0:0:0:
256,192,220690,1,8,0:0:0:0:
256,192,220808,1,4,0:0:0:0:
256,192,221514,1,0,0:0:0:0:
256,192,222220,1,8,0:0:0:0:
256,192,222925,1,8,0:0:0:0:
256,192,223631,1,4,0:0:0:0:
256,224,224337,1,8,0:0:0:0:
256,224,225043,1,0,0:0:0:0:
256,192,225749,1,0,0:0:0:0:
256,192,226455,1,4,0:0:0:0:
256,224,226808,1,8,0:0:0:0:
256,192,227161,1,0,0:0:0:0:
288,192,227514,1,8,0:0:0:0:
288,192,227867,1,0,0:0:0:0:
256,192,228220,1,8,0:0:0:0:
288,192,228572,1,0,0:0:0:0:
288,192,228749,1,0,0:0:0:0:
288,192,228925,1,8,0:0:0:0:
288,192,229278,1,4,0:0:0:0:
256,192,229984,1,0,0:0:0:0:
256,192,230337,1,8,0:0:0:0:
256,192,230514,1,8,0:0:0:0:
256,192,230602,1,8,0:0:0:0:
256,192,230690,1,0,0:0:0:0:
256,192,230867,1,0,0:0:0:0:
256,192,231043,1,8,0:0:0:0:
256,192,231396,1,0,0:0:0:0:
256,192,231572,1,0,0:0:0:0:
256,192,231749,1,8,0:0:0:0:
256,192,232102,1,4,0:0:0:0:
256,192,232455,1,8,0:0:0:0:
256,192,232808,1,0,0:0:0:0:
256,192,232984,1,0,0:0:0:0:
256,192,233161,1,8,0:0:0:0:
256,192,233514,1,0,0:0:0:0:
256,192,233690,1,0,0:0:0:0:
256,192,233778,1,0,0:0:0:0:
256,192,233867,1,8,0:0:0:0:
256,192,234043,1,0,0:0:0:0:
256,192,234220,1,8,0:0:0:0:
256,192,234308,1,8,0:0:0:0:
256,192,234396,1,0,0:0:0:0:
256,192,234572,1,8,0:0:0:0:
256,192,234925,1,0,0:0:0:0:
256,192,235102,1,0,0:0:0:0:
256,192,235190,1,0,0:0:0:0:
256,192,235278,1,8,0:0:0:0:
256,192,235455,1,8,0:0:0:0:
256,192,235631,1,0,0:0:0:0:
256,224,235808,1,0,0:0:0:0:
256,192,235984,1,8,0:0:0:0:
256,192,236161,1,8,0:0:0:0:
256,192,236249,1,0,0:0:0:0:
256,192,236337,1,8,0:0:0:0:
256,224,236514,1,0,0:0:0:0:
256,224,236690,1,8,0:0:0:0:
256,224,236867,1,0,0:0:0:0:
256,224,237043,1,0,0:0:0:0:
256,224,237131,1,0,0:0:0:0:
256,224,237220,1,8,0:0:0:0:
256,224,237396,1,8,0:0:0:0:
256,224,237749,1,4,0:0:0:0:
224,224,238102,1,8,0:0:0:0:
256,192,238455,1,0,0:0:0:0:
256,224,238631,1,0,0:0:0:0:
256,224,238720,1,0,0:0:0:0:
256,224,238808,1,8,0:0:0:0:
256,224,238984,1,8,0:0:0:0:
256,224,239161,1,0,0:0:0:0:
256,224,239337,1,8,0:0:0:0:
256,256,239425,1,0,0:0:0:0:
256,224,239514,1,8,0:0:0:0:
256,224,239690,1,8,0:0:0:0:
288,256,239778,1,0,0:0:0:0:
288,256,239867,1,8,0:0:0:0:
288,256,239955,1,8,0:0:0:0:
288,256,240043,1,0,0:0:0:0:
288,256,240131,1,0,0:0:0:0:
270,236,240220,1,8,0:0:0:0:
267,235,240396,1,8,0:0:0:0:
267,235,240572,1,4,0:0:0:0:
267,235,240749,1,4,0:0:0:0:
267,235,241102,1,4,0:0:0:0:
267,235,241278,1,12,0:0:0:0:
267,235,241631,1,12,0:0:0:0:
269,236,241808,1,4,0:0:0:0:
256,192,241984,12,4,243043,0:0:0:0:
256,192,243220,5,4,0:0:0:0:
288,192,244808,1,8,0:0:0:0:
288,192,246220,1,0,0:0:0:0:
288,192,247631,1,8,0:0:0:0:
288,192,248337,1,0,0:0:0:0:
256,192,249043,1,0,0:0:0:0:
256,192,250455,1,8,0:0:0:0:
256,192,251867,1,0,0:0:0:0:
256,192,252572,1,8,0:0:0:0:
256,192,253278,1,0,0:0:0:0:
256,192,253631,1,12,0:0:0:0:
256,192,253808,1,0,0:0:0:0:
256,192,253896,1,0,0:0:0:0:
256,192,253984,1,8,0:0:0:0:
256,192,254072,1,8,0:0:0:0:
256,192,254161,1,0,0:0:0:0:
256,192,254337,1,8,0:0:0:0:
256,192,254514,1,0,0:0:0:0:
256,192,254867,1,0,0:0:0:0:
256,192,255043,1,8,0:0:0:0:
256,192,255396,1,0,0:0:0:0:
256,192,255572,1,0,0:0:0:0:
256,192,255749,1,8,0:0:0:0:
256,192,255925,1,0,0:0:0:0:
256,192,256014,1,0,0:0:0:0:
256,192,256102,1,8,0:0:0:0:
256,192,256278,1,0,0:0:0:0:
256,192,256455,1,8,0:0:0:0:
256,192,256808,1,0,0:0:0:0:
256,192,256984,1,0,0:0:0:0:
256,192,257161,1,8,0:0:0:0:
256,192,257337,1,0,0:0:0:0:
256,192,257690,1,0,0:0:0:0:
256,192,257867,1,8,0:0:0:0:
256,192,258043,1,0,0:0:0:0:
256,192,258131,1,8,0:0:0:0:
256,192,258220,1,0,0:0:0:0:
256,192,258396,1,0,0:0:0:0:
256,192,258572,1,8,0:0:0:0:
256,192,258749,1,0,0:0:0:0:
256,192,259102,1,0,0:0:0:0:
256,192,259278,1,8,0:0:0:0:
256,192,259455,1,0,0:0:0:0:
256,192,259543,1,0,0:0:0:0:
256,192,259631,1,8,0:0:0:0:
256,192,259808,1,0,0:0:0:0:
256,192,259984,1,8,0:0:0:0:
256,192,260161,1,0,0:0:0:0:
256,192,260337,1,4,0:0:0:0:
256,192,260690,1,8,0:0:0:0:
256,192,261043,1,0,0:0:0:0:
256,192,261220,1,0,0:0:0:0:
256,192,261396,1,8,0:0:0:0:
256,192,261749,1,0,0:0:0:0:
256,192,261925,1,8,0:0:0:0:
256,192,262014,1,8,0:0:0:0:
256,192,262102,1,0,0:0:0:0:
256,192,262190,1,0,0:0:0:0:
256,192,262278,1,0,0:0:0:0:
256,192,262367,1,0,0:0:0:0:
256,192,262455,1,8,0:0:0:0:
256,192,262631,1,0,0:0:0:0:
256,192,262808,1,8,0:0:0:0:
256,192,262984,1,4,0:0:0:0:
256,192,263337,1,0,0:0:0:0:
256,192,263514,1,8,0:0:0:0:
256,192,263690,1,0,0:0:0:0:
256,192,263778,1,0,0:0:0:0:
256,192,263867,1,8,0:0:0:0:
256,192,264043,1,8,0:0:0:0:
256,192,264131,1,0,0:0:0:0:
256,192,264220,1,8,0:0:0:0:
256,192,264396,1,0,0:0:0:0:
256,160,264572,1,0,0:0:0:0:
256,192,264748,1,8,0:0:0:0:
256,192,264837,1,0,0:0:0:0:
256,160,264925,1,8,0:0:0:0:
224,192,265014,1,0,0:0:0:0:
256,192,265102,1,0,0:0:0:0:
256,192,265190,1,8,0:0:0:0:
256,192,265279,1,0,0:0:0:0:
256,192,265455,1,0,0:0:0:0:
256,192,265542,1,0,0:0:0:0:
256,192,265632,1,8,0:0:0:0:
256,160,265808,1,4,0:0:0:0:
256,192,266161,1,8,0:0:0:0:
256,192,266337,1,0,0:0:0:0:
256,192,266514,1,0,0:0:0:0:
256,192,266602,1,0,0:0:0:0:
256,192,266690,1,8,0:0:0:0:
256,192,266867,1,8,0:0:0:0:
256,192,266955,1,8,0:0:0:0:
256,192,267043,1,0,0:0:0:0:
256,192,267220,1,8,0:0:0:0:
256,192,267396,1,0,0:0:0:0:
256,192,267573,1,8,0:0:0:0:
224,160,267660,1,8,0:0:0:0:
224,160,267748,1,0,0:0:0:0:
224,192,267837,1,8,0:0:0:0:
256,192,267926,1,0,0:0:0:0:
256,192,268014,1,0,0:0:0:0:
224,192,268101,1,8,0:0:0:0:
256,192,268278,1,0,0:0:0:0:
256,192,268366,1,0,0:0:0:0:
256,192,268455,1,8,0:0:0:0:
224,192,268632,1,4,0:0:0:0:
256,192,268984,1,0,0:0:0:0:
256,192,269161,1,8,0:0:0:0:
256,192,269337,1,0,0:0:0:0:
256,192,269426,1,0,0:0:0:0:
256,192,269514,1,0,0:0:0:0:
256,192,269690,1,0,0:0:0:0:
256,192,269778,1,0,0:0:0:0:
256,192,269867,1,8,0:0:0:0:
256,192,270043,1,0,0:0:0:0:
256,192,270220,1,8,0:0:0:0:
256,192,270396,1,0,0:0:0:0:
256,192,270484,1,0,0:0:0:0:
256,192,270573,1,8,0:0:0:0:
224,192,270661,1,0,0:0:0:0:
256,192,270749,1,0,0:0:0:0:
256,192,270837,1,8,0:0:0:0:
256,192,270925,1,0,0:0:0:0:
256,192,271102,1,8,0:0:0:0:
256,192,271279,1,8,0:0:0:0:
256,192,271454,1,4,0:0:0:0:
224,192,271808,1,0,0:0:0:0:
224,192,271984,1,8,0:0:0:0:
256,192,272160,1,0,0:0:0:0:
256,192,272248,1,0,0:0:0:0:
224,192,272337,1,8,0:0:0:0:
256,192,272425,1,8,0:0:0:0:
224,192,272514,1,0,0:0:0:0:
224,192,272690,1,8,0:0:0:0:
224,192,272867,1,4,0:0:0:0:
224,192,273220,1,0,0:0:0:0:
224,192,273396,1,8,0:0:0:0:
224,192,273749,1,0,0:0:0:0:
224,192,273926,1,8,0:0:0:0:
224,192,274014,1,8,0:0:0:0:
224,192,274102,1,8,0:0:0:0:
224,192,274279,1,4,0:0:0:0:
224,192,274632,1,0,0:0:0:0:
224,192,274808,1,8,0:0:0:0:
224,192,274984,1,0,0:0:0:0:
224,192,275073,1,0,0:0:0:0:
224,192,275161,1,8,0:0:0:0:
224,192,275337,1,8,0:0:0:0:
224,192,275426,1,0,0:0:0:0:
224,192,275514,1,8,0:0:0:0:
224,192,275690,1,8,0:0:0:0:
224,192,275867,1,0,0:0:0:0:
224,192,276043,1,0,0:0:0:0:
256,192,276131,1,0,0:0:0:0:
256,192,276219,1,8,0:0:0:0:
256,192,276308,1,0,0:0:0:0:
224,192,276396,1,8,0:0:0:0:
256,192,276484,1,8,0:0:0:0:
256,224,276573,1,0,0:0:0:0:
256,192,276749,1,8,0:0:0:0:
256,192,276837,1,0,0:0:0:0:
256,192,276926,1,8,0:0:0:0:
256,192,277102,1,4,0:0:0:0:
256,192,277455,1,0,0:0:0:0:
256,192,277632,1,8,0:0:0:0:
256,192,277808,1,0,0:0:0:0:
256,192,277896,1,0,0:0:0:0:
256,192,277984,1,8,0:0:0:0:
256,192,278161,1,0,0:0:0:0:
256,192,278337,1,8,0:0:0:0:
256,192,278514,1,0,0:0:0:0:
256,192,278602,1,8,0:0:0:0:
256,192,278690,1,0,0:0:0:0:
256,192,278779,1,0,0:0:0:0:
256,192,278867,1,8,0:0:0:0:
256,192,278955,1,0,0:0:0:0:
256,192,279043,1,8,0:0:0:0:
256,192,279220,1,0,0:0:0:0:
256,192,279307,1,0,0:0:0:0:
256,192,279395,1,8,0:0:0:0:
256,192,279573,1,0,0:0:0:0:
256,160,279748,1,8,0:0:0:0:
256,160,279925,1,8,0:0:0:0:
256,160,280014,1,8,0:0:0:0:
256,160,280102,1,0,0:0:0:0:
256,192,280454,1,8,0:0:0:0:
256,192,280631,1,0,0:0:0:0:
256,192,280807,1,8,0:0:0:0:
224,192,280896,1,8,0:0:0:0:
256,192,280984,1,0,0:0:0:0:
256,192,281072,1,0,0:0:0:0:
256,192,281160,1,8,0:0:0:0:
256,192,281337,1,0,0:0:0:0:
256,192,281513,1,8,0:0:0:0:
256,192,281601,1,0,0:0:0:0:
256,192,281689,1,0,0:0:0:0:
256,192,281778,1,0,0:0:0:0:
256,192,281866,1,8,0:0:0:0:
256,192,282042,1,0,0:0:0:0:
256,192,282131,1,0,0:0:0:0:
256,192,282219,1,8,0:0:0:0:
256,192,282395,1,0,0:0:0:0:
256,192,282572,1,8,0:0:0:0:
256,192,282748,1,0,0:0:0:0:
256,192,282925,1,0,0:0:0:0:
256,192,283278,1,8,0:0:0:0:
224,160,283455,1,0,0:0:0:0:
256,192,283543,1,8,0:0:0:0:
256,160,283631,1,0,0:0:0:0:
256,192,283808,1,0,0:0:0:0:
256,160,283896,1,0,0:0:0:0:
256,192,283984,1,8,0:0:0:0:
256,192,284160,1,0,0:0:0:0:
256,192,284337,1,0,0:0:0:0:
288,160,284514,1,0,0:0:0:0:
288,192,284602,1,0,0:0:0:0:
256,192,284690,1,8,0:0:0:0:
256,192,284866,1,0,0:0:0:0:
256,192,285042,1,8,0:0:0:0:
256,192,285131,1,0,0:0:0:0:
256,192,285220,1,8,0:0:0:0:
256,192,285308,1,8,0:0:0:0:
256,192,285396,1,0,0:0:0:0:
256,192,285484,1,0,0:0:0:0:
256,192,285572,1,0,0:0:0:0:
256,192,285661,1,0,0:0:0:0:
224,160,285749,1,8,0:0:0:0:
256,192,286102,1,8,0:0:0:0:
256,192,286278,1,0,0:0:0:0:
256,192,286455,1,8,0:0:0:0:
256,192,286631,1,0,0:0:0:0:
256,192,286808,1,8,0:0:0:0:
256,192,286896,1,8,0:0:0:0:
256,192,286984,1,8,0:0:0:0:
256,192,287072,1,8,0:0:0:0:
256,192,287161,1,0,0:0:0:0:
256,192,288396,1,4,0:0:0:0:
256,192,288749,1,0,0:0:0:0:
256,192,288925,1,8,0:0:0:0:
256,192,289102,1,0,0:0:0:0:
256,192,289190,1,0,0:0:0:0:
256,192,289278,1,0,0:0:0:0:
256,192,289455,1,0,0:0:0:0:
256,192,289631,1,8,0:0:0:0:
256,192,289808,1,8,0:0:0:0:
256,192,289984,1,0,0:0:0:0:
256,192,290161,1,0,0:0:0:0:
256,192,290337,1,8,0:0:0:0:
256,192,290514,1,0,0:0:0:0:
256,192,290690,1,0,0:0:0:0:
256,192,290778,1,0,0:0:0:0:
256,192,290867,1,0,0:0:0:0:
256,192,290955,1,0,0:0:0:0:
256,192,291043,1,8,0:0:0:0:
256,192,291220,1,4,0:0:0:0:
256,192,291572,1,0,0:0:0:0:
256,192,291749,1,8,0:0:0:0:
256,192,291925,1,0,0:0:0:0:
256,192,292014,1,0,0:0:0:0:
256,192,292102,1,8,0:0:0:0:
256,192,292278,1,0,0:0:0:0:
256,192,292455,1,8,0:0:0:0:
256,192,292631,1,0,0:0:0:0:
256,192,292808,1,0,0:0:0:0:
256,192,292984,1,8,0:0:0:0:
256,192,293072,1,0,0:0:0:0:
256,192,293161,1,8,0:0:0:0:
256,192,293337,1,0,0:0:0:0:
256,192,293514,1,0,0:0:0:0:
256,192,293602,1,0,0:0:0:0:
256,192,293690,1,0,0:0:0:0:
256,192,293778,1,0,0:0:0:0:
256,192,293867,1,8,0:0:0:0:
256,192,294043,1,4,0:0:0:0:
256,192,294396,1,0,0:0:0:0:
256,192,294572,1,8,0:0:0:0:
256,192,294749,1,0,0:0:0:0:
256,192,294837,1,0,0:0:0:0:
256,192,294925,1,0,0:0:0:0:
256,192,295102,1,0,0:0:0:0:
256,192,295278,1,8,0:0:0:0:
256,192,295455,1,8,0:0:0:0:
256,192,295631,1,0,0:0:0:0:
256,192,295808,1,0,0:0:0:0:
256,192,295984,1,8,0:0:0:0:
256,192,296161,1,8,0:0:0:0:
256,192,296249,1,8,0:0:0:0:
256,192,296337,1,0,0:0:0:0:
256,192,296425,1,0,0:0:0:0:
256,192,296514,1,0,0:0:0:0:
256,192,296602,1,0,0:0:0:0:
256,192,296690,1,8,0:0:0:0:
256,192,296867,1,4,0:0:0:0:
256,192,297220,1,0,0:0:0:0:
256,192,297396,1,8,0:0:0:0:
256,192,297572,1,0,0:0:0:0:
256,192,297661,1,0,0:0:0:0:
256,192,297749,1,8,0:0:0:0:
256,192,297925,1,0,0:0:0:0:
256,192,298102,1,8,0:0:0:0:
256,192,298278,1,0,0:0:0:0:
256,192,298455,1,8,0:0:0:0:
256,192,298543,1,8,0:0:0:0:
256,192,298631,1,0,0:0:0:0:
256,192,298720,1,0,0:0:0:0:
256,192,298808,1,8,0:0:0:0:
256,192,298896,1,8,0:0:0:0:
256,192,298984,1,0,0:0:0:0:
256,192,299072,1,8,0:0:0:0:
256,192,299161,1,0,0:0:0:0:
256,192,299249,1,8,0:0:0:0:
256,192,299337,1,8,0:0:0:0:
256,192,299425,1,0,0:0:0:0:
256,192,299514,1,8,0:0:0:0:
256,192,299690,1,4,0:0:0:0:
256,192,300043,1,0,0:0:0:0:
256,192,300220,1,8,0:0:0:0:
256,192,300396,1,0,0:0:0:0:
256,192,300572,1,0,0:0:0:0:
256,192,300749,1,0,0:0:0:0:
224,160,300837,1,0,0:0:0:0:
256,192,300925,1,8,0:0:0:0:
256,192,301102,1,0,0:0:0:0:
256,192,301278,1,8,0:0:0:0:
256,160,301367,1,0,0:0:0:0:
256,192,301455,1,0,0:0:0:0:
288,192,301543,1,0,0:0:0:0:
256,192,301631,1,8,0:0:0:0:
256,192,301808,1,0,0:0:0:0:
256,192,301984,1,0,0:0:0:0:
256,192,302072,1,8,0:0:0:0:
256,192,302161,1,0,0:0:0:0:
256,192,302249,1,0,0:0:0:0:
256,192,302337,1,8,0:0:0:0:
256,192,302514,1,4,0:0:0:0:
256,192,302867,1,0,0:0:0:0:
256,192,303043,1,8,0:0:0:0:
256,192,303220,1,0,0:0:0:0:
256,192,303396,1,0,0:0:0:0:
256,192,303572,1,0,0:0:0:0:
256,192,303661,1,0,0:0:0:0:
256,192,303749,1,8,0:0:0:0:
256,192,303925,1,0,0:0:0:0:
256,192,304102,1,0,0:0:0:0:
256,192,304278,1,8,0:0:0:0:
256,192,304367,1,0,0:0:0:0:
256,192,304455,1,8,0:0:0:0:
288,192,304631,1,0,0:0:0:0:
288,192,304808,1,8,0:0:0:0:
288,192,304896,1,8,0:0:0:0:
288,192,304984,1,0,0:0:0:0:
288,192,305072,1,0,0:0:0:0:
256,192,305161,1,8,0:0:0:0:
288,192,305337,1,8,0:0:0:0:
256,192,305514,1,4,0:0:0:0:
256,192,305690,1,4,0:0:0:0:
256,192,306043,1,4,0:0:0:0:
256,192,306220,1,12,0:0:0:0:
256,192,306572,1,12,0:0:0:0:
256,192,306749,1,4,0:0:0:0:
256,192,308161,12,0,328102,0:0:0:0:
256,192,328278,5,0,0:0:0:0:
