osu file format v14

[General]
AudioFilename: audio.mp3
AudioLeadIn: 0
PreviewTime: 81321
Countdown: 0
SampleSet: None
StackLeniency: 0.7
Mode: 0
LetterboxInBreaks: 0
EpilepsyWarning: 1
WidescreenStoryboard: 1

[Editor]
DistanceSpacing: 1.4
BeatDivisor: 4
GridSize: 8
TimelineZoom: 1.9

[Metadata]
Title:39 music!
TitleUnicode:39みゅーじっく!
Artist:Mikito-P
ArtistUnicode:みきとP
Creator:Zanilis-
Version:Hard
Source:Magical Mirai 2016
Tags:Hatsune Miku Vocaloid Pop
BeatmapID:1621313
BeatmapSetID:771154

[Difficulty]
HPDrainRate:5
CircleSize:4.3
OverallDifficulty:6.8
ApproachRate:6.7
SliderMultiplier:1.5
SliderTickRate:1

[Events]
//Background and Video events
Video,0,"video.mp4"
0,0,"image.jpg",0,0
//Break Periods
2,96290,102361
2,131367,132068
2,162751,175976
2,203367,205745
//Storyboard Layer 0 (Background)
//Storyboard Layer 1 (Fail)
//Storyboard Layer 2 (Pass)
//Storyboard Layer 3 (Foreground)
//Storyboard Sound Samples

[TimingPoints]
7475,461.538461538462,4,3,1,75,1,0
18551,-200,4,3,1,75,0,0
22244,-100,4,3,1,75,0,0
24090,-100,4,3,1,68,0,0
24321,-100,4,3,1,61,0,0
24551,-100,4,3,1,51,0,0
24782,-100,4,3,1,44,0,0
25013,-100,4,3,1,39,0,0
25244,-100,4,3,1,31,0,0
25936,-100,4,3,1,75,0,1
40705,-100,4,3,1,75,0,0
66551,-200,4,3,1,75,0,0
73936,-100,4,3,1,75,0,0
81321,-100,4,3,1,75,0,1
96090,-100,4,3,1,75,0,0
129321,-200,4,3,1,75,0,0
133013,-100,4,3,1,75,0,1
162551,-100,4,3,1,75,0,0
188398,-200,4,3,1,75,0,0
195782,-100,4,3,1,75,0,0
206859,-100,4,3,1,75,0,1
221628,-200,4,3,1,75,0,0
223475,-100,4,3,1,75,0,1
229013,-200,4,3,1,75,0,0
230859,-100,4,3,1,75,0,1
251167,-133.333333333333,4,3,1,75,0,0
254859,-133.333333333333,4,3,1,5,0,0
256705,-100,4,3,1,75,0,0

[Colours]
Combo1 : 255,255,47
Combo2 : 164,32,240
Combo3 : 37,185,239
Combo4 : 23,209,116
Combo5 : 226,45,124
Combo6 : 26,116,242
Combo7 : 255,128,192

[HitObjects]
152,72,7475,5,0,0:0:0:0:
264,64,8398,2,0,B|312:72|356:116|360:144,2,112.5
320,264,10244,6,0,P|280:304|248:320,1,75
240,256,10705,2,0,P|192:272|152:272,1,75
184,208,11167,1,0,0:0:0:0:
128,128,12090,6,0,B|72:152|60:200|48:236,2,112.5
192,160,13936,6,0,P|200:120|240:76,1,75
280,144,14398,2,0,P|324:88|356:72,1,75,8|0,0:0|0:0,0:0:0:0:
328,208,14859,1,8,0:0:0:0:
296,312,15782,5,0,0:0:0:0:
216,320,16128,2,0,P|168:320|112:256,1,112.5
244,52,17628,5,8,0:0:0:0:
284,136,17859,1,0,0:0:0:0:
240,232,18090,1,8,0:0:0:0:
288,324,18321,1,8,0:0:0:0:
384,304,18551,6,0,B|416:240|416:240|368:176|368:176|408:112|408:112|352:56,2,300
332,332,22475,1,8,0:0:0:0:
272,320,22705,1,8,0:0:0:0:
232,276,22936,1,8,0:0:0:0:
216,216,23167,1,8,0:0:0:0:
224,152,23398,1,8,0:0:0:0:
256,96,23628,1,8,0:0:0:0:
308,48,23859,1,8,0:0:0:0:
380,40,24090,2,8,L|400:72,3,37.5
348,104,24551,2,8,L|356:140,3,37.5
392,176,25013,1,8,0:0:0:0:
360,256,25475,1,14,0:0:0:0:
248,248,25936,6,0,P|196:240|168:200,2,75,0|0|8,0:0|0:0|0:0,0:0:0:0:
336,192,26859,2,0,P|384:208|424:248,3,75,0|0|8|0,0:0|0:0|0:0|0:0,0:0:0:0:
408,136,27782,2,0,P|408:104|384:56,2,75,0|0|8,0:0|0:0|0:0,0:0:0:0:
232,152,28705,1,0,0:0:0:0:
136,112,28936,1,0,0:0:0:0:
88,208,29167,1,8,0:0:0:0:
176,256,29398,1,0,0:0:0:0:
120,344,29628,6,0,P|164:356|216:328,1,75
288,296,30090,1,8,0:0:0:0:
312,176,30551,2,0,P|340:128|368:100,3,75,0|0|8|0,0:0|0:0|0:0|0:0,0:0:0:0:
376,216,31475,2,0,P|352:264|328:304,2,75,8|0|8,0:0|0:0|0:0,0:0:0:0:
312,176,32398,2,0,P|264:168|240:176,2,75,8|0|8,0:0|0:0|0:0,0:0:0:0:
304,264,33090,5,8,0:0:0:0:
296,264,33205,1,8,0:0:0:0:
288,264,33321,2,0,P|244:276|192:248,1,75
132,200,33782,1,8,0:0:0:0:
88,136,34244,2,0,P|80:92|92:56,2,75,0|0|8,0:0|0:0|0:0,0:0:0:0:
124,192,34936,1,0,0:0:0:0:
196,264,35167,2,0,P|240:272|292:256,2,75,0|0|8,0:0|0:0|0:0,0:0:0:0:
148,200,36090,1,8,0:0:0:0:
112,140,36321,1,0,0:0:0:0:
164,88,36551,1,8,0:0:0:0:
228,116,36782,1,8,0:0:0:0:
248,188,37013,6,0,P|296:224|320:224,2,75,0|0|8,0:0|0:0|0:0,0:0:0:0:
336,128,37936,2,0,P|296:88|248:72,2,75
224,136,38628,1,8,0:0:0:0:
152,112,38859,2,0,P|104:88|64:56,2,75
204,236,39782,6,0,P|256:272|288:256,1,75,8|0,0:0|0:0,0:0:0:0:
320,236,40244,1,8,0:0:0:0:
380,184,40475,2,8,P|400:148|400:144,1,37.5
392,140,40705,5,0,0:0:0:0:
356,80,40936,2,0,P|312:52|304:52,1,37.5
304,56,41167,1,8,0:0:0:0:
264,148,41398,1,0,0:0:0:0:
216,56,41628,2,0,P|164:68|128:92,1,75
96,144,42090,1,8,0:0:0:0:
88,244,42321,6,0,P|100:288|108:296,1,37.5
112,296,42551,2,0,P|164:316|200:304,1,75
216,224,43013,1,8,0:0:0:0:
256,312,43244,2,0,P|296:300|300:288,1,37.5
352,240,43705,5,0,0:0:0:0:
428,172,43936,1,8,0:0:0:0:
360,80,44167,1,0,0:0:0:0:
284,32,44398,2,0,P|220:32|184:56,1,75
192,64,44744,2,0,P|176:104|160:116,1,37.5,0|8,0:0|0:0,0:0:0:0:
120,84,45090,2,0,P|80:80|64:88,1,37.5
60,148,45551,1,0,0:0:0:0:
12,228,45782,1,8,0:0:0:0:
64,292,46013,1,0,0:0:0:0:
100,220,46244,6,0,L|216:220,2,112.5
8,224,47167,1,0,0:0:0:0:
256,220,47628,5,6,0:0:0:0:
184,136,48090,6,0,P|156:112|156:104,2,37.5
272,168,48551,1,8,0:0:0:0:
376,144,48782,1,8,0:0:0:0:
376,144,48898,1,8,0:0:0:0:
376,144,49013,2,0,P|416:120|416:88,1,75
376,24,49475,1,8,0:0:0:0:
304,140,49705,1,0,0:0:0:0:
252,24,49936,6,0,P|192:44|168:60,1,75
124,96,50398,1,8,0:0:0:0:
84,184,50628,2,0,P|76:220|76:232,1,37.5
104,288,51090,1,0,0:0:0:0:
184,344,51321,1,8,0:0:0:0:
256,272,51551,1,0,0:0:0:0:
248,164,51782,2,0,P|208:136|200:128,1,37.5
192,124,52013,1,0,0:0:0:0:
100,104,52244,1,8,0:0:0:0:
24,108,52475,2,0,P|-4:148|-4:160,1,37.5
48,208,52936,1,0,0:0:0:0:
120,304,53167,1,8,0:0:0:0:
48,208,53398,1,0,0:0:0:0:
120,304,53628,6,0,B|192:292|216:276|232:272,2,112.5
40,324,54551,1,0,0:0:0:0:
256,196,55013,5,8,0:0:0:0:
256,196,55244,1,8,0:0:0:0:
256,196,55475,2,0,P|204:196|152:108,1,150,0|8,0:0|0:0,0:0:0:0:
376,112,56398,5,0,0:0:0:0:
208,128,56744,1,0,0:0:0:0:
248,296,57090,2,0,P|296:284|432:168,1,225,0|8,0:0|0:0,0:0:0:0:
204,68,58244,5,0,0:0:0:0:
104,168,58475,1,0,0:0:0:0:
232,192,58705,1,8,0:0:0:0:
312,104,58936,1,8,0:0:0:0:
204,68,59167,2,0,P|140:68|52:136,1,150,0|8,0:0|0:0,0:0:0:0:
84,184,60090,5,0,0:0:0:0:
232,184,60436,1,0,0:0:0:0:
376,184,60782,2,0,P|436:184|516:312,1,225,0|8,0:0|0:0,0:0:0:0:
376,296,61705,5,8,0:0:0:0:
368,304,61821,1,0,0:0:0:0:
360,312,61936,2,0,P|320:328|288:328,1,75
288,264,62398,2,8,P|228:252|192:224,1,75
240,188,62859,2,0,P|180:164|152:80,1,150,0|8,0:0|0:0,0:0:0:0:
256,72,63782,5,8,0:0:0:0:
104,216,64128,1,8,0:0:0:0:
304,260,64475,2,0,P|328:288|352:184,1,225,0|8,0:0|0:0,0:0:0:0:
304,136,65398,6,0,L|236:88,1,75,0|8,0:0|0:0,0:0:0:0:
253,166,65859,2,0,L|241:86,1,75,0|8,0:0|0:0,0:0:0:0:
240,84,66321,1,0,0:0:0:0:
240,88,66551,2,0,P|168:96|160:104,1,75,8|8,0:0|0:0,0:0:0:0:
112,152,67244,5,0,0:0:0:0:
104,216,67475,1,8,0:0:0:0:
144,256,67705,1,0,0:0:0:0:
192,224,67936,1,8,0:0:0:0:
216,176,68167,1,8,0:0:0:0:
288,152,68398,2,0,P|344:160|368:168,1,75,8|8,0:0|0:0,0:0:0:0:
416,224,69090,5,0,0:0:0:0:
384,272,69321,1,8,0:0:0:0:
328,280,69551,1,0,0:0:0:0:
280,248,69782,1,8,0:0:0:0:
264,200,70013,1,0,0:0:0:0:
264,152,70244,2,8,P|264:104|248:72,1,75
176,40,70936,5,0,0:0:0:0:
128,64,71167,1,8,0:0:0:0:
88,104,71398,1,0,0:0:0:0:
96,152,71628,1,8,0:0:0:0:
120,200,71859,1,8,0:0:0:0:
168,256,72090,2,8,P|224:256|256:240,1,75
304,208,72782,5,0,0:0:0:0:
320,160,73013,1,8,0:0:0:0:
312,112,73244,1,0,0:0:0:0:
288,64,73475,1,8,0:0:0:0:
248,32,73705,1,8,0:0:0:0:
256,192,73936,12,4,79475,0:0:0:0:
128,80,81321,5,0,0:0:0:0:
184,80,81551,1,0,0:0:0:0:
244,80,81782,1,8,0:0:0:0:
308,80,82013,2,0,L|352:80,1,37.5,8|0,0:0|0:0,0:0:0:0:
352,128,82359,2,0,L|400:128,1,37.5,8|0,0:0|0:0,0:0:0:0:
384,192,82705,1,8,0:0:0:0:
308,260,83167,6,0,P|248:288|204:288,2,75,0|0|8,0:0|0:0|0:0,0:0:0:0:
368,312,84090,5,0,0:0:0:0:
96,64,84551,1,12,0:0:0:0:
100,304,85013,5,0,0:0:0:0:
164,304,85244,1,0,0:0:0:0:
228,304,85475,1,8,0:0:0:0:
292,304,85705,2,0,L|336:304,1,37.5,8|0,0:0|0:0,0:0:0:0:
328,244,86167,2,0,P|376:244|400:224,1,75,0|8,0:0|0:0,0:0:0:0:
348,176,86859,5,0,0:0:0:0:
280,72,87321,6,0,P|228:104|184:104,1,75,8|0,0:0|0:0,0:0:0:0:
152,100,87782,2,0,B|108:116|72:144|48:176|40:200,1,150,0|8,0:0|0:0,0:0:0:0:
248,304,88705,5,0,0:0:0:0:
248,244,88936,1,0,0:0:0:0:
248,184,89167,1,8,0:0:0:0:
248,124,89398,2,0,L|248:76,1,37.5
304,92,89744,2,8,L|304:52,1,37.5,8|0,0:0|0:0,0:0:0:0:
360,124,90090,1,8,0:0:0:0:
324,264,90436,5,8,0:0:0:0:
324,264,90551,2,8,P|296:296|256:296,2,75,0|0|8,0:0|0:0|0:0,0:0:0:0:
248,216,91475,2,0,P|192:200|136:272,1,150,0|8,0:0|0:0,0:0:0:0:
52,348,92167,1,8,0:0:0:0:
52,264,92398,2,0,L|56:224,4,37.5,0|0|0|0|8,0:0|0:0|0:0|0:0|0:0,0:0:0:0:
96,312,93090,2,0,L|144:336,1,37.5,8|0,0:0|0:0,0:0:0:0:
168,240,93436,2,0,L|208:216,1,37.5,8|0,0:0|0:0,0:0:0:0:
248,304,93782,2,0,P|292:300|328:280,1,75,8|0,0:0|0:0,0:0:0:0:
376,168,94244,5,4,0:0:0:0:
224,64,94705,5,8,0:0:0:0:
152,144,94936,1,8,0:0:0:0:
256,176,95167,6,8,P|316:152|348:72,1,150,0|8,0:0|0:0,0:0:0:0:
136,48,96090,1,4,0:0:0:0:
256,192,103475,6,0,P|300:192|324:172,2,75,0|0|8,0:0|0:0|0:0,0:0:0:0:
184,140,104167,1,0,0:0:0:0:
184,140,104282,1,0,0:0:0:0:
184,140,104398,2,0,P|136:100|92:100,1,75
44,100,104859,1,8,0:0:0:0:
56,180,105090,2,0,P|80:208|88:240,1,37.5
136,184,105321,2,0,P|176:208|224:184,1,75
248,192,105782,1,8,0:0:0:0:
320,136,106013,2,0,L|352:108,1,37.5
208,64,106475,5,0,0:0:0:0:
120,140,106705,1,8,0:0:0:0:
24,216,106936,1,0,0:0:0:0:
120,140,107167,2,0,L|148:172,4,37.5,0|0|0|0|8,0:0|0:0|0:0|0:0|0:0,0:0:0:0:
176,208,107859,2,0,L|208:244,1,37.5
160,376,108321,1,0,0:0:0:0:
264,280,108551,1,8,0:0:0:0:
372,176,108782,1,0,0:0:0:0:
280,64,109013,5,0,0:0:0:0:
216,56,109244,2,0,P|176:72|168:80,1,37.5
208,136,109705,1,0,0:0:0:0:
192,240,109936,1,0,0:0:0:0:
424,176,110398,5,6,0:0:0:0:
216,80,110859,5,0,0:0:0:0:
208,84,110975,1,0,0:0:0:0:
200,88,111090,2,0,P|152:120|132:160,1,75,0|8,0:0|0:0,0:0:0:0:
188,216,111551,1,0,0:0:0:0:
192,212,111667,1,0,0:0:0:0:
196,208,111782,2,0,P|236:168|240:144,1,75,0|8,0:0|0:0,0:0:0:0:
220,80,112244,1,0,0:0:0:0:
144,128,112475,1,0,0:0:0:0:
64,200,112705,5,8,0:0:0:0:
136,292,112936,1,0,0:0:0:0:
224,220,113167,1,0,0:0:0:0:
144,128,113398,2,0,P|108:160|104:164,1,37.5,8|0,0:0|0:0,0:0:0:0:
136,292,113859,1,0,0:0:0:0:
240,208,114090,1,8,0:0:0:0:
152,112,114321,1,8,0:0:0:0:
60,200,114551,6,0,L|88:240,1,37.5
120,220,114782,2,0,L|152:256,1,37.5
136,288,115013,1,8,0:0:0:0:
236,232,115244,2,0,P|260:196|256:176,1,37.5
232,112,115705,1,0,0:0:0:0:
124,112,115936,1,8,0:0:0:0:
232,112,116167,1,0,0:0:0:0:
340,112,116398,6,0,P|380:152|376:216,2,112.5
248,92,117321,1,4,0:0:0:0:
132,136,117782,5,8,0:0:0:0:
132,136,118013,1,8,0:0:0:0:
132,136,118244,2,0,P|132:184|208:272,1,150,0|8,0:0|0:0,0:0:0:0:
216,172,119167,5,0,0:0:0:0:
360,84,119513,1,0,0:0:0:0:
364,256,119859,1,0,0:0:0:0:
296,152,120551,5,8,0:0:0:0:
128,20,121013,5,0,0:0:0:0:
36,84,121244,1,0,0:0:0:0:
128,120,121475,1,8,0:0:0:0:
236,116,121705,1,0,0:0:0:0:
144,216,121936,2,0,P|144:260|240:328,1,150,0|8,0:0|0:0,0:0:0:0:
206,257,122859,5,0,0:0:0:0:
392,64,123205,1,0,0:0:0:0:
156,72,123551,2,0,P|200:100|204:260,1,225,0|8,0:0|0:0,0:0:0:0:
132,168,124475,5,0,0:0:0:0:
224,88,124705,1,8,0:0:0:0:
296,184,124936,1,0,0:0:0:0:
200,252,125167,1,8,0:0:0:0:
132,168,125398,1,8,0:0:0:0:
208,168,125628,2,0,P|256:164|360:92,1,150,0|8,0:0|0:0,0:0:0:0:
252,80,126551,5,0,0:0:0:0:
108,244,126898,1,0,0:0:0:0:
344,252,127244,2,0,P|380:224|360:56,1,225,0|8,0:0|0:0,0:0:0:0:
312,164,128167,5,0,0:0:0:0:
244,96,128398,1,8,0:0:0:0:
200,176,128628,1,0,0:0:0:0:
260,244,128859,1,8,0:0:0:0:
152,264,129090,1,8,0:0:0:0:
112,192,129321,2,0,P|96:160|216:48,1,225,0|8,0:0|0:0,0:0:0:0:
280,104,131167,5,4,0:0:0:0:
96,300,133013,5,0,0:0:0:0:
120,244,133244,1,0,0:0:0:0:
144,188,133475,1,8,0:0:0:0:
168,136,133705,2,0,L|188:96,1,37.5
232,124,134051,2,0,L|252:72,1,37.5,8|0,0:0|0:0,0:0:0:0:
292,112,134398,1,8,0:0:0:0:
312,192,134859,6,0,P|292:236|264:248,2,75,0|0|8,0:0|0:0|0:0,0:0:0:0:
304,76,135782,5,0,0:0:0:0:
124,280,136244,1,8,0:0:0:0:
352,280,136705,5,0,0:0:0:0:
316,236,136936,1,0,0:0:0:0:
276,192,137167,1,8,0:0:0:0:
236,152,137398,2,0,L|208:120,1,37.5,0|8,0:0|0:0,0:0:0:0:
180,168,137859,2,0,P|148:136|104:124,1,75,0|8,0:0|0:0,0:0:0:0:
112,196,138551,5,14,0:0:0:0:
264,292,139013,5,8,0:0:0:0:
328,212,139244,1,8,0:0:0:0:
376,140,139475,2,0,P|392:104|320:20,1,150,0|8,0:0|0:0,0:0:0:0:
272,40,140398,5,0,0:0:0:0:
216,40,140628,1,0,0:0:0:0:
152,40,140859,1,8,0:0:0:0:
92,40,141090,2,0,L|28:40,1,37.5,8|0,0:0|0:0,0:0:0:0:
56,96,141436,2,0,L|16:96,1,37.5,8|0,0:0|0:0,0:0:0:0:
16,144,141782,1,8,0:0:0:0:
152,184,142128,5,0,0:0:0:0:
160,188,142244,2,0,P|196:208|236:208,1,75
304,184,142705,1,8,0:0:0:0:
212,68,143167,1,0,0:0:0:0:
212,304,143628,1,14,0:0:0:0:
348,212,144090,5,0,0:0:0:0:
348,152,144321,1,0,0:0:0:0:
348,92,144551,1,8,0:0:0:0:
348,32,144782,2,0,L|348:-20,1,37.5
248,32,145244,2,0,L|248:112,1,75,0|8,0:0|0:0,0:0:0:0:
128,72,145936,5,4,0:0:0:0:
92,172,146398,6,8,P|92:220|120:248,1,75
172,300,146859,1,0,0:0:0:0:
292,164,147321,1,8,0:0:0:0:
392,32,147782,1,4,0:0:0:0:
280,48,148128,6,0,P|224:60|152:40,1,112.5,8|0,0:0|0:0,0:0:0:0:
240,144,148821,2,0,P|200:168|156:224,1,112.5,8|0,0:0|0:0,0:0:0:0:
340,280,149628,1,0,0:0:0:0:
276,204,149859,1,0,0:0:0:0:
216,128,150090,1,8,0:0:0:0:
152,48,150321,1,0,0:0:0:0:
96,168,150551,2,0,L|128:208,4,37.5,0|0|0|0|8,0:0|0:0|0:0|0:0|0:0,0:0:0:0:
252,224,151244,2,0,L|280:200,1,37.5
280,168,151474,2,0,L|292:128,1,37.5
264,108,151705,2,0,L|260:40,1,37.5
240,52,151936,2,0,P|196:24|176:24,1,37.5,8|0,0:0|0:0,0:0:0:0:
136,76,152282,2,0,B|104:56|104:112|-16:188,1,187.5,0|8,0:0|0:0,0:0:0:0:
136,212,153321,5,0,0:0:0:0:
156,220,153436,1,0,0:0:0:0:
172,224,153551,1,0,0:0:0:0:
196,224,153667,1,0,0:0:0:0:
220,220,153782,1,8,0:0:0:0:
244,212,153898,1,0,0:0:0:0:
264,200,154013,1,0,0:0:0:0:
280,180,154128,1,0,0:0:0:0:
292,160,154244,2,0,L|304:132,8,18.75,0|0|8|0|0|0|0|0|8,0:0|0:0|0:0|0:0|0:0|0:0|0:0|0:0|0:0,0:0:0:0:
328,168,154821,2,0,L|340:140,5,18.75,0|0|8|0|8|0,0:0|0:0|0:0|0:0|0:0|0:0,0:0:0:0:
367,142,155167,1,0,0:0:0:0:
376,72,155398,2,0,L|368:24,1,37.5
340,16,155628,5,8,0:0:0:0:
248,0,155975,1,0,0:0:0:0:
156,36,156205,1,0,0:0:0:0:
92,116,156551,2,0,P|56:156|56:188,1,75,8|0,0:0|0:0,0:0:0:0:
120,168,157013,1,0,0:0:0:0:
132,268,157244,2,0,P|171:307|176:320,1,37.5
192,264,157475,2,0,L|232:256,1,37.5,8|0,0:0|0:0,0:0:0:0:
256,224,157705,1,0,0:0:0:0:
296,192,157936,2,0,L|296:152,4,37.5,8|8|8|8|0,0:0|0:0|0:0|0:0|0:0,0:0:0:0:
312,232,158628,1,0,0:0:0:0:
296,272,158859,6,0,P|268:308|144:296,1,150,8|0,0:0|0:0,0:0:0:0:
152,264,159551,2,0,L|144:208,1,37.5
104,224,159782,1,8,0:0:0:0:
76,132,160013,2,0,P|80:96|96:72,1,37.5
128,112,160244,2,0,L|160:80,1,37.5
184,112,160475,2,0,L|240:104,1,37.5
232,144,160705,1,8,0:0:0:0:
384,208,161167,1,8,0:0:0:0:
208,328,161628,1,8,0:3:0:0:
136,256,161859,1,8,0:3:0:0:
120,152,162090,1,8,0:3:0:0:
184,72,162321,1,8,0:3:0:0:
288,64,162551,1,4,0:0:0:0:
392,56,177090,6,0,P|324:80|316:96,1,75
112,92,178244,6,0,P|88:144|80:224,2,112.5
356,52,180090,5,0,0:0:0:0:
240,96,180321,1,0,0:0:0:0:
336,176,180551,1,8,0:0:0:0:
216,224,180782,1,0,0:0:0:0:
240,96,181013,2,0,P|184:56|52:116,1,225,0|8,0:0|0:0,0:0:0:0:
32,224,181936,6,0,P|45:277|109:313,2,112.5
244,56,183551,5,8,0:0:0:0:
260,60,183667,1,8,0:0:0:0:
276,72,183782,1,0,0:0:0:0:
344,176,184013,1,0,0:0:0:0:
272,280,184244,1,8,0:0:0:0:
144,288,184475,1,0,0:0:0:0:
208,168,184705,2,0,P|240:136|144:16,1,225,0|8,0:0|0:0,0:0:0:0:
64,104,185628,6,0,P|132:88|188:112,2,112.5
128,220,187244,5,0,0:0:0:0:
176,296,187475,1,8,0:0:0:0:
240,232,187705,1,0,0:0:0:0:
312,176,187936,1,8,0:0:0:0:
360,248,188167,1,8,0:0:0:0:
296,304,188398,2,0,P|264:328|192:296,1,112.5
152,224,189321,5,8,0:0:0:0:
216,152,189551,1,0,0:0:0:0:
312,152,189782,1,8,0:0:0:0:
408,184,190013,1,8,0:0:0:0:
472,256,190244,2,0,P|488:296|472:328,1,75
384,288,190936,5,0,0:0:0:0:
336,208,191167,1,8,0:0:0:0:
288,120,191398,1,0,0:0:0:0:
216,184,191628,1,8,0:0:0:0:
280,264,191859,1,8,0:0:0:0:
328,200,192090,2,0,P|352:160|352:128,1,75
344,32,192782,5,0,0:0:0:0:
248,48,193013,1,8,0:0:0:0:
288,136,193244,1,0,0:0:0:0:
192,144,193475,1,8,0:0:0:0:
224,232,193705,1,8,0:0:0:0:
128,256,193936,2,0,P|96:264|56:240,1,75
48,136,194628,5,0,0:0:0:0:
112,64,194859,1,8,0:0:0:0:
152,152,195090,1,0,0:0:0:0:
216,80,195321,1,8,0:0:0:0:
256,168,195551,1,8,0:0:0:0:
320,80,195782,1,0,0:0:0:0:
256,192,195811,12,4,203167,0:0:0:0:
104,336,206859,5,0,0:0:0:0:
128,280,207090,1,0,0:0:0:0:
152,224,207321,1,8,0:0:0:0:
176,168,207551,2,0,L|200:128,1,37.5,8|0,0:0|0:0,0:0:0:0:
240,160,207898,2,0,L|256:120,1,37.5,8|0,0:0|0:0,0:0:0:0:
296,144,208244,1,8,0:0:0:0:
416,152,208705,6,0,P|416:200|400:232,2,75,0|0|8,0:0|0:0|0:0,0:0:0:0:
344,192,209628,2,0,P|336:144|240:168,1,150,0|8,0:0|0:0,0:0:0:0:
48,56,210551,5,0,0:0:0:0:
80,104,210782,1,0,0:0:0:0:
80,160,211013,1,8,0:0:0:0:
80,216,211244,2,0,L|80:264,1,37.5,8|0,0:0|0:0,0:0:0:0:
128,240,211705,2,0,P|128:280|144:320,1,75,0|8,0:0|0:0,0:0:0:0:
192,264,212398,5,4,0:0:0:0:
272,232,212859,6,0,P|320:208|336:184,1,75
184,200,213321,2,0,B|104:216|160:264|80:304,1,150,8|0,0:0|0:0,0:0:0:0:
456,48,214244,5,0,0:0:0:0:
424,96,214475,1,0,0:0:0:0:
392,144,214705,1,8,0:0:0:0:
360,192,214936,2,0,L|328:232,1,37.5,8|0,0:0|0:0,0:0:0:0:
384,240,215282,2,0,L|352:280,1,37.5,8|0,0:0|0:0,0:0:0:0:
416,288,215628,1,8,0:0:0:0:
256,312,215975,5,8,0:0:0:0:
256,312,216090,2,8,P|216:304|184:280,1,75,0|0,0:0|0:0,0:0:0:0:
144,224,216551,1,8,0:0:0:0:
112,136,217013,6,0,P|120:88|208:40,1,150,0|8,0:0|0:0,0:0:0:0:
344,64,217936,6,0,L|392:72,3,37.5
448,160,218628,2,0,L|464:216,1,37.5,8|0,0:0|0:0,0:0:0:0:
384,144,218975,2,0,L|352:96,1,37.5,8|0,0:0|0:0,0:0:0:0:
392,232,219321,1,8,0:0:0:0:
240,280,219782,5,4,0:0:0:0:
80,160,220244,6,0,P|48:136|24:104,1,75
152,112,220705,2,0,B|192:136|216:160|296:168,1,150,8|0,0:0|0:0,0:0:0:0:
120,224,221628,6,0,B|264:224|264:224|288:256|288:256|368:256,1,262.5
507,80,223475,5,0,0:0:0:0:
408,96,223705,1,0,0:0:0:0:
448,192,223936,1,8,0:0:0:0:
344,176,224398,6,0,P|296:128|328:48,1,150,0|8,0:0|0:0,0:0:0:0:
168,104,225321,5,0,0:0:0:0:
136,152,225551,1,0,0:0:0:0:
80,160,225782,1,8,0:0:0:0:
32,136,226013,2,0,L|0:112,1,37.5,8|0,0:0|0:0,0:0:0:0:
40,80,226475,2,0,P|16:40|24:16,1,75,8|8,0:0|0:0,0:0:0:0:
168,40,227167,5,4,0:0:0:0:
288,40,227628,6,0,P|336:48|368:56,1,75
232,104,228090,2,0,B|136:112|192:168|96:184,1,150
112,264,229013,6,0,B|256:264|256:264|280:288|280:288|368:288,1,262.5
368,216,230744,5,8,0:0:0:0:
368,216,230859,2,0,P|392:184|392:144,1,75
360,88,231321,1,8,0:0:0:0:
136,72,231782,5,8,0:0:0:0:
112,312,232244,1,4,0:0:0:0:
232,312,232705,6,0,L|280:304,1,37.5,8|0,0:0|0:0,0:0:0:0:
184,264,233051,2,0,L|120:280,1,37.5,8|0,0:0|0:0,0:0:0:0:
216,192,233398,2,0,L|256:176,1,37.5,8|0,0:0|0:0,0:0:0:0:
144,160,233744,2,0,L|104:168,1,37.5
192,88,234090,1,0,0:0:0:0:
336,64,234551,5,4,0:0:0:0:
344,168,235013,6,0,P|352:224|320:264,1,75
280,208,235475,1,8,0:0:0:0:
120,304,235936,1,8,0:0:0:0:
144,80,236398,6,0,P|88:112|72:144,2,75,0|0|8,0:0|0:0|0:0,0:0:0:0:
200,120,237321,2,0,P|248:112|272:96,1,75
368,72,237782,1,8,0:0:0:0:
352,176,238013,1,0,0:0:0:0:
296,264,238244,1,8,0:0:0:0:
192,272,238475,1,0,0:0:0:0:
104,208,238705,1,8,0:0:0:0:
272,80,239167,5,8,0:0:0:0:
168,64,239398,1,0,0:0:0:0:
200,160,239628,1,8,0:0:0:0:
112,216,239859,1,8,0:0:0:0:
176,296,240090,6,0,P|224:280|264:288,2,75,0|0|8,0:0|0:0|0:0,0:0:0:0:
216,352,241013,2,0,P|176:376|136:384,3,75,0|0|8|0,0:0|0:0|0:0|0:0,0:0:0:0:
152,280,241936,1,0,0:0:0:0:
168,176,242167,1,0,0:0:0:0:
200,80,242398,6,0,P|256:32|280:24,1,75,8|0,0:0|0:0,0:0:0:0:
360,56,242859,1,0,0:0:0:0:
256,264,243321,1,8,0:0:0:0:
176,64,243551,5,8,0:0:0:0:
168,72,243667,1,0,0:0:0:0:
160,80,243782,2,0,P|128:128|136:160,2,75,0|0|8,0:0|0:0|0:0,0:0:0:0:
224,120,244705,2,0,P|264:112|296:80,2,75,0|0|8,0:0|0:0|0:0,0:0:0:0:
152,72,245398,1,0,0:0:0:0:
88,144,245628,2,0,P|64:200|72:240,2,75,0|0|8,0:0|0:0|0:0,0:0:0:0:
208,96,246551,5,0,0:0:0:0:
232,200,246782,1,0,0:0:0:0:
336,216,247013,1,8,0:0:0:0:
432,184,247244,1,8,0:0:0:0:
376,288,247475,6,0,L|440:344,2,75,0|0|8,0:0|0:0|0:0,0:0:0:0:
304,304,248398,2,0,P|280:280|232:232,2,75,0|0|8,0:0|0:0|0:0,0:0:0:0:
336,224,249090,1,8,0:0:0:0:
368,144,249321,2,0,P|384:96|408:80,1,75
448,144,249782,1,8,0:0:0:0:
280,272,250244,5,8,0:0:0:0:
184,312,250475,1,0,0:0:0:0:
152,216,250705,1,8,0:0:0:0:
32,176,250936,5,0,0:0:0:0:
32,160,251051,1,0,0:0:0:0:
32,144,251167,2,0,B|112:144|208:160|232:168|232:168|256:144|256:144|280:152|408:160|480:152,2,450.000017166138
256,192,256705,5,4,0:0:0:0:
