osu file format v14

[General]
AudioFilename: audio.mp3
AudioLeadIn: 0
PreviewTime: -1
Countdown: 1
SampleSet: Soft
StackLeniency: 0.7
Mode: 0
LetterboxInBreaks: 0
WidescreenStoryboard: 1

[Editor]
Bookmarks: 33132,81519
DistanceSpacing: 1.7
BeatDivisor: 4
GridSize: 4
TimelineZoom: 1

[Metadata]
Title:Identity (TV Size)
TitleUnicode:Identity (TV Size)
Artist:Mikio Sakai
ArtistUnicode:Mikio Sakai
Creator:KUZY2X
Version:Normal+
Source:Rakudai Kishi no Cavalry
Tags:Rakudai Kishi no Cavalry
BeatmapID:1254115
BeatmapSetID:592713

[Difficulty]
HPDrainRate:5
CircleSize:3.5
OverallDifficulty:6.5
ApproachRate:8.8
SliderMultiplier:1.9
SliderTickRate:1

[Events]
//Background and Video events
Video,0,"Rakudai Kishi no Cavalry Opening.mp4"
0,0,"Rakudai Kishi no Cavalry Wallpaper.png",0,0
//Break Periods
//Storyboard Layer 0 (Background)
//Storyboard Layer 1 (Fail)
//Storyboard Layer 2 (Pass)
//Storyboard Layer 3 (Foreground)
//Storyboard Sound Samples

[TimingPoints]
229,483.870967741935,4,2,1,50,1,0
229,-133.333333333333,4,2,1,50,0,0
2164,-133.333333333333,4,2,1,20,0,0
4099,-100,4,2,2,20,0,0
4220,-100,4,2,1,60,0,0
19583,-100,4,2,2,40,0,0
19704,-100,4,2,1,60,0,0
35067,-100,4,2,1,40,0,0
48616,-100,4,2,1,20,0,0
49583,-100,4,2,1,40,0,0
50551,-100,4,2,2,70,0,1
50793,-100,4,2,1,70,0,1
65067,-100,4,2,1,70,0,0
66035,-100,4,2,2,70,0,1
66156,-100,4,2,1,70,0,1
81519,-100,4,2,2,60,0,0
81640,-100,4,2,1,60,0,0
84664,-100,4,2,1,50,0,0
87688,-100,4,2,1,40,0,0
87809,-100,4,2,1,30,0,0
88293,-100,4,2,1,20,0,0
88777,-100,4,2,1,10,0,0
89019,-100,4,2,1,5,0,0

[Colours]
Combo1 : 102,102,102
Combo2 : 255,0,0
Combo3 : 255,119,176
Combo4 : 251,19,140
Combo5 : 196,0,0
Combo6 : 183,183,183

[HitObjects]
129,133,229,5,8,0:0:0:0:
129,133,349,2,0,P|184:117|213:119,2,71.2500027179719
183,210,1075,1,0,0:0:0:0:
183,210,1196,2,0,L|228:242,1,35.6250013589859
187,268,1438,2,0,L|232:300,2,35.6250013589859
133,243,1801,2,0,L|86:272,2,35.6250013589859
299,127,2890,38,0,L|325:137,2,17.812500679493
319,170,3132,2,0,L|368:198,1,35.6250013589859
301,259,3374,2,0,L|296:300,1,35.6250013589859
236,203,3616,5,0,0:0:0:0:
210,190,3737,1,0,0:0:0:0:
181,188,3858,1,0,0:0:0:0:
154,196,3978,1,0,0:0:0:0:
117,228,4099,6,0,L|130:117,1,95,4|0,0:0|0:0,0:0:0:0:
77,69,4462,2,0,P|147:89|182:78,1,95
230,33,4825,2,0,L|337:52,1,95
401,25,5188,2,0,P|398:84|353:125,1,95
304,148,5551,2,0,L|334:248,1,95
218,255,6035,54,0,P|154:246|117:253,1,95
103,262,6398,1,0,0:0:0:0:
85,278,6519,2,0,L|67:212,2,47.5
223,344,7003,6,0,L|337:333,1,95
497,298,7487,2,0,L|398:282,1,95
270,206,7970,6,0,P|246:144|257:100,1,95
314,68,8333,2,0,L|210:84,1,95
166,143,8696,2,0,P|100:155|54:138,1,95
21,259,9180,54,0,L|136:284,2,95
68,384,9906,2,0,P|135:387|178:366,1,95
180,364,10269,1,0,0:0:0:0:
194,345,10390,2,0,L|250:348,2,47.5
312,258,10874,6,0,L|419:252,1,95
486,155,11358,1,0,0:0:0:0:
469,137,11478,1,0,0:0:0:0:
446,128,11599,1,0,0:0:0:0:
422,127,11720,1,0,0:0:0:0:
376,151,11841,6,0,L|280:143,1,95
213,187,12204,2,0,P|154:198|106:185,1,95
67,253,12567,2,0,L|84:137,1,95
52,46,13051,1,0,0:0:0:0:
186,77,13293,2,0,L|246:71,1,47.5
256,29,13535,2,0,L|316:23,1,47.5
334,62,13777,54,0,P|401:37|357:162,1,285
389,104,14624,1,0,0:0:0:0:
366,112,14745,2,0,L|246:150,1,95
137,213,15228,2,0,P|198:208|238:222,1,95
184,315,15712,6,0,L|85:289,1,95
68,286,16075,1,0,0:0:0:0:
44,280,16196,2,0,L|28:226,2,47.5
138,212,16680,2,0,P|159:151|158:114,1,95
151,98,17043,1,0,0:0:0:0:
136,79,17164,1,0,0:0:0:0:
278,93,17406,5,0,0:0:0:0:
278,93,17527,1,0,0:0:0:0:
278,93,17648,1,0,0:0:0:0:
375,60,17890,2,0,P|372:137|356:162,1,95
420,209,18253,2,0,L|303:209,1,95
253,247,18616,54,0,P|193:280|92:252,1,142.5
57,223,19099,2,0,L|36:160,1,47.5
117,144,19341,2,0,L|143:89,1,47.5
226,98,19583,6,0,P|293:106|339:89,1,95,4|0,0:0|0:0,0:0:0:0:
379,45,19946,2,0,P|442:31|497:45,1,95
462,116,20309,2,0,L|478:215,1,95
454,287,20672,2,0,P|399:269|347:275,1,95
290,309,21035,2,0,L|236:321,1,47.5
207,292,21277,2,0,L|153:304,1,47.5
68,319,21519,6,0,P|92:258|92:222,1,95
85,206,21882,1,0,0:0:0:0:
73,185,22003,2,0,P|57:124|68:84,1,95
176,130,22487,2,0,L|332:104,2,142.5
204,217,23454,54,0,L|305:199,1,95
366,244,23817,2,0,P|425:240|467:208,1,95
493,150,24180,2,0,L|436:69,1,95
307,65,24664,2,0,P|236:58|198:69,2,95
254,155,25390,6,0,L|159:139,1,95
98,85,25753,2,0,P|78:133|88:179,1,95
153,218,26116,1,0,0:0:0:0:
142,325,26358,5,0,0:0:0:0:
161,312,26478,1,0,0:0:0:0:
184,307,26599,1,0,0:0:0:0:
207,311,26720,1,0,0:0:0:0:
246,340,26841,53,0,0:0:0:0:
269,335,26962,1,0,0:0:0:0:
288,321,27083,1,0,0:0:0:0:
300,301,27204,1,0,0:0:0:0:
302,254,27325,6,0,L|404:209,1,95
390,134,27688,2,0,P|438:118|472:81,1,95
395,50,28051,2,0,L|266:22,1,95
213,88,28535,5,0,0:0:0:0:
213,88,28656,1,0,0:0:0:0:
213,88,28777,2,0,L|99:98,1,95
38,208,29261,2,0,P|114:197|197:284,1,190
90,310,29987,1,0,0:0:0:0:
179,375,30228,2,0,L|280:341,1,95
406,345,30712,2,0,P|457:300|475:251,1,95
466,138,31196,70,0,L|363:173,1,95
314,221,31559,2,0,P|264:162|112:206,1,237.5
210,265,32406,2,0,L|227:329,1,47.5
39,274,32890,2,0,L|26:228,1,47.5
76,103,33374,5,0,0:0:0:0:
91,85,33495,1,0,0:0:0:0:
107,67,33616,1,0,0:0:0:0:
130,72,33737,1,0,0:0:0:0:
153,70,33858,1,0,0:0:0:0:
174,60,33978,1,0,0:0:0:0:
208,39,34099,53,0,0:0:0:0:
231,33,34220,1,0,0:0:0:0:
254,36,34341,1,0,0:0:0:0:
273,49,34462,1,0,0:0:0:0:
300,77,34583,5,0,0:0:0:0:
319,90,34704,1,0,0:0:0:0:
341,98,34825,1,0,0:0:0:0:
364,101,34946,1,0,0:0:0:0:
411,95,35067,6,0,L|345:240,2,142.5
471,185,36035,2,0,L|442:254,1,47.5
396,255,36277,2,0,L|367:324,2,47.5
263,257,36761,53,0,0:0:0:0:
263,257,36882,1,0,0:0:0:0:
263,257,37003,2,0,P|191:249|110:300,2,142.5
329,151,37970,5,0,0:0:0:0:
329,151,38212,1,0,0:0:0:0:
196,149,38454,5,0,0:0:0:0:
196,149,38696,1,0,0:0:0:0:
76,73,38938,54,0,L|50:232,2,142.5
174,44,39906,1,0,0:0:0:0:
193,57,40027,1,0,0:0:0:0:
215,64,40148,1,0,0:0:0:0:
238,67,40269,1,0,0:0:0:0:
287,58,40390,2,0,L|234:149,1,95
262,220,40753,1,0,0:0:0:0:
256,192,40874,12,8,42325,0:0:0:0:
157,151,42809,6,0,P|169:222|133:304,2,142.5
58,87,43777,2,0,L|181:51,1,95
282,113,44261,2,0,P|373:133|407:117,1,95
464,237,44745,6,0,L|308:225,2,142.5
314,331,45712,2,0,P|254:300|206:297,1,95
88,331,46196,2,0,P|57:274|58:228,1,95
256,192,46680,12,0,48616,0:0:0:0:
126,129,49583,69,0,0:0:0:0:
216,203,49825,1,0,0:0:0:0:
216,203,49946,2,0,P|277:187|329:206,1,95
271,282,50430,1,0,0:0:0:0:
271,282,50551,22,0,L|147:291,1,95,4|8,0:0|0:0,0:0:0:0:
112,238,50914,2,0,P|118:163|104:121,1,95,8|0,0:0|0:0,0:0:0:0:
53,60,51277,1,0,0:0:0:0:
53,60,51398,1,0,0:0:0:0:
53,60,51519,2,8,P|117:69|150:59,1,95
220,29,51882,2,8,P|272:25|322:42,1,95
397,93,52245,5,0,0:0:0:0:
397,93,52366,1,0,0:0:0:0:
397,93,52487,2,8,P|376:178|393:255,2,142.5
257,171,53454,2,8,P|279:233|275:335,2,142.5
125,166,54422,6,8,P|98:113|102:61,1,95
178,65,54785,2,8,L|287:33,1,95
423,113,55269,53,0,0:0:0:0:
423,113,55390,2,8,P|411:175|427:222,1,95
461,274,55753,2,8,P|390:272|355:288,1,95
297,319,56116,1,8,0:0:0:0:
98,359,56358,6,0,P|119:299|119:257,1,95
51,162,56841,2,0,P|56:111|79:63,1,95
205,142,57325,5,0,0:0:0:0:
225,153,57446,1,0,0:0:0:0:
248,158,57567,1,0,0:0:0:0:
271,157,57688,1,0,0:0:0:0:
309,112,57809,53,8,0:0:0:0:
332,113,57930,1,8,0:0:0:0:
353,122,58051,1,8,0:0:0:0:
369,139,58172,1,8,0:0:0:0:
431,184,58293,6,8,L|252:288,1,190
79,297,59019,1,8,0:0:0:0:
79,297,59140,1,8,0:0:0:0:
79,297,59261,2,0,P|79:244|63:199,1,95,8|0,0:0|0:0,0:0:0:0:
172,133,59745,2,8,P|206:87|257:64,1,95
406,109,60228,5,8,0:0:0:0:
256,300,60712,1,8,0:0:0:0:
106,109,61196,1,8,0:0:0:0:
255,151,61680,53,0,0:0:0:0:
256,176,61801,1,0,0:0:0:0:
256,200,61922,1,0,0:0:0:0:
256,224,62043,1,0,0:0:0:0:
255,265,62164,6,8,P|201:294|150:302,1,95
93,333,62527,2,8,L|112:222,1,95
64,171,62890,2,8,P|108:124|114:77,1,95
153,23,63253,2,8,L|259:13,1,95
305,71,63616,2,0,L|367:88,1,47.5,8|0,0:0|0:0,0:0:0:0:
396,150,63858,2,0,L|458:167,1,47.5,8|0,0:0|0:0,0:0:0:0:
363,246,64099,6,0,P|303:260|210:242,2,142.5
282,162,65067,21,0,0:0:0:0:
259,155,65188,1,0,0:0:0:0:
236,148,65309,1,0,0:0:0:0:
213,141,65430,1,0,0:0:0:0:
166,107,65551,5,0,0:0:0:0:
143,115,65672,1,0,0:0:0:0:
119,119,65793,1,0,0:0:0:0:
95,121,65914,1,0,0:0:0:0:
44,153,66035,6,0,L|118:283,2,142.5,4|8|8,0:0|0:0|0:0,0:0:0:0:
197,135,67003,2,8,P|264:110|360:127,2,142.5
282,247,67970,6,8,P|328:274|377:274,1,95
409,205,68333,2,8,P|463:166|482:131,1,95
459,63,68696,1,8,0:0:0:0:
312,73,68938,6,0,L|264:93,3,47.5,8|0|8|0,0:0|0:0|0:0|0:0,0:0:0:0:
199,47,69422,2,0,L|142:38,3,47.5,8|0|8|0,0:0|0:0|0:0|0:0,0:0:0:0:
83,83,69906,54,8,P|101:168|88:236,2,142.5
68,63,70753,1,8,0:0:0:0:
83,80,70874,2,8,P|137:95|241:81,2,142.5
18,168,71841,6,8,L|67:257,1,95
144,240,72204,2,8,P|213:232|261:249,1,95
304,282,72567,1,8,0:0:0:0:
433,345,72809,69,0,0:0:0:0:
427,321,72930,1,0,0:0:0:0:
421,297,73051,1,0,0:0:0:0:
415,273,73172,1,0,0:0:0:0:
385,231,73293,5,8,0:0:0:0:
389,207,73414,1,8,0:0:0:0:
393,183,73535,1,8,0:0:0:0:
397,159,73656,1,8,0:0:0:0:
432,114,73777,6,8,P|374:75|319:77,1,95
280,114,74140,2,8,P|216:113|177:93,1,95
97,38,74503,1,0,0:0:0:0:
97,38,74624,1,0,0:0:0:0:
97,38,74745,54,8,L|98:133,1,95
154,191,75108,2,8,L|145:304,1,95
99,351,75470,1,8,0:0:0:0:
264,256,75712,6,8,P|329:254|418:359,2,190
99,260,77164,5,0,0:0:0:0:
97,236,77285,1,0,0:0:0:0:
95,212,77406,1,0,0:0:0:0:
93,188,77527,1,0,0:0:0:0:
61,144,77648,54,8,P|116:104|135:70,1,95
210,96,78011,2,8,L|305:79,1,95
371,34,78374,2,8,P|417:69|436:113,1,95
480,167,78737,2,8,L|445:264,1,95
366,243,79099,2,0,P|323:229|301:229,1,47.5,8|0,0:0|0:0,0:0:0:0:
244,256,79341,2,0,P|220:251|199:241,1,47.5,8|0,0:0|0:0,0:0:0:0:
117,237,79583,6,0,L|97:113,1,95
108,120,79946,1,0,0:0:0:0:
122,100,80067,1,0,0:0:0:0:
143,89,80188,1,0,0:0:0:0:
166,83,80309,1,0,0:0:0:0:
189,85,80430,1,0,0:0:0:0:
209,97,80551,6,0,L|360:77,1,142.5,8|0,0:0|0:0,0:0:0:0:
417,124,81035,2,0,L|275:142,1,142.5,8|0,0:0|0:0,0:0:0:0:
206,185,81519,54,8,P|166:252|179:329,2,142.5
272,271,82487,2,8,P|336:279|432:236,2,142.5
310,182,83454,5,0,0:0:0:0:
310,182,83575,1,0,0:0:0:0:
151,138,83817,5,0,0:0:0:0:
151,138,83938,1,0,0:0:0:0:
248,77,84180,53,0,0:0:0:0:
248,77,84301,1,0,0:0:0:0:
151,138,84906,37,0,0:0:0:0:
154,161,85027,1,0,0:0:0:0:
157,184,85148,1,0,0:0:0:0:
160,207,85269,1,0,0:0:0:0:
135,250,85390,5,0,0:0:0:0:
135,250,85511,2,0,P|197:235|247:248,2,95
196,328,86237,5,0,0:0:0:0:
196,328,86358,1,0,0:0:0:0:
196,328,86478,2,0,L|91:334,2,95
275,344,87083,1,0,0:0:0:0:
275,344,87204,1,0,0:0:0:0:
256,192,87325,12,0,89261,0:0:0:0:
