osu file format v14

[General]
AudioFilename: audio.mp3
AudioLeadIn: 0
PreviewTime: -1
Countdown: 1
SampleSet: Normal
StackLeniency: 0.7
Mode: 0
LetterboxInBreaks: 0
WidescreenStoryboard: 1

[Editor]
DistanceSpacing: 1.7
BeatDivisor: 4
GridSize: 4
TimelineZoom: 1

[Metadata]
Title:Identity (TV Size)
TitleUnicode:Identity (TV Size)
Artist:Mikio Sakai
ArtistUnicode:Mikio Sakai
Creator:KUZY2X
Version:Hard
Source:Rakudai Kishi no Cavalry
Tags:Rakudai Kishi no Cavalry
BeatmapID:1254112
BeatmapSetID:592713

[Difficulty]
HPDrainRate:7
CircleSize:4
OverallDifficulty:7
ApproachRate:7
SliderMultiplier:1.6
SliderTickRate:1

[Events]
//Background and Video events
0,0,"Rakudai Kishi no Cavalry Wallpaper.png",0,0
Video,0,"Rakudai Kishi no Cavalry Opening.mp4"
//Break Periods
//Storyboard Layer 0 (Background)
//Storyboard Layer 1 (Fail)
//Storyboard Layer 2 (Pass)
//Storyboard Layer 3 (Foreground)
//Storyboard Sound Samples

[TimingPoints]
455,483.870967741935,4,1,0,50,1,0
2390,-100,4,2,0,60,0,0
3842,-100,4,3,0,60,0,0
4325,-100,4,1,1,50,0,0
50777,-100,4,1,1,75,0,1
85132,-100,4,1,1,65,0,0
89366,-100,4,1,0,5,0,0

[Colours]
Combo1 : 255,255,74
Combo2 : 255,0,0
Combo3 : 255,111,183

[HitObjects]
80,88,455,6,0,L|88:32,2,40,2|2|0,0:0|0:0|0:0,0:0:0:0:
152,112,817,2,2,P|168:144|184:192,1,80
152,256,1180,2,0,L|144:312,1,40,0|2,0:0|0:0,0:0:0:0:
224,328,1422,6,2,L|232:376,1,40
304,328,1664,2,0,L|336:360,1,40,0|2,0:0|0:0,0:0:0:0:
384,296,1906,2,0,L|424:304,1,40,0|2,0:0|0:0,0:0:0:0:
432,224,2148,2,0,L|496:216,1,40,0|2,0:0|0:0,0:0:0:0:
504,256,4325,6,0,P|464:240|416:248,1,80
368,208,4688,2,0,L|376:112,1,80
320,176,5051,2,0,L|328:280,1,80
280,312,5414,1,0,0:0:0:0:
144,352,5656,1,0,0:0:0:0:
144,352,5777,2,0,P|104:368|64:360,1,80
24,224,6261,6,0,P|16:152|16:96,1,120
56,40,6745,2,0,L|112:32,1,40
160,72,6987,1,0,0:0:0:0:
144,216,7229,5,0,0:0:0:0:
264,296,7471,2,0,L|368:304,1,80
408,344,7834,2,0,L|464:336,1,40
504,184,8196,6,0,P|496:136|480:104,1,80
416,72,8559,2,0,L|328:56,1,80
272,88,8922,1,0,0:0:0:0:
296,232,9164,1,0,0:0:0:0:
200,344,9406,5,0,0:0:0:0:
64,304,9648,2,0,P|56:256|56:208,1,80
104,88,10132,2,0,L|184:96,1,80
240,48,10495,1,0,0:0:0:0:
320,168,10737,1,0,0:0:0:0:
320,168,10858,1,0,0:0:0:0:
224,272,11100,5,0,0:0:0:0:
352,336,11342,1,0,0:0:0:0:
448,232,11584,1,0,0:0:0:0:
464,160,11704,1,0,0:0:0:0:
480,88,11825,2,0,P|472:48|456:24,1,40
400,24,12067,6,0,P|352:24|320:32,1,80
272,88,12430,1,0,0:0:0:0:
208,216,12672,2,0,L|216:272,1,40
104,352,13035,1,0,0:0:0:0:
16,240,13277,1,0,0:0:0:0:
32,96,13519,6,0,P|80:80|128:80,1,80
232,152,14003,2,0,L|320:160,1,80
376,240,14366,2,0,L|288:248,1,80
232,288,14729,1,0,0:0:0:0:
200,352,14850,1,0,0:0:0:0:
128,376,14971,6,0,P|120:328|104:288,1,80
24,184,15454,1,0,0:0:0:0:
136,96,15696,1,0,0:0:0:0:
264,152,15938,6,0,L|360:160,1,80
392,216,16301,1,0,0:0:0:0:
488,112,16543,1,0,0:0:0:0:
464,40,16664,1,2,0:0:0:0:
320,32,16906,6,0,L|232:40,1,80,2|0,0:0|0:0,0:0:0:0:
184,120,17269,2,0,P|176:168|176:256,1,120,2|2,0:0|0:0,0:0:0:0:
248,304,17753,1,0,0:0:0:0:
248,304,18116,6,0,L|256:200,1,80,2|0,0:0|0:0,0:0:0:0:
152,192,18479,2,0,P|96:200|48:200,1,80,2|0,0:0|0:0,0:0:0:0:
24,144,18842,1,2,0:0:0:0:
128,24,19084,1,0,0:0:0:0:
128,24,19204,2,0,L|192:32,1,40,2|0,0:0|0:0,0:0:0:0:
224,88,19446,2,0,L|280:120,1,40,0|2,0:0|0:0,0:0:0:0:
288,184,19688,1,0,0:0:0:0:
368,160,19809,6,0,P|424:152|456:136,1,80,4|0,0:0|0:0,0:0:0:0:
472,64,20172,1,0,0:0:0:0:
496,224,20414,1,0,0:0:0:0:
496,224,20535,2,0,L|488:328,1,80
424,352,20898,2,0,L|416:280,1,40
352,280,21140,1,0,0:0:0:0:
280,248,21261,2,0,P|232:240|192:240,1,80
80,312,21745,5,0,0:0:0:0:
40,176,21987,1,0,0:0:0:0:
176,128,22229,2,2,P|216:168|256:104,1,120,2|0,0:0|0:0,0:0:0:0:
280,64,22713,2,2,L|416:56,1,120
448,112,23196,2,0,P|464:144|464:176,1,40
440,216,23438,1,2,0:0:0:0:
376,344,23680,6,0,L|368:256,1,80
320,208,24043,2,0,P|280:200|232:200,1,80
184,248,24406,1,0,0:0:0:0:
96,360,24648,1,0,0:0:0:0:
24,240,24890,5,0,0:0:0:0:
40,96,25132,2,0,P|80:72|136:64,1,80
232,144,25616,6,0,L|328:160,1,80
344,232,25979,2,0,L|352:320,1,80
424,368,26342,2,0,L|432:304,1,40
480,272,26584,1,0,0:0:0:0:
472,200,26704,1,0,0:0:0:0:
408,160,26825,2,0,L|352:168,1,40
328,104,27067,1,2,0:0:0:0:
328,104,27188,1,2,0:0:0:0:
120,32,27551,5,0,0:0:0:0:
120,32,27793,2,0,P|64:48|40:48,2,80,2|2|0,0:0|0:0|0:0,0:0:0:0:
192,160,28519,2,2,L|184:200,1,40
80,296,28882,1,2,0:0:0:0:
120,352,29003,5,0,0:0:0:0:
240,272,29245,1,0,0:0:0:0:
376,304,29487,2,2,P|352:232|416:192,1,160
496,72,30213,2,0,L|440:80,1,40
392,48,30454,5,0,0:0:0:0:
296,160,30696,1,2,0:0:0:0:
160,104,30938,1,0,0:0:0:0:
80,232,31180,1,2,0:0:0:0:
168,360,31422,6,0,P|176:312|192:272,1,80
240,224,31785,2,0,L|336:232,1,80
368,160,32148,2,0,L|464:152,1,80
488,96,32511,1,0,0:0:0:0:
432,48,32632,1,0,0:0:0:0:
360,32,32753,2,0,P|336:32|304:56,1,40
216,136,33116,1,0,0:0:0:0:
216,136,33237,1,0,0:0:0:0:
216,136,33600,5,0,0:0:0:0:
168,192,33721,1,0,0:0:0:0:
96,200,33842,2,0,L|56:192,3,40
64,264,34325,2,0,L|88:328,3,40
136,264,34809,2,0,L|200:240,3,40
104,280,35293,6,4,L|248:288,2,120
32,152,36261,1,0,0:0:0:0:
136,56,36503,1,0,0:0:0:0:
208,184,36745,1,0,0:0:0:0:
320,96,36987,6,0,L|312:152,1,40
384,160,37229,2,4,P|416:208|400:272,2,120
472,40,38196,1,0,0:0:0:0:
328,16,38438,1,0,0:0:0:0:
216,112,38680,2,0,P|192:144|144:160,1,80
16,128,39164,6,0,P|40:96|96:80,1,80
128,32,39527,2,0,L|216:40,1,80,4|0,0:0|0:0,0:0:0:0:
216,112,39890,2,0,P|160:152|192:256,1,160,4|0,0:0|0:0,0:0:0:0:
272,328,40616,6,0,L|384:320,1,80
424,344,40979,1,0,0:0:0:0:
464,288,41100,2,4,P|480:240|432:176,2,120
340,212,42067,5,0,0:0:0:0:
380,76,42309,1,0,0:0:0:0:
500,156,42551,2,0,L|476:188,1,40
336,352,43035,6,0,P|296:328|248:328,1,80
208,280,43398,2,0,L|200:240,1,40
280,120,43761,1,0,0:0:0:0:
160,40,44003,5,0,0:0:0:0:
160,40,44245,1,0,0:0:0:0:
56,144,44487,1,0,0:0:0:0:
56,144,44729,1,0,0:0:0:0:
136,264,44971,6,0,L|144:352,1,80
216,360,45334,1,0,0:0:0:0:
280,328,45454,2,0,P|296:320|328:320,1,40
384,344,45696,1,0,0:0:0:0:
448,304,45817,1,0,0:0:0:0:
448,304,45938,6,0,L|328:296,1,120
288,232,46422,2,0,P|280:192|288:120,1,80
328,96,46785,1,0,0:0:0:0:
400,80,46906,5,10,0:0:0:0:
448,216,47148,2,0,L|440:280,1,40,0|10,0:0|0:0,0:0:0:0:
328,344,47511,2,0,L|320:304,1,40,0|10,0:0|0:0,0:0:0:0:
224,200,47874,1,0,0:0:0:0:
224,200,47995,2,0,P|184:184|120:192,1,80,10|0,0:0|0:0,0:0:0:0:
88,224,48358,1,10,0:0:0:0:
88,224,48479,1,0,0:0:0:0:
88,224,48600,1,10,0:0:0:0:
32,272,50777,6,0,L|192:280,1,160,6|0,0:0|0:0,0:0:0:0:
320,344,51503,1,0,0:0:0:0:
360,280,51624,1,0,0:0:0:0:
352,208,51745,2,0,P|344:160|328:128,1,80
272,88,52108,6,0,L|192:80,2,80
344,60,52713,1,2,0:0:0:0:
464,128,52954,1,0,0:0:0:0:
488,200,53075,1,2,0:0:0:0:
432,336,53317,2,0,L|368:352,1,40,0|2,0:0|0:0,0:0:0:0:
280,256,53680,5,2,0:0:0:0:
144,208,53922,1,0,0:0:0:0:
180,140,54043,2,2,P|172:92|172:60,2,80,2|0|0,0:0|0:0|0:0,0:0:0:0:
224,200,54648,6,0,L|48:192,1,160,6|0,0:0|0:0,0:0:0:0:
88,336,55374,2,0,L|160:328,1,40,0|2,0:0|0:0,0:0:0:0:
200,352,55616,6,0,P|208:312|208:272,1,80,2|0,0:0|0:0,0:0:0:0:
164,212,55979,1,0,0:0:0:0:
92,184,56100,1,2,0:0:0:0:
72,40,56342,1,0,0:0:0:0:
216,64,56584,6,0,L|296:56,1,80,2|0,0:0|0:0,0:0:0:0:
348,108,56946,2,0,L|412:116,1,40,0|2,0:0|0:0,0:0:0:0:
448,72,57188,1,0,0:0:0:0:
448,72,57309,1,0,0:0:0:0:
496,208,57551,5,0,0:0:0:0:
416,328,57793,1,0,0:0:0:0:
352,352,57914,2,0,P|336:304|312:272,1,80
192,208,58398,1,0,0:0:0:0:
136,248,58519,6,0,L|56:240,1,80,6|0,0:0|0:0,0:0:0:0:
40,168,58882,2,0,P|40:120|56:80,1,80
120,64,59245,1,0,0:0:0:0:
192,48,59366,1,0,0:0:0:0:
248,88,59487,6,0,L|168:96,1,80,2|0,0:0|0:0,0:0:0:0:
232,136,59850,2,0,L|336:144,1,80,2|0,0:0|0:0,0:0:0:0:
376,176,60213,1,0,0:0:0:0:
416,232,60334,1,0,0:0:0:0:
416,304,60454,5,6,0:0:0:0:
288,360,60696,1,0,0:0:0:0:
352,232,60938,1,6,0:0:0:0:
376,376,61180,1,0,0:0:0:0:
280,272,61422,2,0,L|192:280,1,80,6|0,0:0|0:0,0:0:0:0:
136,320,61785,1,0,0:0:0:0:
72,280,61906,2,0,P|56:264|24:256,1,40
48,184,62148,1,0,0:0:0:0:
104,136,62269,1,0,0:0:0:0:
176,136,62390,5,2,0:0:0:0:
64,48,62632,1,0,0:0:0:0:
64,48,62753,2,2,L|176:40,1,80,2|0,0:0|0:0,0:0:0:0:
208,80,63116,2,0,L|296:88,1,80,2|0,0:0|0:0,0:0:0:0:
328,152,63479,2,0,L|432:168,1,80,2|0,0:0|0:0,0:0:0:0:
464,208,63842,1,2,0:0:0:0:
408,344,64084,1,2,0:0:0:0:
272,304,64325,5,6,0:0:0:0:
56,328,64688,1,6,0:0:0:0:
80,112,65051,1,6,0:0:0:0:
216,72,65293,6,0,L|328:64,1,80
352,112,65656,2,0,P|384:120|408:144,1,40
432,184,65898,1,0,0:0:0:0:
424,256,66019,1,0,0:0:0:0:
368,296,66140,1,0,0:0:0:0:
368,296,66261,6,0,L|448:304,1,80,2|0,0:0|0:0,0:0:0:0:
392,344,66624,2,0,L|304:352,1,80,2|0,0:0|0:0,0:0:0:0:
256,288,66987,2,0,P|240:256|240:224,1,40
312,224,67229,6,0,L|184:240,2,120,2|2|0,0:0|0:0|0:0,0:0:0:0:
472,248,68196,2,0,P|480:192|480:136,1,80,2|0,0:0|0:0,0:0:0:0:
448,96,68559,1,2,0:0:0:0:
296,40,68801,1,2,0:0:0:0:
240,96,68922,1,0,0:0:0:0:
96,32,69164,5,2,0:0:0:0:
56,184,69406,1,0,0:0:0:0:
120,232,69527,2,0,L|216:224,2,80,2|2|0,0:0|0:0|0:0,0:0:0:0:
48,264,70132,6,0,P|40:304|40:344,1,80,2|0,0:0|0:0,0:0:0:0:
112,376,70495,1,2,0:0:0:0:
248,288,70737,2,0,L|296:296,1,40,2|0,0:0|0:0,0:0:0:0:
432,368,71100,5,2,0:0:0:0:
496,224,71342,1,0,0:0:0:0:
496,224,71463,2,0,P|480:176|464:144,1,80,2|0,0:0|0:0,0:0:0:0:
400,112,71825,1,2,0:0:0:0:
256,48,72067,6,0,L|176:56,1,80,2|0,0:0|0:0,0:0:0:0:
120,112,72430,2,2,L|32:104,2,80
144,192,73035,6,0,L|96:208,3,40
152,272,73519,2,0,L|128:304,3,40
48,328,74003,6,0,L|216:320,1,160,6|0,0:0|0:0,0:0:0:0:
368,352,74729,1,2,0:0:0:0:
424,296,74850,1,2,0:0:0:0:
416,216,74971,2,2,P|384:200|336:192,1,80
264,224,75334,1,0,0:0:0:0:
160,104,75575,2,0,L|152:48,1,40,0|2,0:0|0:0,0:0:0:0:
312,40,75938,5,6,0:0:0:0:
216,168,76180,1,0,0:0:0:0:
368,120,76422,1,6,0:0:0:0:
216,64,76664,1,0,0:0:0:0:
304,200,76906,5,6,0:0:0:0:
360,352,77148,1,0,0:0:0:0:
488,256,77390,1,0,0:0:0:0:
456,96,77632,2,0,P|440:88|400:88,1,40
344,64,77874,6,0,L|248:72,1,80,6|0,0:0|0:0,0:0:0:0:
200,120,78237,1,6,0:0:0:0:
256,352,78600,1,6,0:0:0:0:
104,168,78963,1,6,0:0:0:0:
312,280,79325,1,6,0:0:0:0:
312,280,79567,1,0,0:0:0:0:
160,328,79809,6,0,L|64:336,1,80,2|0,0:0|0:0,0:0:0:0:
40,272,80172,2,0,L|-8:264,2,40,2|0|0,0:0|0:0|0:0,0:0:0:0:
88,216,80535,1,2,0:0:0:0:
156,180,80656,1,0,0:0:0:0:
228,200,80777,5,6,0:0:0:0:
344,312,81019,1,0,0:0:0:0:
480,232,81261,1,6,0:0:0:0:
448,72,81503,1,0,0:0:0:0:
288,40,81745,6,2,P|224:48|192:96,2,120
384,168,82713,2,0,L|496:176,1,80,2|0,0:0|0:0,0:0:0:0:
416,240,83075,2,0,L|328:248,1,80,2|0,0:0|0:0,0:0:0:0:
272,208,83438,1,2,0:0:0:0:
168,328,83680,5,0,0:0:0:0:
168,328,83801,2,2,P|152:280|136:248,1,80
64,224,84164,1,0,0:0:0:0:
96,64,84406,1,2,0:0:0:0:
176,40,84527,1,2,0:0:0:0:
464,96,85132,6,0,L|408:104,1,40,2|0,0:0|0:0,0:0:0:0:
360,144,85374,1,2,0:0:0:0:
344,216,85495,1,0,0:0:0:0:
372,288,85616,5,2,0:0:0:0:
372,288,85737,2,0,L|460:296,2,80,2|2|2,0:0|0:0|0:0,0:0:0:0:
240,336,86463,1,0,0:0:0:0:
176,296,86584,1,2,0:0:0:0:
152,224,86704,2,2,P|160:176|184:136,1,80
240,120,87067,2,0,L|232:64,4,40,0|2|0|2|6,0:0|0:0|0:0|0:0|0:0,0:0:0:0:
256,192,87672,12,0,89487,0:0:0:0:
