osu file format v14

[General]
AudioFilename: unhappy.mp3
AudioLeadIn: 0
PreviewTime: 67215
Countdown: 0
SampleSet: Soft
StackLeniency: 0.7
Mode: 0
LetterboxInBreaks: 0
WidescreenStoryboard: 0

[Editor]
Bookmarks: 6892,13989,26892,47536,65602,66892,68182,76892,93827,134553,144311,146892,180440,188182,210118,215279
DistanceSpacing: 1
BeatDivisor: 4
GridSize: 4
TimelineZoom: 1.9

[Metadata]
Title:Unhappy End World
TitleUnicode:アンハッピーエンドワールド
Artist:Miki(CV.Takahashi Rie)&Kurumi(CV.Ozawa Ari)
ArtistUnicode:直樹美紀(CV.高橋李依)&恵飛須沢胡桃(CV.小澤亜李) From 学園生活部
Creator:xNyamx
Version:Hard
Source:がっこうぐらし!
Tags:Gakkougurashi! 高橋李依 小澤亜李 Yasaija_714 Kyle_Y m_o_c_h_a short edit
BeatmapID:1043809
BeatmapSetID:489464

[Difficulty]
HPDrainRate:5.5
CircleSize:4
OverallDifficulty:7
ApproachRate:7.8
SliderMultiplier:1.6
SliderTickRate:1

[Events]
//Background and Video events
0,0,"1-150GH01112.jpg",0,0
//Break Periods
//Storyboard Layer 0 (Background)
//Storyboard Layer 1 (Fail)
//Storyboard Layer 2 (Pass)
//Storyboard Layer 3 (Foreground)
//Storyboard Sound Samples

[TimingPoints]
1085,322.58064516129,4,2,1,35,1,0
12697,-100,4,2,1,40,0,0
17617,-100,4,2,1,50,0,0
18262,-100,4,2,1,50,0,0
26891,-100,4,2,1,40,0,0
46891,-100,4,2,1,50,0,0
65602,-100,4,2,1,40,0,0
66892,-100,4,2,1,70,0,0
68181,-100,4,2,1,80,0,1
88826,-100,4,2,1,60,0,0

[HitObjects]
52,120,923,5,2,0:0:0:0:
52,120,1085,2,0,P|94:99|180:166,1,160,2|2,0:0|0:0,0:0:0:0:
102,183,1568,2,0,P|90:236|125:283,1,80,2|0,0:0|0:0,0:0:0:0:
157,312,1891,2,0,P|180:302|249:314,1,80,2|0,0:0|0:0,0:0:0:0:
294,349,2214,5,2,0:0:0:0:
353,299,2375,1,2,0:0:0:0:
405,354,2536,2,0,P|432:363|492:323,1,80,2|0,0:0|0:0,0:0:0:0:
503,273,2859,2,0,L|513:186,2,80,2|2|2,0:0|0:0|0:0,0:0:0:0:
431,244,3343,5,2,0:0:0:0:
364,277,3504,1,2,0:0:0:0:
364,277,3665,2,0,P|303:194|339:144,1,160,2|2,0:0|0:0,0:0:0:0:
366,86,4149,2,0,P|329:75|275:92,1,80,2|2,0:0|0:0,0:0:0:0:
216,118,4472,5,2,0:0:0:0:
141,89,4633,1,2,0:0:0:0:
91,151,4794,1,2,0:0:0:0:
31,108,4955,2,0,P|17:185|86:225,1,160,2|2,0:0|0:0,0:0:0:0:
156,241,5439,1,2,0:0:0:0:
131,312,5601,5,2,0:0:0:0:
131,312,5762,1,2,0:0:0:0:
197,355,5923,2,0,L|302:349,1,80,2|2,0:0|0:0,0:0:0:0:
355,333,6246,2,0,P|424:300|426:213,1,160,2|2,0:0|0:0,0:0:0:0:
397,153,6730,1,2,0:0:0:0:
342,100,6891,2,0,P|433:80|472:131,2,160,2|2|2,0:0|0:0|0:0,0:0:0:0:
275,139,7697,2,0,B|240:149|240:149|185:135,1,80,2|2,0:0|0:0,0:0:0:0:
133,93,8020,1,2,0:0:0:0:
64,129,8181,6,0,L|94:213,1,80,2|2,0:0|0:0,0:0:0:0:
75,283,8504,2,0,L|179:307,1,80,2|2,0:0|0:0,0:0:0:0:
205,361,8826,2,0,L|307:337,2,80,2|2|2,0:0|0:0|0:0,0:0:0:0:
227,283,9310,1,2,0:0:0:0:
227,283,9472,2,0,P|313:256|355:334,1,160,2|2,0:0|0:0,0:0:0:0:
386,373,9955,1,2,0:0:0:0:
433,309,10117,6,0,L|531:289,1,80,2|2,0:0|0:0,0:0:0:0:
447,230,10439,2,0,L|523:176,1,80,2|2,0:0|0:0,0:0:0:0:
433,142,10762,2,0,L|476:71,2,80,2|2|2,0:0|0:0|0:0,0:0:0:0:
347,165,11246,1,2,0:0:0:0:
347,165,11407,1,2,0:0:0:0:
328,190,12697,5,2,0:0:0:0:
219,67,13343,5,2,0:0:0:0:
219,67,13665,1,2,0:0:0:0:
219,67,13988,2,0,L|228:254,1,160,4|8,0:0|0:0,0:0:0:0:
146,188,14472,2,0,P|85:211|122:296,1,160,4|8,0:0|0:0,0:0:0:0:
45,346,14955,2,0,P|104:368|183:291,1,160,4|2,0:0|0:0,0:0:0:0:
329,269,15601,1,8,0:0:0:0:
430,351,15923,1,8,0:0:0:0:
430,351,16084,1,8,0:0:0:0:
488,240,16407,6,0,P|466:164|365:162,1,160,4|2,0:0|0:0,0:0:0:0:
332,195,16891,2,0,L|346:282,1,80,8|2,0:0|0:0,0:0:0:0:
297,342,17214,1,8,0:0:0:0:
297,342,17294,1,0,0:0:0:0:
297,342,17375,2,0,P|255:356|204:335,1,80,8|8,0:0|0:0,0:0:0:0:
155,303,17697,6,0,L|60:309,1,80,2|2,0:0|0:0,0:0:0:0:
184,232,18020,2,0,L|276:227,1,80,2|10,0:0|0:0,0:0:0:0:
128,172,18343,2,0,L|40:176,1,80,2|2,0:0|0:0,0:0:0:0:
194,114,18665,5,2,0:0:0:0:
194,114,18826,1,2,0:0:0:0:
194,114,18988,2,0,P|250:133|327:69,1,160,6|2,0:0|0:0,0:0:0:0:
394,34,19472,2,0,L|411:137,1,80,8|2,0:0|0:0,0:0:0:0:
373,184,19794,2,0,P|336:202|272:187,2,80,2|0|8,0:0|0:0|0:0,0:0:0:0:
453,178,20278,2,0,L|473:346,1,160,12|2,0:0|0:0,0:0:0:0:
471,336,20681,5,0,0:0:0:0:
471,336,20762,1,8,0:0:0:0:
398,326,20923,1,0,0:0:0:0:
329,355,21084,2,0,B|298:369|298:369|236:347,2,80,8|2|8,0:0|0:0|0:0,0:0:0:0:
298,285,21568,6,0,P|223:273|174:348,2,160,4|2|2,0:0|0:0|0:0,0:0:0:0:
364,339,22375,2,0,L|459:329,1,80,2|2,0:0|0:0,0:0:0:0:
482,263,22697,1,8,0:0:0:0:
416,225,22859,2,0,P|363:177|383:93,1,160,4|2,0:0|0:0,0:0:0:0:
455,73,23343,1,10,0:0:0:0:
455,73,23423,1,2,0:0:0:0:
455,73,23504,1,2,0:0:0:0:
389,20,23665,1,2,0:0:0:0:
315,48,23826,1,4,0:0:0:0:
128,113,24149,6,0,P|165:22|231:24,1,160,4|2,0:0|0:0,0:0:0:0:
203,95,24633,2,0,P|216:127|194:193,1,80,8|2,0:0|0:0,0:0:0:0:
143,215,24955,2,0,P|131:265|146:290,1,80,2|0,0:0|0:0,0:0:0:0:
207,338,25278,1,8,0:0:0:0:
282,362,25439,2,0,P|334:365|381:207,1,240,4|8,0:0|0:0,0:0:0:0:
254,129,26246,2,0,L|445:104,1,160,8|8,0:0|0:0,0:0:0:0:
436,266,26891,5,2,0:0:0:0:
383,324,27052,2,0,P|324:330|282:244,1,160,0|2,0:0|0:0,0:0:0:0:
209,210,27536,2,0,L|193:301,1,80,2|0,0:0|0:0,0:0:0:0:
122,323,27859,1,2,0:0:0:0:
86,251,28020,1,0,0:0:0:0:
86,251,28181,2,0,L|-26:259,1,80,2|0,0:0|0:0,0:0:0:0:
25,178,28504,2,0,L|116:170,1,80,2|0,0:0|0:0,0:0:0:0:
179,144,28826,1,0,0:0:0:0:
230,82,28988,6,0,P|311:34|371:96,1,160,2|2,0:0|0:0,0:0:0:0:
300,115,29472,2,0,P|324:163|428:152,1,160,2|2,0:0|0:0,0:0:0:0:
486,194,29955,2,0,L|479:276,1,80,2|2,0:0|0:0,0:0:0:0:
407,294,30278,1,0,0:0:0:0:
367,359,30439,2,0,P|321:368|262:338,1,80,2|0,0:0|0:0,0:0:0:0:
252,294,30762,2,0,L|273:127,1,160,2|2,0:0|0:0,0:0:0:0:
153,315,31407,5,2,0:0:0:0:
122,248,31568,1,0,0:0:0:0:
137,174,31730,2,0,P|85:169|50:185,1,80,2|0,0:0|0:0,0:0:0:0:
8,238,32052,2,0,P|-18:182|52:98,1,160,2|2,0:0|0:0,0:0:0:0:
94,66,32536,1,0,0:0:0:0:
159,104,32697,2,0,P|200:112|242:99,1,80,2|0,0:0|0:0,0:0:0:0:
303,60,33020,5,2,0:0:0:0:
369,96,33181,1,0,0:0:0:0:
421,41,33343,2,0,L|511:31,2,80,2|0|2,0:0|0:0|0:0,0:0:0:0:
444,114,33826,2,0,P|411:163|316:152,1,160,2|2,0:0|0:0,0:0:0:0:
266,216,34310,1,2,0:0:0:0:
319,275,34472,1,0,0:0:0:0:
319,275,34633,6,0,L|340:360,1,80,2|0,0:0|0:0,0:0:0:0:
410,317,34955,2,0,L|508:321,1,80,2|0,0:0|0:0,0:0:0:0:
468,242,35278,2,0,L|510:157,1,80,2|0,0:0|0:0,0:0:0:0:
423,166,35601,2,0,L|378:89,1,80,2|0,0:0|0:0,0:0:0:0:
317,143,35923,6,0,L|220:152,1,80,2|0,0:0|0:0,0:0:0:0:
184,211,36246,2,0,L|136:141,1,80,2|0,0:0|0:0,0:0:0:0:
61,162,36568,2,0,L|82:75,1,80,2|0,0:0|0:0,0:0:0:0:
11,33,36891,2,0,L|102:3,1,80,2|0,0:0|0:0,0:0:0:0:
162,35,37214,6,0,P|176:65|294:59,1,160,6|2,0:0|0:0,0:0:0:0:
359,26,37697,2,0,L|457:30,1,80,0|2,0:0|0:0,0:0:0:0:
499,74,38020,1,0,0:0:0:0:
467,147,38181,1,2,0:0:0:0:
467,147,38343,2,0,L|479:234,2,80,0|2|0,0:0|0:0|0:0,0:0:0:0:
394,180,38826,2,0,P|344:191|305:167,1,80,2|0,0:0|0:0,0:0:0:0:
271,245,39149,2,0,P|240:166|297:106,1,160,2|2,0:0|0:0,0:0:0:0:
338,56,39633,1,0,0:0:0:0:
261,32,39794,6,0,L|84:46,1,160,2|2,0:0|0:0,0:0:0:0:
39,95,40278,2,0,L|21:190,2,80,0|2|0,0:0|0:0|0:0,0:0:0:0:
106,137,40762,1,2,0:0:0:0:
183,119,40923,1,0,0:0:0:0:
237,173,41084,2,0,P|217:251|139:274,1,160,2|2,0:0|0:0,0:0:0:0:
93,334,41568,1,0,0:0:0:0:
166,366,41730,1,2,0:0:0:0:
304,337,42052,6,0,L|313:256,1,80,2|0,0:0|0:0,0:0:0:0:
254,209,42375,2,0,P|317:174|385:232,1,160,2|2,0:0|0:0,0:0:0:0:
440,270,42859,1,0,0:0:0:0:
497,220,43020,2,0,L|514:135,1,80,2|0,0:0|0:0,0:0:0:0:
469,73,43343,1,2,0:0:0:0:
403,118,43504,1,0,0:0:0:0:
403,118,43665,2,0,L|304:122,2,80,2|0|2,0:0|0:0|0:0,0:0:0:0:
377,41,44149,2,0,P|294:18|223:89,1,160,2|2,0:0|0:0,0:0:0:0:
177,111,44633,1,2,0:0:0:0:
225,174,44794,1,0,0:0:0:0:
159,219,44955,6,0,L|62:228,1,80,2|0,0:0|0:0,0:0:0:0:
113,299,45278,2,0,L|218:291,1,80,2|0,0:0|0:0,0:0:0:0:
263,331,45601,2,0,P|273:290|250:242,1,80,2|0,0:0|0:0,0:0:0:0:
312,194,45923,1,2,0:0:0:0:
312,194,46084,1,4,0:0:0:0:
111,49,46407,5,2,0:0:0:0:
111,49,46568,1,2,0:0:0:0:
111,49,46730,1,2,0:0:0:0:
111,49,46891,2,0,L|101:143,1,80,2|0,0:0|0:0,0:0:0:0:
187,110,47214,2,0,L|179:190,1,80,2|0,0:0|0:0,0:0:0:0:
127,252,47536,6,0,P|147:306|259:284,1,160,6|8,0:0|0:0,0:0:0:0:
294,258,48020,1,0,0:0:0:0:
359,294,48181,2,0,B|368:319|368:319|353:378,2,80,2|2|8,0:0|0:0|0:0,0:0:0:0:
294,258,48665,1,0,0:0:0:0:
361,217,48826,2,0,P|432:210|454:109,1,160,2|8,0:0|0:0,0:0:0:0:
410,72,49310,1,2,0:0:0:0:
353,123,49472,2,0,P|242:106|228:48,1,160,2|8,0:0|0:0,0:0:0:0:
162,34,49955,1,2,0:0:0:0:
102,84,50117,6,0,L|10:93,1,80,2|0,0:0|0:0,0:0:0:0:
144,154,50439,1,8,0:0:0:0:
67,165,50601,1,2,0:0:0:0:
181,226,50762,2,0,L|85:235,1,80,2|2,0:0|0:0,0:0:0:0:
142,305,51084,1,8,0:0:0:0:
219,296,51246,1,2,0:0:0:0:
192,367,51407,6,0,P|239:377|285:271,1,160,2|8,0:0|0:0,0:0:0:0:
259,230,51891,1,2,0:0:0:0:
319,174,52052,2,0,L|421:165,1,80,2|2,0:0|0:0,0:0:0:0:
335,92,52375,2,0,L|231:100,1,80,8|2,0:0|0:0,0:0:0:0:
200,161,52697,6,0,P|115:178|72:109,1,160,2|8,0:0|0:0,0:0:0:0:
149,103,53181,2,0,P|159:48|256:13,1,160,2|2,0:0|0:0,0:0:0:0:
311,61,53665,1,8,0:0:0:0:
382,28,53826,2,0,L|475:19,2,80,2|2|2,0:0|0:0|0:0,0:0:0:0:
375,104,54310,2,0,P|374:160|396:194,1,80,8|0,0:0|0:0,0:0:0:0:
458,212,54633,1,2,0:0:0:0:
507,274,54794,1,2,0:0:0:0:
461,339,54955,2,0,L|378:348,1,80,8|0,0:0|0:0,0:0:0:0:
311,317,55278,6,0,P|254:282|279:188,1,160,2|8,0:0|0:0,0:0:0:0:
332,242,55762,1,0,0:0:0:0:
347,164,55923,2,0,P|311:90|215:109,1,160,2|8,0:0|0:0,0:0:0:0:
164,64,56407,2,0,L|173:225,1,160,2|0,0:0|0:0,0:0:0:0:
101,239,56891,2,0,P|70:273|70:312,1,80,8|2,0:0|0:0,0:0:0:0:
113,369,57214,6,0,L|203:363,1,80,2|0,0:0|0:0,0:0:0:0:
233,300,57536,2,0,L|312:293,1,80,10|0,0:0|0:0,0:0:0:0:
387,311,57859,2,0,P|443:251|412:180,1,160,6|8,0:0|0:0,0:0:0:0:
358,145,58343,1,2,0:0:0:0:
385,76,58504,2,0,L|474:68,2,80,2|2|8,0:0|0:0|0:0,0:0:0:0:
311,53,58988,1,2,0:0:0:0:
251,102,59149,2,0,L|234:270,1,160,2|8,0:0|0:0,0:0:0:0:
169,309,59633,1,2,0:0:0:0:
157,237,59794,2,0,P|213:184|298:227,1,160,2|8,0:0|0:0,0:0:0:0:
324,271,60278,1,2,0:0:0:0:
377,213,60439,6,0,L|471:203,1,80,2|0,0:0|0:0,0:0:0:0:
336,146,60762,1,8,0:0:0:0:
410,134,60923,1,8,0:0:0:0:
280,91,61084,2,0,L|192:100,1,80,2|2,0:0|0:0,0:0:0:0:
153,158,61407,1,8,0:0:0:0:
81,165,61568,1,2,0:0:0:0:
52,234,61730,6,0,L|32:337,1,80,2|0,0:0|0:0,0:0:0:0:
110,354,62052,2,0,L|126:274,1,80,2|0,0:0|0:0,0:0:0:0:
211,241,62375,2,0,L|193:344,1,80,2|0,0:0|0:0,0:0:0:0:
272,355,62697,2,0,L|287:272,1,80,10|0,0:0|0:0,0:0:0:0:
361,307,63020,6,0,P|416:325|476:252,1,160,6|8,0:0|0:0,0:0:0:0:
443,186,63504,1,2,0:0:0:0:
498,129,63665,2,0,L|513:47,2,80,2|2|8,0:0|0:0|0:0,0:0:0:0:
426,106,64149,1,2,0:0:0:0:
370,155,64310,2,0,P|289:175|237:94,1,160,2|8,0:0|0:0,0:0:0:0:
319,94,64794,1,2,0:0:0:0:
252,48,64955,2,0,P|180:64|177:164,1,160,2|2,0:0|0:0,0:0:0:0:
256,192,65601,12,0,66730,0:0:0:0:
229,224,66891,5,8,0:0:0:0:
229,224,67052,1,8,0:0:0:0:
83,95,68181,6,0,P|140:45|214:79,1,160,6|8,0:0|0:0,0:0:0:0:
250,135,68665,1,0,0:0:0:0:
212,203,68826,2,0,B|181:213|181:213|135:201,2,80,2|2|8,0:0|0:0|0:0,0:0:0:0:
286,217,69310,1,2,0:0:0:0:
331,156,69472,6,0,P|366:142|422:164,1,80,2|0,0:0|0:0,0:0:0:0:
468,188,69794,1,8,0:0:0:0:
444,258,69955,1,2,0:0:0:0:
444,258,70117,2,0,L|427:341,1,80,2|0,0:0|0:0,0:0:0:0:
352,363,70439,2,0,P|311:370|252:339,1,80,8|0,0:0|0:0,0:0:0:0:
195,367,70762,6,0,P|142:293|173:237,1,160,4|8,0:0|0:0,0:0:0:0:
237,197,71246,1,2,0:0:0:0:
188,133,71407,2,0,L|106:128,1,80,0|2,0:0|0:0,0:0:0:0:
34,94,71730,1,10,0:0:0:0:
34,94,71810,1,2,0:0:0:0:
34,94,71891,1,2,0:0:0:0:
86,29,72052,2,0,P|146:1|226:58,1,160,4|8,0:0|0:0,0:0:0:0:
270,106,72536,1,2,0:0:0:0:
223,171,72697,6,0,L|140:179,1,80,2|0,0:0|0:0,0:0:0:0:
113,261,73020,2,0,L|212:252,1,80,8|0,0:0|0:0,0:0:0:0:
248,323,73343,2,0,L|343:314,2,80,4|2|8,0:0|0:0|0:0,0:0:0:0:
268,243,73826,1,2,0:0:0:0:
342,240,73988,6,0,P|419:244|452:168,1,160,2|8,0:0|0:0,0:0:0:0:
377,170,74472,1,2,0:0:0:0:
420,105,74633,2,0,L|505:95,1,80,2|0,0:0|0:0,0:0:0:0:
381,38,74955,2,0,L|290:45,1,80,8|0,0:0|0:0,0:0:0:0:
257,108,75278,6,0,P|186:168|114:118,1,160,2|8,0:0|0:0,0:0:0:0:
181,82,75762,1,2,0:0:0:0:
181,82,75923,1,12,0:0:0:0:
302,32,76246,5,8,0:0:0:0:
302,32,76407,1,12,0:0:0:0:
417,173,76730,1,8,0:0:0:0:
400,57,77052,1,12,0:0:0:0:
341,189,77375,5,2,0:0:0:0:
297,255,77536,1,2,0:0:0:0:
355,309,77697,1,2,0:0:0:0:
288,356,77859,2,0,P|255:366|202:343,1,80,8|2,0:0|0:0,0:0:0:0:
145,317,78181,2,0,L|154:230,1,80,8|2,0:0|0:0,0:0:0:0:
212,183,78504,6,0,P|231:115|141:73,1,160,4|8,0:0|0:0,0:0:0:0:
91,80,78988,1,2,0:0:0:0:
43,146,79149,2,0,L|54:239,2,80,0|2|8,0:0|0:0|0:0,0:0:0:0:
91,80,79633,1,2,0:0:0:0:
144,139,79794,2,0,P|186:149|232:126,1,80,8|2,0:0|0:0,0:0:0:0:
278,85,80117,1,2,0:0:0:0:
237,15,80278,1,2,0:0:0:0:
237,15,80439,2,0,L|144:23,1,80,8|2,0:0|0:0,0:0:0:0:
96,74,80762,2,0,L|3:80,1,80,8|2,0:0|0:0,0:0:0:0:
52,150,81084,6,0,P|87:219|179:188,1,160,6|8,0:0|0:0,0:0:0:0:
233,178,81568,1,2,0:0:0:0:
306,208,81730,2,0,L|312:291,1,80,0|2,0:0|0:0,0:0:0:0:
260,349,82052,1,10,0:0:0:0:
260,349,82133,1,2,0:0:0:0:
260,349,82214,1,2,0:0:0:0:
180,317,82375,2,0,P|213:278|318:301,1,160,4|8,0:0|0:0,0:0:0:0:
384,326,82859,1,2,0:0:0:0:
464,303,83020,6,0,L|482:205,1,80,2|0,0:0|0:0,0:0:0:0:
451,148,83343,2,0,P|409:137|355:170,1,80,8|2,0:0|0:0,0:0:0:0:
327,212,83665,2,0,P|252:248|190:204,1,160,4|8,0:0|0:0,0:0:0:0:
132,157,84149,1,0,0:0:0:0:
61,189,84310,5,2,0:0:0:0:
61,189,84472,1,2,0:0:0:0:
27,263,84633,5,10,0:0:0:0:
27,263,84794,1,2,0:0:0:0:
91,313,84955,5,2,0:0:0:0:
91,313,85117,1,2,0:0:0:0:
165,292,85278,5,10,0:0:0:0:
165,292,85440,1,2,0:0:0:0:
214,347,85601,6,0,P|238:365|298:349,1,80,2|2,0:0|0:0,0:0:0:0:
269,288,85923,2,0,P|310:282|350:313,1,80,10|2,0:0|0:0,0:0:0:0:
411,352,86246,2,0,L|439:192,1,160,4|8,0:0|0:0,0:0:0:0:
394,126,86730,2,0,P|346:96|237:147,1,160,4|0,0:0|0:0,0:0:0:0:
221,197,87214,1,12,0:0:0:0:
188,230,88181,5,8,0:0:0:0:
188,230,88343,1,8,0:0:0:0:
102,86,88826,5,8,0:0:0:0:
164,135,88988,2,0,L|252:128,1,80,4|0,0:0|0:0,0:0:0:0:
302,76,89310,5,8,0:0:0:0:
373,116,89472,2,0,L|370:208,1,80,4|0,0:0|0:0,0:0:0:0:
435,239,89794,5,8,0:0:0:0:
389,304,89955,2,0,L|285:314,1,80,4|0,0:0|0:0,0:0:0:0:
236,287,90278,5,8,0:0:0:0:
198,353,90439,2,0,L|110:359,1,80,4|0,0:0|0:0,0:0:0:0:
46,325,90762,5,8,0:0:0:0:
46,325,90923,1,8,0:0:0:0:
107,274,91084,2,0,L|118:174,1,80,4|0,0:0|0:0,0:0:0:0:
256,192,91407,12,0,92536,0:0:0:0:
77,233,93826,6,0,P|66:133|131:96,1,160,6|2,0:0|0:0,0:0:0:0:
176,131,94310,2,0,L|274:124,1,80,8|2,0:0|0:0,0:0:0:0:
310,68,94633,1,2,0:0:0:0:
310,68,94713,1,2,0:0:0:0:
310,68,94794,2,0,L|399:60,1,80,2|2,0:0|0:0,0:0:0:0:
456,115,95117,6,0,L|465:200,1,80,6|0,0:0|0:0,0:0:0:0:
386,196,95439,2,0,L|396:284,1,80,2|8,0:0|0:0,0:0:0:0:
317,277,95762,2,0,L|327:366,1,80,2|0,0:0|0:0,0:0:0:0:
238,345,96084,5,2,0:0:0:0:
238,345,96246,1,8,0:0:0:0:
238,345,96407,2,0,P|174:364|108:276,1,160,4|2,0:0|0:0,0:0:0:0:
187,284,96891,2,0,P|203:251|267:237,1,80,8|2,0:0|0:0,0:0:0:0:
296,183,97214,2,2,P|311:141|299:91,2,80,2|2|10,0:0|0:0|0:0,0:0:0:0:
376,194,97697,2,0,L|396:362,1,160,4|2,0:0|0:0,0:0:0:0:
394,352,98101,5,2,0:0:0:0:
394,352,98181,1,8,0:0:0:0:
470,319,98343,1,2,0:0:0:0:
512,257,98504,2,0,B|512:202|512:202|489:143,2,80,2|2|8,0:0|0:0|0:0,0:0:0:0:
434,222,98988,6,0,P|398:160|452:73,2,160,4|2|2,0:0|0:0|0:0,0:0:0:0:
392,291,99794,2,0,L|312:300,1,80,2|0,0:0|0:0,0:0:0:0:
242,261,100117,1,8,0:0:0:0:
211,333,100278,2,0,P|168:371|63:321,1,160,2|2,0:0|0:0,0:0:0:0:
117,277,100762,1,10,0:0:0:0:
117,277,100842,1,2,0:0:0:0:
117,277,100923,1,2,0:0:0:0:
42,230,101084,1,8,0:0:0:0:
89,168,101246,1,6,0:0:0:0:
236,77,101568,6,0,L|320:68,2,80,4|2|2,0:0|0:0|0:0,0:0:0:0:
178,135,102052,2,0,P|172:176|209:224,1,80,8|2,0:0|0:0,0:0:0:0:
259,254,102375,1,0,0:0:0:0:
335,253,102536,1,2,0:0:0:0:
397,205,102697,1,10,0:0:0:0:
420,132,102859,2,0,P|309:80|257:186,1,240,4|2,0:0|0:0,0:0:0:0:
344,271,103665,2,0,L|536:260,1,160,12|2,0:0|0:0,0:0:0:0:
