osu file format v14

[General]
AudioFilename: unhappy.mp3
AudioLeadIn: 0
PreviewTime: 67215
Countdown: 0
SampleSet: Soft
StackLeniency: 0.7
Mode: 0
LetterboxInBreaks: 0
WidescreenStoryboard: 1

[Editor]
Bookmarks: 6892,13989,14472,26892,65602,66892,68182,76892,93826,134553,144311,146892,180440,188182,210118,215279
DistanceSpacing: 1
BeatDivisor: 4
GridSize: 4
TimelineZoom: 3.399999

[Metadata]
Title:Unhappy End World
TitleUnicode:アンハッピーエンドワールド
Artist:Miki(CV.Takahashi Rie)&Kurumi(CV.Ozawa Ari)
ArtistUnicode:直樹美紀(CV.高橋李依)&恵飛須沢胡桃(CV.小澤亜李) From 学園生活部
Creator:xNyamx
Version:Extra
Source:がっこうぐらし!
Tags:Gakkougurashi! 高橋李依 小澤亜李 Yasaija_714 Kyle_Y m_o_c_h_a short edit
BeatmapID:1043286
BeatmapSetID:489464

[Difficulty]
HPDrainRate:7
CircleSize:4
OverallDifficulty:7.5
ApproachRate:9.4
SliderMultiplier:1.8
SliderTickRate:1

[Events]
//Background and Video events
0,0,"1-150GH01112.jpg",0,0
//Break Periods
//Storyboard Layer 0 (Background)
//Storyboard Layer 1 (Fail)
//Storyboard Layer 2 (Pass)
//Storyboard Layer 3 (Foreground)
//Storyboard Sound Samples

[TimingPoints]
1085,322.58064516129,4,2,2,35,1,0
1085,-100,4,2,2,35,0,0
3344,-100,4,2,2,25,0,0
3666,-100,4,2,2,35,0,0
4392,-100,4,2,2,35,0,0
6408,-100,4,2,2,35,0,0
11084,-100,4,2,2,25,0,0
11408,-133.333333333333,4,2,2,15,0,0
13263,-100,4,2,1,40,0,0
13988,-100,4,2,1,50,0,0
15601,-100,4,2,1,40,0,0
15923,-100,4,2,1,50,0,0
17214,-100,4,2,1,40,0,0
17697,-100,4,2,1,45,0,0
17797,-100,4,2,1,45,0,0
33181,-100,4,2,1,20,0,0
33343,-100,4,2,1,35,0,0
47536,-100,4,2,1,50,0,0
61730,-90.9090909090909,4,2,1,50,0,0
62052,-100,4,2,1,50,0,0
65602,-100,4,2,1,45,0,0
66892,-100,4,2,1,70,0,0
68181,-100,4,2,1,70,0,1
77052,-100,4,2,1,70,0,0
78504,-100,4,2,1,70,0,1
88504,-100,4,2,1,60,0,0
93826,-100,4,2,1,50,0,0

[HitObjects]
64,20,1085,6,0,P|54:54|71:112,1,90,2|0,0:0|0:0,0:0:0:0:
121,177,1407,1,2,0:0:0:0:
78,257,1568,2,0,L|178:250,1,90,2|0,0:0|0:0,0:0:0:0:
214,325,1891,1,2,0:0:0:0:
284,294,2053,1,2,0:0:0:0:
357,341,2214,6,0,L|369:235,1,90,2|0,0:0|0:0,0:0:0:0:
455,165,2536,1,2,0:0:0:0:
394,117,2697,1,2,0:0:0:0:
313,141,2859,2,0,L|332:20,1,90,2|0,0:0|0:0,0:0:0:0:
224,183,3181,1,2,0:0:0:0:
307,250,3344,5,2,0:0:0:0:
250,316,3504,1,2,0:0:0:0:
319,367,3665,2,2,L|427:350,1,90,2|0,0:0|0:0,0:0:0:0:
490,206,3988,1,2,0:0:0:0:
404,244,4149,2,0,P|391:199|405:157,1,90,2|0,0:0|0:0,0:0:0:0:
442,47,4473,5,2,0:0:0:0:
363,79,4634,1,2,0:0:0:0:
284,41,4795,1,2,0:0:0:0:
207,87,4956,2,0,B|192:198,1,90,2|0,0:0|0:0,0:0:0:0:
110,146,5279,2,0,L|91:255,1,90,2|0,0:0|0:0,0:0:0:0:
140,321,5601,5,2,0:0:0:0:
234,285,5762,1,0,0:0:0:0:
140,321,5923,1,2,0:0:0:0:
271,364,6084,1,0,0:0:0:0:
140,321,6246,1,2,0:0:0:0:
15,264,6407,2,0,L|6:165,1,90,2|0,0:0|0:0,0:0:0:0:
54,55,6730,1,2,0:0:0:0:
133,117,6891,2,0,L|227:110,1,90,2|0,0:0|0:0,0:0:0:0:
382,132,7214,5,2,0:0:0:0:
294,178,7375,1,2,0:0:0:0:
422,191,7536,2,0,L|432:83,1,90,2|0,0:0|0:0,0:0:0:0:
462,283,7859,2,0,P|423:292|368:274,1,90,2|0,0:0|0:0,0:0:0:0:
271,327,8181,5,2,0:0:0:0:
271,327,8343,1,2,0:0:0:0:
161,243,8504,1,2,0:0:0:0:
165,247,8666,1,2,0:0:0:0:
69,343,8826,5,2,0:0:0:0:
14,212,8988,1,2,0:0:0:0:
89,94,9149,2,0,L|186:82,1,90,2|0,0:0|0:0,0:0:0:0:
169,194,9473,5,2,0:0:0:0:
294,242,9633,1,2,0:0:0:0:
394,150,9794,2,0,L|381:44,1,90,2|0,0:0|0:0,0:0:0:0:
502,252,10117,5,2,0:0:0:0:
394,150,10278,1,2,0:0:0:0:
294,242,10440,2,0,L|307:343,1,90,2|0,0:0|0:0,0:0:0:0:
186,177,10763,5,2,0:0:0:0:
127,304,10924,1,2,0:0:0:0:
84,150,11084,1,2,0:0:0:0:
120,110,11165,1,2,0:0:0:0:
168,86,11246,1,2,0:0:0:0:
221,86,11326,1,2,0:0:0:0:
264,112,11408,2,2,P|309:138|396:103,1,135.000005149842
477,141,11891,1,0,0:0:0:0:
428,250,12052,6,0,L|415:333,1,67.5000025749208
330,281,12375,2,0,L|317:359,1,67.5000025749208
235,249,12698,2,2,P|204:197|227:126,1,135.000005149842
337,56,13181,1,0,0:0:0:0:
298,189,13344,5,8,0:0:0:0:
298,189,13424,1,8,0:0:0:0:
298,189,13505,1,8,0:0:0:0:
174,66,13665,2,0,B|151:60|151:60|122:77,1,45,8|2,0:0|0:0,0:0:0:0:
53,191,13827,2,0,B|75:198|75:198|104:182,1,45,2|0,0:0|0:0,0:0:0:0:
201,283,13988,5,6,0:0:0:0:
256,120,14149,1,0,0:0:0:0:
289,355,14310,1,2,0:0:0:0:
430,183,14472,5,6,0:0:0:0:
284,219,14633,1,0,0:0:0:0:
497,265,14794,1,2,0:0:0:0:
232,295,14955,2,0,P|188:237|241:135,1,180,4|0,0:0|0:0,0:0:0:0:
323,290,15439,1,0,0:0:0:0:
170,354,15602,5,8,0:0:0:0:
170,354,15682,1,8,0:0:0:0:
170,354,15763,1,8,0:0:0:0:
285,218,15923,2,0,B|294:193|294:193|279:148,1,45,8|0,0:0|0:0,0:0:0:0:
131,148,16084,2,0,B|122:101|122:101|141:38,1,90,2|0,0:0|0:0,0:0:0:0:
237,310,16407,6,0,L|328:301,1,90,4|0,0:0|0:0,0:0:0:0:
474,184,16730,1,2,0:0:0:0:
326,58,16891,1,8,0:0:0:0:
287,101,16972,1,8,0:0:0:0:
274,156,17052,1,8,0:0:0:0:
300,207,17133,1,0,0:0:0:0:
347,233,17214,6,0,B|371:243|371:243|412:226,1,45,2|2,0:0|0:0,0:0:0:0:
463,95,17375,2,8,B|442:87|442:87|399:102,1,45,8|2,0:0|0:0,0:0:0:0:
274,156,17536,2,0,B|248:164|248:164|199:145,1,45,8|2,0:0|0:0,0:0:0:0:
120,60,17697,6,0,P|78:52|25:73,1,90,2|0,0:0|0:0,0:0:0:0:
28,192,18020,2,0,L|45:284,1,90,2|8,0:0|0:0,0:0:0:0:
145,258,18344,2,0,L|167:371,1,90,2|0,0:0|0:0,0:0:0:0:
339,259,18666,5,2,0:0:0:0:
238,301,18827,1,8,0:0:0:0:
348,356,18989,1,2,0:0:0:0:
269,210,19149,2,0,L|281:108,1,90,2|0,0:0|0:0,0:0:0:0:
397,40,19472,1,8,0:0:0:0:
393,80,19552,1,8,0:0:0:0:
391,120,19633,1,8,0:0:0:0:
388,161,19715,1,8,0:0:0:0:
385,201,19794,1,8,0:0:0:0:
304,282,19955,5,2,0:0:0:0:
406,339,20117,1,8,0:0:0:0:
290,208,20278,1,2,0:0:0:0:
214,351,20439,1,2,0:0:0:0:
186,137,20602,1,2,0:0:0:0:
186,137,20682,1,2,0:0:0:0:
186,137,20763,1,10,0:0:0:0:
364,233,20923,1,2,0:0:0:0:
135,277,21085,5,2,0:0:0:0:
177,305,21247,5,2,0:0:0:0:
102,317,21408,5,10,0:0:0:0:
207,258,21568,6,0,P|254:246|299:258,1,90,4|0,0:0|0:0,0:0:0:0:
364,325,21891,1,2,0:0:0:0:
409,200,22052,1,8,0:0:0:0:
451,348,22214,1,0,0:0:0:0:
473,165,22375,6,0,B|378:175,1,90,0|2,0:0|0:0,0:0:0:0:
261,243,22697,1,8,0:0:0:0:
209,103,22859,2,0,P|266:88|318:109,1,90
111,217,23181,1,2,0:0:0:0:
209,103,23343,5,8,0:0:0:0:
234,150,23423,1,8,0:0:0:0:
246,202,23504,1,8,0:0:0:0:
238,255,23584,1,8,0:0:0:0:
215,304,23665,1,8,0:0:0:0:
120,227,23827,1,10,0:0:0:0:
120,227,23907,1,10,0:0:0:0:
120,227,23989,1,10,0:0:0:0:
290,352,24149,6,0,B|329:363|329:363|392:348,1,90,6|0,0:0|0:0,0:0:0:0:
436,164,24472,1,2,0:0:0:0:
336,228,24633,1,8,0:0:0:0:
460,304,24794,1,2,0:0:0:0:
358,102,24955,2,0,B|323:92|323:92|261:110,1,90,2|2,0:0|0:0,0:0:0:0:
153,260,25278,1,8,0:0:0:0:
257,338,25439,6,0,L|272:226,1,90,4|0,0:0|0:0,0:0:0:0:
134,161,25762,1,2,0:0:0:0:
239,92,25923,1,8,0:0:0:0:
109,245,26085,1,2,0:0:0:0:
50,98,26246,1,8,0:0:0:0:
237,182,26407,1,2,0:0:0:0:
144,353,26568,1,8,0:0:0:0:
117,356,26649,1,8,0:0:0:0:
89,359,26731,1,8,0:0:0:0:
62,362,26810,1,8,0:0:0:0:
34,364,26891,1,14,0:0:0:0:
68,233,27052,5,0,0:0:0:0:
139,197,27215,1,2,0:0:0:0:
209,236,27376,2,0,P|247:249|306:226,1,90,0|2,0:0|0:0,0:0:0:0:
422,106,27698,1,0,0:0:0:0:
376,170,27860,1,2,0:0:0:0:
427,235,28020,2,0,L|411:331,1,90,0|2,0:0|0:0,0:0:0:0:
312,276,28343,5,0,0:0:0:0:
312,276,28504,2,0,L|210:283,1,90,2|0,0:0|0:0,0:0:0:0:
148,324,28826,1,2,0:0:0:0:
64,303,28988,2,0,P|50:267|63:206,1,90,0|2,0:0|0:0,0:0:0:0:
123,127,29311,1,0,0:0:0:0:
199,157,29472,1,2,0:0:0:0:
270,114,29634,1,2,0:0:0:0:
270,114,29714,1,2,0:0:0:0:
270,114,29794,1,2,0:0:0:0:
379,37,29955,5,2,0:0:0:0:
424,106,30117,1,2,0:0:0:0:
379,173,30279,1,0,0:0:0:0:
437,225,30439,1,2,0:0:0:0:
390,290,30602,1,0,0:0:0:0:
441,360,30762,2,0,L|349:371,1,90,2|0,0:0|0:0,0:0:0:0:
237,323,31084,2,0,L|216:214,1,90,2|0,0:0|0:0,0:0:0:0:
265,148,31407,5,2,0:0:0:0:
129,74,31568,1,2,0:0:0:0:
129,74,31649,1,2,0:0:0:0:
129,74,31730,2,0,P|116:112|140:170,1,90,2|0,0:0|0:0,0:0:0:0:
206,17,32052,1,2,0:0:0:0:
43,60,32215,1,0,0:0:0:0:
208,119,32376,2,0,B|247:127|247:127|308:114,1,90,2|0,0:0|0:0,0:0:0:0:
376,170,32697,1,2,0:0:0:0:
397,39,32859,1,0,0:0:0:0:
432,194,33020,6,0,L|323:203,1,90,2|2,0:0|0:0,0:0:0:0:
252,316,33343,2,0,L|392:302,1,135,2|0,0:0|0:0,0:0:0:0:
414,328,33665,1,2,0:0:0:0:
343,202,33826,1,0,0:0:0:0:
440,104,33989,1,2,0:0:0:0:
305,48,34150,1,2,0:0:0:0:
305,48,34231,1,2,0:0:0:0:
305,48,34311,1,2,0:0:0:0:
343,202,34473,2,0,B|369:208|369:208|397:197,1,45,2|0,0:0|0:0,0:0:0:0:
246,132,34633,6,0,P|196:124|146:147,1,90,2|0,0:0|0:0,0:0:0:0:
43,243,34955,2,0,P|102:253|148:223,1,90,2|0,0:0|0:0,0:0:0:0:
261,308,35278,1,2,0:0:0:0:
367,214,35439,1,0,0:0:0:0:
216,264,35601,2,0,L|233:366,1,90,2|0,0:0|0:0,0:0:0:0:
276,113,35924,5,2,0:0:0:0:
151,37,36084,1,0,0:0:0:0:
328,66,36246,2,0,L|311:164,1,90,2|0,0:0|0:0,0:0:0:0:
351,332,36569,1,2,0:0:0:0:
463,222,36730,1,0,0:0:0:0:
323,236,36891,5,2,0:0:0:0:
484,314,37052,1,0,0:0:0:0:
312,154,37214,2,0,P|243:220|265:295,1,180,6|2,0:0|0:0,0:0:0:0:
175,340,37697,1,0,0:0:0:0:
323,236,37859,1,2,0:0:0:0:
165,187,38020,1,0,0:0:0:0:
310,360,38181,1,2,0:0:0:0:
208,101,38343,6,0,L|86:109,1,90,0|2,0:0|0:0,0:0:0:0:
326,141,38665,1,0,0:0:0:0:
216,247,38826,2,0,B|203:283|203:283|221:346,1,90,2|0,0:0|0:0,0:0:0:0:
420,275,39149,1,2,0:0:0:0:
475,121,39310,1,0,0:0:0:0:
349,317,39472,1,2,0:0:0:0:
308,78,39633,1,0,0:0:0:0:
210,278,39794,6,2,L|98:290,1,90,2|0,0:0|0:0,0:0:0:0:
120,288,40036,1,2,0:0:0:0:
120,288,40117,1,2,0:0:0:0:
9,128,40278,2,0,P|53:103|104:115,1,90,2|0,0:0|0:0,0:0:0:0:
191,197,40601,2,0,P|234:202|274:182,1,90,2|0,0:0|0:0,0:0:0:0:
368,74,40923,1,2,0:0:0:0:
454,211,41084,6,0,B|473:268|473:268|418:307|349:272,2,180,6|2|2,0:0|0:0|0:0,0:0:0:0:
260,239,41891,1,2,0:0:0:0:
154,337,42052,2,0,P|116:349|48:322,1,90,2|0,0:0|0:0,0:0:0:0:
38,140,42375,5,6,0:0:0:0:
112,267,42536,1,0,0:0:0:0:
136,66,42697,1,2,0:0:0:0:
41,237,42859,1,0,0:0:0:0:
200,156,43020,2,0,B|234:166|234:166|294:156,1,90,2|0,0:0|0:0,0:0:0:0:
420,236,43343,5,2,0:0:0:0:
372,73,43504,1,0,0:0:0:0:
353,274,43665,2,0,L|460:267,1,90,2|0,0:0|0:0,0:0:0:0:
240,351,43988,1,2,0:0:0:0:
240,351,44149,2,0,L|253:235,1,90,2|2,0:0|0:0,0:0:0:0:
302,119,44472,1,0,0:0:0:0:
181,175,44633,1,2,0:0:0:0:
81,61,44794,1,0,0:0:0:0:
15,238,44955,6,0,L|112:231,1,90,6|0,0:0|0:0,0:0:0:0:
205,305,45279,1,2,0:0:0:0:
205,305,45440,1,0,0:0:0:0:
323,214,45601,1,2,0:0:0:0:
323,214,45763,1,0,0:0:0:0:
452,306,45923,1,2,0:0:0:0:
501,141,46084,2,0,P|459:83|350:123,1,180,4|0,0:0|0:0,0:0:0:0:
362,102,46488,1,2,0:0:0:0:
362,102,46569,1,2,0:0:0:0:
236,73,46730,1,0,0:0:0:0:
118,141,46891,5,2,0:0:0:0:
123,186,46973,1,2,0:0:0:0:
129,229,47053,1,2,0:0:0:0:
135,277,47134,1,2,0:0:0:0:
139,322,47215,1,2,0:0:0:0:
258,255,47375,1,0,0:0:0:0:
362,188,47536,6,0,P|373:137|349:83,1,90,4|0,0:0|0:0,0:0:0:0:
258,255,47859,2,0,L|273:359,1,90,8|0,0:0|0:0,0:0:0:0:
438,233,48181,1,2,0:0:0:0:
292,146,48343,1,2,0:0:0:0:
410,59,48505,2,0,B|441:49|441:49|515:65,1,90,8|0,0:0|0:0,0:0:0:0:
193,72,48826,5,2,0:0:0:0:
292,146,48988,1,2,0:0:0:0:
140,257,49150,2,0,L|157:155,1,90,8|0,0:0|0:0,0:0:0:0:
361,290,49473,5,2,0:0:0:0:
460,246,49634,1,2,0:0:0:0:
292,146,49795,2,0,L|277:242,1,90,8|0,0:0|0:0,0:0:0:0:
134,345,50117,5,2,0:0:0:0:
65,201,50278,1,2,0:0:0:0:
178,279,50440,1,10,0:0:0:0:
210,88,50601,1,2,0:0:0:0:
337,312,50763,5,2,0:0:0:0:
283,159,50923,1,2,0:0:0:0:
409,262,51085,1,10,0:0:0:0:
450,84,51246,1,2,0:0:0:0:
283,159,51407,6,0,P|219:188|146:164,1,135,6|0,0:0|0:0,0:0:0:0:
118,138,51730,2,0,L|104:234,1,90,8|0,0:0|0:0,0:0:0:0:
105,227,51972,1,8,0:0:0:0:
105,227,52052,1,8,0:0:0:0:
154,308,52214,1,2,0:0:0:0:
227,204,52375,5,8,0:0:0:0:
271,340,52536,1,0,0:0:0:0:
329,166,52697,1,0,0:0:0:0:
143,211,52860,1,2,0:0:0:0:
143,211,52940,1,2,0:0:0:0:
143,211,53021,1,10,0:0:0:0:
258,253,53181,1,2,0:0:0:0:
101,297,53343,1,2,0:0:0:0:
267,338,53504,2,0,L|384:329,1,90,0|8,0:0|0:0,0:0:0:0:
143,211,53826,6,0,L|31:223,1,90,2|0,0:0|0:0,0:0:0:0:
283,140,54149,1,2,0:0:0:0:
149,89,54310,1,8,0:0:0:0:
305,49,54472,1,2,0:0:0:0:
251,212,54633,2,0,B|273:220|273:220|310:215,1,45,8|0,0:0|0:0,0:0:0:0:
453,142,54794,2,0,B|420:135|420:135|387:150,1,45,2|2,0:0|0:0,0:0:0:0:
374,263,54956,1,8,0:0:0:0:
328,295,55037,1,8,0:0:0:0:
282,305,55118,1,8,0:0:0:0:
233,299,55198,1,8,0:0:0:0:
190,270,55278,5,12,0:0:0:0:
119,148,55440,1,8,0:0:0:0:
119,148,55521,1,8,0:0:0:0:
119,148,55602,1,8,0:0:0:0:
48,239,55762,1,2,0:0:0:0:
62,58,55923,2,0,B|84:51|84:51|138:62,1,45,2|0,0:0|0:0,0:0:0:0:
219,116,56084,2,0,B|242:122|242:122|288:108,1,45,2|0,0:0|0:0,0:0:0:0:
371,45,56246,2,0,B|393:41|393:41|427:49,1,45,8|2,0:0|0:0,0:0:0:0:
416,211,56407,6,0,L|396:307,2,90,12|0|8,0:0|0:0|0:0,0:0:0:0:
330,186,56891,1,2,0:0:0:0:
361,141,56972,1,2,0:0:0:0:
410,120,57052,1,2,0:0:0:0:
463,130,57134,1,2,0:0:0:0:
495,172,57214,1,10,0:0:0:0:
397,299,57375,1,2,0:0:0:0:
319,358,57536,2,0,L|220:366,1,90,8|0,0:0|0:0,0:0:0:0:
94,195,57859,6,0,B|128:184|128:184|187:193,1,90,6|0,0:0|0:0,0:0:0:0:
326,217,58181,1,8,0:0:0:0:
300,77,58343,1,0,0:0:0:0:
279,296,58504,2,0,B|332:303|332:303|368:294,1,90,2|0,0:0|0:0,0:0:0:0:
479,147,58826,2,0,L|475:236,1,90,8|2,0:0|0:0,0:0:0:0:
234,73,59149,5,2,0:0:0:0:
364,130,59310,1,0,0:0:0:0:
166,136,59473,1,10,0:0:0:0:
345,41,59633,1,0,0:0:0:0:
217,226,59795,5,2,0:0:0:0:
361,289,59956,1,0,0:0:0:0:
163,316,60118,1,10,0:0:0:0:
348,200,60278,1,0,0:0:0:0:
170,47,60439,6,0,L|185:170,1,90,4|2,0:0|0:0,0:0:0:0:
96,230,60762,1,8,0:0:0:0:
163,316,60923,1,2,0:0:0:0:
348,178,61084,6,0,L|337:89,1,90,4|2,0:0|0:0,0:0:0:0:
258,259,61408,1,8,0:0:0:0:
337,341,61568,1,2,0:0:0:0:
176,172,61730,6,0,B|138:164|138:164|75:179,1,99.0000030212403,4|2,0:0|0:0,0:0:0:0:
273,276,62053,1,8,0:0:0:0:
273,276,62134,1,8,0:0:0:0:
273,276,62215,1,8,0:0:0:0:
273,276,62295,1,8,0:0:0:0:
273,276,62376,1,8,0:0:0:0:
312,172,62536,1,2,0:0:0:0:
137,243,62697,1,8,0:0:0:0:
249,366,62859,1,2,0:0:0:0:
176,172,63020,6,0,B|135:166|135:166|71:184,2,90,4|0|8,0:0|0:0|0:0,0:0:0:0:
250,233,63504,1,2,0:0:0:0:
288,103,63665,2,0,L|276:-6,1,90,2|2,0:0|0:0,0:0:0:0:
401,133,63988,1,8,0:0:0:0:
346,215,64149,1,2,0:0:0:0:
416,321,64310,6,0,L|515:313,1,90,6|0,0:0|0:0,0:0:0:0:
505,313,64552,1,0,0:0:0:0:
505,313,64634,1,8,0:0:0:0:
274,341,64794,1,2,0:0:0:0:
312,156,64955,1,2,0:0:0:0:
236,269,65117,1,2,0:0:0:0:
219,78,65278,5,8,0:0:0:0:
258,40,65359,1,8,0:0:0:0:
310,29,65439,1,8,0:0:0:0:
362,41,65520,1,8,0:0:0:0:
401,78,65601,6,0,L|432:120,5,30
358,185,65923,6,0,L|340:212,5,30
470,244,66246,6,0,L|492:269,5,30
363,340,66568,6,0,L|339:372,5,30
242,167,66892,5,10,0:0:0:0:
280,300,67053,1,10,0:0:0:0:
15,213,67375,5,0,0:0:0:0:
79,121,67536,2,0,P|134:110|177:136,1,90
210,243,67859,1,8,0:0:0:0:
255,271,67939,1,8,0:0:0:0:
308,279,68020,1,8,0:0:0:0:
361,272,68101,1,8,0:0:0:0:
403,239,68181,5,12,0:0:0:0:
368,80,68343,1,2,0:0:0:0:
307,197,68504,1,8,0:0:0:0:
445,121,68665,1,2,0:0:0:0:
306,27,68826,2,0,B|269:16|269:16|205:35,1,90,2|0,0:0|0:0,0:0:0:0:
119,111,69149,1,8,0:0:0:0:
231,184,69310,1,8,0:0:0:0:
52,239,69472,2,0,B|36:204|36:204|46:140,2,90,4|2|2,0:0|0:0|0:0,0:0:0:0:
168,331,69955,5,2,0:0:0:0:
271,249,70117,2,0,P|280:211|264:152,1,90,8|2,0:0|0:0,0:0:0:0:
126,113,70439,1,8,0:0:0:0:
284,41,70601,1,2,0:0:0:0:
194,204,70762,5,8,0:0:0:0:
350,273,70924,1,8,0:0:0:0:
350,273,71005,1,8,0:0:0:0:
350,273,71084,2,0,B|357:296|357:296|348:335,1,45,8|0,0:0|0:0,0:0:0:0:
274,163,71246,1,2,0:0:0:0:
206,327,71407,5,2,0:0:0:0:
154,117,71568,1,8,0:0:0:0:
59,219,71730,1,8,0:0:0:0:
101,251,71810,1,8,0:0:0:0:
154,259,71891,1,8,0:0:0:0:
206,246,71972,1,8,0:0:0:0:
253,220,72052,2,0,P|302:207|345:231,1,90,12|2,0:0|0:0,0:0:0:0:
363,326,72375,1,2,0:0:0:0:
421,187,72536,1,2,0:0:0:0:
348,55,72698,5,8,0:0:0:0:
348,55,72779,1,8,0:0:0:0:
348,55,72859,1,10,0:0:0:0:
238,131,73021,1,8,0:0:0:0:
244,175,73101,1,8,0:0:0:0:
249,219,73181,1,10,0:0:0:0:
256,263,73262,1,8,0:0:0:0:
261,307,73343,1,12,0:0:0:0:
345,233,73504,1,2,0:0:0:0:
188,351,73665,2,0,B|157:362|157:362|76:341,1,90,2|0,0:0|0:0,0:0:0:0:
65,137,73988,5,8,0:0:0:0:
150,273,74149,1,2,0:0:0:0:
128,64,74310,1,8,0:0:0:0:
71,240,74472,1,2,0:0:0:0:
231,201,74633,1,14,0:0:0:0:
239,208,74715,1,10,0:0:0:0:
239,208,74795,1,10,0:0:0:0:
90,129,74955,1,8,0:0:0:0:
229,45,75117,1,2,0:0:0:0:
130,213,75278,6,0,P|66:224|17:193,1,90,6|0,0:0|0:0,0:0:0:0:
231,259,75601,2,0,L|239:380,1,90,8|0,0:0|0:0,0:0:0:0:
359,262,75923,1,8,0:0:0:0:
364,212,76004,1,8,0:0:0:0:
366,162,76084,1,8,0:0:0:0:
371,112,76165,1,12,0:0:0:0:
375,61,76247,6,0,B|401:54|401:54|438:67,1,45,8|0,0:0|0:0,0:0:0:0:
272,137,76407,2,0,B|244:142|244:142|199:124,1,45,8|0,0:0|0:0,0:0:0:0:
129,48,76568,2,0,B|141:66|141:66|134:100,1,45,8|0,0:0|0:0,0:0:0:0:
46,174,76730,2,0,B|37:202|37:202|46:229,1,45,12|0,0:0|0:0,0:0:0:0:
145,295,76891,2,0,B|150:318|150:318|136:344,1,45,8|0,0:0|0:0,0:0:0:0:
257,229,77052,2,0,B|318:177|376:226|376:226|419:155,2,180,14|8|8,0:0|0:0|0:0,0:0:0:0:
291,327,77859,5,8,0:0:0:0:
341,345,77939,1,8,0:0:0:0:
395,343,78021,1,8,0:0:0:0:
444,321,78102,1,8,0:0:0:0:
479,280,78182,1,8,0:0:0:0:
493,227,78262,1,8,0:0:0:0:
487,173,78343,1,8,0:0:0:0:
468,122,78423,1,8,0:0:0:0:
428,85,78504,6,0,L|335:89,1,90,14|0,0:0|0:0,0:0:0:0:
212,151,78826,2,0,B|198:113|198:113|229:37,1,90,8|0,0:0|0:0,0:0:0:0:
294,216,79149,1,2,0:0:0:0:
257,358,79310,1,2,0:0:0:0:
207,252,79472,1,8,0:0:0:0:
363,284,79633,1,8,0:0:0:0:
137,306,79794,6,0,B|122:256|122:256|129:217,2,90,6|0|8,0:0|0:0|0:0,0:0:0:0:
230,153,80278,1,2,0:0:0:0:
175,77,80440,2,0,L|70:84,1,90,2|0,0:0|0:0,0:0:0:0:
327,155,80762,2,0,B|357:162|357:162|420:150,1,90,10|0,0:0|0:0,0:0:0:0:
197,232,81084,5,12,0:0:0:0:
332,314,81247,1,8,0:0:0:0:
332,314,81327,1,8,0:0:0:0:
332,314,81408,2,0,L|385:311,1,45,8|0,0:0|0:0,0:0:0:0:
180,363,81568,1,2,0:0:0:0:
67,251,81730,5,4,0:0:0:0:
187,105,81891,1,2,0:0:0:0:
278,168,82052,1,8,0:0:0:0:
234,202,82134,1,8,0:0:0:0:
181,213,82214,1,8,0:0:0:0:
128,202,82294,1,8,0:0:0:0:
84,170,82375,2,0,L|76:81,1,90,12|0,0:0|0:0,0:0:0:0:
209,301,82697,1,8,0:0:0:0:
66,326,82859,1,2,0:0:0:0:
269,237,83021,5,2,0:0:0:0:
269,237,83102,1,2,0:0:0:0:
269,237,83182,1,2,0:0:0:0:
269,237,83263,1,2,0:0:0:0:
269,237,83344,1,2,0:0:0:0:
269,237,83424,1,2,0:0:0:0:
269,237,83505,1,2,0:0:0:0:
269,237,83585,1,2,0:0:0:0:
269,237,83665,6,0,L|242:334,1,90,14|0,0:0|0:0,0:0:0:0:
429,295,83989,1,8,0:0:0:0:
350,222,84150,1,8,0:0:0:0:
327,353,84311,1,8,0:0:0:0:
453,206,84473,1,8,0:0:0:0:
246,220,84634,1,8,0:0:0:0:
439,294,84795,1,8,0:0:0:0:
336,105,84956,5,8,0:0:0:0:
220,313,85118,1,8,0:0:0:0:
391,217,85279,1,8,0:0:0:0:
184,141,85440,1,8,0:0:0:0:
317,292,85601,5,8,0:0:0:0:
88,159,85762,1,8,0:0:0:0:
162,342,85924,1,8,0:0:0:0:
391,217,86085,1,8,0:0:0:0:
78,252,86246,5,12,0:0:0:0:
78,252,86327,1,8,0:0:0:0:
78,252,86408,1,8,0:0:0:0:
78,252,86489,1,8,0:0:0:0:
78,252,86568,1,12,0:0:0:0:
185,304,86730,1,0,0:0:0:0:
161,128,86892,1,0,0:0:0:0:
7,281,87052,1,2,0:0:0:0:
256,208,87214,5,14,0:0:0:0:
320,231,88181,5,12,0:0:0:0:
320,231,88343,1,8,0:0:0:0:
128,76,88826,5,4,0:0:0:0:
83,275,88989,1,8,0:0:0:0:
232,144,89150,1,2,0:0:0:0:
277,349,89311,5,4,0:0:0:0:
177,226,89473,1,8,0:0:0:0:
387,292,89634,1,2,0:0:0:0:
327,111,89795,5,4,0:0:0:0:
263,262,89956,1,8,0:0:0:0:
432,192,90118,1,2,0:0:0:0:
148,144,90279,5,4,0:0:0:0:
348,226,90440,1,8,0:0:0:0:
62,220,90601,1,2,0:0:0:0:
304,84,90763,5,4,0:0:0:0:
356,340,90924,1,8,0:0:0:0:
460,128,91085,5,4,0:0:0:0:
216,268,91247,1,8,0:0:0:0:
495,253,91408,5,14,0:0:0:0:
256,192,91488,12,0,92536,0:0:0:0:
426,182,92859,5,2,0:0:0:0:
329,108,93020,1,8,0:0:0:0:
329,108,93102,1,8,0:0:0:0:
329,108,93182,1,8,0:0:0:0:
329,108,93263,1,8,0:0:0:0:
329,108,93344,1,8,0:0:0:0:
276,237,93504,1,2,0:0:0:0:
55,83,93826,6,0,L|153:72,1,90,12|0,0:0|0:0,0:0:0:0:
247,135,94149,1,2,0:0:0:0:
171,223,94310,1,8,0:0:0:0:
247,334,94472,1,0,0:0:0:0:
352,245,94633,1,8,0:0:0:0:
350,195,94714,1,8,0:0:0:0:
346,145,94794,1,8,0:0:0:0:
345,95,94875,1,8,0:0:0:0:
342,45,94955,1,8,0:0:0:0:
247,135,95117,6,0,P|211:149|146:128,1,90,6|0,0:0|0:0,0:0:0:0:
60,80,95440,2,0,L|42:169,1,90,2|8,0:0|0:0,0:0:0:0:
120,232,95763,2,0,L|99:324,1,90,2|0,0:0|0:0,0:0:0:0:
306,227,96084,5,2,0:0:0:0:
194,284,96246,1,10,0:0:0:0:
239,177,96407,1,2,0:0:0:0:
306,325,96568,2,0,B|343:334|343:334|415:320,1,90,2|0,0:0|0:0,0:0:0:0:
483,260,96892,1,8,0:0:0:0:
482,210,96972,1,8,0:0:0:0:
482,160,97053,1,8,0:0:0:0:
479,110,97134,1,8,0:0:0:0:
477,60,97214,1,8,0:0:0:0:
267,86,97375,5,2,0:0:0:0:
380,135,97536,1,8,0:0:0:0:
217,177,97697,1,2,0:0:0:0:
329,26,97859,1,2,0:0:0:0:
386,217,98020,1,2,0:0:0:0:
393,224,98101,1,2,0:0:0:0:
393,224,98182,1,10,0:0:0:0:
248,94,98343,1,2,0:0:0:0:
240,287,98504,5,2,0:0:0:0:
262,248,98666,5,2,0:0:0:0:
261,329,98827,5,10,0:0:0:0:
241,202,98988,6,0,B|285:190|285:190|337:209,1,90,6|0,0:0|0:0,0:0:0:0:
460,280,99310,1,0,0:0:0:0:
401,140,99472,1,10,0:0:0:0:
338,310,99633,1,0,0:0:0:0:
241,202,99794,6,0,L|266:99,1,90,2|2,0:0|0:0,0:0:0:0:
338,310,100117,1,8,0:0:0:0:
252,358,100278,2,0,P|193:367|133:334,1,90,2|0,0:0|0:0,0:0:0:0:
56,196,100601,1,2,0:0:0:0:
211,258,100763,5,8,0:0:0:0:
256,254,100844,1,8,0:0:0:0:
300,253,100923,1,8,0:0:0:0:
345,249,101005,1,8,0:0:0:0:
389,247,101085,1,8,0:0:0:0:
391,148,101246,1,2,0:0:0:0:
326,345,101407,1,8,0:0:0:0:
211,157,101568,6,0,L|199:56,1,90,6|0,0:0|0:0,0:0:0:0:
86,221,101891,1,2,0:0:0:0:
163,300,102052,2,0,L|255:293,1,90,8|0,0:0|0:0,0:0:0:0:
336,154,102375,1,2,0:0:0:0:
398,268,102536,1,2,0:0:0:0:
430,93,102697,1,10,0:0:0:0:
465,348,102859,6,0,L|370:357,1,90,4|0,0:0|0:0,0:0:0:0:
231,310,103181,1,2,0:0:0:0:
319,244,103343,1,8,0:0:0:0:
184,198,103504,1,2,0:0:0:0:
146,351,103665,1,8,0:0:0:0:
72,177,103826,1,8,0:0:0:0:
201,46,103988,2,0,P|279:41|325:122,1,180,10|0,0:0|0:0,0:0:0:0:
