osu file format v14

[General]
AudioFilename: 01. .mp3
AudioLeadIn: 0
PreviewTime: 67210
Countdown: 0
SampleSet: None
StackLeniency: 0.7
Mode: 0
LetterboxInBreaks: 1
WidescreenStoryboard: 1

[Editor]
DistanceSpacing: 2.5
BeatDivisor: 4
GridSize: 4
TimelineZoom: 2.3

[Metadata]
Title:Unhappy End World
TitleUnicode:アンハッピーエンドワールド
Artist:Miki(CV.Takahashi Rie)&Kurumi(CV.Ozawa Ari)
ArtistUnicode:直樹美紀(CV.高橋李依)&恵飛須沢胡桃(CV.小澤亜李)
Creator:M o c h a
Version:Extra
Source:がっこうぐらし!
Tags:gakkou gurashi ebisuzawa kurumi naoki miki school live takahashi rie ozawa ari chmpro underdogs minesweeper zenithlight
BeatmapID:1701660
BeatmapSetID:385769

[Difficulty]
HPDrainRate:8
CircleSize:4
OverallDifficulty:8
ApproachRate:9.3
SliderMultiplier:1.80000000596047
SliderTickRate:1

[Events]
//Background and Video events
0,0,"background.jpg",0,0
//Break Periods
//Storyboard Layer 0 (Background)
//Storyboard Layer 1 (Fail)
//Storyboard Layer 2 (Pass)
//Storyboard Layer 3 (Foreground)
//Storyboard Sound Samples

[TimingPoints]
1081,322.58064516129,4,1,0,50,1,0
11403,-200,4,2,0,50,0,0
13500,-100,4,3,0,50,0,0
14951,-200,4,3,0,50,0,0
16403,-100,4,1,0,50,0,0
26887,-100,4,1,0,100,0,0
63016,-133.333333333333,4,1,0,50,0,0
68177,-100,4,1,0,100,0,1
87210,-200,4,2,0,50,0,0
88822,-100,4,2,0,50,0,0
91403,-200,4,2,0,50,0,0
93822,-100,4,2,0,50,0,0
146080,-100,4,2,0,50,0,1
165919,-200,4,2,0,50,0,1
166887,-100,4,2,0,50,0,0
172855,-200,4,2,0,50,0,0
177855,-100,4,2,0,50,0,0
220435,-200,4,2,0,50,0,0
221726,-100,4,2,0,50,0,1
240919,-200,4,2,0,50,0,0
241080,-100,4,2,0,50,0,0

[HitObjects]
127,113,919,5,0,0:0:0:0:
224,56,1081,2,0,P|276:50|331:73,1,90.0000002980235
400,140,1403,2,0,P|396:190|353:232,1,90.0000002980235
280,276,1726,2,0,P|239:264|213:199,1,90.0000002980235
292,80,2048,1,0,0:0:0:0:
213,226,2210,1,0,0:0:0:0:
292,80,2371,6,0,P|250:43|208:37,1,90.0000002980235
112,84,2693,2,0,P|97:131|125:171,1,90.0000002980235
236,216,3016,2,0,P|281:197|330:216,1,90.0000002980235
303,56,3339,1,0,0:0:0:0:
319,207,3500,1,0,0:0:0:0:
303,56,3661,6,0,P|253:22|194:27,1,90.0000002980235
96,172,3984,1,0,0:0:0:0:
230,100,4145,1,0,0:0:0:0:
192,236,4306,2,0,P|196:285|233:330,1,90.0000002980235
464,272,4629,1,0,0:0:0:0:
314,258,4790,1,0,0:0:0:0:
408,164,4951,6,0,P|449:119|474:99,1,90.0000002980235
324,44,5274,2,0,P|311:101|287:143,1,90.0000002980235
176,240,5597,2,0,P|122:258|65:229,1,90.0000002980235
104,62,5919,2,0,P|97:117|123:146,1,90.0000002980235
139,157,6161,1,0,0:0:0:0:
171,161,6242,6,0,P|263:186|312:258,1,180.000000596047
156,317,6726,1,0,0:0:0:0:
177,129,6887,2,0,P|224:83|323:121,1,180.000000596047
349,242,7371,1,0,0:0:0:0:
222,309,7532,2,0,P|174:315|136:288,1,90.0000002980235
205,101,7855,2,0,P|203:156|174:188,1,90.0000002980235
91,104,8177,2,0,P|60:64|69:23,1,90.0000002980235
217,73,8500,2,0,P|256:95|268:143,1,90.0000002980235
153,200,8822,6,0,B|85:214|115:323|34:334,1,180.000000596047
23,161,9306,1,0,0:0:0:0:
179,222,9468,2,0,P|269:240|354:204,1,180.000000596047
395,62,9951,1,0,0:0:0:0:
193,47,10113,6,0,B|157:84|157:84|239:137|172:230,1,180.000000596047
72,169,10597,1,0,0:0:0:0:
258,82,10758,2,0,P|329:82|345:197,1,180.000000596047
457,39,11403,5,0,0:0:0:0:
277,164,12693,1,0,0:0:0:0:
99,78,13661,1,0,0:0:0:0:
99,78,13742,1,0,0:0:0:0:
99,78,13822,1,0,0:0:0:0:
186,131,13984,6,0,L|286:129,1,90.0000002980235
377,262,14306,1,0,0:0:0:0:
277,179,14468,2,0,L|175:180,1,90.0000002980235
255,51,14790,1,0,0:0:0:0:
408,73,14951,2,0,P|450:112|456:160,1,90.0000002980235
306,186,15597,2,0,L|266:233,1,45.0000001490117
126,168,15919,2,0,P|173:136|236:148,1,112.500000372529
289,209,16403,6,0,L|242:312,1,90.0000002980235
133,232,16726,1,0,0:0:0:0:
242,112,16887,2,0,P|298:95|335:109,1,90.0000002980235
154,204,17210,1,0,0:0:0:0:
154,204,17290,1,0,0:0:0:0:
154,204,17371,1,0,0:0:0:0:
244,300,17532,1,0,0:0:0:0:
280,116,17693,2,0,P|322:88|371:98,1,90.0000002980235
394,261,18016,2,0,P|358:218|358:182,1,90.0000002980235
477,98,18339,2,0,P|468:157|435:183,1,90.0000002980235
264,81,18661,1,0,0:0:0:0:
162,83,18822,1,0,0:0:0:0:
87,138,18984,6,0,P|58:218|110:289,1,180.000000596047
268,193,19468,2,0,P|313:174|359:193,1,90.0000002980235
452,64,19790,2,0,P|408:88|364:68,1,90.0000002980235
256,40,20113,1,0,0:0:0:0:
368,200,20274,2,0,P|372:252|344:276,1,90.0000002980235
132,232,20597,1,0,0:0:0:0:
288,148,20758,1,0,0:0:0:0:
104,64,20919,2,0,L|0:56,1,90.0000002980235
280,24,21242,2,0,L|385:12,1,90.0000002980235
244,228,21564,6,0,P|200:252|140:216,1,90.0000002980235
176,128,21887,1,0,0:0:0:0:
288,76,22048,2,0,L|180:124,1,90.0000002980235
352,208,22371,2,0,P|396:240|396:304,2,90.0000002980235
212,304,22855,2,0,P|260:316|300:292,1,90.0000002980235
120,236,23177,1,0,0:0:0:0:
220,104,23339,1,0,0:0:0:0:
220,104,23419,1,0,0:0:0:0:
220,104,23500,2,0,L|324:104,1,90.0000002980235
296,216,23822,2,0,L|400:216,1,90.0000002980235
368,328,24145,6,0,L|476:328,1,90.0000002980235
268,328,24468,1,0,0:0:0:0:
164,184,24629,2,0,P|220:204|224:268,1,90.0000002980235
154,353,24951,2,0,P|136:296|150:272,2,90.0000002980235
316,178,25435,2,0,P|268:227|176:177,1,180.000000596047
213,69,25919,1,0,0:0:0:0:
253,48,26000,1,0,0:0:0:0:
299,54,26080,1,0,0:0:0:0:
341,77,26161,1,0,0:0:0:0:
372,111,26241,2,0,P|402:163|383:222,1,90.0000002980235
280,318,26564,2,0,P|289:253|322:240,1,90.0000002980235
111,142,26887,5,0,0:0:0:0:
111,142,27210,2,0,P|162:146|202:115,1,90.0000002980235
353,129,27532,2,0,P|306:161|296:201,1,90.0000002980235
418,300,27855,2,0,P|416:247|388:217,1,90.0000002980235
206,216,28177,1,0,0:0:0:0:
347,99,28339,1,0,0:0:0:0:
173,27,28500,2,0,P|118:36|80:75,2,90.0000002980235
58,171,28984,2,0,P|83:215|123:212,1,90.0000002980235
236,128,29306,1,0,0:0:0:0:
350,124,29468,6,0,L|256:126,1,90.0000002980235
302,253,29790,1,0,0:0:0:0:
421,252,29951,2,0,L|327:254,1,90.0000002980235
119,342,30274,2,0,L|223:342,1,90.0000002980235
421,252,30597,2,0,P|366:316|292:246,1,180.000000596047
312,78,31080,2,0,P|350:124|356:178,1,90.0000002980235
158,208,31403,1,0,0:0:0:0:
356,152,31564,1,0,0:0:0:0:
158,208,31726,1,0,0:0:0:0:
214,41,31887,1,0,0:0:0:0:
356,152,32048,6,0,P|369:236|267:226,1,180.000000596047
192,122,32532,2,0,P|139:101|99:119,2,90.0000002980235
347,243,33016,2,0,L|444:260,1,90.0000002980235
377,338,33339,2,0,L|270:366,1,90.0000002980235
326,238,33661,1,0,0:0:0:0:
230,125,33822,2,0,P|157:115|123:141,1,90.0000002980235
59,283,34145,2,0,P|127:342|193:273,1,180.000000596047
256,80,34629,5,0,0:0:0:0:
312,288,34790,1,0,0:0:0:0:
360,100,34951,1,0,0:0:0:0:
200,260,35113,1,0,0:0:0:0:
384,196,35274,1,0,0:0:0:0:
176,160,35435,1,0,0:0:0:0:
337,48,35597,1,0,0:0:0:0:
337,48,35677,1,0,0:0:0:0:
337,48,35758,6,0,L|443:41,1,90.0000002980235
417,277,36080,1,0,0:0:0:0:
312,119,36242,1,0,0:0:0:0:
263,297,36403,2,0,P|220:333|155:317,2,90.0000002980235
287,118,36887,2,0,P|256:69|209:69,1,90.0000002980235
114,82,37210,2,0,L|224:63,1,90.0000002980235
353,66,37532,1,0,0:0:0:0:
260,141,37693,2,0,P|224:195|234:245,1,90.0000002980235
304,352,38016,2,0,P|324:296|308:256,1,90.0000002980235
140,152,38339,6,0,P|140:100|236:116,1,180.000000596047
252,316,38822,2,0,P|212:344|164:332,1,90.0000002980235
200,232,39145,2,0,P|216:184|280:184,1,90.0000002980235
364,320,39468,2,0,P|324:280|328:240,1,90.0000002980235
480,196,39790,2,0,P|456:244|408:244,1,90.0000002980235
364,156,40113,1,0,0:0:0:0:
276,76,40274,2,0,P|224:60|176:84,1,90.0000002980235
140,208,40597,2,0,P|196:192|212:164,1,90.0000002980235
64,48,40919,6,0,L|60:148,1,90.0000002980235
64,268,41242,1,0,0:0:0:0:
64,268,41322,1,0,0:0:0:0:
64,268,41403,1,0,0:0:0:0:
172,156,41564,2,0,P|220:144|292:236,1,180.000000596047
112,316,42048,2,0,L|216:316,1,90.0000002980235
296,168,42371,2,0,P|256:208|272:252,1,90.0000002980235
352,304,42693,1,0,0:0:0:0:
296,168,42855,2,0,P|248:120|144:164,1,180.000000596047
120,320,43339,2,0,P|96:272|52:268,1,90.0000002980235
152,148,43661,6,0,P|180:184|232:188,1,90.0000002980235
288,80,43984,1,0,0:0:0:0:
336,220,44145,2,0,P|360:264|412:272,1,90.0000002980235
416,88,44468,2,0,P|392:48|348:36,1,90.0000002980235
336,220,44790,2,0,P|300:300|208:284,1,180.000000596047
100,128,45274,2,0,P|116:80|176:68,1,90.0000002980235
280,48,45597,1,0,0:0:0:0:
280,48,45758,1,0,0:0:0:0:
208,184,45919,1,0,0:0:0:0:
328,140,46080,6,0,L|440:104,1,90.0000002980235
208,184,46403,1,0,0:0:0:0:
208,184,46564,1,0,0:0:0:0:
208,184,46726,1,0,0:0:0:0:
256,280,46887,1,0,0:0:0:0:
84,188,47048,1,0,0:0:0:0:
252,76,47210,1,0,0:0:0:0:
128,208,47371,1,0,0:0:0:0:
364,216,47532,6,0,P|412:228|424:280,1,90.0000002980235
300,344,47855,2,0,P|248:340|216:304,1,90.0000002980235
200,156,48177,1,0,0:0:0:0:
200,156,48339,2,0,L|88:200,1,90.0000002980235
80,84,48661,1,0,0:0:0:0:
208,36,48822,2,0,L|336:36,1,90.0000002980235
392,140,49145,2,0,L|280:140,1,90.0000002980235
200,244,49468,2,0,L|300:244,1,90.0000002980235
376,344,49790,2,0,L|256:344,1,90.0000002980235
64,152,50113,6,0,L|-4:240,1,90.0000002980235
192,108,50435,1,0,0:0:0:0:
192,108,50597,1,0,0:0:0:0:
212,240,50758,2,0,L|162:314,1,90.0000002980235
368,216,51080,1,0,0:0:0:0:
368,216,51242,1,0,0:0:0:0:
282,108,51403,2,0,L|186:108,1,90.0000002980235
124,200,51726,1,0,0:0:0:0:
198,284,51887,2,0,L|288:284,1,90.0000002980235
416,216,52210,1,0,0:0:0:0:
264,133,52371,2,0,L|356:91,1,90.0000002980235
219,17,52693,6,0,P|166:27|124:83,1,90.0000002980235
85,204,53016,1,0,0:0:0:0:
246,167,53177,2,0,P|286:140|299:99,1,90.0000002980235
97,80,53500,1,0,0:0:0:0:
89,113,53580,1,0,0:0:0:0:
83,147,53661,1,0,0:0:0:0:
79,183,53742,1,0,0:0:0:0:
79,218,53822,6,0,P|138:290|239:289,1,180.000000596047
372,144,54306,2,0,P|405:106|408:63,1,90.0000002980235
218,50,54629,2,0,P|156:60|129:97,1,90.0000002980235
188,232,54951,2,0,P|218:171|205:145,1,90.0000002980235
73,168,55274,5,0,0:0:0:0:
179,79,55435,1,0,0:0:0:0:
207,273,55597,1,0,0:0:0:0:
152,184,55758,1,0,0:0:0:0:
344,183,55919,1,0,0:0:0:0:
203,83,56080,1,0,0:0:0:0:
288,262,56242,1,0,0:0:0:0:
352,73,56403,6,0,B|377:50|374:31|374:31|399:26|402:79|382:152,1,180.000000596047
287,305,56887,1,0,0:0:0:0:
238,127,57048,1,0,0:0:0:0:
91,247,57210,2,0,P|49:279|0:275,1,90.0000002980235
70,74,57532,2,0,P|143:43|191:55,1,90.0000002980235
252,244,57855,2,0,P|297:281|402:218,1,180.000000596047
318,44,58339,1,0,0:0:0:0:
96,141,58500,2,0,P|72:228|145:281,1,180.000000596047
353,181,58983,1,0,0:0:0:0:
353,181,59064,1,0,0:0:0:0:
353,181,59145,6,0,L|451:178,1,90.0000002980235
223,57,59468,2,0,L|313:57,1,90.0000002980235
133,192,59790,1,0,0:0:0:0:
316,113,59951,1,0,0:0:0:0:
247,283,60113,1,0,0:0:0:0:
441,146,60274,1,0,0:0:0:0:
182,77,60435,6,0,L|77:79,1,90.0000002980235
379,203,60758,2,0,L|482:200,1,90.0000002980235
283,57,61080,2,0,P|243:22|194:23,1,90.0000002980235
214,309,61403,2,0,P|254:347|316:348,1,90.0000002980235
175,141,61726,5,0,0:0:0:0:
321,222,61887,1,0,0:0:0:0:
298,79,62048,1,0,0:0:0:0:
179,226,62210,1,0,0:0:0:0:
380,147,62371,2,0,P|446:140|486:167,1,90.0000002980235
411,314,62693,2,0,P|355:327|318:302,1,90.0000002980235
184,101,63016,6,0,P|130:84|64:152,1,135.000005596877
332,269,63500,1,0,0:0:0:0:
149,198,63661,2,0,L|9:220,1,135.000005596877
200,323,64145,1,0,0:0:0:0:
345,195,64306,2,0,P|364:154|363:118,1,67.5000027984384
257,52,64629,1,0,0:0:0:0:
131,160,64790,2,0,P|109:231|110:249,1,67.5000027984384
262,192,65113,2,0,L|337:164,1,67.5000027984384
325,168,65355,1,0,0:0:0:0:
325,168,65435,1,0,0:0:0:0:
132,115,65597,5,0,0:0:0:0:
304,47,65758,1,0,0:0:0:0:
106,236,65919,1,0,0:0:0:0:
306,169,66080,1,0,0:0:0:0:
239,269,66242,1,0,0:0:0:0:
439,251,66403,1,0,0:0:0:0:
141,165,66564,1,0,0:0:0:0:
349,139,66726,1,0,0:0:0:0:
230,44,66887,1,0,0:0:0:0:
266,298,67048,1,0,0:0:0:0:
240,97,68177,6,0,P|183:102|146:151,1,90.0000002980235
234,313,68500,1,0,0:0:0:0:
397,205,68661,1,0,0:0:0:0:
240,97,68822,2,0,L|148:98,1,90.0000002980235
188,302,69145,1,0,0:0:0:0:
416,160,69306,1,0,0:0:0:0:
245,21,69468,6,0,P|162:27|104:98,1,180.000000596047
96,265,69951,1,0,0:0:0:0:
221,114,70113,1,0,0:0:0:0:
207,302,70274,1,0,0:0:0:0:
92,147,70435,1,0,0:0:0:0:
307,72,70597,1,0,0:0:0:0:
268,304,70758,6,0,P|217:320|171:310,1,90.0000002980235
103,117,71080,1,0,0:0:0:0:
323,64,71242,1,0,0:0:0:0:
265,241,71403,2,0,P|228:271|165:264,1,90.0000002980235
125,104,71726,1,0,0:0:0:0:
331,88,71887,1,0,0:0:0:0:
206,271,72048,6,0,L|166:298,1,45.0000001490117
391,174,72210,2,0,L|443:180,1,45.0000001490117
200,130,72371,2,0,L|156:100,1,45.0000001490117
345,297,72532,2,0,L|362:361,1,45.0000001490117
309,105,72693,1,0,0:0:0:0:
300,86,72774,1,0,0:0:0:0:
285,63,72855,1,0,0:0:0:0:
262,40,72935,1,0,0:0:0:0:
227,23,73016,1,0,0:0:0:0:
181,23,73097,1,0,0:0:0:0:
135,30,73177,1,0,0:0:0:0:
92,50,73258,1,0,0:0:0:0:
57,82,73339,6,0,P|29:122|18:194,1,90.0000002980235
115,283,73661,2,0,P|149:234|157:181,1,90.0000002980235
350,72,73984,2,0,P|407:67|442:78,1,90.0000002980235
292,242,74306,2,0,P|234:247|195:228,1,90.0000002980235
350,71,74629,6,0,P|401:110|416:148,1,90.0000002980235
292,240,74951,2,0,P|255:194|256:159,1,90.0000002980235
350,72,75274,2,0,P|355:126|330:169,1,90.0000002980235
178,84,75597,1,0,0:0:0:0:
153,72,75677,1,0,0:0:0:0:
125,65,75758,1,0,0:0:0:0:
98,63,75839,1,0,0:0:0:0:
66,65,75919,5,0,0:0:0:0:
66,65,76242,1,0,0:0:0:0:
56,184,76404,2,0,P|79:233|111:255,1,90.0000002980235
107,253,76726,1,0,0:0:0:0:
107,253,77048,6,0,P|151:295|185:299,1,90.0000002980235
282,179,77371,2,0,P|334:171|389:189,1,90.0000002980235
413,264,77693,1,0,0:0:0:0:
317,96,77855,2,0,P|273:73|225:74,1,90.0000002980235
68,162,78177,1,0,0:0:0:0:
54,195,78258,1,0,0:0:0:0:
61,234,78339,1,0,0:0:0:0:
74,267,78419,1,0,0:0:0:0:
87,298,78500,6,0,P|132:331|200:328,1,90.0000002980235
400,241,78822,1,0,0:0:0:0:
298,69,78984,1,0,0:0:0:0:
123,213,79145,2,0,P|109:269|143:323,1,90.0000002980235
412,161,79468,1,0,0:0:0:0:
230,51,79629,1,0,0:0:0:0:
225,297,79790,6,0,P|297:346|381:284,1,180.000000596047
401,179,80274,1,0,0:0:0:0:
305,115,80435,1,0,0:0:0:0:
253,228,80597,1,0,0:0:0:0:
401,179,80758,1,0,0:0:0:0:
401,179,80839,1,0,0:0:0:0:
401,179,80919,1,0,0:0:0:0:
171,94,81081,6,0,P|117:82|80:88,1,90.0000002980235
237,314,81403,2,0,P|288:320|333:302,1,90.0000002980235
171,94,81726,2,0,P|117:82|80:88,1,90.0000002980235
237,314,82048,2,0,P|288:320|333:302,1,90.0000002980235
365,151,82371,5,0,0:0:0:0:
365,151,82451,1,0,0:0:0:0:
365,151,82532,1,0,0:0:0:0:
132,144,82693,1,0,0:0:0:0:
109,159,82774,1,0,0:0:0:0:
93,191,82855,1,0,0:0:0:0:
87,220,82935,1,0,0:0:0:0:
88,251,83016,2,0,P|105:294|159:310,1,90.0000002980235
368,192,83339,2,0,P|405:158|418:113,1,90.0000002980235
185,100,83661,5,0,0:0:0:0:
185,100,83822,1,0,0:0:0:0:
344,217,83984,1,0,0:0:0:0:
344,217,84145,1,0,0:0:0:0:
180,260,84306,1,0,0:0:0:0:
180,260,84468,1,0,0:0:0:0:
228,159,84629,1,0,0:0:0:0:
228,159,84790,1,0,0:0:0:0:
327,109,84951,6,0,L|431:107,1,90.0000002980235
103,163,85273,2,0,L|5:181,1,90.0000002980235
252,171,85597,1,0,0:0:0:0:
252,171,85677,1,0,0:0:0:0:
252,171,85758,1,0,0:0:0:0:
144,258,85919,1,0,0:0:0:0:
144,258,86000,1,0,0:0:0:0:
144,258,86080,1,0,0:0:0:0:
144,258,86161,1,0,0:0:0:0:
144,258,86242,5,0,0:0:0:0:
185,103,86564,1,0,0:0:0:0:
337,138,86725,2,0,L|436:155,1,90.0000002980235
254,232,87048,1,0,0:0:0:0:
369,256,87209,1,0,0:0:0:0:
369,256,87371,1,0,0:0:0:0:
233,119,87855,2,0,P|181:123|139:147,1,90.0000002980235
86,216,88500,1,0,0:0:0:0:
65,308,88661,1,0,0:0:0:0:
229,241,88822,5,0,0:0:0:0:
245,231,88903,1,0,0:0:0:0:
262,221,88984,2,0,P|286:181|272:141,1,90.0000002980235
171,93,89306,1,0,0:0:0:0:
171,93,89387,1,0,0:0:0:0:
171,93,89468,1,0,0:0:0:0:
171,93,89548,1,0,0:0:0:0:
171,93,89629,1,0,0:0:0:0:
328,84,89790,1,0,0:0:0:0:
328,84,89871,1,0,0:0:0:0:
328,84,89951,6,0,P|380:110|398:170,1,90.0000002980235
169,237,90274,1,0,0:0:0:0:
169,237,90355,1,0,0:0:0:0:
169,237,90435,1,0,0:0:0:0:
169,237,90516,1,0,0:0:0:0:
169,237,90597,1,0,0:0:0:0:
361,143,90758,2,0,L|481:132,1,90.0000002980235
314,54,91080,2,0,L|212:56,1,90.0000002980235
174,189,91403,6,0,L|448:269,1,270.00000089407
229,172,92855,1,0,0:0:0:0:
401,95,93016,1,0,0:0:0:0:
401,95,93097,1,0,0:0:0:0:
401,95,93178,1,0,0:0:0:0:
401,95,93258,1,0,0:0:0:0:
401,95,93339,1,0,0:0:0:0:
184,157,93500,1,0,0:0:0:0:
