osu file format v14

[General]
AudioFilename: 01. .mp3
AudioLeadIn: 0
PreviewTime: 67210
Countdown: 0
SampleSet: Normal
StackLeniency: 0.7
Mode: 0
LetterboxInBreaks: 1
WidescreenStoryboard: 1

[Editor]
DistanceSpacing: 2.5
BeatDivisor: 4
GridSize: 4
TimelineZoom: 2.3

[Metadata]
Title:Unhappy End World
TitleUnicode:アンハッピーエンドワールド
Artist:Miki(CV.Takahashi Rie)&Kurumi(CV.Ozawa Ari)
ArtistUnicode:直樹美紀(CV.高橋李依)&恵飛須沢胡桃(CV.小澤亜李)
Creator:M o c h a
Version:End
Source:がっこうぐらし!
Tags:gakkou gurashi ebisuzawa kurumi naoki miki school live takahashi rie ozawa ari chmpro underdogs minesweeper zenithlight
BeatmapID:911413
BeatmapSetID:385769

[Difficulty]
HPDrainRate:8.5
CircleSize:4.2
OverallDifficulty:9
ApproachRate:9.6
SliderMultiplier:1.80000000596047
SliderTickRate:1

[Events]
//Background and Video events
0,0,"background.jpg",0,0
//Break Periods
2,104345,112830
2,167732,172346
2,209022,214765
//Storyboard Layer 0 (Background)
//Storyboard Layer 1 (Fail)
//Storyboard Layer 2 (Pass)
//Storyboard Layer 3 (Foreground)
//Storyboard Sound Samples

[TimingPoints]
1081,322.58064516129,4,1,0,50,1,0
11403,-200,4,2,0,50,0,0
13500,-100,4,3,0,50,0,0
14951,-200,4,3,0,50,0,0
16403,-100,4,1,0,50,0,0
26887,-100,4,1,0,50,0,0
63016,-133.333333333333,4,1,0,50,0,0
68177,-100,4,1,0,50,0,1
87210,-200,4,2,0,50,0,0
88822,-100,4,2,0,50,0,0
91403,-200,4,2,0,50,0,0
93822,-100,4,2,0,50,0,0
146080,-100,4,2,0,50,0,1
165919,-200,4,2,0,50,0,1
166887,-100,4,2,0,50,0,0
172855,-200,4,2,0,50,0,0
177855,-100,4,2,0,50,0,0
220435,-200,4,2,0,50,0,0
221726,-100,4,2,0,50,0,1
240919,-200,4,2,0,50,0,0
241080,-100,4,2,0,50,0,0
243661,-200,4,2,0,50,0,0
245919,-100,4,2,0,50,0,0

[HitObjects]
86,131,1081,5,0,0:0:0:0:
156,58,1242,1,0,0:0:0:0:
255,55,1403,1,0,0:0:0:0:
341,114,1564,2,0,P|349:210|253:274,1,180.000000596047
106,142,2048,1,0,0:0:0:0:
300,64,2210,1,0,0:0:0:0:
140,39,2371,5,0,0:0:0:0:
239,198,2532,1,0,0:0:0:0:
206,30,2693,1,0,0:0:0:0:
72,180,2855,2,0,P|126:260|227:238,1,180.000000596047
269,66,3339,1,0,0:0:0:0:
196,256,3500,1,0,0:0:0:0:
269,66,3661,5,0,0:0:0:0:
348,12,3822,1,0,0:0:0:0:
440,24,3984,1,0,0:0:0:0:
496,96,4145,1,0,0:0:0:0:
380,276,4307,5,0,0:0:0:0:
301,330,4468,1,0,0:0:0:0:
209,318,4629,1,0,0:0:0:0:
153,246,4790,1,0,0:0:0:0:
273,176,4951,6,0,L|381:178,1,90.0000002980235
118,117,5274,2,0,L|16:118,1,90.0000002980235
255,68,5597,2,0,P|313:74|350:114,1,90.0000002980235
205,206,5919,2,0,P|147:200|110:160,1,90.0000002980235
105,153,6161,1,0,0:0:0:0:
90,122,6242,2,0,P|132:45|221:24,1,180.000000596047
377,137,6726,1,0,0:0:0:0:
253,300,6887,2,0,P|161:317|80:253,1,180.000000596047
128,77,7371,1,0,0:0:0:0:
309,152,7532,2,0,P|352:233|329:334,1,180.000000596047
156,173,8016,1,0,0:0:0:0:
282,51,8177,2,0,P|332:36|381:58,1,90.0000002980235
301,213,8500,2,0,P|251:238|220:220,1,90.0000002980235
96,70,8822,2,0,P|32:102|25:212,1,180.000000596047,0|0,0:0|0:0,0:0:0:0:
171,276,9306,1,0,0:0:0:0:
314,97,9468,2,0,B|368:87|368:87|350:151|442:225,1,180.000000596047
464,89,9951,1,0,0:0:0:0:
276,274,10113,2,0,P|202:300|128:239,1,180.000000596047
200,90,10597,1,0,0:0:0:0:
361,207,10758,2,0,P|417:229|468:236,1,90.0000002980235
307,94,11080,1,0,0:0:0:0:
273,110,11161,1,0,0:0:0:0:
254,138,11242,1,0,0:0:0:0:
239,167,11322,1,0,0:0:0:0:
236,203,11403,6,0,B|267:307|352:271|337:181|362:275|362:275,1,180.000000596047,4|0,0:0|0:0,0:0:0:0:
208,132,12693,5,0,0:0:0:0:
228,141,13339,2,0,L|285:164,1,45.0000001490117,2|0,0:0|0:0,0:0:0:0:
142,240,13661,1,0,0:0:0:0:
142,240,13742,1,0,0:0:0:0:
142,240,13822,1,0,0:0:0:0:
290,68,13984,2,0,L|268:164,1,90.0000002980235,4|0,0:0|0:0,0:0:0:0:
288,288,14306,1,0,0:0:0:0:
399,137,14468,2,0,L|371:254,1,90.0000002980235,4|0,0:0|0:0,0:0:0:0:
136,230,14790,1,0,0:0:0:0:
290,68,14951,6,0,P|357:67|395:128,1,135.000000447035,4|0,0:0|0:0,0:0:0:0:
362,203,15597,2,0,L|360:266,1,45.0000001490117
360,273,15919,1,0,0:0:0:0:
146,100,16080,2,0,P|105:87|82:55,1,67.5000002235176,0|0,0:0|0:0,0:0:0:0:
70,66,16403,6,0,L|70:184,1,90.0000002980235,4|0,0:0|0:0,0:0:0:0:
172,225,16726,1,0,0:0:0:0:
343,291,16887,2,0,P|296:304|253:294,1,90.0000002980235,0|0,0:0|0:0,0:0:0:0:
129,136,17210,1,0,0:0:0:0:
152,108,17290,1,0,0:0:0:0:
183,92,17371,1,0,0:0:0:0:
220,91,17451,1,0,0:0:0:0:
250,104,17532,1,0,0:0:0:0:
172,225,17693,6,0,L|79:310,1,90.0000002980235
119,67,18016,2,0,P|169:39|214:47,1,90.0000002980235
370,275,18339,2,0,P|320:303|275:295,1,90.0000002980235
202,146,18661,1,0,0:0:0:0:
440,43,18822,1,0,0:0:0:0:
442,237,18984,2,0,P|395:321|304:348,1,180.000000596047,4|0,0:0|0:0,0:0:0:0:
298,342,19387,1,0,0:0:0:0:
298,342,19468,1,0,0:0:0:0:
136,197,19629,1,0,0:0:0:0:
136,197,19710,1,0,0:0:0:0:
136,197,19790,1,0,0:0:0:0:
319,162,19951,1,0,0:0:0:0:
223,25,20113,1,0,0:0:0:0:
54,141,20274,2,0,P|34:218|99:301,1,180.000000596047
108,303,20677,1,0,0:0:0:0:
108,303,20758,1,0,0:0:0:0:
341,190,20919,1,0,0:0:0:0:
148,101,21080,1,0,0:0:0:0:
275,295,21242,1,0,0:0:0:0:
318,76,21403,1,0,0:0:0:0:
150,251,21564,2,0,P|107:283|65:290,1,90.0000002980235
61,123,21887,1,0,0:0:0:0:
225,46,22048,2,0,P|273:43|331:60,1,90.0000002980235
140,346,22371,1,0,0:0:0:0:
56,286,22532,1,0,0:0:0:0:
31,188,22693,1,0,0:0:0:0:
98,74,22855,6,0,P|152:46|200:49,1,90.0000002980235
427,120,23177,1,0,0:0:0:0:
205,115,23339,1,0,0:0:0:0:
205,115,23419,1,0,0:0:0:0:
205,115,23500,2,0,L|91:132,1,90.0000002980235
291,219,23822,2,0,L|390:255,1,90.0000002980235
212,329,24145,2,0,L|114:367,1,90.0000002980235,4|0,0:0|0:0,0:0:0:0:
138,216,24468,1,0,0:0:0:0:
255,136,24629,2,0,P|303:124|349:144,1,90.0000002980235
484,117,24951,1,0,0:0:0:0:
425,36,25113,2,0,P|382:22|339:35,1,90.0000002980235
319,52,25355,1,0,0:0:0:0:
301,73,25435,6,0,P|222:97|156:29,1,180.000000596047
340,34,25919,1,0,0:0:0:0:
340,59,26000,1,0,0:0:0:0:
339,85,26080,1,0,0:0:0:0:
338,112,26161,1,0,0:0:0:0:
339,141,26242,2,0,L|431:162,1,90.0000002980235,4|0,0:0|0:0,0:0:0:0:
417,212,26564,2,0,L|330:265,1,90.0000002980235,0|0,0:0|0:0,0:0:0:0:
320,279,26887,5,4,0:0:0:0:
320,279,27048,2,0,P|270:299|213:283,1,90.0000002980235
180,183,27371,2,0,P|132:169|69:188,1,90.0000002980235
51,81,27693,1,0,0:0:0:0:
152,46,27855,2,0,P|200:59|240:43,1,90.0000002980235
254,43,28097,1,0,0:0:0:0:
254,43,28177,1,0,0:0:0:0:
397,151,28339,1,0,0:0:0:0:
264,212,28500,2,0,P|225:286|280:352,1,180.000000596047,0|0,0:0|0:0,0:0:0:0:
423,241,28984,2,0,L|436:151,1,90.0000002980235
309,40,29306,1,0,0:0:0:0:
309,40,29387,1,0,0:0:0:0:
309,40,29468,6,0,L|289:142,1,90.0000002980235,4|0,0:0|0:0,0:0:0:0:
265,226,29790,1,0,0:0:0:0:
101,128,29951,2,0,P|46:142|33:185,1,90.0000002980235,0|0,0:0|0:0,0:0:0:0:
197,266,30274,2,0,P|252:252|265:209,1,90.0000002980235,0|0,0:0|0:0,0:0:0:0:
285,57,30597,2,0,P|326:38|423:112,1,180.000000596047,0|0,0:0|0:0,0:0:0:0:
338,243,31080,2,0,P|313:289|346:342,1,90.0000002980235
472,256,31403,1,0,0:0:0:0:
235,149,31564,1,0,0:0:0:0:
461,109,31726,1,0,0:0:0:0:
303,0,31887,1,0,0:0:0:0:
337,244,32048,6,0,P|316:290|187:320,1,180.000000596047,4|0,0:0|0:0,0:0:0:0:
134,78,32532,2,0,B|86:51|42:74|42:74|49:187,1,180.000000596047,0|0,0:0|0:0,0:0:0:0:
140,271,33016,2,0,P|191:296|252:262,1,90.0000002980235
278,138,33339,2,0,P|229:172|219:208,1,90.0000002980235
260,328,33661,1,0,0:0:0:0:
387,272,33822,2,0,P|440:242|454:206,1,90.0000002980235
338,101,34145,2,0,P|326:159|358:187,1,90.0000002980235
337,211,34387,1,0,0:0:0:0:
309,225,34468,6,0,P|216:247|144:212,1,180.000000596047,4|0,0:0|0:0,0:0:0:0:
57,66,34951,2,0,L|159:108,1,90.0000002980235,0|0,0:0|0:0,0:0:0:0:
300,174,35274,2,0,L|402:155,2,90.0000002980235,0|0|0,0:0|0:0|0:0,0:0:0:0:
280,188,35677,1,0,0:0:0:0:
280,188,35758,1,0,0:0:0:0:
103,281,35919,5,0,0:0:0:0:
237,133,36080,1,0,0:0:0:0:
49,157,36242,1,0,0:0:0:0:
184,17,36403,1,0,0:0:0:0:
144,202,36564,1,0,0:0:0:0:
308,116,36726,1,0,0:0:0:0:
254,268,36887,2,0,P|242:319|258:365,1,90.0000002980235,0|0,0:0|0:0,0:0:0:0:
362,347,37210,6,0,P|316:367|250:369,1,90.0000002980235,4|0,0:0|0:0,0:0:0:0:
128,267,37532,1,0,0:0:0:0:
299,138,37693,2,0,P|273:177|216:181,1,90.0000002980235
208,47,38016,2,0,P|234:8|291:4,1,90.0000002980235,0|0,0:0|0:0,0:0:0:0:
360,175,38339,2,0,B|301:141|301:141|287:210|206:213,1,180.000000596047
83,112,38822,2,0,P|100:57|133:42,1,90.0000002980235,0|0,0:0|0:0,0:0:0:0:
219,150,39145,2,0,P|202:205|169:220,1,90.0000002980235
79,110,39468,2,0,L|55:15,1,90.0000002980235,0|0,0:0|0:0,0:0:0:0:
252,158,39790,6,0,L|278:262,1,90.0000002980235
109,214,40113,1,0,0:0:0:0:
195,67,40274,2,0,P|239:44|288:50,1,90.0000002980235,0|0,0:0|0:0,0:0:0:0:
369,126,40597,2,0,L|369:220,1,90.0000002980235
163,222,40919,1,0,0:0:0:0:
369,126,41080,1,0,0:0:0:0:
96,57,41242,1,0,0:0:0:0:
96,57,41322,1,0,0:0:0:0:
96,57,41403,1,0,0:0:0:0:
54,240,41564,2,0,B|69:290|69:290|107:346|140:298|191:352,1,180.000000596047,0|0,0:0|0:0,0:0:0:0:
271,107,42048,2,0,P|293:69|335:56,1,90.0000002980235,0|0,0:0|0:0,0:0:0:0:
434,222,42371,6,0,P|411:259|369:272,1,90.0000002980235,4|0,0:0|0:0,0:0:0:0:
218,177,42693,1,0,0:0:0:0:
75,94,42855,2,0,B|9:72|-28:158|22:206|75:193,1,180.000000596047,0|0,0:0|0:0,0:0:0:0:
245,154,43339,2,0,P|294:139|345:155,1,90.0000002980235,0|0,0:0|0:0,0:0:0:0:
440,30,43661,2,0,P|391:45|340:29,1,90.0000002980235
227,16,43984,1,0,0:0:0:0:
108,101,44145,2,0,P|85:146|105:205,1,90.0000002980235
245,154,44468,2,0,P|268:109|248:50,1,90.0000002980235,0|0,0:0|0:0,0:0:0:0:
108,101,44790,6,0,B|52:156|47:190|47:190|105:286,1,180.000000596047
311,172,45274,2,0,B|285:135|285:135|265:151|225:157,1,90.0000002980235
129,229,45597,1,0,0:0:0:0:
254,43,45758,1,0,0:0:0:0:
256,276,45919,1,0,0:0:0:0:
52,64,46080,6,0,B|40:25|40:25|88:36,1,90.0000002980235,4|0,0:0|0:0,0:0:0:0:
277,113,46403,1,0,0:0:0:0:
145,147,46564,1,0,0:0:0:0:
313,203,46726,1,0,0:0:0:0:
81,241,46887,1,0,0:0:0:0:
319,305,47048,1,0,0:0:0:0:
178,161,47210,1,0,0:0:0:0:
419,67,47371,1,0,0:0:0:0:
203,25,47532,6,0,P|128:44|73:132,1,180.000000596047,8|0,0:0|0:0,0:0:0:0:
176,295,48016,1,0,0:0:0:0:
344,189,48177,2,0,B|304:149|304:149|263:219|190:184,1,180.000000596047,8|0,0:0|0:0,0:0:0:0:
233,61,48661,1,0,0:0:0:0:
339,191,48822,2,0,P|336:246|308:285,1,90.0000002980235,8|0,0:0|0:0,0:0:0:0:
213,145,49145,2,0,P|216:90|244:51,1,90.0000002980235
421,121,49468,1,8,0:0:0:0:
233,61,49629,1,8,0:0:0:0:
421,121,49790,2,0,P|457:161|467:200,1,90.0000002980235
159,294,50113,2,0,P|214:334|314:296,1,180.000000596047
194,145,50597,1,0,0:0:0:0:
374,108,50758,2,0,L|400:319,1,180.000000596047,8|0,0:0|0:0,0:0:0:0:
263,317,51242,1,0,0:0:0:0:
89,263,51403,6,0,P|138:247|187:272,1,90.0000002980235,8|0,0:0|0:0,0:0:0:0:
260,190,51726,1,0,0:0:0:0:
86,136,51887,2,0,P|135:120|184:145,1,90.0000002980235,8|0,0:0|0:0,0:0:0:0:
370,215,52210,1,2,0:0:0:0:
165,132,52371,1,2,0:0:0:0:
344,53,52532,1,2,0:0:0:0:
196,239,52693,2,0,P|177:294|200:344,1,90.0000002980235,12|0,0:0|0:0,0:0:0:0:
316,333,53016,1,0,0:0:0:0:
351,182,53177,2,0,P|317:140|265:128,1,90.0000002980235,8|0,0:0|0:0,0:0:0:0:
203,58,53500,2,0,L|276:123,1,90.0000002980235
395,311,53822,6,0,B|350:277|313:280|313:280|272:307|234:346,1,180.000000596047,8|0,0:0|0:0,0:0:0:0:
185,238,54306,2,0,L|106:311,1,90.0000002980235,0|0,0:0|0:0,0:0:0:0:
121,119,54629,1,0,0:0:0:0:
118,299,54790,1,8,0:0:0:0:
121,119,54951,2,0,B|159:57|159:57|223:76|264:141,1,180.000000596047,8|0,0:0|0:0,0:0:0:0:
388,104,55435,1,0,0:0:0:0:
388,104,55516,1,0,0:0:0:0:
388,104,55597,1,0,0:0:0:0:
323,250,55758,1,0,0:0:0:0:
296,274,55839,1,0,0:0:0:0:
261,281,55919,1,0,0:0:0:0:
87,158,56080,1,0,0:0:0:0:
99,126,56161,1,0,0:0:0:0:
117,100,56242,1,0,0:0:0:0:
143,77,56322,1,0,0:0:0:0:
176,74,56403,6,0,L|228:185,1,90.0000002980235,0|0,0:0|0:0,0:0:0:0:
270,302,56726,1,0,0:0:0:0:
284,328,56806,1,0,0:0:0:0:
296,354,56887,1,0,0:0:0:0:
394,232,57048,1,0,0:0:0:0:
150,305,57210,1,0,0:0:0:0:
319,192,57371,1,0,0:0:0:0:
162,167,57532,1,0,0:0:0:0:
309,51,57693,1,0,0:0:0:0:
321,270,57855,6,0,P|292:348|191:366,1,180.000000596047,8|0,0:0|0:0,0:0:0:0:
97,235,58339,1,0,0:0:0:0:
293,90,58500,2,0,B|249:90|249:90|219:106|254:155|254:155|209:165|170:202,1,180.000000596047,8|0,0:0|0:0,0:0:0:0:
370,143,58984,1,0,0:0:0:0:
370,143,59064,1,0,0:0:0:0:
370,143,59145,2,0,L|465:142,1,90.0000002980235,8|0,0:0|0:0,0:0:0:0:
387,259,59468,2,0,L|290:260,1,90.0000002980235
68,104,59790,2,0,P|88:152|44:208,1,90.0000002980235,8|0,0:0|0:0,0:0:0:0:
197,307,60113,2,0,P|177:259|221:203,1,90.0000002980235
430,63,60435,5,8,0:0:0:0:
401,158,60597,1,0,0:0:0:0:
340,228,60758,2,0,P|290:255|234:249,1,90.0000002980235,8|0,0:0|0:0,0:0:0:0:
127,173,61080,1,8,0:0:0:0:
194,54,61242,1,0,0:0:0:0:
322,27,61403,2,0,P|378:33|417:66,1,90.0000002980235,8|0,0:0|0:0,0:0:0:0:
280,132,61726,1,12,0:0:0:0:
428,225,61887,1,0,0:0:0:0:
182,184,62048,1,12,0:0:0:0:
429,256,62210,1,0,0:0:0:0:
136,59,62371,2,0,P|85:43|41:54,1,90.0000002980235,12|0,0:0|0:0,0:0:0:0:
94,243,62693,2,0,P|138:276|184:272,1,90.0000002980235,0|0,0:0|0:0,0:0:0:0:
357,80,63016,6,0,P|403:56|468:128,1,135.000005596877,4|0,0:0|0:0,0:0:0:0:
418,267,63500,1,0,0:0:0:0:
346,338,63661,2,0,P|283:368|195:355,1,135.000005596877
137,148,64145,1,0,0:0:0:0:
231,75,64306,2,0,L|328:73,1,67.5000027984384,4|0,0:0|0:0,0:0:0:0:
434,216,64629,1,0,0:0:0:0:
331,279,64790,2,0,L|239:280,1,67.5000027984384,0|0,0:0|0:0,0:0:0:0:
82,184,65113,2,0,B|59:169|59:134|59:134|83:106|133:96,1,135.000005596877
377,151,65597,5,8,0:0:0:0:
205,188,65758,1,0,0:0:0:0:
319,51,65919,1,8,0:0:0:0:
315,277,66080,1,0,0:0:0:0:
198,78,66242,1,8,0:0:0:0:
482,159,66403,1,0,0:0:0:0:
161,315,66564,1,8,0:0:0:0:
320,28,66726,1,0,0:0:0:0:
320,28,66807,1,8,0:0:0:0:
320,28,66887,5,8,0:0:0:0:
383,350,67048,1,8,0:0:0:0:
148,129,68177,6,0,L|239:89,1,90.0000002980235,8|0,0:0|0:0,0:0:0:0:
376,58,68500,1,0,0:0:0:0:
376,250,68661,1,0,0:0:0:0:
376,250,68742,1,0,0:0:0:0:
376,250,68822,2,0,L|279:218,1,90.0000002980235,0|0,0:0|0:0,0:0:0:0:
126,132,69145,1,0,0:0:0:0:
259,31,69306,1,0,0:0:0:0:
430,40,69468,2,0,P|480:106|461:206,1,180.000000596047,0|0,0:0|0:0,0:0:0:0:
174,185,69951,1,0,0:0:0:0:
298,82,70113,1,0,0:0:0:0:
345,240,70274,1,0,0:0:0:0:
174,63,70435,1,0,0:0:0:0:
426,101,70597,1,0,0:0:0:0:
234,280,70758,6,0,P|196:309|143:311,1,90.0000002980235,2|0,0:0|0:0,0:0:0:0:
174,63,71080,2,0,P|222:34|296:38,1,90.0000002980235,2|0,0:0|0:0,0:0:0:0:
403,85,71403,1,0,0:0:0:0:
433,263,71564,1,0,0:0:0:0:
181,168,71726,2,0,P|129:187|102:238,1,90.0000002980235,0|0,0:0|0:0,0:0:0:0:
287,300,72048,2,0,P|338:285|366:230,1,90.0000002980235,2|0,0:0|0:0,0:0:0:0:
316,73,72371,1,0,0:0:0:0:
295,68,72451,1,0,0:0:0:0:
270,64,72532,1,0,0:0:0:0:
246,58,72613,1,0,0:0:0:0:
223,55,72693,1,0,0:0:0:0:
448,208,72855,1,0,0:0:0:0:
282,313,73016,2,0,L|186:364,1,90.0000002980235,0|0,0:0|0:0,0:0:0:0:
40,164,73339,6,0,P|49:97|154:69,1,180.000000596047,4|0,0:0|0:0,0:0:0:0:
351,252,73822,1,0,0:0:0:0:
452,75,73984,2,0,P|471:29|463:-16,1,90.0000002980235,0|0,0:0|0:0,0:0:0:0:
236,39,74306,2,0,P|210:84|214:132,1,90.0000002980235,0|0,0:0|0:0,0:0:0:0:
326,296,74629,1,0,0:0:0:0:
435,142,74790,1,0,0:0:0:0:
210,120,74951,2,0,P|161:144|144:188,1,90.0000002980235,0|0,0:0|0:0,0:0:0:0:
331,229,75274,2,0,P|366:186|361:140,1,90.0000002980235,0|0,0:0|0:0,0:0:0:0:
152,55,75597,1,0,0:0:0:0:
127,55,75677,1,0,0:0:0:0:
100,55,75758,1,0,0:0:0:0:
69,56,75839,1,0,0:0:0:0:
42,61,75919,6,0,P|22:109|47:182,1,90.0000002980235,4|0,0:0|0:0,0:0:0:0:
252,200,76242,1,0,0:0:0:0:
252,200,76322,1,0,0:0:0:0:
252,200,76403,2,0,P|207:171|138:177,1,90.0000002980235,0|0,0:0|0:0,0:0:0:0:
391,128,76726,2,0,P|341:101|287:103,1,90.0000002980235,0|0,0:0|0:0,0:0:0:0:
76,183,77048,2,0,P|124:180|161:154,1,90.0000002980235,0|0,0:0|0:0,0:0:0:0:
273,14,77371,1,0,0:0:0:0:
370,237,77532,1,0,0:0:0:0:
198,129,77693,1,0,0:0:0:0:
408,37,77855,1,0,0:0:0:0:
424,278,78016,1,0,0:0:0:0:
119,56,78177,1,0,0:0:0:0:
122,73,78258,1,0,0:0:0:0:
126,90,78339,1,0,0:0:0:0:
128,107,78419,1,0,0:0:0:0:
132,125,78500,6,0,B|165:192|256:181|256:181|237:253,1,180.000000596047,4|0,0:0|0:0,0:0:0:0:
73,249,78984,1,0,0:0:0:0:
318,70,79145,2,0,B|367:39|367:39|428:65|413:171,1,180.000000596047,0|0,0:0|0:0,0:0:0:0:
261,306,79629,1,0,0:0:0:0:
415,142,79790,2,0,B|370:90|370:90|349:168|283:188,1,180.000000596047,0|0,0:0|0:0,0:0:0:0:
193,50,80274,1,2,0:0:0:0:
369,238,80435,1,2,0:0:0:0:
151,300,80597,1,2,0:0:0:0:
309,120,80758,1,2,0:0:0:0:
291,302,80919,1,2,0:0:0:0:
119,121,81080,6,0,P|78:97|24:101,1,90.0000002980235,8|0,0:0|0:0,0:0:0:0:
223,11,81403,2,0,P|264:35|318:31,1,90.0000002980235,8|0,0:0|0:0,0:0:0:0:
451,68,81726,1,8,0:0:0:0:
392,226,81887,1,0,0:0:0:0:
392,226,81968,1,0,0:0:0:0:
392,226,82048,2,0,P|370:281|325:321,1,90.0000002980235,8|0,0:0|0:0,0:0:0:0:
99,198,82371,1,2,0:0:0:0:
231,76,82532,1,0,0:0:0:0:
260,76,82613,1,0,0:0:0:0:
287,76,82693,1,0,0:0:0:0:
389,130,82855,1,0,0:0:0:0:
316,278,83016,2,0,P|290:317|247:340,1,90.0000002980235,8|0,0:0|0:0,0:0:0:0:
71,200,83339,2,0,P|40:154|64:99,1,90.0000002980235,8|0,0:0|0:0,0:0:0:0:
297,41,83661,5,8,0:0:0:0:
297,41,83822,1,0,0:0:0:0:
200,256,83984,1,8,0:0:0:0:
200,256,84145,1,0,0:0:0:0:
392,104,84306,1,8,0:0:0:0:
392,104,84468,1,0,0:0:0:0:
140,140,84629,1,8,0:0:0:0:
140,140,84790,1,0,0:0:0:0:
355,27,84951,5,8,0:0:0:0:
336,331,85113,1,0,0:0:0:0:
116,71,85274,1,0,0:0:0:0:
402,134,85435,1,0,0:0:0:0:
141,288,85597,1,8,0:0:0:0:
336,99,85758,1,0,0:0:0:0:
93,121,85919,1,8,0:0:0:0:
63,128,86000,1,0,0:0:0:0:
41,135,86080,1,0,0:0:0:0:
368,263,86242,5,12,0:0:0:0:
368,263,86564,1,0,0:0:0:0:
219,180,86726,2,0,L|127:130,1,90.0000002980235
182,288,87048,1,0,0:0:0:0:
353,173,87210,2,0,P|406:175|460:252,1,135.000000447035
243,190,87855,2,0,P|222:178|183:177,1,45.0000001490117
92,230,88177,1,0,0:0:0:0:
125,324,88339,1,0,0:0:0:0:
232,342,88500,1,0,0:0:0:0:
316,274,88661,1,0,0:0:0:0:
141,78,88822,5,4,0:0:0:0:
164,86,88903,1,0,0:0:0:0:
187,94,88984,1,0,0:0:0:0:
208,101,89064,1,0,0:0:0:0:
232,112,89145,1,0,0:0:0:0:
376,175,89306,5,0,0:0:0:0:
376,175,89387,1,0,0:0:0:0:
376,175,89468,1,0,0:0:0:0:
376,175,89548,1,0,0:0:0:0:
376,175,89629,1,0,0:0:0:0:
298,254,89790,5,0,0:0:0:0:
275,246,89871,1,0,0:0:0:0:
252,238,89952,1,0,0:0:0:0:
231,231,90032,1,0,0:0:0:0:
207,220,90113,1,0,0:0:0:0:
92,179,90274,5,0,0:0:0:0:
92,179,90355,1,0,0:0:0:0:
92,179,90436,1,0,0:0:0:0:
92,179,90516,1,0,0:0:0:0:
92,179,90597,1,0,0:0:0:0:
219,59,90758,2,0,P|266:41|306:50,1,90.0000002980235,4|0,0:0|0:0,0:0:0:0:
407,169,91080,2,0,P|365:188|320:178,1,90.0000002980235
303,48,91403,6,0,B|418:75|377:207|295:180|270:172,1,225.000000745059,4|0,0:0|0:0,0:0:0:0:
220,70,92532,2,0,L|199:19,1,45.0000001490117
96,102,92855,1,0,0:0:0:0:
202,215,93016,1,0,0:0:0:0:
226,214,93097,1,0,0:0:0:0:
254,214,93177,1,0,0:0:0:0:
260,334,93339,1,0,0:0:0:0:
361,154,93500,2,0,L|396:93,1,67.5000002235176,0|0,0:0|0:0,0:0:0:0:
415,70,93822,6,0,L|414:197,1,90.0000002980235,4|0,0:0|0:0,0:0:0:0:
344,254,94145,1,0,0:0:0:0:
246,303,94306,2,0,P|189:307|134:264,1,90.0000002980235,0|0,0:0|0:0,0:0:0:0:
79,141,94629,1,0,0:0:0:0:
67,117,94710,1,0,0:0:0:0:
53,95,94790,1,0,0:0:0:0:
233,86,94951,1,0,0:0:0:0:
144,215,95113,2,0,P|131:268|145:314,1,90.0000002980235,0|0,0:0|0:0,0:0:0:0:
310,219,95435,2,0,P|323:166|309:120,1,90.0000002980235
104,50,95758,2,0,P|64:80|68:141,1,90.0000002980235
168,290,96080,1,0,0:0:0:0:
165,106,96242,1,0,0:0:0:0:
310,190,96403,6,0,P|366:199|417:165,1,90.0000002980235,0|0,0:0|0:0,0:0:0:0:
306,37,96726,1,0,0:0:0:0:
306,37,96806,1,0,0:0:0:0:
306,37,96887,2,0,L|196:39,1,90.0000002980235,0|0,0:0|0:0,0:0:0:0:
83,202,97210,1,0,0:0:0:0:
97,243,97290,1,0,0:0:0:0:
117,271,97371,1,0,0:0:0:0:
161,296,97451,1,0,0:0:0:0:
210,310,97532,1,0,0:0:0:0:
263,307,97613,1,0,0:0:0:0:
300,273,97693,6,0,P|320:234|287:172,1,90.0000002980235,4|0,0:0|0:0,0:0:0:0:
185,64,98016,1,0,0:0:0:0:
429,110,98177,1,0,0:0:0:0:
243,192,98339,1,0,0:0:0:0:
222,335,98500,1,0,0:0:0:0:
122,221,98661,1,0,0:0:0:0:
82,363,98822,1,0,0:0:0:0:
11,118,98984,6,0,P|14:60|75:30,1,90.0000002980235,4|0,0:0|0:0,0:0:0:0:
196,12,99306,1,0,0:0:0:0:
250,156,99468,2,0,P|293:192|344:188,1,90.0000002980235,0|0,0:0|0:0,0:0:0:0:
429,91,99790,1,0,0:0:0:0:
372,1,99951,1,0,0:0:0:0:
270,15,100113,1,0,0:0:0:0:
129,151,100274,2,0,P|116:200|127:243,1,90.0000002980235,0|0,0:0|0:0,0:0:0:0:
332,295,100597,1,0,0:0:0:0:
235,142,100758,1,0,0:0:0:0:
334,53,100919,2,0,P|375:25|421:35,1,90.0000002980235
464,207,101242,2,0,P|423:235|377:225,1,90.0000002980235
334,53,101564,6,0,P|294:22|218:29,1,90.0000002980235,4|0,0:0|0:0,0:0:0:0:
155,76,101887,1,0,0:0:0:0:
180,194,102048,2,0,P|191:245|164:294,1,90.0000002980235
25,221,102371,1,0,0:0:0:0:
177,278,102532,1,0,0:0:0:0:
25,221,102693,1,0,0:0:0:0:
118,56,102855,6,0,P|163:23|227:19,1,90.0000002980235
393,185,103177,1,0,0:0:0:0:
402,201,103258,1,0,0:0:0:0:
414,220,103339,1,0,0:0:0:0:
423,240,103419,1,0,0:0:0:0:
432,260,103500,1,0,0:0:0:0:
197,177,103661,2,0,P|149:165|105:181,1,90.0000002980235,4|0,0:0|0:0,0:0:0:0:
184,307,103984,2,0,P|236:320|272:299,1,90.0000002980235,4|0,0:0|0:0,0:0:0:0:
256,192,113339,12,0,115597,0:0:0:0:
374,85,115919,6,0,P|405:128|402:187,1,90.0000002980235
343,250,116242,2,0,P|291:277|251:269,1,90.0000002980235
204,71,116564,2,0,P|153:74|125:112,2,90.0000002980235
304,175,117048,2,0,P|286:254|202:235,1,180.000000596047
204,71,117532,2,0,P|240:35|297:42,1,90.0000002980235
415,280,117855,2,0,P|365:291|329:278,1,90.0000002980235
362,82,118177,2,0,P|413:95|432:159,1,90.0000002980235
326,278,118500,6,0,L|228:314,1,90.0000002980235
104,255,118822,1,0,0:0:0:0:
201,176,118984,2,0,L|277:125,1,90.0000002980235
112,29,119306,2,0,P|62:58|75:114,1,90.0000002980235
138,225,119629,1,0,0:0:0:0:
259,58,119790,1,0,0:0:0:0:
273,205,119951,1,0,0:0:0:0:
276,231,120032,1,0,0:0:0:0:
278,257,120113,1,0,0:0:0:0:
428,269,120274,2,0,L|315:114,1,180.000000596047
75,135,120758,2,0,P|59:185|94:237,1,90.0000002980235
219,283,121080,6,0,P|235:233|200:181,1,90.0000002980235
123,95,121403,1,0,0:0:0:0:
277,22,121564,2,0,B|354:4|413:58|393:148,1,180.000000596047
178,284,122048,2,0,P|129:253|126:211,1,90.0000002980235
356,156,122371,2,0,L|266:156,1,90.0000002980235
141,100,122693,1,0,0:0:0:0:
248,32,122855,2,0,L|342:32,1,90.0000002980235
424,201,123177,2,0,P|406:249|357:267,1,90.0000002980235
245,155,123500,6,0,B|167:78|220:205|132:200|132:200|94:151,1,180.000000596047
159,42,123984,1,0,0:0:0:0:
116,182,124145,1,0,0:0:0:0:
159,42,124306,1,0,0:0:0:0:
285,17,124468,1,0,0:0:0:0:
401,100,124629,1,0,0:0:0:0:
116,182,124790,6,0,P|67:214|33:259,1,90.0000002980235,4|0,0:0|0:0,0:0:0:0:
382,74,125113,1,0,0:0:0:0:
405,55,125274,1,0,0:0:0:0:
426,40,125435,1,0,0:0:0:0:
209,40,125597,1,4,0:0:0:0:
339,280,125758,1,0,0:0:0:0:
171,173,125919,1,4,0:0:0:0:
382,74,126080,1,0,0:0:0:0:
132,25,126242,6,0,P|51:47|31:149,1,180.000000596047,4|0,0:0|0:0,0:0:0:0:
93,242,126726,1,0,0:0:0:0:
225,121,126887,1,0,0:0:0:0:
225,121,127048,2,0,P|270:95|322:98,1,90.0000002980235
419,166,127371,1,0,0:0:0:0:
382,290,127532,2,0,P|350:327|303:328,1,90.0000002980235
226,161,127855,2,0,P|190:129|128:141,1,90.0000002980235
158,287,128177,2,0,P|194:319|256:307,1,90.0000002980235
336,151,128500,2,0,P|364:106|416:103,1,90.0000002980235
423,239,128822,6,0,L|409:334,1,90.0000002980235
240,278,129145,1,0,0:0:0:0:
350,126,129306,1,0,0:0:0:0:
136,46,129468,2,0,P|80:48|36:90,1,90.0000002980235
63,278,129790,1,0,0:0:0:0:
110,133,129951,1,0,0:0:0:0:
186,258,130113,2,0,L|245:355,1,90.0000002980235
259,148,130435,1,0,0:0:0:0:
330,244,130597,2,0,L|394:330,1,90.0000002980235
380,113,130919,2,0,P|356:68|314:39,2,90.0000002980235
330,244,131403,6,0,P|282:271|221:247,1,90.0000002980235,4|0,0:0|0:0,0:0:0:0:
168,149,131726,1,0,0:0:0:0:
285,50,131887,2,0,L|288:158,1,90.0000002980235
353,265,132210,2,0,P|396:296|438:285,1,90.0000002980235
404,105,132532,2,0,B|375:56|375:56|322:143|246:150,1,180.000000596047
103,55,133016,2,0,P|166:44|199:62,1,90.0000002980235
284,237,133339,2,0,P|221:248|188:230,1,90.0000002980235
271,54,133661,1,0,0:0:0:0:
298,32,133742,1,0,0:0:0:0:
337,23,133822,1,0,0:0:0:0:
372,26,133903,1,0,0:0:0:0:
408,49,133984,5,0,0:0:0:0:
297,291,134145,1,0,0:0:0:0:
433,116,134306,1,0,0:0:0:0:
200,184,134468,1,0,0:0:0:0:
178,191,134548,1,0,0:0:0:0:
157,199,134629,1,0,0:0:0:0:
136,207,134709,1,0,0:0:0:0:
116,220,134790,1,0,0:0:0:0:
351,37,134951,1,0,0:0:0:0:
116,220,135113,6,0,P|86:262|77:305,1,90.0000002980235
252,272,135435,1,0,0:0:0:0:
280,256,135516,1,0,0:0:0:0:
308,244,135597,1,0,0:0:0:0:
170,144,135758,1,0,0:0:0:0:
365,53,135919,2,0,P|419:48|460:74,1,90.0000002980235
280,256,136242,1,4,0:0:0:0:
392,135,136403,1,0,0:0:0:0:
173,57,136564,6,0,B|109:51|109:51|72:102|108:171,1,180.000000596047,4|0,0:0|0:0,0:0:0:0:
212,260,137048,1,0,0:0:0:0:
354,221,137210,2,0,P|398:187|407:138,2,90.0000002980235
212,260,137693,1,0,0:0:0:0:
99,159,137855,2,0,L|31:92,1,90.0000002980235
164,23,138177,2,0,P|216:32|259:63,1,90.0000002980235
212,260,138500,1,0,0:0:0:0:
247,51,138661,1,0,0:0:0:0:
341,308,138822,1,0,0:0:0:0:
247,51,138984,1,0,0:0:0:0:
435,228,139145,6,0,P|457:280|448:346,1,90.0000002980235
238,269,139468,1,0,0:0:0:0:
457,315,139629,1,0,0:0:0:0:
238,269,139790,2,0,P|187:281|134:331,1,90.0000002980235
127,102,140113,1,0,0:0:0:0:
156,302,140274,1,0,0:0:0:0:
127,102,140435,5,4,0:0:0:0:
322,52,140597,1,0,0:0:0:0:
102,141,140758,1,0,0:0:0:0:
408,155,140919,1,0,0:0:0:0:
208,336,141080,2,0,P|165:359|93:348,1,90.0000002980235,4|0,0:0|0:0,0:0:0:0:
63,180,141403,1,0,0:0:0:0:
63,147,141484,1,0,0:0:0:0:
64,118,141564,1,0,0:0:0:0:
64,89,141645,1,0,0:0:0:0:
64,61,141726,6,0,P|109:47|198:129,1,180.000000596047
237,294,142210,1,0,0:0:0:0:
450,124,142371,2,0,B|437:69|410:92|346:109|419:207|359:112|354:203|315:162|287:142,1,180.000000596047
251,39,142855,1,0,0:0:0:0:
118,131,143016,2,0,P|93:180|100:220,1,90.0000002980235
208,297,143339,1,0,0:0:0:0:
418,213,143500,2,0,L|322:198,1,90.0000002980235
118,131,143822,2,0,B|83:91|83:91|149:85|244:37,1,180.000000596047
344,62,144306,5,8,0:0:0:0:
198,215,144468,1,0,0:0:0:0:
376,60,144629,1,8,0:0:0:0:
216,258,144790,1,0,0:0:0:0:
314,31,144951,1,8,0:0:0:0:
254,297,145113,1,0,0:0:0:0:
122,121,145274,1,8,0:0:0:0:
395,140,145435,1,8,0:0:0:0:
395,140,145516,1,0,0:0:0:0:
395,140,145597,5,8,0:0:0:0:
107,312,145758,1,12,0:0:0:0:
180,118,146080,6,8,L|163:54,2,45.0000001490117
303,230,146403,2,8,L|360:233,2,45.0000001490117
139,234,146726,1,0,0:0:0:0:
319,45,146887,2,0,P|409:34|460:107,1,180.000000596047,2|0,0:0|0:0,0:0:0:0:
395,284,147371,1,0,0:0:0:0:
206,135,147532,2,0,P|156:119|110:137,1,90.0000002980235
166,339,147855,1,0,0:0:0:0:
387,161,148016,1,0,0:0:0:0:
387,161,148096,1,0,0:0:0:0:
387,161,148177,6,4,B|329:136|325:60|325:60|302:55|234:82,1,180.000000596047
94,152,148661,1,0,0:0:0:0:
271,68,148822,1,0,0:0:0:0:
97,246,148984,1,0,0:0:0:0:
344,105,149145,1,0,0:0:0:0:
95,340,149306,1,0,0:0:0:0:
370,215,149468,2,0,P|416:187|416:127,1,90.0000002980235,2|0,0:0|0:0,0:0:0:0:
145,41,149790,2,0,P|93:69|85:119,1,90.0000002980235,2|0,0:0|0:0,0:0:0:0:
246,283,150113,2,0,L|339:312,1,90.0000002980235
457,215,150435,2,0,L|375:167,1,90.0000002980235
138,110,150758,5,2,0:0:0:0:
328,36,150919,1,2,0:0:0:0:
190,262,151080,1,2,0:0:0:0:
373,187,151242,1,2,0:0:0:0:
138,110,151403,2,0,L|39:111,1,90.0000002980235
304,48,151726,1,0,0:0:0:0:
320,48,151806,1,0,0:0:0:0:
336,48,151887,1,0,0:0:0:0:
352,48,151968,1,0,0:0:0:0:
368,48,152048,5,4,0:0:0:0:
283,295,152210,1,0,0:0:0:0:
419,123,152371,1,0,0:0:0:0:
190,90,152532,1,0,0:0:0:0:
392,220,152693,2,0,L|518:246,1,90.0000002980235
283,295,153016,2,0,L|192:318,1,90.0000002980235
55,122,153339,2,0,P|28:81|45:26,1,90.0000002980235
281,82,153661,2,0,P|308:123|291:178,1,90.0000002980235
91,215,153984,2,0,P|54:252|62:293,1,90.0000002980235
240,330,154306,2,0,P|289:315|321:287,1,90.0000002980235
345,46,154629,6,0,L|251:66,1,90.0000002980235
57,160,154951,1,0,0:0:0:0:
57,160,155032,1,0,0:0:0:0:
57,160,155113,2,0,L|140:195,1,90.0000002980235
87,305,155435,2,0,L|181:344,1,90.0000002980235
406,281,155758,6,0,P|442:235|427:197,1,90.0000002980235
344,32,156080,1,0,0:0:0:0:
304,303,156242,1,0,0:0:0:0:
458,149,156403,1,0,0:0:0:0:
181,136,156564,1,0,0:0:0:0:
408,65,156726,1,0,0:0:0:0:
244,260,156887,1,0,0:0:0:0:
222,278,156968,1,0,0:0:0:0:
191,292,157048,1,0,0:0:0:0:
158,296,157129,1,0,0:0:0:0:
127,291,157210,6,0,B|79:273|79:273|40:213|92:140,1,180.000000596047,4|0,0:0|0:0,0:0:0:0:
201,37,157693,1,0,0:0:0:0:
243,203,157855,2,0,P|287:239|389:182,1,180.000000596047
209,80,158339,1,0,0:0:0:0:
209,80,158419,1,0,0:0:0:0:
209,80,158500,2,0,B|275:75|275:75|308:30|308:30|386:22,1,180.000000596047
467,167,158984,1,0,0:0:0:0:
346,307,159145,1,0,0:0:0:0:
211,168,159306,1,0,0:0:0:0:
336,39,159468,1,0,0:0:0:0:
467,167,159629,1,0,0:0:0:0:
346,307,159790,6,0,P|286:336|227:334,1,90.0000002980235
73,228,160113,2,0,P|126:234|169:214,1,90.0000002980235
269,57,160435,2,0,P|321:46|361:58,1,90.0000002980235
495,209,160758,2,0,P|443:198|403:210,1,90.0000002980235
243,297,161080,1,0,0:0:0:0:
131,260,161242,1,0,0:0:0:0:
69,167,161403,1,0,0:0:0:0:
47,60,161564,1,0,0:0:0:0:
396,154,161726,2,0,L|520:191,1,90.0000002980235
131,260,162048,2,0,L|13:312,1,90.0000002980235
352,86,162371,5,12,0:0:0:0:
208,258,162532,1,0,0:0:0:0:
407,115,162693,1,8,0:0:0:0:
134,149,162855,1,0,0:0:0:0:
364,270,163016,1,8,0:0:0:0:
222,57,163177,1,0,0:0:0:0:
223,300,163339,1,8,0:0:0:0:
337,63,163500,1,0,0:0:0:0:
131,172,163661,5,8,0:0:0:0:
350,161,163822,1,0,0:0:0:0:
114,221,163984,1,8,0:0:0:0:
365,74,164145,1,0,0:0:0:0:
193,286,164306,2,0,P|177:332|167:380,1,90.0000002980235
274,98,164629,1,0,0:0:0:0:
291,84,164710,1,0,0:0:0:0:
313,66,164790,1,0,0:0:0:0:
338,50,164871,1,0,0:0:0:0:
358,39,164951,6,0,L|372:157,1,90.0000002980235,4|0,0:0|0:0,0:0:0:0:
218,147,165274,1,0,0:0:0:0:
113,67,165435,2,0,L|26:42,1,90.0000002980235
218,147,165758,1,0,0:0:0:0:
95,186,165919,6,0,P|46:230|77:292,1,135.000000447035
217,295,166564,2,0,L|271:266,1,45.0000001490117
346,187,166887,1,0,0:0:0:0:
256,86,167048,1,0,0:0:0:0:
162,187,167210,1,0,0:0:0:0:
256,273,167532,5,4,0:0:0:0:
160,132,172855,5,0,0:0:0:0:
160,132,173016,2,0,P|199:108|255:112,1,90.0000002980235
329,170,173661,1,0,0:0:0:0:
276,248,173822,2,0,L|214:333,1,90.0000002980235
394,247,174306,2,0,P|443:237|497:248,2,90.0000002980235
277,285,175274,5,0,0:0:0:0:
178,330,175435,1,0,0:0:0:0:
98,259,175596,1,0,0:0:0:0:
178,330,175919,1,0,0:0:0:0:
98,259,176080,1,0,0:0:0:0:
117,147,176241,1,0,0:0:0:0:
191,64,176403,6,0,L|237:46,1,45.0000001490117
117,147,176726,1,0,0:0:0:0:
230,50,176887,1,0,0:0:0:0:
231,214,177048,1,0,0:0:0:0:
337,95,177210,2,0,L|380:46,2,45.0000001490117
351,260,177693,1,0,0:0:0:0:
201,129,177855,6,0,P|146:130|104:158,1,90.0000002980235,4|0,0:0|0:0,0:0:0:0:
117,273,178177,1,0,0:0:0:0:
287,116,178339,1,0,0:0:0:0:
297,348,178500,1,0,0:0:0:0:
117,273,178661,1,0,0:0:0:0:
365,173,178822,1,0,0:0:0:0:
365,173,178903,1,0,0:0:0:0:
365,173,178984,6,0,L|455:137,1,90.0000002980235
210,65,179306,1,0,0:0:0:0:
210,65,179387,1,0,0:0:0:0:
210,65,179468,2,0,L|148:100,1,45.0000001490117
317,139,179629,2,0,L|349:176,1,45.0000001490117
165,212,179790,2,0,L|105:247,1,45.0000001490117
298,278,179951,2,0,L|334:318,1,45.0000001490117
139,356,180113,1,0,0:0:0:0:
354,202,180274,1,0,0:0:0:0:
130,89,180435,6,0,P|78:84|35:110,1,90.0000002980235
254,155,180758,1,0,0:0:0:0:
169,249,180919,2,0,L|99:311,1,90.0000002980235
320,232,181242,2,0,L|247:311,1,90.0000002980235
465,145,181564,6,0,P|481:95|431:62,1,90.0000002980235,4|0,0:0|0:0,0:0:0:0:
228,112,181887,1,0,0:0:0:0:
460,63,182048,1,0,0:0:0:0:
228,112,182210,1,0,0:0:0:0:
208,120,182290,1,0,0:0:0:0:
186,129,182371,1,0,0:0:0:0:
376,140,182532,1,0,0:0:0:0:
216,288,182693,1,0,0:0:0:0:
374,282,182855,6,0,P|430:312|462:375,1,135.000000447035,4|0,0:0|0:0,0:0:0:0:
471,354,183177,1,0,0:0:0:0:
472,318,183258,1,0,0:0:0:0:
463,286,183339,1,0,0:0:0:0:
449,255,183419,1,0,0:0:0:0:
432,226,183500,1,0,0:0:0:0:
406,199,183580,1,0,0:0:0:0:
377,182,183661,1,0,0:0:0:0:
341,180,183742,1,0,0:0:0:0:
296,199,183822,1,0,0:0:0:0:
262,234,183903,1,0,0:0:0:0:
218,256,183984,1,0,0:0:0:0:
169,253,184064,1,0,0:0:0:0:
125,232,184145,6,0,P|85:195|75:158,1,90.0000002980235
133,40,184468,1,0,0:0:0:0:
334,34,184629,2,0,L|239:90,1,90.0000002980235
237,178,184951,1,0,0:0:0:0:
319,130,185113,1,0,0:0:0:0:
398,76,185274,1,0,0:0:0:0:
161,45,185435,2,0,P|117:51|75:90,1,90.0000002980235,4|0,0:0|0:0,0:0:0:0:
57,250,185758,5,0,0:0:0:0:
75,275,185839,1,0,0:0:0:0:
97,303,185919,1,0,0:0:0:0:
197,194,186080,5,0,0:0:0:0:
217,220,186161,1,0,0:0:0:0:
249,235,186242,1,0,0:0:0:0:
283,237,186322,1,0,0:0:0:0:
314,233,186403,1,0,0:0:0:0:
348,212,186484,1,0,0:0:0:0:
363,183,186564,1,0,0:0:0:0:
369,143,186645,1,0,0:0:0:0:
378,111,186726,6,0,L|404:216,1,90.0000002980235
259,180,187048,5,0,0:0:0:0:
378,111,187210,2,0,L|406:39,1,45.0000001490117
389,285,187371,2,0,L|413:341,1,45.0000001490117
115,196,187532,2,0,L|46:213,1,45.0000001490117
259,180,187693,2,0,L|318:202,1,45.0000001490117
109,121,187855,1,0,0:0:0:0:
89,107,187935,1,0,0:0:0:0:
68,92,188016,1,0,0:0:0:0:
45,79,188097,1,0,0:0:0:0:
24,64,188177,6,0,L|118:64,1,90.0000002980235,4|0,0:0|0:0,0:0:0:0:
259,180,188500,1,0,0:0:0:0:
109,121,188661,1,0,0:0:0:0:
235,32,188822,1,0,0:0:0:0:
259,180,188984,2,0,L|277:282,1,90.0000002980235
405,336,189306,6,0,L|392:244,1,90.0000002980235
356,43,189629,1,0,0:0:0:0:
463,141,189790,1,0,0:0:0:0:
325,200,189951,2,0,L|230:243,1,90.0000002980235
68,144,190274,1,0,0:0:0:0:
243,234,190435,1,0,0:0:0:0:
68,144,190597,1,0,0:0:0:0:
252,20,190758,2,0,P|305:12|351:28,1,90.0000002980235
452,185,191080,1,0,0:0:0:0:
243,261,191242,1,0,0:0:0:0:
339,21,191403,1,0,0:0:0:0:
419,261,191564,2,0,P|429:315|412:377,1,90.0000002980235
124,317,191887,6,0,P|178:331|223:319,1,90.0000002980235
366,210,192210,1,0,0:0:0:0:
165,106,192371,1,0,0:0:0:0:
339,21,192532,2,0,P|390:14|453:39,1,90.0000002980235
258,214,192855,1,0,0:0:0:0:
244,230,192935,1,0,0:0:0:0:
230,248,193016,1,0,0:0:0:0:
391,137,193177,1,0,0:0:0:0:
146,48,193339,6,0,P|90:59|59:96,1,90.0000002980235
262,126,193661,1,0,0:0:0:0:
104,258,193822,2,0,P|71:299|66:340,1,90.0000002980235
284,291,194145,1,0,0:0:0:0:
322,277,194226,1,0,0:0:0:0:
359,252,194306,1,0,0:0:0:0:
382,219,194387,1,0,0:0:0:0:
394,175,194468,6,0,P|374:90|278:64,1,180.000000596047
72,163,194951,2,0,P|99:210|139:226,1,90.0000002980235
295,80,195274,2,0,P|350:73|400:119,1,90.0000002980235
447,264,195597,2,0,P|392:271|342:225,1,90.0000002980235
163,126,195919,5,8,0:0:0:0:
142,141,196000,1,8,0:0:0:0:
122,158,196080,1,8,0:0:0:0:
103,175,196161,1,8,0:0:0:0:
83,190,196242,1,8,0:0:0:0:
91,35,196403,1,0,0:0:0:0:
247,165,196564,5,8,0:0:0:0:
267,180,196645,1,8,0:0:0:0:
288,196,196725,1,8,0:0:0:0:
308,211,196806,1,8,0:0:0:0:
327,228,196887,1,8,0:0:0:0:
333,62,197048,1,0,0:0:0:0:
239,291,197210,5,0,0:0:0:0:
211,70,197371,1,0,0:0:0:0:
342,163,197532,1,0,0:0:0:0:
118,199,197693,2,0,P|46:246|23:335,1,180.000000596047
245,285,198177,1,0,0:0:0:0:
251,249,198258,1,0,0:0:0:0:
256,216,198339,1,0,0:0:0:0:
260,179,198419,1,0,0:0:0:0:
267,148,198500,5,0,0:0:0:0:
148,265,198661,1,0,0:0:0:0:
344,181,198822,1,0,0:0:0:0:
163,83,198984,1,0,0:0:0:0:
332,58,199145,1,0,0:0:0:0:
323,300,199306,1,0,0:0:0:0:
139,57,199468,1,0,0:0:0:0:
411,150,199629,6,0,P|456:177|510:232,2,90.0000002980235
221,44,200113,1,0,0:0:0:0:
306,233,200274,2,0,P|325:281|340:330,1,90.0000002980235
159,261,200597,1,0,0:0:0:0:
253,51,200758,1,0,0:0:0:0:
75,151,200919,1,0,0:0:0:0:
306,233,201080,2,0,L|397:266,1,90.0000002980235
477,135,201403,1,0,0:0:0:0:
333,31,201564,2,0,L|244:10,1,90.0000002980235
39,151,201887,2,0,P|59:194|124:200,1,90.0000002980235
374,184,202210,6,0,P|342:223|302:240,1,90.0000002980235
152,83,202532,1,0,0:0:0:0:
306,238,202693,1,0,0:0:0:0:
152,83,202855,2,0,P|94:55|65:170,1,180.000000596047,4|0,0:0|0:0,0:0:0:0:
156,300,203339,2,0,P|205:324|253:315,1,90.0000002980235
336,233,203661,5,12,0:0:0:0:
384,132,203822,1,0,0:0:0:0:
366,26,203984,1,8,0:0:0:0:
111,114,204145,2,0,P|48:190|74:266,1,180.000000596047
311,106,204629,2,0,L|379:46,1,90.0000002980235
437,168,204951,5,12,0:0:0:0:
393,277,205113,1,0,0:0:0:0:
292,331,205274,1,0,0:0:0:0:
112,125,205435,2,0,P|75:84|29:66,1,90.0000002980235
289,50,205758,1,0,0:0:0:0:
312,68,205839,1,0,0:0:0:0:
332,95,205919,1,0,0:0:0:0:
341,124,206000,1,0,0:0:0:0:
342,153,206080,1,0,0:0:0:0:
334,187,206161,1,0,0:0:0:0:
320,210,206242,6,0,P|272:234|232:298,1,90.0000002980235,4|0,0:0|0:0,0:0:0:0:
332,329,206564,1,0,0:0:0:0:
137,201,206726,2,0,L|33:193,1,90.0000002980235
225,94,207048,1,0,0:0:0:0:
272,110,207129,1,0,0:0:0:0:
319,130,207210,1,0,0:0:0:0:
256,192,207290,12,0,208822,0:0:0:0:
296,102,215274,6,0,L|401:143,1,90.0000002980235
401,258,215597,2,0,L|318:226,1,90.0000002980235
76,167,215919,2,0,L|164:114,1,90.0000002980235
155,259,216242,2,0,L|80:309,1,90.0000002980235
423,271,216564,2,0,L|451:174,1,90.0000002980235
379,60,216887,2,0,L|348:165,1,90.0000002980235
380,62,217210,2,0,P|329:45|272:63,1,90.0000002980235
350,203,217532,2,0,P|401:220|458:202,1,90.0000002980235
243,50,217855,5,0,0:0:0:0:
59,149,218016,1,0,0:0:0:0:
272,73,218339,5,0,0:0:0:0:
202,269,218500,1,0,0:0:0:0:
341,31,218822,1,0,0:0:0:0:
367,257,218984,1,0,0:0:0:0:
367,257,219306,5,0,0:0:0:0:
347,99,219468,1,0,0:0:0:0:
259,227,219629,1,0,0:0:0:0:
432,191,219790,1,0,0:0:0:0:
249,123,219951,1,0,0:0:0:0:
358,328,220113,1,0,0:0:0:0:
116,171,220274,1,0,0:0:0:0:
334,66,220435,6,0,L|428:22,1,90.0000002980235
438,22,220839,1,0,0:0:0:0:
438,22,220919,1,0,0:0:0:0:
412,278,221080,1,0,0:0:0:0:
159,170,221242,1,0,0:0:0:0:
126,153,221322,1,0,0:0:0:0:
92,151,221403,1,0,0:0:0:0:
339,180,221564,2,0,L|367:189,1,22.5000000745059
149,45,221726,6,0,L|18:33,1,90.0000002980235
204,307,222048,1,0,0:0:0:0:
306,154,222210,1,0,0:0:0:0:
144,132,222371,1,0,0:0:0:0:
333,274,222532,1,0,0:0:0:0:
228,45,222693,1,0,0:0:0:0:
103,254,222855,1,0,0:0:0:0:
378,182,223016,6,0,L|479:182,1,90.0000002980235
144,132,223339,2,0,L|46:130,1,90.0000002980235
277,15,223661,1,0,0:0:0:0:
144,132,223822,1,0,0:0:0:0:
335,175,223984,1,0,0:0:0:0:
186,285,224145,1,0,0:0:0:0:
417,348,224306,6,0,L|531:377,1,90.0000002980235
339,139,224629,1,0,0:0:0:0:
329,121,224710,1,0,0:0:0:0:
319,102,224790,1,0,0:0:0:0:
305,81,224871,1,0,0:0:0:0:
292,62,224951,1,0,0:0:0:0:
426,58,225113,1,0,0:0:0:0:
238,288,225274,2,0,P|196:313|148:320,1,90.0000002980235
209,94,225597,6,0,P|251:69|299:62,1,90.0000002980235
455,258,225919,1,0,0:0:0:0:
289,60,226080,1,0,0:0:0:0:
455,258,226242,2,0,P|481:310|498:377,1,90.0000002980235
195,245,226564,2,0,L|94:274,1,90.0000002980235
352,103,226887,2,0,L|444:77,1,90.0000002980235
101,36,227210,2,0,P|49:54|17:121,1,90.0000002980235
195,245,227532,2,0,P|247:227|279:160,1,90.0000002980235
97,128,227855,1,0,0:0:0:0:
78,127,227935,1,0,0:0:0:0:
60,128,228016,1,0,0:0:0:0:
43,128,228097,1,0,0:0:0:0:
26,128,228177,6,0,P|24:175|45:236,1,90.0000002980235,4|0,0:0|0:0,0:0:0:0:
320,230,228500,1,0,0:0:0:0:
320,230,228580,1,0,0:0:0:0:
320,230,228661,2,0,L|206:225,1,90.0000002980235
344,78,228984,2,0,L|442:80,1,90.0000002980235
152,160,229306,6,0,B|123:198|123:198|138:229|182:235,1,90.0000002980235
328,243,229629,1,0,0:0:0:0:
217,74,229790,1,0,0:0:0:0:
441,68,229951,1,0,0:0:0:0:
205,233,230113,1,0,0:0:0:0:
316,28,230274,1,0,0:0:0:0:
379,247,230435,1,0,0:0:0:0:
383,265,230516,1,0,0:0:0:0:
388,284,230597,1,0,0:0:0:0:
393,306,230677,1,0,0:0:0:0:
396,326,230758,6,0,L|290:174,1,180.000000596047
127,96,231242,1,0,0:0:0:0:
349,24,231403,2,0,B|412:6|412:6|477:61|440:113,1,180.000000596047
332,249,231887,1,0,0:0:0:0:
127,96,232048,2,0,B|119:48|119:48|150:28|212:41|258:70,1,180.000000596047
412,199,232532,1,0,0:0:0:0:
149,169,232693,1,0,0:0:0:0:
334,286,232855,1,0,0:0:0:0:
244,62,233016,1,0,0:0:0:0:
214,275,233177,1,0,0:0:0:0:
381,98,233339,6,0,P|437:79|498:78,1,90.0000002980235
214,275,233661,2,0,P|185:322|204:394,1,90.0000002980235
376,223,233984,1,0,0:0:0:0:
220,80,234145,1,0,0:0:0:0:
220,80,234226,1,0,0:0:0:0:
220,80,234306,2,0,L|110:65,1,90.0000002980235
189,281,234629,5,0,0:0:0:0:
353,123,234790,1,0,0:0:0:0:
391,88,234871,1,0,0:0:0:0:
427,50,234951,1,0,0:0:0:0:
171,59,235113,1,0,0:0:0:0:
311,198,235274,2,0,P|356:236|394:270,1,90.0000002980235
241,309,235597,2,0,L|172:252,1,90.0000002980235
354,134,235919,5,0,0:0:0:0:
155,217,236080,1,0,0:0:0:0:
305,55,236242,1,0,0:0:0:0:
204,286,236403,1,0,0:0:0:0:
243,24,236564,1,0,0:0:0:0:
288,324,236726,1,0,0:0:0:0:
161,37,236887,1,0,0:0:0:0:
383,325,237048,1,0,0:0:0:0:
76,102,237210,5,0,0:0:0:0:
429,170,237371,1,0,0:0:0:0:
87,318,237532,1,0,0:0:0:0:
318,31,237693,1,0,0:0:0:0:
320,341,237855,1,0,0:0:0:0:
97,59,238016,1,0,0:0:0:0:
418,213,238177,1,0,0:0:0:0:
435,224,238258,1,0,0:0:0:0:
450,234,238339,1,0,0:0:0:0:
466,244,238419,1,0,0:0:0:0:
480,254,238500,5,0,0:0:0:0:
300,48,238822,1,0,0:0:0:0:
236,320,238984,1,0,0:0:0:0:
236,320,239306,5,0,0:0:0:0:
156,75,239468,1,0,0:0:0:0:
156,75,240113,1,0,0:0:0:0:
381,195,240274,1,0,0:0:0:0:
144,336,240436,1,0,0:0:0:0:
280,39,240597,1,0,0:0:0:0:
368,328,240758,1,0,0:0:0:0:
153,201,240919,1,4,0:0:0:0:
331,83,241080,5,4,0:0:0:0:
347,74,241161,1,0,0:0:0:0:
365,64,241242,1,0,0:0:0:0:
385,52,241322,1,0,0:0:0:0:
399,43,241403,1,0,0:0:0:0:
107,60,241564,5,0,0:0:0:0:
65,102,241645,1,0,0:0:0:0:
53,159,241726,1,0,0:0:0:0:
78,212,241806,1,0,0:0:0:0:
122,249,241887,1,0,0:0:0:0:
408,164,242048,5,0,0:0:0:0:
385,154,242129,1,0,0:0:0:0:
365,144,242210,1,0,0:0:0:0:
344,136,242290,1,0,0:0:0:0:
325,128,242371,1,0,0:0:0:0:
336,328,242532,5,0,0:0:0:0:
386,328,242613,1,0,0:0:0:0:
429,302,242693,1,0,0:0:0:0:
463,265,242774,1,0,0:0:0:0:
475,217,242855,1,0,0:0:0:0:
172,64,243016,2,0,P|125:63|88:97,1,90.0000002980235,4|0,0:0|0:0,0:0:0:0:
272,284,243339,2,0,P|322:266|330:230,1,90.0000002980235,4|0,0:0|0:0,0:0:0:0:
165,200,243661,6,0,P|92:275|172:348,1,225.000000745059,4|0,0:0|0:0,0:0:0:0:
405,275,244790,6,0,P|426:260|432:226,1,45.0000001490117
194,167,245113,1,0,0:0:0:0:
332,79,245274,1,0,0:0:0:0:
350,70,245355,1,0,0:0:0:0:
368,62,245435,1,0,0:0:0:0:
388,51,245516,1,0,0:0:0:0:
404,42,245597,1,4,0:0:0:0:
405,275,245758,1,0,0:0:0:0:
405,275,246080,6,0,P|349:299|316:294,1,90.0000002980235,4|0,0:0|0:0,0:0:0:0:
234,210,246403,1,0,0:0:0:0:
322,127,246564,2,0,P|354:169|347:214,1,90.0000002980235
158,254,246887,1,0,0:0:0:0:
158,254,246968,1,0,0:0:0:0:
158,254,247048,1,0,0:0:0:0:
95,132,247210,1,0,0:0:0:0:
177,26,247371,6,0,P|229:19|289:53,1,90.0000002980235
186,185,247693,2,0,P|184:136|215:105,1,90.0000002980235
347,101,248016,2,0,P|327:148|274:156,1,90.0000002980235
125,69,248339,1,0,0:0:0:0:
374,8,248500,1,0,0:0:0:0:
157,233,248661,6,0,P|157:323|260:348,1,180.000000596047
253,348,249064,1,0,0:0:0:0:
253,348,249145,1,0,0:0:0:0:
333,149,249306,1,0,0:0:0:0:
340,119,249387,1,0,0:0:0:0:
345,91,249468,1,0,0:0:0:0:
378,296,249629,1,0,0:0:0:0:
311,24,249790,1,0,0:0:0:0:
73,178,249951,6,0,B|55:226|55:226|66:295,1,90.0000002980235
377,262,250274,1,0,0:0:0:0:
154,175,250436,1,0,0:0:0:0:
393,109,250597,1,0,0:0:0:0:
157,25,250758,1,0,0:0:0:0:
71,276,250919,1,0,0:0:0:0:
331,162,251080,1,0,0:0:0:0:
125,83,251242,6,0,P|52:122|40:215,1,180.000000596047,4|0,0:0|0:0,0:0:0:0:
217,278,251726,2,0,P|214:223|156:192,1,90.0000002980235
160,353,252048,1,0,0:0:0:0:
79,382,252210,1,0,0:0:0:0:
10,329,252371,1,0,0:0:0:0:
171,178,252532,6,0,P|206:150|257:138,1,90.0000002980235
377,160,252855,1,0,0:0:0:0:
135,56,253016,1,0,0:0:0:0:
107,44,253097,1,0,0:0:0:0:
78,30,253177,2,0,L|77:128,1,90.0000002980235
154,332,253500,2,0,P|190:287|188:232,1,90.0000002980235
187,94,253822,6,0,P|137:93|107:119,1,90.0000002980235,4|0,0:0|0:0,0:0:0:0:
86,240,254145,1,0,0:0:0:0:
211,174,254306,2,0,P|250:209|246:259,1,90.0000002980235
93,366,254629,1,0,0:0:0:0:
235,261,254790,1,0,0:0:0:0:
93,366,254951,1,0,0:0:0:0:
235,261,255113,6,0,L|293:219,5,45.0000001490117
289,205,255597,1,0,0:0:0:0:
285,157,255677,1,0,0:0:0:0:
249,129,255758,1,0,0:0:0:0:
203,119,255839,1,0,0:0:0:0:
164,98,255919,1,0,0:0:0:0:
176,56,256000,1,0,0:0:0:0:
219,24,256080,1,0,0:0:0:0:
271,12,256161,1,0,0:0:0:0:
325,12,256242,1,0,0:0:0:0:
256,192,256887,5,4,0:0:0:0:
256,192,256968,12,0,264306,0:0:0:0:
