osu file format v14

[General]
AudioFilename: squartatrice fear.mp3
AudioLeadIn: 0
PreviewTime: 641
Countdown: 0
SampleSet: Soft
StackLeniency: 0.6
Mode: 0
LetterboxInBreaks: 0
WidescreenStoryboard: 0

[Editor]
DistanceSpacing: 1
BeatDivisor: 4
GridSize: 4
TimelineZoom: 6.299997

[Metadata]
Title:squartatrice
TitleUnicode:squartatrice
Artist:Miki Sayaka vs. Miki Sayaka (fw. Miki Sayaka)
ArtistUnicode:美樹さやか vs. 美樹さやか (fw. 美樹さやか)
Creator:soulfear
Version:Sayaka
Source:BMS
Tags:kozato gmtn. luze Thite Witch Rein Rein0527 Fear Charles445
BeatmapID:499713
BeatmapSetID:40499

[Difficulty]
HPDrainRate:6
CircleSize:5
OverallDifficulty:8
ApproachRate:9.5
SliderMultiplier:2.1
SliderTickRate:1

[Events]
//Background and Video events
Video,-15,"_bga.flv"
0,0,"_squartarice_bg.png",0,0
//Break Periods
//Storyboard Layer 0 (Background)
//Storyboard Layer 1 (Fail)
//Storyboard Layer 2 (Pass)
//Storyboard Layer 3 (Foreground)
//Storyboard Sound Samples

[TimingPoints]
-25,333.333333333333,4,2,0,65,1,0
10641,333.333333333333,3,2,0,75,1,0
25932,-100,4,2,0,80,0,0
40891,-100,4,2,0,95,0,0
42641,333.333333333333,6,2,0,100,1,0
42641,-66.6666666666667,4,2,0,100,0,0
43807,-50,4,2,0,100,0,0
45141,-66.6666666666667,4,2,0,100,0,0
45807,-50,4,2,0,100,0,0
46640,-66.6666666666667,4,2,0,100,0,0
47807,-50,4,2,0,100,0,0
49308,-66.6666666666667,4,2,0,100,0,0
49807,-50,4,2,0,100,0,0
49933,-50,4,1,0,90,0,0
49974,-100,4,1,0,90,0,0
50599,-100,4,2,0,95,0,0
54640,-66.6666666666667,4,2,0,100,0,0
55807,-50,4,2,0,100,0,0
56307,-100,4,2,0,100,0,0
57640,-50,4,2,0,100,0,0
58641,333.333333333333,4,2,0,100,1,0
61308,-100,4,2,0,80,0,0
71599,-100,4,1,0,80,0,0
71974,-50,4,1,0,70,0,0
77308,-100,4,2,0,90,0,0
77641,-100,4,1,0,80,0,0
77974,-50,4,1,0,80,0,0
78308,-100,4,1,0,80,0,0
78641,-50,4,2,0,100,0,0
78974,-100,4,1,0,80,0,0
79308,-50,4,1,0,90,0,0
79641,-50,4,1,0,80,0,0
79974,-50,4,1,0,95,0,0
81224,-50,4,1,0,95,0,0
81308,333.333333333333,5,1,0,95,1,0
81308,-10,5,1,0,95,0,0
81474,-100,4,2,0,80,0,0
81641,-50,4,2,0,100,0,0
82974,333.333333333333,4,2,0,95,1,0
92891,-100,4,1,0,80,0,0
93599,-100,4,2,0,95,0,0
103641,-66.6666666666667,4,2,0,95,0,0
104307,-50,4,1,0,90,0,0
104390,-50,4,2,0,90,0,0
104432,-50,4,1,0,90,0,0
104890,-50,4,2,0,90,0,0
104932,-50,4,1,0,90,0,0
105390,-50,4,2,0,90,0,0
105432,-50,4,1,0,90,0,0
105890,-50,4,2,0,90,0,0
105932,-50,4,1,0,90,0,0
106723,-50,4,2,0,90,0,0
106765,-50,4,1,0,90,0,0
107057,-50,4,2,0,90,0,0
107098,-50,4,1,0,90,0,0
107557,-50,4,2,0,90,0,0
107598,-50,4,1,0,90,0,0
108057,-50,4,2,0,90,0,0
108098,-50,4,1,0,90,0,0
108557,-50,4,2,0,90,0,0
108598,-50,4,1,0,90,0,0
109599,-50,4,2,0,90,0,0
110099,-50,4,2,0,95,0,0
110599,-50,4,2,0,100,0,0
111973,-100,4,2,0,100,0,0
113599,-100,4,1,0,80,0,0
114933,-100,4,2,0,90,0,0
115058,-100,4,2,0,80,0,0
120307,-200,4,2,0,80,0,0
125641,-100,4,2,0,80,0,0
128224,-100,4,2,0,100,0,0
128391,-100,4,2,0,5,0,0

[Colours]
Combo1 : 128,128,255
Combo2 : 0,255,255
Combo3 : 0,128,255

[HitObjects]
256,192,2641,5,0,0:0:0:0:
204,192,2808,1,2,0:0:0:0:
152,192,2974,1,0,0:0:0:0:
100,184,3141,1,2,0:0:0:0:
76,136,3308,1,0,0:0:0:0:
68,84,3474,1,2,0:0:0:0:
80,60,3558,1,0,0:0:0:0:
96,40,3641,1,0,0:0:0:0:
136,76,3808,1,2,0:0:0:0:
168,128,3974,5,0,0:0:0:0:
168,128,4141,1,2,0:0:0:0:
240,128,4308,1,0,0:0:0:0:
240,128,4474,1,2,0:0:0:0:
104,128,4641,5,0,0:0:0:0:
304,128,4808,1,2,0:0:0:0:
104,128,4974,1,0,0:0:0:0:
304,128,5141,1,2,0:0:0:0:
324,296,5308,5,0,0:0:0:0:
272,348,5474,1,2,0:0:0:0:
200,348,5641,1,2,0:0:0:0:
136,312,5808,1,0,0:0:0:0:
80,264,5974,1,2,0:0:0:0:
112,200,6141,1,0,0:0:0:0:
120,128,6308,1,2,0:0:0:0:
108,56,6474,1,0,0:0:0:0:
44,188,6641,5,0,0:0:0:0:
44,116,6808,1,2,0:0:0:0:
52,92,6891,1,0,0:0:0:0:
60,68,6974,1,0,0:0:0:0:
132,48,7141,1,2,0:0:0:0:
236,24,7308,1,2,0:0:0:0:
340,36,7474,1,0,0:0:0:0:
268,128,7641,1,2,0:0:0:0:
232,228,7808,1,0,0:0:0:0:
88,200,7974,5,0,0:0:0:0:
44,296,8141,1,2,0:0:0:0:
172,224,8308,1,0,0:0:0:0:
196,232,8391,1,0,0:0:0:0:
216,248,8474,1,2,0:0:0:0:
228,272,8558,1,0,0:0:0:0:
228,300,8641,1,0,0:0:0:0:
88,352,8808,1,2,0:0:0:0:
236,360,8974,1,0,0:0:0:0:
340,356,9141,1,2,0:0:0:0:
416,284,9308,5,0,0:0:0:0:
312,280,9474,1,2,0:0:0:0:
164,292,9641,1,0,0:0:0:0:
188,280,9724,1,0,0:0:0:0:
204,260,9808,1,2,0:0:0:0:
188,240,9891,1,0,0:0:0:0:
188,212,9974,1,0,0:0:0:0:
52,156,10141,1,2,0:0:0:0:
228,88,10308,1,0,0:0:0:0:
36,56,10474,1,2,0:0:0:0:
360,168,10641,5,6,0:0:0:0:
344,272,10807,1,2,0:0:0:0:
244,304,10974,1,0,0:0:0:0:
140,296,11141,1,2,0:0:0:0:
80,208,11307,1,0,0:0:0:0:
96,104,11474,1,2,0:0:0:0:
172,32,11640,5,0,0:0:0:0:
276,32,11807,1,2,0:0:0:0:
380,52,11974,1,0,0:0:0:0:
448,132,12140,1,2,0:0:0:0:
472,236,12307,1,0,0:0:0:0:
412,324,12474,1,2,0:0:0:0:
308,340,12640,5,0,0:0:0:0:
204,324,12807,1,2,0:0:0:0:
180,328,12890,1,0,0:0:0:0:
156,324,12974,1,0,0:0:0:0:
132,328,13057,1,0,0:0:0:0:
108,324,13140,1,2,0:0:0:0:
84,328,13224,1,0,0:0:0:0:
60,324,13307,1,0,0:0:0:0:
136,252,13474,5,2,0:0:0:0:
80,164,13640,1,0,0:0:0:0:
124,68,13807,1,2,0:0:0:0:
220,32,13974,1,0,0:0:0:0:
316,72,14140,1,2,0:0:0:0:
420,72,14307,1,0,0:0:0:0:
344,144,14474,1,2,0:0:0:0:
448,276,14640,5,0,0:0:0:0:
348,312,14807,1,2,0:0:0:0:
180,184,14974,1,0,0:0:0:0:
80,220,15140,1,2,0:0:0:0:
256,332,15307,5,0,0:0:0:0:
256,228,15474,1,2,0:0:0:0:
456,168,15640,1,0,0:0:0:0:
456,168,15807,1,2,0:0:0:0:
256,104,15974,5,0,0:0:0:0:
204,120,16140,1,2,0:0:0:0:
160,152,16307,1,0,0:0:0:0:
128,192,16474,1,2,0:0:0:0:
288,328,16640,5,0,0:0:0:0:
176,268,16807,1,2,0:0:0:0:
408,272,16974,1,0,0:0:0:0:
124,192,17140,1,2,0:0:0:0:
460,192,17307,5,0,0:0:0:0:
176,108,17474,1,2,0:0:0:0:
428,296,17640,1,0,0:0:0:0:
256,56,17807,1,2,0:0:0:0:
344,336,17974,1,0,0:0:0:0:
256,64,18140,1,2,0:0:0:0:
256,360,18307,1,0,0:0:0:0:
344,80,18474,1,2,0:0:0:0:
116,184,18640,5,0,0:0:0:0:
244,184,18807,1,2,0:0:0:0:
144,260,18974,1,0,0:0:0:0:
268,260,19140,1,2,0:0:0:0:
488,192,19307,5,0,0:0:0:0:
360,192,19474,1,2,0:0:0:0:
460,268,19641,1,0,0:0:0:0:
336,268,19807,1,2,0:0:0:0:
104,164,19974,5,0,0:0:0:0:
96,268,20140,1,2,0:0:0:0:
184,324,20307,1,2,0:0:0:0:
288,328,20474,1,0,0:0:0:0:
376,268,20640,1,0,0:0:0:0:
376,164,20807,1,2,0:0:0:0:
348,164,20890,1,0,0:0:0:0:
320,164,20974,1,0,0:0:0:0:
292,164,21057,1,0,0:0:0:0:
264,164,21140,1,2,0:0:0:0:
236,164,21224,1,0,0:0:0:0:
208,164,21307,1,0,0:0:0:0:
104,164,21474,5,2,0:0:0:0:
24,356,21640,1,0,0:0:0:0:
148,332,21807,1,2,0:0:0:0:
24,160,21974,1,0,0:0:0:0:
148,188,22140,1,2,0:0:0:0:
364,332,22307,1,0,0:0:0:0:
488,356,22474,1,2,0:0:0:0:
364,188,22640,5,0,0:0:0:0:
488,160,22807,1,2,0:0:0:0:
256,8,22974,1,2,0:0:0:0:
256,132,23140,1,0,0:0:0:0:
148,188,23307,5,0,0:0:0:0:
24,160,23474,1,2,0:0:0:0:
256,8,23640,1,0,0:0:0:0:
256,132,23807,1,2,0:0:0:0:
488,160,23974,5,0,0:0:0:0:
364,188,24140,1,2,0:0:0:0:
160,132,24307,1,0,0:0:0:0:
28,296,24474,1,2,0:0:0:0:
96,340,24640,5,0,0:0:0:0:
176,340,24807,1,2,0:0:0:0:
248,308,24974,5,0,0:0:0:0:
256,228,25140,1,2,0:0:0:0:
212,164,25307,5,0,0:0:0:0:
136,140,25474,1,2,0:0:0:0:
64,280,25640,5,0,0:0:0:0:
92,280,25724,1,0,0:0:0:0:
124,276,25807,1,2,0:0:0:0:
156,268,25890,1,0,0:0:0:0:
192,256,25974,1,0,0:0:0:0:
224,240,26057,1,0,0:0:0:0:
260,220,26140,1,2,0:0:0:0:
300,196,26224,1,0,0:0:0:0:
340,168,26307,2,0,B|380:128,1,52.5,2|0,0:0|0:0,0:0:0:0:
428,112,26474,2,0,B|468:72,1,52.5,2|0,0:0|0:0,0:0:0:0:
460,180,26640,5,4,0:0:0:0:
368,52,26807,1,2,0:0:0:0:
264,40,26974,1,0,0:0:0:0:
164,64,27140,1,2,0:0:0:0:
68,112,27307,1,0,0:0:0:0:
68,112,27390,1,0,0:0:0:0:
68,112,27474,1,2,0:0:0:0:
80,216,27640,5,0,0:0:0:0:
88,320,27807,1,2,0:0:0:0:
192,332,27974,1,0,0:0:0:0:
296,312,28140,1,2,0:0:0:0:
400,296,28307,1,0,0:0:0:0:
400,296,28390,1,0,0:0:0:0:
400,296,28474,1,2,0:0:0:0:
436,112,28640,5,0,0:0:0:0:
320,64,28807,1,2,0:0:0:0:
208,120,28974,1,0,0:0:0:0:
96,64,29140,1,2,0:0:0:0:
68,208,29307,5,0,0:0:0:0:
68,208,29390,1,0,0:0:0:0:
68,208,29474,1,2,0:0:0:0:
212,332,29640,5,0,0:0:0:0:
212,332,29724,1,0,0:0:0:0:
212,332,29807,1,2,0:0:0:0:
432,260,29974,5,0,0:0:0:0:
432,260,30057,1,0,0:0:0:0:
432,260,30140,1,2,0:0:0:0:
328,28,30307,5,0,0:0:0:0:
280,28,30390,1,0,0:0:0:0:
232,28,30474,1,2,0:0:0:0:
184,28,30557,1,0,0:0:0:0:
136,28,30640,1,0,0:0:0:0:
328,116,30807,5,2,0:0:0:0:
328,116,30890,1,0,0:0:0:0:
328,116,30974,1,0,0:0:0:0:
168,164,31140,1,2,0:0:0:0:
168,164,31224,1,0,0:0:0:0:
168,164,31307,1,0,0:0:0:0:
256,308,31474,2,0,B|256:360,2,52.5,2|0|0,0:0|0:0|0:0,0:0:0:0:
256,120,31807,5,2,0:0:0:0:
256,120,31890,1,0,0:0:0:0:
256,120,31974,1,0,0:0:0:0:
100,184,32140,1,2,0:0:0:0:
100,184,32224,1,0,0:0:0:0:
100,184,32307,1,0,0:0:0:0:
216,308,32474,6,0,B|216:360,2,52.5,2|0|0,0:0|0:0|0:0,0:0:0:0:
360,184,32807,1,2,0:0:0:0:
360,184,32890,1,0,0:0:0:0:
360,184,32974,1,0,0:0:0:0:
176,220,33140,5,2,0:0:0:0:
316,260,33307,1,0,0:0:0:0:
440,116,33474,1,2,0:0:0:0:
176,220,33640,1,0,0:0:0:0:
320,184,33807,1,2,0:0:0:0:
320,184,33890,1,0,0:0:0:0:
320,184,33974,1,0,0:0:0:0:
224,72,34140,5,2,0:0:0:0:
256,92,34224,1,0,0:0:0:0:
264,128,34307,1,0,0:0:0:0:
244,160,34390,1,0,0:0:0:0:
208,164,34474,1,2,0:0:0:0:
176,144,34557,1,0,0:0:0:0:
176,108,34640,1,4,0:0:0:0:
256,232,34807,5,2,0:0:0:0:
80,164,34974,1,0,0:0:0:0:
72,268,35140,1,2,0:0:0:0:
164,320,35307,1,0,0:0:0:0:
256,272,35474,1,2,0:0:0:0:
216,108,35640,5,0,0:0:0:0:
208,212,35807,1,2,0:0:0:0:
300,264,35974,1,0,0:0:0:0:
392,216,36140,1,2,0:0:0:0:
272,96,36307,5,0,0:0:0:0:
264,200,36474,1,2,0:0:0:0:
356,252,36640,1,0,0:0:0:0:
448,204,36807,1,2,0:0:0:0:
80,164,36974,5,0,0:0:0:0:
72,268,37140,1,2,0:0:0:0:
164,320,37307,1,0,0:0:0:0:
256,272,37474,1,2,0:0:0:0:
432,220,37640,5,0,0:0:0:0:
440,116,37807,1,2,0:0:0:0:
348,64,37974,1,0,0:0:0:0:
256,112,38140,1,2,0:0:0:0:
184,192,38307,5,0,0:0:0:0:
220,192,38390,1,0,0:0:0:0:
256,192,38474,1,2,0:0:0:0:
292,192,38557,1,0,0:0:0:0:
328,192,38640,1,0,0:0:0:0:
364,192,38724,1,0,0:0:0:0:
400,192,38807,1,2,0:0:0:0:
204,112,38974,5,0,0:0:0:0:
204,112,39057,1,0,0:0:0:0:
204,112,39140,1,2,0:0:0:0:
88,164,39307,1,0,0:0:0:0:
88,164,39390,1,0,0:0:0:0:
88,164,39474,1,2,0:0:0:0:
192,268,39640,2,0,B|152:308,2,52.5,0|0|2,0:0|0:0|0:0,0:0:0:0:
256,136,39974,5,0,0:0:0:0:
256,136,40057,1,0,0:0:0:0:
256,136,40140,1,2,0:0:0:0:
256,304,40307,2,0,B|256:360,2,52.5,0|0|2,0:0|0:0|0:0,0:0:0:0:
380,192,40640,5,4,0:0:0:0:
396,152,40724,1,0,0:0:0:0:
412,112,40807,1,0,0:0:0:0:
264,56,40974,1,0,0:0:0:0:
264,56,41057,1,0,0:0:0:0:
264,56,41140,2,0,B|212:36,1,52.5,2|0,0:0|0:0,0:0:0:0:
160,40,41307,2,0,B|108:56,1,52.5,2|0,0:0|0:0,0:0:0:0:
64,80,41474,2,0,B|20:108,1,52.5,2|0,0:0|0:0,0:0:0:0:
24,160,41640,2,0,B|40:212,1,52.5,2|0,0:0|0:0,0:0:0:0:
68,256,41807,2,0,B|52:308,1,52.5,2|0,0:0|0:0,0:0:0:0:
0,312,41974,5,2,0:0:0:0:
4,336,42057,1,0,0:0:0:0:
8,360,42140,1,2,0:0:0:0:
56,336,42224,1,0,0:0:0:0:
60,360,42307,1,2,0:0:0:0:
64,384,42390,1,0,0:0:0:0:
136,284,42474,2,0,B|188:272,1,52.5,2|0,0:0|0:0,0:0:0:0:
312,68,42641,6,0,B|160:108,1,157.500006008148,4|0,0:0|0:0,0:0:0:0:
308,164,42974,6,0,B|256:312,1,157.500006008148,4|0,0:0|0:0,0:0:0:0:
84,232,43474,6,0,B|136:84,1,157.500006008148,4|0,0:0|0:0,0:0:0:0:
316,192,43807,6,0,B|420:192,1,105,4|0,0:0|0:0,0:0:0:0:
224,256,43974,6,0,B|148:332,1,105,4|0,0:0|0:0,0:0:0:0:
264,152,44141,5,4,0:0:0:0:
160,192,44307,1,4,0:0:0:0:
160,192,44363,1,0,0:0:0:0:
160,192,44418,1,0,0:0:0:0:
160,192,44474,2,0,B|116:220,3,52.5,2|0|0|0,0:0|0:0|0:0|0:0,0:0:0:0:
264,104,44641,6,0,B|156:120,1,105,4|0,0:0|0:0,0:0:0:0:
236,192,44807,6,0,B|332:240,1,105,4|0,0:0|0:0,0:0:0:0:
232,288,44974,6,0,B|132:328,1,105,4|0,0:0|0:0,0:0:0:0:
216,356,45141,5,4,0:0:0:0:
484,192,45474,6,0,B|484:32,1,157.500006008148,4|0,0:0|0:0,0:0:0:0:
308,192,45807,6,0,B|204:192,1,105,4|0,0:0|0:0,0:0:0:0:
128,220,45974,5,4,0:0:0:0:
96,220,46057,1,0,0:0:0:0:
64,220,46141,1,2,0:0:0:0:
32,220,46224,1,0,0:0:0:0:
80,312,46307,6,0,B|184:312,1,105,4|0,0:0|0:0,0:0:0:0:
256,232,46474,6,0,B|256:128,1,105,4|0,0:0|0:0,0:0:0:0:
192,80,46640,6,0,B|80:192,1,157.500006008148,4|0,0:0|0:0,0:0:0:0:
184,312,46974,6,0,B|344:312,1,157.500006008148,4|0,0:0|0:0,0:0:0:0:
124,84,47474,6,0,B|124:244,1,157.500006008148,4|0,0:0|0:0,0:0:0:0:
256,152,47807,6,0,B|336:72,1,105,4|0,0:0|0:0,0:0:0:0:
356,192,47974,6,0,B|356:296,1,105,4|0,0:0|0:0,0:0:0:0:
256,260,48140,6,0,B|152:260,1,105,4|0,0:0|0:0,0:0:0:0:
332,60,48307,1,4,0:0:0:0:
332,60,48363,1,0,0:0:0:0:
332,60,48418,1,0,0:0:0:0:
332,60,48474,2,0,B|376:28,3,52.5,2|0|0|0,0:0|0:0|0:0|0:0,0:0:0:0:
332,144,48640,6,0,B|436:144,1,105,4|0,0:0|0:0,0:0:0:0:
388,240,48807,6,0,B|388:344,1,105,4|0,0:0|0:0,0:0:0:0:
288,312,48974,6,0,B|184:312,1,105,4|0,0:0|0:0,0:0:0:0:
152,212,49140,6,0,B|48:212,1,105,4|0,0:0|0:0,0:0:0:0:
256,104,49474,6,0,B|256:264,1,157.500006008148,4|0,0:0|0:0,0:0:0:0:
100,232,49807,6,0,B|100:128,1,105,4|0,0:0|0:0,0:0:0:0:
200,184,49974,5,0,0:0:0:0:
256,144,50085,5,0,0:0:0:0:
324,152,50196,5,0,0:0:0:0:
388,176,50307,5,0,0:0:0:0:
448,208,50418,5,0,0:0:0:0:
472,272,50529,5,0,0:0:0:0:
424,324,50640,5,0,0:0:0:0:
404,328,50724,1,0,0:0:0:0:
384,328,50807,1,2,0:0:0:0:
364,328,50890,1,0,0:0:0:0:
344,328,50974,1,0,0:0:0:0:
324,328,51057,1,0,0:0:0:0:
304,328,51140,1,2,0:0:0:0:
284,328,51224,1,0,0:0:0:0:
264,328,51307,1,0,0:0:0:0:
244,328,51390,1,0,0:0:0:0:
240,292,51474,5,2,0:0:0:0:
220,292,51557,1,0,0:0:0:0:
200,292,51640,1,0,0:0:0:0:
180,292,51724,1,0,0:0:0:0:
160,292,51807,1,2,0:0:0:0:
140,292,51890,1,0,0:0:0:0:
136,256,51974,1,0,0:0:0:0:
116,256,52057,1,0,0:0:0:0:
96,256,52140,1,2,0:0:0:0:
280,216,52307,5,0,0:0:0:0:
280,216,52390,1,0,0:0:0:0:
280,216,52474,1,2,0:0:0:0:
280,216,52557,1,0,0:0:0:0:
240,204,52640,6,0,B|192:184,1,52.5,4|0,0:0|0:0,0:0:0:0:
96,144,52807,2,0,B|112:92,1,52.5,6|0,0:0|0:0,0:0:0:0:
200,32,52974,5,0,0:0:0:0:
228,32,53057,1,0,0:0:0:0:
256,36,53140,1,2,0:0:0:0:
280,48,53224,1,0,0:0:0:0:
300,64,53307,1,0,0:0:0:0:
316,88,53390,1,0,0:0:0:0:
328,112,53474,1,2,0:0:0:0:
340,136,53557,1,0,0:0:0:0:
344,164,53640,1,0,0:0:0:0:
344,192,53724,1,0,0:0:0:0:
340,220,53807,2,0,B|328:272,1,52.5,2|0,0:0|0:0,0:0:0:0:
288,352,53974,5,6,0:0:0:0:
240,348,54057,1,0,0:0:0:0:
192,340,54140,1,2,0:0:0:0:
148,324,54224,1,0,0:0:0:0:
104,300,54307,2,0,B|72:300,7,26.25,4|0|0|0|2|0|0|0,0:0|0:0|0:0|0:0|0:0|0:0|0:0|0:0,0:0:0:0:
104,252,54640,6,0,B|104:92,1,157.500006008148,4|0,0:0|0:0,0:0:0:0:
240,176,54974,6,0,B|240:16,1,157.500006008148,4|0,0:0|0:0,0:0:0:0:
492,208,55474,6,0,B|492:368,1,157.500006008148,4|0,0:0|0:0,0:0:0:0:
296,292,55807,6,0,B|192:292,1,105,4|0,0:0|0:0,0:0:0:0:
228,192,55974,6,0,B|124:192,1,105,4|0,0:0|0:0,0:0:0:0:
160,96,56140,6,0,B|56:96,1,105,4|0,0:0|0:0,0:0:0:0:
240,96,56307,6,0,B|268:96,7,26.25,4|0|0|0|2|0|0|0,0:0|0:0|0:0|0:0|0:0|0:0|0:0|0:0,0:0:0:0:
240,140,56640,2,0,B|240:248,1,105,4|2,0:0|0:0,0:0:0:0:
152,192,56890,5,0,0:0:0:0:
108,192,56974,2,0,B|108:88,1,105,4|2,0:0|0:0,0:0:0:0:
200,140,57224,5,0,0:0:0:0:
200,100,57307,2,0,B|308:100,1,105,4|2,0:0|0:0,0:0:0:0:
172,100,57557,5,0,0:0:0:0:
128,100,57640,2,0,B|128:204,1,105,4|0,0:0|0:0,0:0:0:0:
196,284,57807,6,0,B|196:180,1,105,6|0,0:0|0:0,0:0:0:0:
264,100,57974,6,0,B|264:204,1,105,4|0,0:0|0:0,0:0:0:0:
332,284,58140,6,0,B|332:180,1,105,6|0,0:0|0:0,0:0:0:0:
400,100,58307,6,0,B|400:204,1,105,4|0,0:0|0:0,0:0:0:0:
468,284,58474,6,0,B|468:180,1,105,6|0,0:0|0:0,0:0:0:0:
424,80,58640,1,0,0:0:0:0:
396,64,58724,1,0,0:0:0:0:
364,64,58807,1,2,0:0:0:0:
332,72,58891,1,0,0:0:0:0:
312,96,58974,1,0,0:0:0:0:
256,300,59141,5,2,0:0:0:0:
228,316,59224,1,0,0:0:0:0:
200,324,59307,1,0,0:0:0:0:
168,324,59391,1,0,0:0:0:0:
136,320,59474,1,2,0:0:0:0:
80,120,59641,6,0,B|136:120,1,52.5,4|0,0:0|0:0,0:0:0:0:
240,120,59807,2,0,B|188:120,1,52.5,2|0,0:0|0:0,0:0:0:0:
108,192,59974,5,0,0:0:0:0:
136,208,60057,1,0,0:0:0:0:
164,216,60141,1,2,0:0:0:0:
196,216,60224,1,0,0:0:0:0:
228,212,60307,1,0,0:0:0:0:
436,192,60474,5,2,0:0:0:0:
452,164,60557,1,0,0:0:0:0:
460,136,60641,1,0,0:0:0:0:
460,104,60724,1,0,0:0:0:0:
456,72,60807,1,2,0:0:0:0:
256,144,60974,5,2,0:0:0:0:
240,156,61057,1,0,0:0:0:0:
224,168,61141,1,2,0:0:0:0:
208,180,61224,1,0,0:0:0:0:
192,192,61307,5,4,0:0:0:0:
256,248,61474,1,2,0:0:0:0:
276,264,61557,1,0,0:0:0:0:
296,280,61641,1,2,0:0:0:0:
228,332,61807,1,2,0:0:0:0:
148,304,61974,1,0,0:0:0:0:
120,224,62141,1,2,0:0:0:0:
48,180,62307,1,0,0:0:0:0:
60,96,62474,1,2,0:0:0:0:
128,48,62640,1,0,0:0:0:0:
212,36,62807,5,2,0:0:0:0:
212,36,62890,1,0,0:0:0:0:
212,36,62974,1,0,0:0:0:0:
296,52,63140,1,2,0:0:0:0:
372,88,63307,1,0,0:0:0:0:
432,144,63474,1,2,0:0:0:0:
432,228,63640,1,0,0:0:0:0:
404,308,63807,1,2,0:0:0:0:
324,332,63974,1,0,0:0:0:0:
256,284,64140,5,2,0:0:0:0:
256,284,64224,1,0,0:0:0:0:
256,284,64307,1,0,0:0:0:0:
184,332,64474,1,2,0:0:0:0:
108,296,64640,1,0,0:0:0:0:
168,236,64807,1,2,0:0:0:0:
172,152,64974,1,0,0:0:0:0:
104,104,65140,1,2,0:0:0:0:
172,56,65307,1,0,0:0:0:0:
256,40,65474,5,2,0:0:0:0:
256,40,65557,1,0,0:0:0:0:
256,40,65641,1,0,0:0:0:0:
336,68,65807,1,2,0:0:0:0:
336,68,65890,1,0,0:0:0:0:
336,68,65974,1,0,0:0:0:0:
404,116,66140,1,2,0:0:0:0:
404,200,66307,1,0,0:0:0:0:
332,156,66474,1,2,0:0:0:0:
256,304,66640,5,0,0:0:0:0:
176,204,66807,1,2,0:0:0:0:
40,304,66974,1,0,0:0:0:0:
40,156,67140,1,2,0:0:0:0:
152,284,67307,2,0,B|152:336,1,52.5,2|0,0:0|0:0,0:0:0:0:
256,192,67474,1,2,0:0:0:0:
196,324,67640,1,0,0:0:0:0:
300,192,67807,1,2,0:0:0:0:
256,304,67974,5,0,0:0:0:0:
336,204,68140,1,2,0:0:0:0:
472,304,68307,1,0,0:0:0:0:
472,156,68474,1,2,0:0:0:0:
360,284,68640,2,0,B|360:336,1,52.5,2|0,0:0|0:0,0:0:0:0:
256,192,68807,1,2,0:0:0:0:
316,324,68974,1,0,0:0:0:0:
212,192,69140,1,2,0:0:0:0:
256,84,69307,5,0,0:0:0:0:
132,116,69474,1,2,0:0:0:0:
232,252,69640,1,0,0:0:0:0:
92,200,69807,1,2,0:0:0:0:
256,160,69974,6,0,B|308:160,1,52.5,2|0,0:0|0:0,0:0:0:0:
128,200,70140,1,2,0:0:0:0:
256,312,70307,1,0,0:0:0:0:
380,200,70474,5,2,0:0:0:0:
380,200,70557,1,0,0:0:0:0:
380,200,70640,1,4,0:0:0:0:
380,200,70724,1,0,0:0:0:0:
352,200,70807,1,2,0:0:0:0:
324,200,70890,1,0,0:0:0:0:
296,200,70974,1,0,0:0:0:0:
268,200,71057,1,0,0:0:0:0:
240,200,71140,1,2,0:0:0:0:
212,200,71224,1,0,0:0:0:0:
132,200,71307,5,4,0:0:0:0:
96,204,71390,1,0,0:0:0:0:
60,192,71474,1,2,0:0:0:0:
36,168,71557,1,0,0:0:0:0:
24,132,71640,6,0,B|24:104,7,26.25
132,132,71974,6,0,B|236:132,1,105
256,236,72140,2,0,B|332:312,1,105
236,356,72307,1,0,0:0:0:0:
364,44,72640,6,0,B|468:44,1,105
312,96,72807,2,0,B|208:96,1,105
364,160,72974,2,0,B|468:160,1,105
312,220,73140,2,0,B|208:220,1,105
364,284,73307,2,0,B|468:284,1,105
312,344,73474,2,0,B|208:344,1,105
376,344,73640,1,0,0:0:0:0:
220,44,73974,6,0,B|324:44,1,105
168,96,74140,2,0,B|64:96,1,105
220,160,74307,2,0,B|324:160,1,105
168,220,74474,2,0,B|64:220,1,105
220,284,74640,2,0,B|324:284,1,105
168,344,74807,2,0,B|64:344,1,105
232,344,74974,1,0,0:0:0:0:
364,44,75307,6,0,B|468:44,1,105
312,96,75474,2,0,B|208:96,1,105
364,160,75640,2,0,B|468:160,1,105
312,220,75807,2,0,B|208:220,1,105
364,284,75974,2,0,B|468:284,1,105
312,344,76140,2,0,B|208:344,1,105
376,344,76307,1,0,0:0:0:0:
148,340,76474,6,0,B|44:340,1,105
200,288,76640,2,0,B|304:288,1,105
148,224,76807,2,0,B|44:224,1,105
200,164,76974,2,0,B|304:164,1,105
148,96,77140,2,0,B|208:184,1,105
308,152,77307,5,4,0:0:0:0:
360,152,77390,1,0,0:0:0:0:
412,152,77474,1,2,0:0:0:0:
464,152,77557,1,0,0:0:0:0:
512,152,77640,1,0,0:0:0:0:
236,348,77974,5,0,0:0:0:0:
184,348,78057,1,0,0:0:0:0:
132,348,78140,1,0,0:0:0:0:
80,348,78224,1,0,0:0:0:0:
32,348,78307,1,0,0:0:0:0:
128,160,78474,1,4,0:0:0:0:
284,52,78640,5,4,0:0:0:0:
336,52,78724,1,0,0:0:0:0:
388,52,78807,1,2,0:0:0:0:
440,52,78890,1,0,0:0:0:0:
488,52,78974,1,0,0:0:0:0:
300,216,79140,1,0,0:0:0:0:
72,264,79307,5,0,0:0:0:0:
72,200,79390,1,0,0:0:0:0:
72,136,79474,1,0,0:0:0:0:
72,72,79557,1,0,0:0:0:0:
72,8,79640,1,0,0:0:0:0:
324,112,79807,1,4,0:0:0:0:
272,356,79974,6,0,B|376:356,1,105
248,188,80140,2,0,B|172:112,1,105
404,260,80307,2,0,B|508:260,1,105
224,296,80474,2,0,B|120:296,1,105
356,176,80640,2,0,B|432:100,1,105
224,296,80807,2,0,B|148:372,1,105
392,224,80974,1,0,0:0:0:0:
392,224,81057,1,0,0:0:0:0:
392,224,81140,1,0,0:0:0:0:
160,100,81308,6,0,B|160:40|160:40|136:40|136:40|104:72|104:72|104:120|104:120|136:156|136:156|148:156|148:156|160:156|160:156|180:136|180:136|180:100|180:100|180:40|180:40|172:40|172:40,2,262.5,4|0|0,0:0|0:0|0:0,0:0:0:0:
420,192,81641,6,0,B|344:268,1,105,6|2,0:0|0:0,0:0:0:0:
272,192,81808,2,0,B|196:268,1,105,2|2,0:0|0:0,0:0:0:0:
124,192,81974,2,0,B|48:268,1,105,2|2,0:0|0:0,0:0:0:0:
52,56,82141,6,0,B|128:132,1,105,2|0,0:0|0:0,0:0:0:0:
200,56,82308,2,0,B|276:132,1,105,2|0,0:0|0:0,0:0:0:0:
348,56,82474,2,0,B|424:132,1,105,2|0,0:0|0:0,0:0:0:0:
272,192,82641,6,0,B|196:268,1,105,2|0,0:0|0:0,0:0:0:0:
124,192,82808,2,0,B|48:268,1,105,2|0,0:0|0:0,0:0:0:0:
136,324,82974,5,4,0:0:0:0:
156,220,83140,1,2,0:0:0:0:
156,220,83224,1,0,0:0:0:0:
156,220,83307,1,0,0:0:0:0:
92,136,83474,1,2,0:0:0:0:
100,124,83557,1,0,0:0:0:0:
112,116,83640,1,0,0:0:0:0:
128,108,83724,1,0,0:0:0:0:
144,104,83807,1,2,0:0:0:0:
236,52,83974,1,0,0:0:0:0:
248,60,84057,1,0,0:0:0:0:
260,72,84140,1,2,0:0:0:0:
268,84,84224,1,0,0:0:0:0:
272,100,84307,1,0,0:0:0:0:
184,192,84474,1,2,0:0:0:0:
184,192,84557,1,0,0:0:0:0:
184,192,84640,2,0,B|132:192,2,52.5,0|0|2,0:0|0:0|0:0,0:0:0:0:
340,192,84974,5,0,0:0:0:0:
328,204,85057,1,0,0:0:0:0:
316,212,85140,1,2,0:0:0:0:
300,220,85224,1,0,0:0:0:0:
284,224,85307,1,0,0:0:0:0:
268,224,85390,1,0,0:0:0:0:
252,220,85474,1,2,0:0:0:0:
236,212,85557,1,0,0:0:0:0:
220,208,85640,1,0,0:0:0:0:
256,308,85807,1,2,0:0:0:0:
256,308,85890,1,0,0:0:0:0:
256,308,85974,1,0,0:0:0:0:
348,260,86140,1,2,0:0:0:0:
360,252,86224,1,0,0:0:0:0:
372,240,86307,2,0,B|412:200,2,52.5,0|0|2,0:0|0:0|0:0,0:0:0:0:
268,260,86640,5,0,0:0:0:0:
252,260,86724,1,0,0:0:0:0:
236,260,86807,1,2,0:0:0:0:
220,260,86890,1,0,0:0:0:0:
204,260,86974,1,0,0:0:0:0:
204,156,87140,1,2,0:0:0:0:
188,164,87224,1,0,0:0:0:0:
172,172,87307,1,0,0:0:0:0:
156,180,87390,1,0,0:0:0:0:
140,188,87474,1,2,0:0:0:0:
140,292,87640,5,2,0:0:0:0:
116,300,87724,1,0,0:0:0:0:
104,324,87807,1,2,0:0:0:0:
104,352,87890,1,0,0:0:0:0:
124,372,87974,1,2,0:0:0:0:
152,372,88057,1,0,0:0:0:0:
172,352,88140,1,2,0:0:0:0:
176,324,88224,1,0,0:0:0:0:
164,300,88307,1,2,0:0:0:0:
124,204,88474,6,0,B|72:204,1,52.5,2|0,0:0|0:0,0:0:0:0:
96,124,88640,2,0,L|44:124,1,52.5,2|0,0:0|0:0,0:0:0:0:
192,144,88807,1,2,0:0:0:0:
192,124,88890,1,0,0:0:0:0:
192,104,88974,1,2,0:0:0:0:
192,84,89057,1,0,0:0:0:0:
192,64,89140,1,2,0:0:0:0:
112,212,89307,5,2,0:0:0:0:
124,224,89390,1,0,0:0:0:0:
140,232,89474,1,2,0:0:0:0:
156,232,89557,1,0,0:0:0:0:
172,228,89640,2,0,B|272:196,1,105,2|2,0:0|0:0,0:0:0:0:
112,304,89890,2,0,L|164:284,1,52.5
336,360,90057,2,0,L|384:340,1,52.5
380,160,90223,5,0,0:0:0:0:
380,160,90307,2,0,B|428:140,2,52.5,2|0|2,0:0|0:0|0:0,0:0:0:0:
256,332,90557,1,0,0:0:0:0:
256,332,90640,2,0,B|304:312,2,52.5,2|0|2,0:0|0:0|0:0,0:0:0:0:
176,140,90890,1,0,0:0:0:0:
176,140,90973,2,0,B|76:188,1,105,6|2,0:0|0:0,0:0:0:0:
256,68,91223,5,2,0:0:0:0:
212,272,91390,1,0,0:0:0:0:
212,272,91473,2,0,B|116:324,1,105,6|2,0:0|0:0,0:0:0:0:
288,192,91723,5,0,0:0:0:0:
288,192,91807,1,2,0:0:0:0:
288,192,91890,1,0,0:0:0:0:
288,192,91973,1,2,0:0:0:0:
288,192,92057,1,0,0:0:0:0:
288,192,92140,1,2,0:0:0:0:
288,192,92223,1,0,0:0:0:0:
288,192,92307,2,0,B|192:244,1,105,6|2,0:0|0:0,0:0:0:0:
400,192,92557,5,0,0:0:0:0:
400,192,92640,1,6,0:0:0:0:
400,192,92723,1,0,0:0:0:0:
400,192,92807,1,2,0:0:0:0:
360,96,92973,5,0,0:0:0:0:
348,96,93057,1,0,0:0:0:0:
336,96,93140,1,0,0:0:0:0:
324,96,93223,1,0,0:0:0:0:
312,96,93307,1,0,0:0:0:0:
300,96,93390,1,0,0:0:0:0:
288,96,93473,1,0,0:0:0:0:
276,96,93557,1,0,0:0:0:0:
248,96,93640,1,6,0:0:0:0:
256,200,93973,6,0,B|256:92,1,105,4|2,0:0|0:0,0:0:0:0:
160,144,94223,1,0,0:0:0:0:
160,172,94307,1,0,0:0:0:0:
160,200,94390,1,0,0:0:0:0:
160,228,94473,1,2,0:0:0:0:
60,192,94640,5,0,0:0:0:0:
60,192,94723,1,0,0:0:0:0:
60,192,94807,1,2,0:0:0:0:
60,192,94890,1,0,0:0:0:0:
60,192,94973,1,0,0:0:0:0:
100,92,95140,1,2,0:0:0:0:
116,80,95223,1,0,0:0:0:0:
136,72,95307,1,0,0:0:0:0:
156,72,95390,1,0,0:0:0:0:
176,76,95473,1,2,0:0:0:0:
204,176,95640,5,0,0:0:0:0:
224,180,95723,1,0,0:0:0:0:
244,176,95807,1,2,0:0:0:0:
264,180,95890,1,0,0:0:0:0:
284,176,95973,1,0,0:0:0:0:
304,180,96057,1,0,0:0:0:0:
324,176,96140,1,2,0:0:0:0:
344,180,96223,1,0,0:0:0:0:
364,176,96307,1,0,0:0:0:0:
344,280,96473,1,2,0:0:0:0:
324,280,96557,1,0,0:0:0:0:
304,280,96640,1,0,0:0:0:0:
216,220,96807,5,2,0:0:0:0:
196,220,96890,1,0,0:0:0:0:
176,220,96973,1,0,0:0:0:0:
156,220,97057,1,0,0:0:0:0:
136,220,97140,1,2,0:0:0:0:
236,300,97307,1,0,0:0:0:0:
256,300,97390,1,0,0:0:0:0:
276,300,97473,1,2,0:0:0:0:
296,300,97557,1,0,0:0:0:0:
316,300,97640,1,0,0:0:0:0:
256,188,97807,1,2,0:0:0:0:
256,168,97890,1,0,0:0:0:0:
256,148,97973,2,0,B|256:96,2,52.5,0|0|2,0:0|0:0|0:0,0:0:0:0:
160,232,98307,6,0,B|120:272,1,52.5,6|0,0:0|0:0,0:0:0:0:
324,192,98473,6,0,B|364:232,1,52.5,6|0,0:0|0:0,0:0:0:0:
140,72,98640,6,0,B|88:72,1,52.5,6|0,0:0|0:0,0:0:0:0:
444,32,98807,6,0,B|496:32,1,52.5,6|0,0:0|0:0,0:0:0:0:
140,192,98973,5,4,0:0:0:0:
140,192,99140,1,2,0:0:0:0:
140,192,99223,1,0,0:0:0:0:
140,192,99307,1,0,0:0:0:0:
36,124,99473,1,2,0:0:0:0:
140,52,99640,1,0,0:0:0:0:
140,52,99723,1,0,0:0:0:0:
140,52,99807,1,2,0:0:0:0:
224,160,99973,5,0,0:0:0:0:
236,172,100057,1,0,0:0:0:0:
252,180,100140,1,2,0:0:0:0:
268,184,100223,1,0,0:0:0:0:
284,184,100307,1,0,0:0:0:0:
300,180,100390,1,0,0:0:0:0:
316,176,100473,1,2,0:0:0:0:
332,172,100557,1,0,0:0:0:0:
348,164,100640,1,0,0:0:0:0:
360,152,100723,1,0,0:0:0:0:
368,140,100807,1,2,0:0:0:0:
376,128,100890,1,0,0:0:0:0:
408,128,100973,1,0,0:0:0:0:
424,136,101057,1,0,0:0:0:0:
432,148,101140,1,2,0:0:0:0:
436,164,101223,1,0,0:0:0:0:
436,180,101307,1,4,0:0:0:0:
432,196,101390,1,0,0:0:0:0:
424,208,101473,1,2,0:0:0:0:
408,212,101557,1,0,0:0:0:0:
392,212,101640,6,0,B|360:212|360:212|324:192|324:192|292:192,1,105,4|2,0:0|0:0,0:0:0:0:
188,192,101890,2,0,B|136:192,1,52.5
428,308,102140,1,6,0:0:0:0:
324,332,102307,5,2,0:0:0:0:
324,332,102390,1,0,0:0:0:0:
324,332,102473,1,6,0:0:0:0:
256,252,102557,6,0,B|256:200,1,52.5,0|2,0:0|0:0,0:0:0:0:
256,156,102723,2,0,B|256:104,1,52.5,0|6,0:0|0:0,0:0:0:0:
256,20,102890,1,0,0:0:0:0:
256,20,102973,2,0,B|256:72,1,52.5,6|2,0:0|0:0,0:0:0:0:
156,108,103140,5,6,0:0:0:0:
144,108,103223,2,0,B|92:108,1,52.5
316,128,103390,1,0,0:0:0:0:
328,128,103473,2,0,B|380:128,1,52.5,2|0,0:0|0:0,0:0:0:0:
168,192,103640,5,4,0:0:0:0:
156,192,103723,2,0,B|76:192,1,78.7500030040742,0|2,0:0|0:0,0:0:0:0:
348,236,103890,1,0,0:0:0:0:
360,236,103973,2,0,B|440:236,1,78.7500030040742,4|0,0:0|0:0,0:0:0:0:
156,88,104140,1,2,0:0:0:0:
48,340,104307,6,0,B|152:340,1,105,4|0,0:0|0:0,0:0:0:0:
256,340,104473,1,0,0:0:0:0:
48,340,104640,1,0,0:0:0:0:
408,192,104807,6,0,B|304:192,1,105,4|0,0:0|0:0,0:0:0:0:
200,192,104973,1,0,0:0:0:0:
408,192,105140,1,0,0:0:0:0:
48,44,105307,6,0,B|152:44,1,105,4|0,0:0|0:0,0:0:0:0:
256,44,105473,1,0,0:0:0:0:
48,44,105640,1,0,0:0:0:0:
408,192,105807,6,0,B|304:192,1,105,4|0,0:0|0:0,0:0:0:0:
200,192,105973,1,0,0:0:0:0:
408,192,106140,1,0,0:0:0:0:
104,164,106307,5,0,0:0:0:0:
260,84,106473,1,0,0:0:0:0:
404,316,106640,2,0,B|300:316,1,105,4|0,0:0|0:0,0:0:0:0:
192,316,106807,1,0,0:0:0:0:
48,164,106973,6,0,B|48:60,1,105,4|0,0:0|0:0,0:0:0:0:
256,164,107140,1,0,0:0:0:0:
256,164,107223,1,0,0:0:0:0:
256,164,107307,1,0,0:0:0:0:
448,356,107473,6,0,B|448:252,1,105,4|0,0:0|0:0,0:0:0:0:
256,344,107640,1,0,0:0:0:0:
256,344,107723,1,0,0:0:0:0:
256,344,107807,1,0,0:0:0:0:
16,216,107973,6,0,B|16:112,1,105,4|0,0:0|0:0,0:0:0:0:
224,216,108140,1,0,0:0:0:0:
224,216,108223,1,0,0:0:0:0:
224,216,108307,1,0,0:0:0:0:
464,84,108473,6,0,B|464:188,1,105,4|0,0:0|0:0,0:0:0:0:
256,84,108640,1,0,0:0:0:0:
256,84,108723,1,0,0:0:0:0:
256,84,108807,1,0,0:0:0:0:
208,16,108973,1,0,0:0:0:0:
392,56,109140,1,0,0:0:0:0:
432,328,109307,2,0,B|220:328,1,210,4|0,0:0|0:0,0:0:0:0:
128,280,109557,1,0,0:0:0:0:
128,176,109640,6,0,B|128:100|128:100|172:56|172:56|236:56|236:56|280:100|280:100|280:360,1,525,6|0,0:0|0:0,0:0:0:0:
128,176,110140,6,0,B|200:176|200:176|228:136|228:136|300:136|300:136|256:212|256:212|500:212,1,525,6|0,0:0|0:0,0:0:0:0:
128,176,110640,6,0,B|176:128|176:128|212:164|212:164|164:212|164:212|220:212|220:212|292:212,1,315,6|0,0:0|0:0,0:0:0:0:
148,56,110973,6,0,B|8:56,1,140,2|0,0:0|0:0,0:0:0:0:
356,100,111140,2,0,B|496:100,1,140,2|0,0:0|0:0,0:0:0:0:
148,148,111307,2,0,B|8:148,1,140,2|0,0:0|0:0,0:0:0:0:
356,192,111473,2,0,B|496:192,1,140,2|0,0:0|0:0,0:0:0:0:
148,240,111640,2,0,B|8:240,1,140,2|0,0:0|0:0,0:0:0:0:
356,284,111807,2,0,B|496:284,1,140,2|0,0:0|0:0,0:0:0:0:
148,336,111973,6,0,B|-12:336,1,157.5,6|0,0:0|0:0,0:0:0:0:
180,240,112307,6,0,B|180:80,1,157.5,2|0,0:0|0:0,0:0:0:0:
276,124,112640,1,0,0:0:0:0:
328,124,112723,1,0,0:0:0:0:
352,224,112807,2,0,B|512:224,1,157.5,2|0,0:0|0:0,0:0:0:0:
436,300,113140,5,0,0:0:0:0:
388,320,113223,1,0,0:0:0:0:
284,300,113307,2,0,B|124:300,1,157.5,2|0,0:0|0:0,0:0:0:0:
76,208,113640,5,0,0:0:0:0:
76,144,113807,1,0,0:0:0:0:
88,84,113973,1,0,0:0:0:0:
132,40,114140,1,0,0:0:0:0:
200,144,114307,5,0,0:0:0:0:
236,144,114390,1,0,0:0:0:0:
272,144,114473,1,0,0:0:0:0:
308,144,114557,1,0,0:0:0:0:
344,144,114640,1,0,0:0:0:0:
380,144,114723,1,0,0:0:0:0:
416,144,114807,1,0,0:0:0:0:
444,200,114890,1,0,0:0:0:0:
416,224,114973,5,4,0:0:0:0:
328,284,115140,1,2,0:0:0:0:
224,292,115307,1,0,0:0:0:0:
128,256,115473,1,2,0:0:0:0:
108,256,115557,1,0,0:0:0:0:
88,256,115640,1,0,0:0:0:0:
60,156,115807,1,2,0:0:0:0:
112,64,115973,1,2,0:0:0:0:
204,112,116140,1,2,0:0:0:0:
336,180,116307,5,0,0:0:0:0:
232,200,116473,1,2,0:0:0:0:
172,112,116640,5,2,0:0:0:0:
96,184,116807,1,0,0:0:0:0:
396,268,116973,5,2,0:0:0:0:
292,288,117140,1,0,0:0:0:0:
232,200,117307,5,0,0:0:0:0:
144,256,117473,1,2,0:0:0:0:
256,76,117640,5,0,0:0:0:0:
164,128,117807,1,2,0:0:0:0:
232,208,117973,1,2,0:0:0:0:
320,148,118140,1,0,0:0:0:0:
192,72,118307,5,2,0:0:0:0:
100,124,118473,1,0,0:0:0:0:
168,204,118640,1,2,0:0:0:0:
260,156,118807,1,0,0:0:0:0:
416,48,118973,5,2,0:0:0:0:
464,144,119140,1,0,0:0:0:0:
360,164,119307,1,0,0:0:0:0:
400,260,119473,1,2,0:0:0:0:
408,132,119640,5,2,0:0:0:0:
456,248,119807,1,0,0:0:0:0:
336,216,119973,1,0,0:0:0:0:
380,336,120140,1,2,0:0:0:0:
48,192,120307,6,0,B|100:192,1,52.5,2|0,0:0|0:0,0:0:0:0:
256,192,120640,1,2,0:0:0:0:
360,192,120807,2,0,B|412:192,1,52.5,2|0,0:0|0:0,0:0:0:0:
256,348,121140,5,2,0:0:0:0:
152,348,121307,2,0,B|100:348,1,52.5,2|0,0:0|0:0,0:0:0:0:
360,348,121640,6,0,B|412:348,1,52.5,2|0,0:0|0:0,0:0:0:0:
256,192,121973,1,2,0:0:0:0:
152,192,122140,2,0,B|100:192,1,52.5,2|0,0:0|0:0,0:0:0:0:
256,36,122473,5,2,0:0:0:0:
360,36,122640,2,0,B|412:36,1,52.5,2|0,0:0|0:0,0:0:0:0:
152,36,122973,6,0,B|100:36,1,52.5,2|0,0:0|0:0,0:0:0:0:
256,192,123307,1,2,0:0:0:0:
360,192,123473,2,0,B|412:192,1,52.5,2|0,0:0|0:0,0:0:0:0:
256,348,123807,5,2,0:0:0:0:
152,348,123973,2,0,B|100:348,1,52.5,2|0,0:0|0:0,0:0:0:0:
360,348,124307,6,0,B|412:348,1,52.5,0|0,0:0|0:0,0:0:0:0:
256,192,124640,1,0,0:0:0:0:
152,192,124807,2,0,B|100:192,1,52.5,2|0,0:0|0:0,0:0:0:0:
256,36,125140,5,0,0:0:0:0:
360,36,125307,2,0,B|412:36,1,52.5,2|0,0:0|0:0,0:0:0:0:
256,192,125640,5,0,0:0:0:0:
156,160,125807,1,2,0:0:0:0:
256,192,125973,1,0,0:0:0:0:
356,160,126140,1,2,0:0:0:0:
256,236,126307,5,0,0:0:0:0:
156,204,126473,1,2,0:0:0:0:
256,236,126640,1,0,0:0:0:0:
356,204,126807,1,2,0:0:0:0:
256,280,126973,5,0,0:0:0:0:
156,248,127140,1,2,0:0:0:0:
256,280,127307,1,0,0:0:0:0:
356,248,127473,1,2,0:0:0:0:
256,324,127640,5,0,0:0:0:0:
156,292,127807,1,2,0:0:0:0:
256,324,127973,1,0,0:0:0:0:
356,292,128140,1,2,0:0:0:0:
256,192,128307,5,4,0:0:0:0:
256,192,128473,12,0,130973,0:0:0:0:
