osu file format v14

[General]
AudioFilename: squartatrice fear.mp3
AudioLeadIn: 0
PreviewTime: 641
Countdown: 0
SampleSet: Soft
StackLeniency: 0.6
Mode: 0
LetterboxInBreaks: 0
WidescreenStoryboard: 0

[Editor]
Bookmarks: 120307
DistanceSpacing: 0.6
BeatDivisor: 4
GridSize: 4
TimelineZoom: 3.699999

[Metadata]
Title:squartatrice
TitleUnicode:squartatrice
Artist:Miki Sayaka vs. Miki Sayaka (fw. Miki Sayaka)
ArtistUnicode:美樹さやか vs. 美樹さやか (fw. 美樹さやか)
Creator:soulfear
Version:Hyper
Source:BMS
Tags:kozato gmtn. luze Thite Witch Rein Rein0527 Fear Charles445
BeatmapID:1633129
BeatmapSetID:40499

[Difficulty]
HPDrainRate:5
CircleSize:4
OverallDifficulty:7
ApproachRate:8.7
SliderMultiplier:1.4
SliderTickRate:1

[Events]
//Background and Video events
Video,-15,"_bga.flv"
0,0,"_squartarice_bg.png",0,0
//Break Periods
//Storyboard Layer 0 (Background)
//Storyboard Layer 1 (Fail)
//Storyboard Layer 2 (Pass)
//Storyboard Layer 3 (Foreground)
//Storyboard Sound Samples

[TimingPoints]
-25,333.333333333333,4,2,1,80,1,0
10391,-100,4,2,1,85,0,0
10641,333.333333333333,3,2,1,85,1,0
24641,-100,4,2,1,80,0,0
25641,-100,4,2,1,85,0,0
25933,-100,4,2,1,90,0,0
26641,-83.3333333333333,4,2,1,90,0,0
41224,-83.3333333333333,4,2,1,95,0,0
42641,333.333333333333,6,2,1,100,1,0
42641,-71.4285714285714,4,2,1,100,0,0
49933,-83.3333333333333,4,1,1,90,0,0
50641,-83.3333333333333,4,2,1,95,0,0
54640,-71.4285714285714,4,2,1,100,0,0
58641,333.333333333333,4,2,1,100,1,0
58891,-71.4285714285714,4,2,1,100,0,0
61224,-100,4,2,1,100,0,0
70224,-66.6666666666667,4,2,1,100,0,0
71599,-83.3333333333333,4,1,1,80,0,0
71974,-83.3333333333333,4,1,1,90,0,0
77308,-83.3333333333333,4,2,1,90,0,0
77641,-83.3333333333333,4,1,1,80,0,0
78641,-83.3333333333333,4,2,1,100,0,0
78974,-83.3333333333333,4,1,1,80,0,0
79308,-83.3333333333333,4,1,1,90,0,0
79641,-83.3333333333333,4,1,1,80,0,0
79974,-83.3333333333333,4,1,1,95,0,0
81308,333.333333333333,5,1,1,80,1,0
81308,-83.3333333333333,4,1,1,80,0,0
81433,-83.3333333333333,4,2,1,80,0,0
81641,-83.3333333333333,4,2,1,100,0,0
82974,333.333333333333,4,2,1,95,1,0
82975,-83.3333333333333,4,2,1,95,0,0
91473,-133.333333333333,4,2,1,95,0,0
92891,-83.3333333333333,4,1,1,80,0,0
93599,-83.3333333333333,4,2,1,95,0,0
110918,-66.6666666666667,4,2,1,95,0,0
112224,-76.9230769230769,4,2,1,95,0,0
113599,-83.3333333333333,4,1,1,80,0,0
114933,-83.3333333333333,4,2,1,90,0,0
115058,-83.3333333333333,4,2,1,85,0,0
125557,-100,4,2,1,80,0,0
128224,-83.3333333333333,4,2,1,100,0,0
128391,-83.3333333333333,4,2,1,5,0,0

[Colours]
Combo1 : 128,128,255
Combo2 : 0,255,255
Combo3 : 0,128,255

[HitObjects]
212,260,2641,6,0,P|203:294|204:329,1,70,2|0,0:0|0:0,0:0:0:0:
309,297,2974,2,0,P|317:263|316:228,1,70
278,125,3308,1,0,0:0:0:0:
170,149,3474,2,0,L|114:165,2,35
278,125,3808,1,0,0:0:0:0:
398,165,3974,6,0,L|470:201,1,70,2|0,0:0|0:0,0:0:0:0:
309,297,4308,2,0,L|381:261,1,70
215,93,4641,2,0,L|287:129,1,70
126,281,4974,2,0,L|198:245,1,70
78,49,5308,5,2,0:0:0:0:
34,129,5474,1,0,0:0:0:0:
126,121,5641,1,0,0:0:0:0:
102,209,5808,1,0,0:0:0:0:
190,181,5974,1,0,0:0:0:0:
234,257,6141,5,0,0:0:0:0:
322,281,6308,1,0,0:0:0:0:
410,257,6474,1,0,0:0:0:0:
470,157,6641,5,2,0:0:0:0:
454,69,6808,1,0,0:0:0:0:
454,69,6891,1,0,0:0:0:0:
454,69,6974,1,0,0:0:0:0:
382,125,7141,1,0,0:0:0:0:
278,85,7308,6,0,L|226:141,1,70
84,140,7641,2,0,L|136:196,1,70
234,257,7974,5,2,0:0:0:0:
206,344,8141,1,0,0:0:0:0:
294,324,8308,1,0,0:0:0:0:
317,318,8391,1,0,0:0:0:0:
340,312,8474,1,0,0:0:0:0:
363,306,8558,1,0,0:0:0:0:
386,300,8641,1,0,0:0:0:0:
349,147,8808,5,0,0:0:0:0:
321,234,8974,1,0,0:0:0:0:
409,214,9141,1,0,0:0:0:0:
184,58,9308,5,2,0:0:0:0:
156,145,9474,1,0,0:0:0:0:
244,125,9641,1,0,0:0:0:0:
238,148,9724,1,0,0:0:0:0:
232,172,9808,1,0,0:0:0:0:
226,195,9891,1,0,0:0:0:0:
221,218,9974,1,0,0:0:0:0:
198,311,10141,2,0,L|181:379,2,70
300,284,10641,6,0,P|331:296|380:294,1,70,4|0,0:0|0:0,0:0:0:0:
423,158,10974,2,0,P|392:146|343:148,1,70,2|0,0:0|0:0,0:0:0:0:
156,145,11307,2,0,P|187:157|236:155,1,70,2|0,0:0|0:0,0:0:0:0:
366,41,11640,5,0,0:0:0:0:
260,64,11807,1,0,0:0:0:0:
156,145,11974,5,2,0:0:0:0:
262,168,12140,1,0,0:0:0:0:
366,249,12307,5,2,0:0:0:0:
262,269,12474,1,0,0:0:0:0:
156,353,12640,5,0,0:0:0:0:
72,264,12807,1,0,0:0:0:0:
56,240,12890,1,0,0:0:0:0:
48,213,12974,1,2,0:0:0:0:
46,183,13057,1,0,0:0:0:0:
50,156,13140,1,0,0:0:0:0:
62,130,13224,1,0,0:0:0:0:
80,108,13307,1,2,0:0:0:0:
156,188,13474,1,0,0:0:0:0:
256,144,13640,6,0,L|324:116,1,70
488,204,13974,2,0,L|420:176,1,70,2|0,0:0|0:0,0:0:0:0:
256,264,14307,2,0,L|324:236,1,70,2|0,0:0|0:0,0:0:0:0:
488,324,14640,5,0,0:0:0:0:
400,268,14807,1,0,0:0:0:0:
324,340,14974,1,2,0:0:0:0:
236,284,15140,1,0,0:0:0:0:
160,356,15307,2,0,P|120:364|68:352,1,70,2|0,0:0|0:0,0:0:0:0:
124,260,15640,6,0,L|124:184,1,70
220,64,15974,1,2,0:0:0:0:
220,168,16140,1,0,0:0:0:0:
320,200,16307,2,0,L|320:124,1,70,2|0,0:0|0:0,0:0:0:0:
400,268,16640,6,0,L|452:340,1,70
320,130,16974,2,0,L|372:58,1,70,2|0,0:0|0:0,0:0:0:0:
232,260,17307,2,0,L|284:332,1,70,2|0,0:0|0:0,0:0:0:0:
152,122,17640,6,0,P|96:148|60:152,1,70
320,130,17974,2,0,P|353:119|383:102,1,70,2|0,0:0|0:0,0:0:0:0:
232,260,18307,2,0,P|176:286|140:290,1,70,2|0,0:0|0:0,0:0:0:0:
400,268,18640,5,0,0:0:0:0:
313,323,18807,1,0,0:0:0:0:
232,260,18974,1,2,0:0:0:0:
319,204,19140,1,0,0:0:0:0:
227,157,19307,5,2,0:0:0:0:
140,212,19474,1,0,0:0:0:0:
59,149,19640,1,0,0:0:0:0:
146,93,19807,1,0,0:0:0:0:
244,65,19974,5,2,0:0:0:0:
331,120,20140,1,0,0:0:0:0:
412,57,20307,1,2,0:0:0:0:
499,112,20474,1,0,0:0:0:0:
418,175,20640,5,0,0:0:0:0:
485,253,20807,1,0,0:0:0:0:
473,278,20890,1,0,0:0:0:0:
454,298,20974,1,2,0:0:0:0:
430,313,21057,1,0,0:0:0:0:
403,322,21140,1,0,0:0:0:0:
375,324,21224,1,0,0:0:0:0:
347,318,21307,1,2,0:0:0:0:
256,244,21474,1,0,0:0:0:0:
165,318,21640,6,0,P|124:336|76:336,1,70
204,184,21974,2,0,P|245:166|293:166,1,70,2|0,0:0|0:0,0:0:0:0:
108,68,22307,2,0,P|67:86|19:86,1,70,2|0,0:0|0:0,0:0:0:0:
292,48,22640,5,0,0:0:0:0:
200,96,22807,1,0,0:0:0:0:
376,204,22974,5,2,0:0:0:0:
292,144,23140,1,0,0:0:0:0:
204,184,23307,1,2,0:0:0:0:
112,232,23474,1,0,0:0:0:0:
288,340,23640,5,0,0:0:0:0:
204,280,23807,1,0,0:0:0:0:
376,204,23974,5,2,0:0:0:0:
284,252,24140,1,0,0:0:0:0:
292,48,24307,5,2,0:0:0:0:
200,96,24474,2,0,L|155:119,1,35
100,148,24640,5,0,0:0:0:0:
112,232,24807,1,0,0:0:0:0:
160,300,24974,1,0,0:0:0:0:
236,340,25140,1,0,0:0:0:0:
304,292,25307,1,2,0:0:0:0:
380,332,25474,1,0,0:0:0:0:
436,268,25640,6,0,L|468:224,1,35,2|0,0:0|0:0,0:0:0:0:
408,212,25807,2,0,L|440:168,1,35
380,156,25974,2,0,L|412:112,1,35
352,100,26140,2,0,L|384:56,1,35
324,44,26307,5,2,0:3:0:0:
292,48,26390,1,2,0:3:0:0:
260,52,26474,1,2,0:3:0:0:
228,56,26557,1,2,0:3:0:0:
196,60,26640,5,4,0:0:0:0:
248,168,26807,1,0,0:0:0:0:
196,272,26974,2,0,P|192:316|200:356,1,83.9999974365235,2|0,0:0|0:0,0:0:0:0:
360,204,27307,2,0,P|364:160|356:120,1,83.9999974365235,2|0,0:0|0:0,0:0:0:0:
303,307,27640,5,2,0:0:0:0:
303,307,27724,1,0,0:0:0:0:
303,307,27807,1,0,0:0:0:0:
415,275,27974,2,0,L|467:274,2,41.9999987182618,2|0|0,0:0|0:0|0:0,0:0:0:0:
248,168,28307,1,2,0:0:0:0:
248,168,28390,1,0,0:0:0:0:
248,168,28474,1,0,0:0:0:0:
136,136,28640,6,0,L|52:136,1,83.9999974365235,2|0,0:0|0:0,0:0:0:0:
256,84,28974,2,0,L|340:84,1,83.9999974365235,2|0,0:0|0:0,0:0:0:0:
212,268,29307,2,0,L|128:268,1,83.9999974365235,2|0,0:0|0:0,0:0:0:0:
332,216,29640,5,2,0:0:0:0:
356,216,29724,1,0,0:0:0:0:
380,216,29807,1,0,0:0:0:0:
416,132,29974,1,2,0:0:0:0:
440,132,30057,1,0,0:0:0:0:
464,132,30140,1,0,0:0:0:0:
332,48,30307,5,2,0:0:0:0:
308,48,30390,1,0,0:0:0:0:
284,48,30474,1,0,0:0:0:0:
260,48,30557,1,0,0:0:0:0:
236,48,30640,5,2,0:0:0:0:
216,64,30724,1,0,0:0:0:0:
196,80,30807,1,0,0:0:0:0:
196,208,30974,2,0,L|196:264,2,41.9999987182618,2|0|0,0:0|0:0|0:0,0:0:0:0:
96,144,31307,5,2,0:0:0:0:
96,268,31474,1,0,0:0:0:0:
196,208,31640,5,2,0:0:0:0:
196,332,31807,1,0,0:0:0:0:
300,268,31974,5,2,0:0:0:0:
300,144,32140,1,0,0:0:0:0:
416,80,32307,5,2,0:0:0:0:
416,204,32474,1,0,0:0:0:0:
416,328,32640,5,2,0:0:0:0:
300,268,32807,2,0,L|237:306,2,41.9999987182618,0|0|2,0:0|0:0|0:0,0:0:0:0:
196,208,33140,1,0,0:0:0:0:
174,221,33224,1,0,0:0:0:0:
153,235,33307,1,2,0:0:0:0:
92,148,33474,1,0,0:0:0:0:
196,68,33640,6,0,P|268:92|356:68,1,167.999994873047,2|2,0:0|0:0,0:0:0:0:
296,204,34140,1,0,0:0:0:0:
420,156,34307,5,2,0:0:0:0:
427,179,34390,1,0,0:0:0:0:
430,203,34474,1,0,0:0:0:0:
428,228,34557,1,0,0:0:0:0:
420,251,34640,1,2,0:0:0:0:
308,328,34807,5,0,0:0:0:0:
196,260,34974,2,0,P|180:220|180:180,1,83.9999974365235,2|0,0:0|0:0,0:0:0:0:
354,68,35307,2,0,P|370:108|370:148,1,83.9999974365235,2|0,0:0|0:0,0:0:0:0:
196,260,35640,6,0,L|136:296,2,41.9999987182618,2|0|0,0:0|0:0|0:0,0:0:0:0:
276,128,35974,1,2,0:0:0:0:
276,128,36057,1,0,0:0:0:0:
276,128,36140,1,0,0:0:0:0:
168,56,36307,2,0,L|108:20,2,41.9999987182618,2|0|0,0:0|0:0|0:0,0:0:0:0:
320,256,36640,6,0,P|360:264|416:260,1,83.9999974365235,2|0,0:0|0:0,0:0:0:0:
282,45,36974,2,0,P|274:85|278:141,1,83.9999974365235,2|0,0:0|0:0,0:0:0:0:
88,192,37307,2,0,P|128:200|184:196,1,83.9999974365235,2|0,0:0|0:0,0:0:0:0:
388,96,37640,5,2,0:0:0:0:
372,116,37724,1,0,0:0:0:0:
356,136,37807,1,0,0:0:0:0:
428,224,37974,1,2,0:0:0:0:
444,244,38057,1,0,0:0:0:0:
460,264,38140,1,0,0:0:0:0:
352,312,38307,5,2,0:0:0:0:
328,320,38390,1,0,0:0:0:0:
304,329,38474,1,0,0:0:0:0:
280,338,38557,1,0,0:0:0:0:
256,347,38640,5,2,0:0:0:0:
236,330,38724,1,0,0:0:0:0:
216,313,38807,1,0,0:0:0:0:
256,192,38974,2,0,L|304:192,2,41.9999987182618,2|0|0,0:0|0:0|0:0,0:0:0:0:
60,104,39307,5,2,0:0:0:0:
172,44,39474,1,0,0:0:0:0:
168,164,39640,5,2,0:0:0:0:
280,224,39807,1,0,0:0:0:0:
288,108,39974,5,2,0:0:0:0:
400,48,40140,1,0,0:0:0:0:
396,168,40307,5,2,0:0:0:0:
508,228,40474,1,0,0:0:0:0:
504,348,40640,6,0,L|444:348,1,41.9999987182618,4|0,0:0|0:0,0:0:0:0:
440,308,40807,2,0,L|372:308,1,41.9999987182618
376,268,40974,2,0,L|272:268,1,83.9999974365235,4|0,0:0|0:0,0:0:0:0:
104,192,41307,5,4,0:0:0:0:
128,192,41390,1,0,0:0:0:0:
152,192,41474,1,0,0:0:0:0:
176,192,41557,1,0,0:0:0:0:
200,192,41640,2,0,L|256:192,3,41.9999987182618,4|0|0|0,0:0|0:0|0:0|0:0,0:0:0:0:
336,192,41974,6,0,L|364:136,1,41.9999987182618,4|0,0:0|0:0,0:0:0:0:
256,112,42140,2,0,L|200:84,1,41.9999987182618,4|0,0:0|0:0,0:0:0:0:
176,192,42307,2,0,L|148:248,1,41.9999987182618,4|0,0:0|0:0,0:0:0:0:
256,272,42474,2,0,L|312:300,1,41.9999987182618,2|0,0:0|0:0,0:0:0:0:
416,268,42641,6,0,P|440:200|424:120,1,146.999995513916,4|0,0:0|0:0,0:0:0:0:
428,40,42974,2,0,P|368:64|272:52,1,146.999995513916,4|0,0:0|0:0,0:0:0:0:
196,24,43307,1,2,0:0:0:0:
92,132,43474,6,0,P|112:180|84:284,1,146.999995513916,4|0,0:0|0:0,0:0:0:0:
200,228,43807,2,0,L|244:196,1,48.9999985046387,4|0,0:0|0:0,0:0:0:0:
280,276,43974,2,4,L|319:304,1,48.9999985046387,4|0,0:0|0:0,0:0:0:0:
360,228,44141,2,4,L|399:199,1,48.9999985046387,4|0,0:0|0:0,0:0:0:0:
440,276,44307,1,2,0:0:0:0:
492,200,44474,6,0,L|492:156,4,24.4999992523194,0|0|0|0|4,0:0|0:0|0:0|0:0|0:0,0:0:0:0:
420,108,44807,1,4,0:0:0:0:
360,228,44974,1,4,0:0:0:0:
286,116,45141,1,2,0:0:0:0:
286,116,45474,6,0,P|240:148|120:128,1,146.999995513916,4|0,0:0|0:0,0:0:0:0:
88,92,45807,2,0,L|40:144,1,48.9999985046387
80,216,45974,5,4,0:0:0:0:
104,236,46057,1,0,0:0:0:0:
128,256,46141,1,2,0:0:0:0:
152,276,46224,1,2,0:0:0:0:
176,296,46307,2,0,L|234:347,1,48.9999985046387,4|0,0:0|0:0,0:0:0:0:
304,224,46474,2,0,L|267:256,1,48.9999985046387,2|0,0:0|0:0,0:0:0:0:
184,148,46640,6,0,P|232:160|340:108,1,146.999995513916,4|0,0:0|0:0,0:0:0:0:
388,40,46974,2,0,P|428:100|424:176,1,146.999995513916,4|0,0:0|0:0,0:0:0:0:
392,272,47307,1,2,0:0:0:0:
248,224,47474,6,0,P|184:224|108:280,1,146.999995513916,4|0,0:0|0:0,0:0:0:0:
212,320,47807,2,0,L|272:312,1,48.9999985046387,4|0,0:0|0:0,0:0:0:0:
248,224,47974,2,0,L|308:216,1,48.9999985046387,4|0,0:0|0:0,0:0:0:0:
284,128,48140,2,0,L|344:120,1,48.9999985046387,4|0,0:0|0:0,0:0:0:0:
320,32,48307,1,2,0:0:0:0:
204,56,48474,6,0,L|165:61,4,24.4999992523194,0|0|0|0|4,0:0|0:0|0:0|0:0|0:0,0:0:0:0:
120,168,48807,1,4,0:0:0:0:
248,224,48974,1,4,0:0:0:0:
120,280,49140,1,2,0:0:0:0:
120,280,49474,6,0,P|164:340|240:364,1,146.999995513916,4|0,0:0|0:0,0:0:0:0:
328,312,49807,2,0,P|352:308|384:308,1,48.9999985046387,2|0,0:0|0:0,0:0:0:0:
400,216,49974,6,0,L|460:144,2,55.9999982910157
332,128,50307,2,0,L|296:84,2,55.9999982910157
264,208,50640,6,0,L|228:228,3,41.9999987182618,4|0|0|0,0:0|0:0|0:0|0:0,0:0:0:0:
192,148,50974,2,0,L|156:168,3,41.9999987182618,2|0|0|0,0:0|0:0|0:0|0:0,0:0:0:0:
84,224,51307,2,0,L|120:244,3,41.9999987182618,2|0|2|0,0:0|0:0|0:0|0:0,0:0:0:0:
184,308,51640,2,0,L|220:328,3,41.9999987182618,2|0|2|0,0:0|0:0|0:0|0:0,0:0:0:0:
304,288,51974,6,0,L|396:336,1,83.9999974365235,2|2,0:0|0:0,0:0:0:0:
440,192,52307,2,0,L|464:152,1,41.9999987182618,4|0,0:0|0:0,0:0:0:0:
372,128,52474,2,0,L|396:88,1,41.9999987182618
304,64,52640,6,0,L|328:24,3,41.9999987182618,6|0|2|0,0:0|0:0|0:0|0:0,0:0:0:0:
256,136,52974,2,0,L|280:176,3,41.9999987182618,2|0|2|0,0:0|0:0|0:0|0:0,0:0:0:0:
205,64,53307,2,0,L|229:24,3,41.9999987182618,2|0|2|0,0:0|0:0|0:0|0:0,0:0:0:0:
157,136,53640,2,0,L|181:176,3,41.9999987182618,2|0|2|0,0:0|0:0|0:0|0:0,0:0:0:0:
106,64,53974,6,0,L|40:82,1,41.9999987182618,4|0,0:0|0:0,0:0:0:0:
71,156,54140,2,0,L|5:174,1,41.9999987182618,4|0,0:0|0:0,0:0:0:0:
106,248,54307,2,0,L|205:275,1,83.9999974365235,4|2,0:0|0:0,0:0:0:0:
413,156,54640,6,0,P|344:189|268:182,1,146.999995513916,4|0,0:0|0:0,0:0:0:0:
328,97,54974,2,0,P|397:64|473:71,1,146.999995513916,4|0,0:0|0:0,0:0:0:0:
413,156,55307,1,2,0:0:0:0:
482,299,55474,6,0,P|421:336|348:337,1,146.999995513916,4|0,0:0|0:0,0:0:0:0:
252,288,55807,1,4,0:0:0:0:
392,240,55974,1,4,0:0:0:0:
252,192,56140,1,4,0:0:0:0:
392,144,56307,1,2,0:0:0:0:
252,96,56474,2,0,L|204:96,1,48.9999985046387,2|0,0:0|0:0,0:0:0:0:
140,160,56640,5,4,0:0:0:0:
64,256,56807,2,0,L|32:296,2,48.9999985046387,2|0|2,0:0|0:0|0:0,0:0:0:0:
160,348,57140,1,0,0:0:0:0:
268,280,57307,2,0,P|308:272|372:288,1,97.9999970092774,2|0,0:0|0:0,0:0:0:0:
456,192,57640,5,2,0:0:0:0:
456,192,57807,1,2,0:0:0:0:
352,64,57974,1,2,0:0:0:0:
352,64,58140,1,2,0:0:0:0:
220,168,58307,1,2,0:0:0:0:
220,168,58474,1,2,0:0:0:0:
116,84,58640,5,4,0:0:0:0:
106,111,58724,1,0,0:0:0:0:
96,139,58807,1,0,0:0:0:0:
87,166,58891,1,0,0:0:0:0:
78,193,58974,1,0,0:0:0:0:
169,314,59141,2,0,L|189:255,4,48.9999985046387,4|0|0|0|0,0:0|0:0|0:0|0:0|0:0,0:0:0:0:
327,188,59641,5,4,0:0:0:0:
317,215,59724,1,0,0:0:0:0:
307,243,59807,1,0,0:0:0:0:
298,270,59891,1,0,0:0:0:0:
289,297,59974,5,4,0:0:0:0:
318,292,60057,1,0,0:0:0:0:
347,288,60141,1,0,0:0:0:0:
376,284,60224,1,0,0:0:0:0:
405,280,60307,1,0,0:0:0:0:
488,160,60474,2,0,L|412:171,3,48.9999985046387,4|0|0|0,0:0|0:0|0:0|0:0,0:0:0:0:
452,80,60807,6,0,L|376:91,1,48.9999985046387
304,104,60974,1,2,0:3:0:0:
184,52,61141,1,2,0:0:0:0:
128,188,61307,5,4,0:0:0:0:
256,316,61641,1,0,0:0:0:0:
352,144,61974,5,2,0:0:0:0:
428,84,62141,1,2,0:0:0:0:
442,180,62307,1,2,0:0:0:0:
366,239,62474,1,2,0:0:0:0:
380,335,62640,5,0,0:0:0:0:
256,168,62974,1,0,0:0:0:0:
132,335,63307,5,2,0:0:0:0:
146,239,63474,1,2,0:0:0:0:
70,180,63640,1,2,0:0:0:0:
84,84,63807,1,2,0:0:0:0:
160,144,63974,5,0,0:0:0:0:
256,284,64307,1,0,0:0:0:0:
352,144,64640,5,2,0:0:0:0:
292,64,64807,1,2,0:0:0:0:
392,52,64974,1,2,0:0:0:0:
459,127,65140,1,2,0:0:0:0:
419,219,65307,5,0,0:0:0:0:
256,284,65641,1,0,0:0:0:0:
93,219,65974,5,2,0:0:0:0:
53,127,66140,1,2,0:0:0:0:
120,52,66307,1,2,0:0:0:0:
220,64,66474,1,2,0:0:0:0:
160,144,66640,5,0,0:0:0:0:
164,148,66724,1,0,0:0:0:0:
168,152,66807,1,0,0:0:0:0:
256,228,66974,1,0,0:0:0:0:
364,40,67307,5,2,0:0:0:0:
452,96,67474,1,2,0:0:0:0:
452,192,67640,1,2,0:0:0:0:
364,248,67807,1,2,0:0:0:0:
352,144,67974,5,0,0:0:0:0:
348,148,68057,1,0,0:0:0:0:
344,152,68140,1,0,0:0:0:0:
256,228,68307,1,0,0:0:0:0:
148,40,68640,5,2,0:0:0:0:
60,96,68807,1,2,0:0:0:0:
60,192,68974,1,2,0:0:0:0:
148,248,69140,1,2,0:0:0:0:
256,228,69307,5,0,0:0:0:0:
260,232,69390,1,0,0:0:0:0:
264,236,69474,1,0,0:0:0:0:
372,292,69640,1,0,0:0:0:0:
452,112,69974,5,2,0:0:0:0:
356,172,70140,1,2,0:0:0:0:
272,96,70307,2,0,P|244:76|224:168,1,157.500006008148,2|0,0:0|0:0,0:0:0:0:
256,228,70640,5,4,0:0:0:0:
256,320,71307,5,4,0:0:0:0:
256,320,71640,2,0,L|256:360,6,20.9999993591309
344,272,71974,6,0,L|396:272,1,41.9999987182618,4|0,0:0|0:0,0:0:0:0:
400,192,72140,2,0,L|464:192,1,41.9999987182618
456,112,72307,1,0,0:0:0:0:
256,44,72640,5,0,0:0:0:0:
232,44,72724,1,0,0:0:0:0:
208,44,72807,1,0,0:0:0:0:
184,44,72890,1,0,0:0:0:0:
160,44,72974,2,0,L|100:44,3,41.9999987182618
168,124,73307,6,0,L|168:196,1,41.9999987182618
256,197,73474,2,0,L|256:266,1,41.9999987182618
344,272,73640,1,0,0:0:0:0:
156,272,73974,5,0,0:0:0:0:
132,272,74057,1,0,0:0:0:0:
108,272,74140,1,0,0:0:0:0:
84,272,74224,1,0,0:0:0:0:
60,272,74307,2,0,L|4:272,3,41.9999987182618
72,180,74640,6,0,L|72:136,1,41.9999987182618
168,124,74807,2,0,L|168:80,1,41.9999987182618
264,68,74974,1,0,0:0:0:0:
332,192,75307,5,0,0:0:0:0:
356,192,75390,1,0,0:0:0:0:
380,192,75474,1,0,0:0:0:0:
404,192,75557,1,0,0:0:0:0:
428,192,75640,2,0,L|476:192,3,41.9999987182618
384,276,75974,5,0,0:0:0:0:
240,276,76140,1,0,0:0:0:0:
216,276,76224,1,0,0:0:0:0:
192,276,76307,2,0,L|150:276,3,41.9999987182618
120,196,76640,6,0,L|76:196,1,41.9999987182618
150,116,76807,2,0,L|206:116,1,41.9999987182618
120,36,76974,2,0,L|64:36,3,41.9999987182618
216,36,77307,5,4,0:0:0:0:
240,36,77390,1,0,0:0:0:0:
264,36,77474,1,0,0:0:0:0:
288,36,77557,1,0,0:0:0:0:
312,36,77640,1,0,0:0:0:0:
412,147,77974,5,4,0:2:0:0:
412,173,78057,1,0,0:0:0:0:
412,200,78140,1,0,0:0:0:0:
412,226,78224,1,0,0:0:0:0:
412,252,78307,1,0,0:0:0:0:
412,348,78474,1,0,0:0:0:0:
306,348,78640,5,4,0:2:0:0:
277,348,78724,1,0,0:0:0:0:
248,348,78807,1,0,0:0:0:0:
218,348,78890,1,0,0:0:0:0:
189,348,78974,1,0,0:0:0:0:
100,247,79307,5,4,0:2:0:0:
100,215,79390,1,0,0:0:0:0:
100,184,79474,1,0,0:0:0:0:
100,152,79557,1,0,0:0:0:0:
100,120,79640,1,0,0:0:0:0:
216,36,79807,1,0,0:0:0:0:
296,144,79974,6,0,P|336:168|388:172,1,83.9999974365235,4|0,0:0|0:0,0:0:0:0:
328,252,80224,2,0,P|312:324|320:360,1,83.9999974365235,4|0,0:0|0:0,0:0:0:0:
408,310,80474,1,4,0:0:0:0:
212,256,80640,6,0,L|168:244,1,41.9999987182618,4|0,0:0|0:0,0:0:0:0:
192,148,80807,2,0,L|204:104,1,41.9999987182618
300,128,80974,2,0,L|344:140,1,41.9999987182618,4|0,0:0|0:0,0:0:0:0:
320,236,81140,2,0,L|308:280,1,41.9999987182618,4|0,0:0|0:0,0:0:0:0:
212,256,81307,5,2,0:3:0:0:
42,142,81641,6,0,L|28:210,3,41.9999987182618,2|0|2|0,0:0|0:0|0:0|0:0,0:0:0:0:
120,80,81974,2,0,L|128:38,3,41.9999987182618,2|0|2|0,0:0|0:0|0:0|0:0,0:0:0:0:
192,148,82308,2,0,L|184:181,4,20.9999993591309,2|0|2|0|2,0:0|0:0|0:0|0:0|0:0,0:0:0:0:
304,48,82641,6,0,L|358:92,1,41.9999987182618,2|0,0:0|0:0,0:0:0:0:
408,87,82808,2,0,L|462:131,1,41.9999987182618,2|0,0:0|0:0,0:0:0:0:
458,183,82974,5,4,0:0:0:0:
384,272,83140,1,0,0:0:0:0:
384,272,83224,1,0,0:0:0:0:
384,272,83307,1,2,0:0:0:0:
272,232,83474,2,0,P|216:224|136:260,1,125.999996154785
100,304,83807,1,2,0:0:0:0:
52,192,83974,5,0,0:0:0:0:
72,176,84057,1,0,0:0:0:0:
92,160,84140,1,0,0:0:0:0:
112,144,84224,1,0,0:0:0:0:
132,128,84307,1,2,0:0:0:0:
224,44,84474,1,0,0:0:0:0:
320,116,84640,6,0,P|356:128|444:116,1,125.999996154785,2|0,0:0|0:0,0:0:0:0:
424,200,84974,2,0,P|420:256|456:324,1,125.999996154785,2|0,0:0|0:0,0:0:0:0:
368,348,85307,2,0,L|304:372,2,41.9999987182618,2|0|0,0:0|0:0|0:0,0:0:0:0:
272,204,85640,5,0,0:0:0:0:
176,272,85807,1,0,0:0:0:0:
176,272,85890,1,0,0:0:0:0:
176,272,85974,1,2,0:0:0:0:
152,164,86140,2,0,P|152:112|200:48,1,125.999996154785
276,28,86474,1,2,0:0:0:0:
276,148,86640,5,0,0:0:0:0:
287,170,86724,1,0,0:0:0:0:
304,188,86807,1,0,0:0:0:0:
324,201,86890,1,0,0:0:0:0:
347,210,86974,1,2,0:0:0:0:
476,176,87140,1,0,0:0:0:0:
440,288,87307,2,0,P|404:320|360:328,1,83.9999974365235
208,264,87640,5,4,0:0:0:0:
84,316,87807,1,4,0:0:0:0:
176,160,87974,5,4,0:0:0:0:
300,212,88140,1,4,0:0:0:0:
208,56,88307,6,0,P|168:52|120:68,1,83.9999974365235,4|0,0:0|0:0,0:0:0:0:
308,140,88640,1,2,0:0:0:0:
176,160,88807,1,0,0:0:0:0:
152,164,88890,1,0,0:0:0:0:
128,168,88974,1,0,0:0:0:0:
248,280,89140,2,0,L|160:256,1,83.9999974365235,2|0,0:0|0:0,0:0:0:0:
408,188,89474,2,0,L|344:208,1,41.9999987182618,2|0,0:0|0:0,0:0:0:0:
464,256,89640,6,0,L|332:297,1,125.999996154785
248,280,89974,2,0,L|268:240,1,41.9999987182618,2|0,0:0|0:0,0:0:0:0:
184,180,90140,2,0,L|224:152,1,41.9999987182618
156,72,90307,2,0,L|204:56,3,41.9999987182618,2|0|0|0,0:0|0:0|0:0|0:0,0:0:0:0:
280,28,90640,5,2,0:0:0:0:
300,44,90723,1,0,0:0:0:0:
320,60,90807,1,0,0:0:0:0:
340,76,90890,1,0,0:0:0:0:
360,92,90973,5,4,0:0:0:0:
372,328,91307,1,6,0:0:0:0:
256,236,91473,6,0,L|256:120,1,105.000004005432,4|0,0:0|0:0,0:0:0:0:
140,328,92140,1,4,0:0:0:0:
72,248,92307,5,0,1:0:0:0:
156,140,92473,1,0,1:0:0:0:
256,236,92640,1,0,1:0:0:0:
340,128,92807,1,0,1:0:0:0:
440,224,92973,5,0,0:0:0:0:
420,236,93057,1,0,0:0:0:0:
400,248,93140,1,0,0:0:0:0:
380,260,93223,1,0,0:0:0:0:
360,272,93307,5,0,0:0:0:0:
340,284,93390,1,0,0:0:0:0:
320,296,93473,1,0,0:0:0:0:
300,308,93557,1,0,0:0:0:0:
280,320,93640,5,0,0:0:0:0:
32,184,93973,1,4,0:0:0:0:
152,224,94140,2,0,P|216:224|280:188,1,125.999996154785
340,128,94473,1,2,0:0:0:0:
216,96,94640,5,0,0:0:0:0:
192,92,94723,1,0,0:0:0:0:
168,88,94807,1,0,0:0:0:0:
144,84,94890,1,0,0:0:0:0:
120,80,94973,1,2,0:0:0:0:
32,184,95140,1,0,0:0:0:0:
152,224,95307,6,0,P|120:284|44:316,1,125.999996154785,2|0,0:0|0:0,0:0:0:0:
172,344,95640,2,0,P|216:348|304:320,1,125.999996154785,2|0,0:0|0:0,0:0:0:0:
252,256,95973,2,0,P|236:216|232:192,2,41.9999987182618,2|0|0,0:0|0:0|0:0,0:0:0:0:
404,344,96307,5,0,0:0:0:0:
476,232,96473,1,0,0:0:0:0:
476,232,96557,1,0,0:0:0:0:
476,232,96640,1,2,0:0:0:0:
404,120,96807,2,0,P|340:140|260:128,1,125.999996154785
200,88,97140,1,2,0:0:0:0:
128,192,97307,5,0,0:0:0:0:
120,216,97390,1,0,0:0:0:0:
112,240,97473,1,0,0:0:0:0:
104,264,97557,1,0,0:0:0:0:
96,288,97640,1,2,0:0:0:0:
228,256,97807,1,0,0:0:0:0:
332,316,97973,2,0,P|372:324|436:308,1,83.9999974365235,0|2,0:0|0:0,0:0:0:0:
452,168,98307,5,4,0:0:0:0:
320,216,98473,1,4,0:0:0:0:
228,72,98640,5,4,0:0:0:0:
360,120,98807,1,4,0:0:0:0:
188,168,98973,6,0,P|152:176|100:168,1,83.9999974365235,4|0,0:0|0:0,0:0:0:0:
320,216,99307,1,2,0:0:0:0:
192,264,99473,1,0,0:0:0:0:
168,272,99557,1,0,0:0:0:0:
144,280,99640,1,0,0:0:0:0:
364,308,99807,2,0,P|328:316|276:308,1,83.9999974365235,2|0,0:0|0:0,0:0:0:0:
456,192,100140,2,0,L|408:204,1,41.9999987182618,2|0,0:0|0:0,0:0:0:0:
392,124,100307,6,0,P|344:128|272:100,1,125.999996154785
208,44,100640,2,0,L|180:92,1,41.9999987182618,2|0,0:0|0:0,0:0:0:0:
92,80,100807,2,0,L|88:124,1,41.9999987182618
0,156,100973,2,0,L|24:228,3,41.9999987182618,2|0|0|0,0:0|0:0|0:0|0:0,0:0:0:0:
52,288,101307,5,4,0:0:0:0:
152,224,101473,1,0,0:0:0:0:
176,224,101557,1,0,0:0:0:0:
200,224,101640,6,0,L|284:224,1,83.9999974365235,4|0,0:0|0:0,0:0:0:0:
360,192,101890,2,0,L|444:192,1,83.9999974365235,2|0,0:0|0:0,0:0:0:0:
464,112,102140,2,0,L|372:112,1,83.9999974365235,4|0,0:0|0:0,0:0:0:0:
324,52,102390,2,0,L|232:52,1,83.9999974365235,2|0,0:0|0:0,0:0:0:0:
176,104,102640,6,0,L|108:104,1,41.9999987182618,2|0,0:0|0:0,0:0:0:0:
72,164,102807,2,0,L|72:216,1,41.9999987182618,4|0,0:0|0:0,0:0:0:0:
152,224,102973,6,0,L|152:328,1,83.9999974365235,0|4,0:0|0:0,0:0:0:0:
232,264,103223,2,0,L|232:180,1,83.9999974365235,2|0,0:0|0:0,0:0:0:0:
312,132,103473,2,0,L|312:236,1,83.9999974365235,2|4,0:0|0:0,0:0:0:0:
392,172,103723,2,0,L|392:88,1,83.9999974365235,2|4,0:0|0:0,0:0:0:0:
472,128,103973,5,2,0:0:0:0:
472,224,104140,1,4,0:0:0:0:
472,320,104307,6,0,L|340:320,1,125.999996154785,4|0,0:0|0:0,0:0:0:0:
256,320,104640,1,0,0:0:0:0:
40,236,104807,6,0,L|166:236,1,125.999996154785,4|0,0:0|0:0,0:0:0:0:
256,236,105140,1,0,0:0:0:0:
472,152,105307,6,0,L|346:152,1,125.999996154785,4|0,0:0|0:0,0:0:0:0:
256,152,105640,1,0,0:0:0:0:
40,68,105807,6,0,L|166:68,1,125.999996154785,4|0,0:0|0:0,0:0:0:0:
256,68,106140,1,0,0:0:0:0:
256,236,106307,5,4,0:0:0:0:
346,152,106473,1,0,0:0:0:0:
256,68,106640,1,4,0:0:0:0:
166,152,106807,1,0,0:0:0:0:
304,248,106973,6,0,L|380:284,1,83.9999974365235,4|0,0:0|0:0,0:0:0:0:
404,296,107223,1,0,0:0:0:0:
429,309,107307,1,0,0:0:0:0:
208,248,107473,6,0,L|33:330,1,167.999994873047,4|0,0:0|0:0,0:0:0:0:
304,144,107973,6,0,L|380:180,1,83.9999974365235,4|0,0:0|0:0,0:0:0:0:
404,192,108223,1,0,0:0:0:0:
429,205,108307,1,0,0:0:0:0:
208,144,108473,6,0,L|33:226,1,167.999994873047,4|0,0:0|0:0,0:0:0:0:
356,80,108973,6,0,L|432:116,1,83.9999974365235,4|0,0:0|0:0,0:0:0:0:
156,80,109307,2,0,L|37:136,1,125.999996154785,4|0,0:0|0:0,0:0:0:0:
96,240,109640,5,0,1:0:0:0:
192,324,109807,1,0,1:0:0:0:
256,212,109973,1,0,1:0:0:0:
352,296,110140,1,0,1:0:0:0:
400,104,110307,5,0,1:0:0:0:
339,215,110473,1,0,1:0:0:0:
239,134,110640,1,0,1:0:0:0:
180,246,110807,1,0,1:0:0:0:
80,165,110973,6,0,L|44:136,15,35.0000013351441,2|0|0|0|0|0|2|0|0|0|0|0|2|0|0|0,0:0|0:0|0:0|0:0|0:0|0:0|0:0|0:0|0:0|0:0|0:0|0:0|0:0|0:0|0:0|0:0,0:0:0:0:
160,60,111973,6,0,L|324:60,1,157.500006008148,6|0,0:0|0:0,0:0:0:0:
400,128,112307,6,0,P|416:172|412:216,1,90.9999958343508,4|0,0:0|0:0,0:0:0:0:
352,324,112640,1,0,0:0:0:0:
256,220,112807,6,0,P|212:236|168:232,1,90.9999958343508,4|0,0:0|0:0,0:0:0:0:
60,172,113140,1,0,0:0:0:0:
160,60,113307,6,0,P|224:96|316:72,1,136.499993751526,4|0,0:0|0:0,0:0:0:0:
384,28,113640,5,0,0:0:0:0:
428,144,113807,1,0,0:0:0:0:
284,90,113973,1,0,0:0:0:0:
328,206,114140,1,0,0:0:0:0:
184,152,114307,5,0,0:0:0:0:
193,175,114390,1,0,0:0:0:0:
202,198,114473,1,0,0:0:0:0:
211,221,114557,1,0,0:0:0:0:
220,244,114640,5,0,0:0:0:0:
229,267,114723,1,0,0:0:0:0:
238,290,114807,1,0,0:0:0:0:
247,313,114890,1,0,0:0:0:0:
256,336,114973,5,0,0:0:0:0:
412,204,115307,2,0,L|316:204,1,83.9999974365235,2|2,0:0|0:0,0:0:0:0:
496,204,115807,2,0,L|400:204,1,83.9999974365235,2|2,0:0|0:0,0:0:0:0:
256,96,116307,5,0,0:0:0:0:
100,204,116640,2,0,L|196:204,1,83.9999974365235,2|2,0:0|0:0,0:0:0:0:
16,204,117140,2,0,L|112:204,1,83.9999974365235,2|2,0:0|0:0,0:0:0:0:
256,336,117640,5,0,0:0:0:0:
188,240,117973,1,2,0:0:0:0:
188,240,118140,1,2,0:0:0:0:
324,240,118473,1,2,0:0:0:0:
324,240,118640,1,2,0:0:0:0:
256,48,118973,5,0,0:0:0:0:
324,144,119307,1,2,0:0:0:0:
324,144,119473,1,2,0:0:0:0:
188,144,119807,1,2,0:0:0:0:
188,144,119973,1,2,0:0:0:0:
256,348,120307,5,0,0:0:0:0:
256,264,121640,5,0,0:0:0:0:
256,180,122973,5,0,0:0:0:0:
256,96,124307,5,0,0:0:0:0:
312,292,125640,6,0,P|318:329|312:360,1,70,2|0,0:0|0:0,0:0:0:0:
200,324,125973,2,0,P|193:289|199:255,1,70,2|0,0:0|0:0,0:0:0:0:
312,223,126307,2,0,P|318:260|312:291,1,70,2|0,0:0|0:0,0:0:0:0:
200,255,126640,2,0,P|193:220|199:186,1,70,2|0,0:0|0:0,0:0:0:0:
312,154,126973,6,0,P|318:191|312:222,1,70,2|0,0:0|0:0,0:0:0:0:
200,186,127307,2,0,P|193:151|199:117,1,70,2|0,0:0|0:0,0:0:0:0:
312,85,127640,2,0,P|318:122|312:153,1,70,2|0,0:0|0:0,0:0:0:0:
200,117,127973,2,0,P|193:82|199:48,1,70,2|0,0:0|0:0,0:0:0:0:
256,240,128307,5,4,0:0:0:0:
256,192,128473,12,0,130973,0:0:0:0:
