osu file format v14

[General]
AudioFilename: mikisayaka.mp3
AudioLeadIn: 0
PreviewTime: 81588
Countdown: 0
SampleSet: Soft
StackLeniency: 0.7
Mode: 2
LetterboxInBreaks: 0
WidescreenStoryboard: 1

[Editor]
Bookmarks: 2673,10673,26673,42673,61338,70671,83004,104337,115003,128337,132337
DistanceSpacing: 0.9
BeatDivisor: 4
GridSize: 32
TimelineZoom: 1.4

[Metadata]
Title:squartatrice
TitleUnicode:squartatrice
Artist:Miki Sayaka vs. Miki Sayaka (fw. Miki Sayaka)
ArtistUnicode:美樹さやか vs. 美樹さやか (fw. 美樹さやか)
Creator:celerih
Version:Rain
Source:
Tags:Deif ZiRoX Ascendance HARD RENAISSAYAKA BOF2011 OF FIGHTERS 2011 Kozato Yuzuki gmtn. LUZE BMS
BeatmapID:1713534
BeatmapSetID:810108

[Difficulty]
HPDrainRate:5
CircleSize:3.7
OverallDifficulty:9
ApproachRate:9
SliderMultiplier:1.6
SliderTickRate:2

[Events]
//Background and Video events
0,0,"mikisayaka.jpg",0,0
//Break Periods
2,61538,69738
//Storyboard Layer 0 (Background)
//Storyboard Layer 1 (Fail)
//Storyboard Layer 2 (Pass)
//Storyboard Layer 3 (Foreground)
//Storyboard Layer 4 (Overlay)
//Storyboard Sound Samples

[TimingPoints]
2674,333.333333333333,3,2,1,70,1,0
26340,-100,3,2,2,70,0,0
42673,333.333333333333,6,2,2,90,1,0
58672,333.333333333333,4,2,2,100,1,0
81338,333.333333333333,5,2,2,90,1,0
83004,333.333333333333,4,2,2,100,1,1
104337,-100,4,2,2,100,0,0
115003,-100,4,2,1,80,0,0

[Colours]
Combo1 : 193,137,146
Combo2 : 95,116,161
Combo3 : 159,70,88
Combo4 : 149,160,214

[HitObjects]
256,192,674,12,0,2340,0:0:0:0:
201,196,2673,5,0,0:0:0:0:
123,170,2840,1,0,0:0:0:0:
228,185,3007,2,0,L|236:81,1,80,0|0,0:0|0:0,0:0:0:0:
148,244,3340,2,0,L|133:139,1,80,0|0,0:0|0:0,0:0:0:0:
239,169,3673,6,0,L|231:65,1,80,0|0,0:0|0:0,0:0:0:0:
319,228,4006,2,0,L|334:123,1,80,0|0,0:0|0:0,0:0:0:0:
413,285,4340,2,0,L|398:183,1,80,0|0,0:0|0:0,0:0:0:0:
236,141,4673,6,0,L|228:37,1,80,2|0,0:0|0:0,0:0:0:0:
316,200,5006,2,0,L|331:95,1,80,0|0,0:0|0:0,0:0:0:0:
410,257,5340,2,0,L|395:155,1,80,0|0,0:0|0:0,0:0:0:0:
230,163,5673,6,0,L|238:59,1,80,0|0,0:0|0:0,0:0:0:0:
150,222,6006,2,0,L|135:117,1,80,0|0,0:0|0:0,0:0:0:0:
56,279,6340,2,0,L|71:177,1,80,0|0,0:0|0:0,0:0:0:0:
307,198,6673,5,2,0:0:0:0:
232,208,6840,1,0,0:0:0:0:
167,178,7007,1,0,0:0:0:0:
136,113,7174,1,0,0:0:0:0:
167,178,7340,1,0,0:0:0:0:
232,208,7507,1,0,0:0:0:0:
339,233,7673,6,0,L|349:136,1,80,0|2,0:0|0:0,0:0:0:0:
259,283,8007,2,0,L|249:186,1,80,2|0,0:0|0:0,0:0:0:0:
162,330,8340,2,0,L|172:233,1,80,0|0,0:0|0:0,0:0:0:0:
412,250,8673,5,2,0:0:0:0:
477,219,8840,1,0,0:0:0:0:
502,151,9007,1,0,0:0:0:0:
477,219,9173,1,0,0:0:0:0:
412,252,9340,1,0,0:0:0:0:
340,240,9507,1,0,0:0:0:0:
91,140,9673,6,0,L|77:55,1,80,2|0,0:0|0:0,0:0:0:0:
161,197,10007,2,0,L|175:112,1,80,0|0,0:0|0:0,0:0:0:0:
256,259,10340,2,0,L|242:174,1,80,0|0,0:0|0:0,0:0:0:0:
483,311,10673,6,0,L|300:340,2,160,10|0|2,0:0|0:0|0:0,0:0:0:0:
275,222,11673,2,0,L|458:251,2,160,2|0|8,0:0|0:0|0:0,0:0:0:0:
136,286,12673,5,2,0:0:0:0:
97,273,12757,1,0,0:0:0:0:
68,245,12840,1,0,0:0:0:0:
51,208,12923,1,0,0:0:0:0:
51,208,13007,1,2,0:0:0:0:
68,245,13090,1,0,0:0:0:0:
97,273,13173,1,0,0:0:0:0:
136,286,13257,1,0,0:0:0:0:
233,264,13340,2,0,L|329:269,1,80,2|0,0:0|0:0,0:0:0:0:
152,159,13673,6,0,L|130:74,1,80,10|0,0:0|0:0,0:0:0:0:
219,193,14007,2,0,L|105:187,1,80,0|0,0:0|0:0,0:0:0:0:
55,210,14340,2,0,L|43:94,1,80,0|0,0:0|0:0,0:0:0:0:
289,243,14673,6,0,P|356:228|389:147,1,160,2|8,0:0|0:0,0:0:0:0:
309,158,15173,1,0,0:0:0:0:
230,171,15340,1,0,0:0:0:0:
309,158,15507,1,0,0:0:0:0:
148,221,15673,6,0,L|172:140,1,80,2|0,0:0|0:0,0:0:0:0:
244,286,16007,2,0,L|159:295,1,80,2|0,0:0|0:0,0:0:0:0:
253,240,16340,2,0,L|262:155,1,80,8|0,0:0|0:0,0:0:0:0:
88,179,16673,5,8,0:0:0:0:
165,200,16840,1,0,0:0:0:0:
88,179,17007,1,0,0:0:0:0:
165,200,17174,1,0,0:0:0:0:
88,179,17340,1,0,0:0:0:0:
165,200,17507,1,0,0:0:0:0:
326,140,17673,6,0,L|333:58,1,80,10|0,0:0|0:0,0:0:0:0:
250,205,18007,2,0,L|243:123,1,80,8|0,0:0|0:0,0:0:0:0:
158,279,18340,2,0,L|165:197,1,80,0|0,0:0|0:0,0:0:0:0:
395,312,18673,6,0,L|212:341,2,160,2|8|0,0:0|0:0|0:0,0:0:0:0:
229,225,19673,2,0,L|46:254,2,160,2|8|0,0:0|0:0|0:0,0:0:0:0:
410,179,20673,5,2,0:0:0:0:
437,138,20757,1,0,0:0:0:0:
424,91,20840,1,0,0:0:0:0:
381,68,20923,1,0,0:0:0:0:
340,146,21007,1,10,0:0:0:0:
313,105,21091,1,0,0:0:0:0:
326,58,21174,1,0,0:0:0:0:
369,35,21257,1,0,0:0:0:0:
276,256,21340,2,0,L|196:251,1,80,8|0,0:0|0:0,0:0:0:0:
359,159,21673,6,0,L|381:74,1,80,2|0,0:0|0:0,0:0:0:0:
293,175,22007,2,0,L|183:178,1,80,8|0,0:0|0:0,0:0:0:0:
302,252,22340,2,0,L|318:142,1,80,8|0,0:0|0:0,0:0:0:0:
82,201,22673,6,0,L|264:174,1,160,2|0,0:0|0:0,0:0:0:0:
317,157,23173,1,0,0:0:0:0:
360,89,23340,1,0,0:0:0:0:
317,157,23507,1,0,0:0:0:0:
160,194,23673,6,0,L|245:178,1,80,10|0,0:0|0:0,0:0:0:0:
325,265,24007,2,0,L|335:173,1,80,2|0,0:0|0:0,0:0:0:0:
251,236,24340,2,0,L|242:151,1,80,2|0,0:0|0:0,0:0:0:0:
407,136,24673,5,0,0:0:0:0:
330,157,24840,1,0,0:0:0:0:
407,136,25007,1,0,0:0:0:0:
330,157,25174,1,0,0:0:0:0:
407,136,25340,1,0,0:0:0:0:
330,157,25507,1,0,0:0:0:0:
169,284,25673,5,2,0:0:0:0:
130,271,25757,1,0,0:0:0:0:
101,243,25840,1,2,0:0:0:0:
84,206,25923,1,0,0:0:0:0:
84,206,26007,1,2,0:0:0:0:
101,243,26090,1,0,0:0:0:0:
130,271,26173,1,0,0:0:0:0:
169,284,26257,1,0,0:0:0:0:
319,222,26340,2,0,L|328:170,1,40,2|2,0:0|0:0,0:0:0:0:
173,269,26507,2,0,L|164:217,1,40,2|2,0:0|0:0,0:0:0:0:
351,298,26673,6,0,L|439:288,1,80,4|0,0:0|0:0,0:0:0:0:
270,191,27007,2,0,L|253:96,1,80,8|0,0:0|0:0,0:0:0:0:
340,194,27340,2,0,L|259:213,1,80,10|0,0:0|0:0,0:0:0:0:
95,161,27673,6,0,L|197:182,1,80,8|2,0:0|0:0,0:0:0:0:
335,112,28007,2,0,L|237:116,1,80,8|0,0:0|0:0,0:0:0:0:
175,155,28340,2,0,L|157:70,1,80,8|0,0:0|0:0,0:0:0:0:
317,219,28673,6,0,L|424:208,1,80,8|2,0:0|0:0,0:0:0:0:
239,289,29007,2,0,L|217:188,1,80,8|0,0:0|0:0,0:0:0:0:
319,224,29340,2,0,L|228:205,1,80,8|0,0:0|0:0,0:0:0:0:
404,177,29673,6,0,L|416:93,1,80,8|0,0:0|0:0,0:0:0:0:
327,217,30007,2,0,L|237:201,1,80,10|0,0:0|0:0,0:0:0:0:
94,259,30340,1,10,0:0:0:0:
52,245,30423,1,2,0:0:0:0:
52,245,30507,1,2,0:0:0:0:
94,259,30590,1,2,0:0:0:0:
204,254,30673,6,0,P|241:236|185:148,1,160,8|10,0:0|0:0,0:0:0:0:
347,178,31340,1,8,0:0:0:0:
432,192,31507,1,2,0:0:0:0:
268,230,31673,5,10,0:0:0:0:
187,247,31840,1,0,0:0:0:0:
341,177,32007,1,10,0:0:0:0:
260,160,32174,1,0,0:0:0:0:
418,238,32340,1,8,0:0:0:0:
437,157,32507,1,0,0:0:0:0:
196,289,32673,6,0,L|179:198,1,80,8|2,0:0|0:0,0:0:0:0:
225,221,32923,1,2,0:0:0:0:
327,227,33007,2,0,L|344:136,1,80,8|2,0:0|0:0,0:0:0:0:
298,159,33257,1,2,0:0:0:0:
204,182,33340,2,0,L|187:91,1,80,8|2,0:0|0:0,0:0:0:0:
233,114,33590,1,2,0:0:0:0:
334,154,33673,6,0,P|386:145|425:32,1,160,8|8,0:0|0:0,0:0:0:0:
262,239,34340,1,10,0:0:0:0:
220,224,34423,1,2,0:0:0:0:
195,187,34507,1,2,0:0:0:0:
198,143,34590,1,2,0:0:0:0:
347,125,34673,6,0,L|442:139,1,80,8|2,0:0|0:0,0:0:0:0:
262,200,35007,2,0,L|249:110,1,80,8|0,0:0|0:0,0:0:0:0:
178,235,35340,2,0,L|266:238,1,80,10|0,0:0|0:0,0:0:0:0:
93,216,35673,6,0,L|0:201,1,80,8|0,0:0|0:0,0:0:0:0:
170,181,36007,2,0,L|198:96,1,80,10|0,0:0|0:0,0:0:0:0:
109,124,36340,2,0,L|203:109,1,80,10|0,0:0|0:0,0:0:0:0:
347,206,36673,6,0,L|361:115,1,80,8|2,0:0|0:0,0:0:0:0:
196,238,37007,2,0,L|109:227,1,80,8|0,0:0|0:0,0:0:0:0:
204,285,37340,2,0,L|234:195,1,80,8|0,0:0|0:0,0:0:0:0:
61,137,37673,6,0,L|164:145,1,80,8|2,0:0|0:0,0:0:0:0:
229,193,38007,2,0,L|150:136,1,80,10|0,0:0|0:0,0:0:0:0:
330,216,38340,1,10,0:0:0:0:
372,206,38423,1,2,0:0:0:0:
414,194,38507,1,2,0:0:0:0:
371,183,38590,1,2,0:0:0:0:
277,189,38673,6,0,L|113:164,1,160,10|8,0:0|0:0,0:0:0:0:
269,106,39340,1,10,0:0:0:0:
188,119,39507,1,2,0:0:0:0:
350,188,39673,5,10,0:0:0:0:
437,171,39840,1,0,0:0:0:0:
279,175,40007,1,10,0:0:0:0:
366,192,40174,1,0,0:0:0:0:
213,271,40340,1,8,0:0:0:0:
196,184,40507,1,0,0:0:0:0:
350,188,40673,6,0,L|466:168,1,80,12|2,0:0|0:0,0:0:0:0:
387,160,40923,1,2,0:0:0:0:
284,223,41007,2,0,L|168:203,1,80,12|2,0:0|0:0,0:0:0:0:
247,195,41257,1,2,0:0:0:0:
348,170,41340,1,12,0:0:0:0:
389,182,41423,1,0,0:0:0:0:
389,182,41507,1,2,0:0:0:0:
348,170,41590,1,2,0:0:0:0:
198,136,41673,5,8,0:0:0:0:
162,129,41757,1,0,0:0:0:0:
136,104,41840,1,0,0:0:0:0:
130,68,41923,1,0,0:0:0:0:
231,76,42007,1,8,0:0:0:0:
234,120,42090,1,0,0:0:0:0:
214,159,42173,1,0,0:0:0:0:
176,184,42257,1,0,0:0:0:0:
132,186,42340,1,14,0:0:0:0:
92,166,42423,1,2,0:0:0:0:
69,128,42507,1,6,0:0:0:0:
67,83,42590,1,2,0:0:0:0:
219,105,42673,6,0,L|393:113,1,160,12|12,0:0|0:0,0:0:0:0:
160,201,43506,1,12,0:0:0:0:
301,141,43839,1,8,0:0:0:0:
139,202,44006,2,0,L|114:107,1,80,8|8,0:0|0:0,0:0:0:0:
278,123,44339,2,0,L|289:40,1,80,8|10,0:0|0:0,0:0:0:0:
250,56,44589,1,2,0:0:0:0:
407,169,44673,5,12,0:0:0:0:
486,188,44839,1,8,0:0:0:0:
407,169,45006,1,12,0:0:0:0:
247,259,45173,1,12,0:0:0:0:
384,220,45506,2,0,P|393:178|294:111,1,160,12|8,0:0|0:0,0:0:0:0:
155,210,46006,1,8,0:0:0:0:
240,242,46173,1,10,0:0:0:0:
279,234,46256,1,10,0:0:0:0:
317,225,46339,2,0,L|327:117,1,80,10|8,0:0|0:0,0:0:0:0:
80,184,46672,5,12,0:0:0:0:
235,221,47006,1,12,0:0:0:0:
51,181,47506,2,0,P|100:89|178:88,1,160,12|0,0:0|0:0,0:0:0:0:
301,167,48006,2,0,L|317:64,1,80,8|8,0:0|0:0,0:0:0:0:
164,249,48339,2,0,L|148:146,1,80,8|10,0:0|0:0,0:0:0:0:
191,177,48589,1,2,0:0:0:0:
342,229,48672,5,12,0:0:0:0:
429,220,48839,1,8,0:0:0:0:
342,229,49006,1,12,0:0:0:0:
187,168,49172,1,12,0:0:0:0:
347,124,49506,2,0,L|158:110,1,160,12|0,0:0|0:0,0:0:0:0:
339,156,50006,2,0,L|421:141,2,53.3333333333333,10|8|8,0:0|0:0|0:0,0:0:0:0:
218,196,50339,2,0,L|136:181,2,53.3333333333333,10|8|8,0:0|0:0|0:0,0:0:0:0:
400,231,50672,6,0,L|472:177,1,80,12|2,0:0|0:0,0:0:0:0:
308,138,51006,2,0,P|261:192|329:239,1,160,10|8,0:0|0:0,0:0:0:0:
180,297,51506,2,0,L|346:265,1,160,2|2,0:0|0:0,0:0:0:0:
244,242,52006,2,0,L|150:213,1,80,8|0,0:0|0:0,0:0:0:0:
335,166,52339,2,0,L|391:103,1,80,12|12,0:0|0:0,0:0:0:0:
149,139,52672,6,0,L|55:153,2,80,12|0|8,0:0|0:0|0:0,0:0:0:0:
300,211,53172,2,0,L|183:194,1,80,2|8,0:0|0:0,0:0:0:0:
375,187,53506,2,0,P|436:144|367:89,1,160,2|2,0:0|0:0,0:0:0:0:
231,189,54006,1,12,0:0:0:0:
156,236,54172,1,2,0:0:0:0:
115,231,54256,1,2,0:0:0:0:
75,225,54339,2,0,L|43:137,1,80,12|0,0:0|0:0,0:0:0:0:
292,147,54672,5,12,0:0:0:0:
140,123,55006,1,12,0:0:0:0:
353,94,55506,1,12,0:0:0:0:
215,78,55839,1,8,0:0:0:0:
373,106,56006,2,0,L|394:12,1,80,10|0,0:0|0:0,0:0:0:0:
248,211,56339,2,0,L|227:117,1,80,10|10,0:0|0:0,0:0:0:0:
269,143,56589,1,0,0:0:0:0:
381,226,56672,6,0,L|281:209,1,80,12|2,0:0|0:0,0:0:0:0:
265,229,56922,1,2,0:0:0:0:
146,303,57006,2,0,L|246:286,1,80,12|0,0:0|0:0,0:0:0:0:
262,306,57256,1,0,0:0:0:0:
368,297,57339,2,0,L|398:206,1,80,12|0,0:0|0:0,0:0:0:0:
353,230,57589,1,0,0:0:0:0:
195,191,57672,6,0,L|178:84,1,80,12|8,0:0|0:0,0:0:0:0:
340,155,58006,2,0,L|357:48,1,80,12|8,0:0|0:0,0:0:0:0:
195,191,58339,2,0,L|178:84,1,80,12|8,0:0|0:0,0:0:0:0:
421,232,58672,5,8,0:0:0:0:
461,221,58755,1,0,0:0:0:0:
486,183,58838,1,2,0:0:0:0:
461,221,58922,1,2,0:0:0:0:
421,232,59005,1,2,0:0:0:0:
261,205,59172,1,2,0:0:0:0:
222,195,59255,1,0,0:0:0:0:
183,184,59338,1,2,0:0:0:0:
222,195,59422,1,2,0:0:0:0:
261,205,59505,1,2,0:0:0:0:
400,138,59672,5,8,0:0:0:0:
431,102,59755,1,0,0:0:0:0:
421,55,59838,1,2,0:0:0:0:
377,34,59922,1,0,0:0:0:0:
212,151,60005,5,8,0:0:0:0:
164,144,60088,1,0,0:0:0:0:
211,137,60172,1,2,0:0:0:0:
258,133,60255,1,2,0:0:0:0:
305,127,60338,1,2,0:0:0:0:
145,232,60505,1,8,0:0:0:0:
105,221,60588,1,0,0:0:0:0:
80,183,60671,1,8,0:0:0:0:
105,221,60755,1,8,0:0:0:0:
145,232,60838,1,8,0:0:0:0:
293,178,61005,1,8,0:0:0:0:
382,184,61172,2,0,L|402:135,1,40,8|0,0:0|0:0,0:0:0:0:
237,189,61338,5,6,0:0:0:0:
318,247,70338,6,0,L|347:108,1,120,2|0,0:0|0:0,0:0:0:0:
171,206,70671,1,8,0:0:0:0:
322,187,71338,1,12,0:0:0:0:
174,215,71671,1,2,0:0:0:0:
170,195,71712,1,2,0:0:0:0:
166,175,71754,1,2,0:0:0:0:
162,156,71796,1,2,0:0:0:0:
158,136,71837,1,2,0:0:0:0:
155,116,71879,1,2,0:0:0:0:
151,97,71921,1,2,0:0:0:0:
304,96,72005,6,0,L|398:72,1,80,8|0,0:0|0:0,0:0:0:0:
337,68,72255,1,0,0:0:0:0:
238,75,72338,1,2,0:0:0:0:
362,164,72671,2,0,L|444:121,1,80,2|2,0:0|0:0,0:0:0:0:
297,139,73005,6,0,L|248:149,1,40,0|0,0:0|0:0,0:0:0:0:
257,146,73171,2,0,L|297:139,1,40,0|0,0:0|0:0,0:0:0:0:
398,221,73338,2,0,L|419:128,1,80,2|0,0:0|0:0,0:0:0:0:
371,148,73588,1,0,0:0:0:0:
266,171,73671,1,2,0:0:0:0:
105,158,74005,2,0,L|94:73,1,80,2|2,0:0|0:0,0:0:0:0:
257,155,74338,1,0,0:0:0:0:
300,147,74421,1,0,0:0:0:0:
344,143,74505,1,0,0:0:0:0:
387,138,74588,1,0,0:0:0:0:
281,236,74671,6,0,L|179:216,1,80,2|0,0:0|0:0,0:0:0:0:
241,198,74921,1,0,0:0:0:0:
351,195,75005,1,2,0:0:0:0:
210,288,75338,1,0,0:0:0:0:
168,274,75421,1,0,0:0:0:0:
168,274,75505,1,0,0:0:0:0:
210,288,75588,1,0,0:0:0:0:
308,278,75671,2,0,L|323:179,1,80,2|2,0:0|0:0,0:0:0:0:
277,209,75921,1,0,0:0:0:0:
122,175,76005,6,0,L|99:87,1,80,0|2,0:0|0:0,0:0:0:0:
143,112,76255,1,2,0:0:0:0:
241,151,76338,2,0,L|341:164,1,80,2|0,0:0|0:0,0:0:0:0:
168,230,76671,2,0,L|139:136,1,80,2|2,0:0|0:0,0:0:0:0:
343,173,77005,2,0,L|354:62,1,80,0|0,0:0|0:0,0:0:0:0:
110,264,77338,5,8,0:0:0:0:
65,247,77421,1,0,0:0:0:0:
46,202,77505,1,0,0:0:0:0:
65,247,77588,1,0,0:0:0:0:
110,264,77671,1,2,0:0:0:0:
339,215,78005,1,8,0:0:0:0:
381,203,78088,1,0,0:0:0:0:
337,197,78171,1,0,0:0:0:0:
293,191,78255,1,0,0:0:0:0:
249,185,78338,1,2,0:0:0:0:
104,250,78505,1,8,0:0:0:0:
351,230,78671,5,8,0:0:0:0:
396,213,78754,1,0,0:0:0:0:
415,168,78838,1,0,0:0:0:0:
396,213,78921,1,0,0:0:0:0:
351,230,79004,1,2,0:0:0:0:
168,244,79338,1,8,0:0:0:0:
124,237,79421,1,0,0:0:0:0:
79,231,79505,1,0,0:0:0:0:
124,237,79588,1,0,0:0:0:0:
168,244,79671,1,2,0:0:0:0:
314,181,79838,1,8,0:0:0:0:
79,128,80005,6,0,L|87:75,1,40,8|0,0:0|0:0,0:0:0:0:
172,103,80171,2,0,L|180:50,1,40,8|0,0:0|0:0,0:0:0:0:
261,54,80338,1,2,0:0:0:0:
414,201,80505,2,0,L|406:148,1,40,8|0,0:0|0:0,0:0:0:0:
321,176,80671,2,0,L|313:123,1,40,8|0,0:0|0:0,0:0:0:0:
232,127,80838,1,2,0:0:0:0:
386,168,81005,2,0,L|471:138,1,80,8|8,0:0|0:0,0:0:0:0:
204,94,81338,5,2,0:0:0:0:
313,225,81671,2,0,L|376:210,1,40,10|2,0:0|0:0,0:0:0:0:
352,215,81838,2,0,L|313:225,1,40,2|2,0:0|0:0,0:0:0:0:
158,190,82004,2,0,L|95:175,1,40,2|2,0:0|0:0,0:0:0:0:
120,180,82171,2,0,L|159:189,1,40,2|2,0:0|0:0,0:0:0:0:
271,162,82338,2,0,L|282:108,1,40,2|0,0:0|0:0,0:0:0:0:
91,154,82504,6,0,L|196:137,2,80,2|2|2,0:0|0:0|0:0,0:0:0:0:
378,277,83004,6,0,P|355:214|284:193,1,120,12|2,0:0|0:0,0:0:0:0:
146,246,83337,1,8,0:0:0:0:
300,147,83504,2,0,L|289:90,1,40,0|2,0:0|0:0,0:0:0:0:
145,177,83754,2,0,L|156:120,1,40,0|0,0:0|0:0,0:0:0:0:
388,262,84004,1,10,0:0:0:0:
430,247,84087,1,2,0:0:0:0:
451,208,84170,1,2,0:0:0:0:
440,165,84254,1,2,0:0:0:0:
279,162,84337,6,0,L|255:60,1,80,10|0,0:0|0:0,0:0:0:0:
335,67,84587,1,0,0:0:0:0:
292,60,84670,1,8,0:0:0:0:
249,53,84754,1,0,0:0:0:0:
362,31,84837,1,0,0:0:0:0:
134,219,85004,2,0,L|100:121,1,80,8|0,0:0|0:0,0:0:0:0:
151,152,85254,1,0,0:0:0:0:
306,160,85337,2,0,L|315:104,1,40,10|2,0:0|0:0,0:0:0:0:
155,215,85504,2,0,L|146:159,1,40,2|2,0:0|0:0,0:0:0:0:
328,238,85670,6,0,L|348:128,1,80,8|0,0:0|0:0,0:0:0:0:
182,91,86004,2,0,L|140:14,1,80,10|2,0:0|0:0,0:0:0:0:
234,43,86254,2,0,L|137:63,1,80,0|2,0:0|0:0,0:0:0:0:
329,108,86504,1,0,0:0:0:0:
414,163,86670,1,10,0:0:0:0:
455,145,86754,1,2,0:0:0:0:
455,145,86837,1,2,0:0:0:0:
414,163,86920,1,2,0:0:0:0:
200,211,87004,6,0,L|106:196,1,80,8|0,0:0|0:0,0:0:0:0:
159,176,87254,1,0,0:0:0:0:
317,171,87337,1,8,0:0:0:0:
359,179,87420,1,0,0:0:0:0:
402,186,87504,1,0,0:0:0:0:
359,179,87587,1,0,0:0:0:0:
170,251,87670,2,0,L|150:160,1,80,8|8,0:0|0:0,0:0:0:0:
405,136,88004,2,0,L|326:153,1,80,10|10,0:0|0:0,0:0:0:0:
44,184,88337,6,0,L|17:59,1,120,10|0,0:1|0:0,0:0:0:0:
183,130,88670,1,8,0:0:0:0:
292,194,88837,2,0,L|300:135,1,40,2|0,0:0|0:0,0:0:0:0:
142,212,89087,2,0,L|87:184,1,40,2|2,0:0|0:0,0:0:0:0:
344,170,89337,2,0,L|352:106,1,40,10|2,0:0|0:0,0:0:0:0:
265,200,89504,2,0,L|273:136,1,40,2|2,0:0|0:0,0:0:0:0:
103,230,89670,6,0,L|53:139,1,80,10|0,0:0|0:0,0:0:0:0:
156,148,89920,2,0,L|206:57,1,80,2|0,0:0|0:0,0:0:0:0:
103,59,90170,1,2,0:0:0:0:
342,181,90337,2,0,L|391:169,1,40,8|0,0:0|0:0,0:0:0:0:
380,171,90503,2,0,L|342:181,1,40,0|0,0:0|0:0,0:0:0:0:
190,174,90670,2,0,L|181:121,1,40,8|0,0:0|0:0,0:0:0:0:
357,209,90837,2,0,L|410:200,1,40,8|0,0:0|0:0,0:0:0:0:
207,259,91003,6,0,L|183:152,1,80,4|0,0:0|0:0,0:0:0:0:
430,236,91337,1,8,0:0:0:0:
198,152,91503,2,0,L|303:123,1,80,8|0,0:0|0:0,0:0:0:0:
133,232,91837,2,0,L|52:212,1,80,8|0,0:0|0:0,0:0:0:0:
331,238,92170,6,0,P|369:220|294:156,1,160,10|2,0:1|0:0,0:0:0:0:
175,201,92670,2,0,L|79:181,1,80,0|2,0:0|0:0,0:0:0:0:
340,260,93003,2,0,L|403:245,1,40,10|2,0:0|0:0,0:0:0:0:
378,250,93170,2,0,L|340:260,1,40,2|0,0:0|0:0,0:0:0:0:
178,243,93337,2,0,L|115:228,1,40,10|2,0:0|0:0,0:0:0:0:
139,233,93504,2,0,L|177:242,1,40,2|0,0:0|0:0,0:0:0:0:
354,202,93670,6,0,L|387:68,1,120,0|0,0:0|0:0,0:0:0:0:
199,175,94003,1,8,0:0:0:0:
344,68,94170,2,0,L|402:76,1,40,0|2,0:0|0:0,0:0:0:0:
225,132,94420,2,0,L|167:140,1,40,0|2,0:0|0:0,0:0:0:0:
418,199,94670,1,8,0:0:0:0:
379,207,94753,1,0,0:0:0:0:
340,217,94837,1,0,0:0:0:0:
301,225,94920,1,0,0:0:0:0:
139,190,95003,6,0,L|32:179,1,80,8|2,0:0|0:0,0:0:0:0:
129,147,95253,1,2,0:0:0:0:
143,109,95337,1,2,0:0:0:0:
156,71,95420,1,2,0:0:0:0:
48,89,95503,1,2,0:0:0:0:
284,219,95670,2,0,L|304:115,1,80,8|0,0:0|0:0,0:0:0:0:
259,147,95920,1,0,0:0:0:0:
94,225,96003,2,0,L|140:215,1,40,10|2,0:0|0:0,0:0:0:0:
286,236,96170,2,0,L|332:226,1,40,2|2,0:0|0:0,0:0:0:0:
131,176,96337,6,0,L|108:92,1,80,8|0,0:0|0:0,0:0:0:0:
271,172,96670,2,0,L|367:139,1,80,8|2,0:0|0:0,0:0:0:0:
275,135,96920,2,0,L|253:37,1,80,2|2,0:0|0:0,0:0:0:0:
423,158,97170,1,2,0:0:0:0:
342,216,97337,1,10,0:0:0:0:
310,212,97420,1,2,0:0:0:0:
278,208,97503,1,2,0:0:0:0:
246,203,97587,1,2,0:0:0:0:
411,161,97670,6,0,L|435:45,1,80,8|2,0:0|0:0,0:0:0:0:
387,92,97920,1,2,0:0:0:0:
230,161,98003,1,2,0:0:0:0:
190,154,98086,1,2,0:0:0:0:
164,122,98170,1,2,0:0:0:0:
166,82,98253,1,0,0:0:0:0:
347,148,98336,2,0,L|436:123,1,80,8|8,0:0|0:0,0:0:0:0:
187,264,98670,2,0,L|153:163,1,80,8|8,0:0|0:0,0:0:0:0:
422,238,99003,6,0,P|436:191|376:148,1,120,2|2,0:1|0:0,0:0:0:0:
218,213,99337,1,2,0:0:0:0:
363,171,99503,2,0,L|380:68,1,80,2|2,0:1|0:0,0:0:0:0:
336,97,99753,1,2,0:0:0:0:
296,103,99837,1,2,0:0:0:0:
143,209,100003,2,0,L|41:194,1,80,10|2,0:0|0:0,0:0:0:0:
311,273,100337,5,10,0:1:0:0:
348,259,100420,1,0,0:0:0:0:
376,230,100503,1,2,0:0:0:0:
384,190,100587,1,0,0:0:0:0:
270,188,100670,1,8,0:0:0:0:
233,174,100753,1,0,0:0:0:0:
205,145,100836,1,2,0:0:0:0:
197,105,100920,1,0,0:0:0:0:
367,103,101003,5,8,0:0:0:0:
327,94,101087,1,0,0:0:0:0:
287,86,101170,1,2,0:0:0:0:
248,76,101253,1,0,0:0:0:0:
71,240,101337,2,0,L|49:136,1,80,10|0,0:1|0:0,0:0:0:0:
93,170,101587,1,0,0:0:0:0:
268,225,101670,6,0,L|367:203,1,80,10|0,0:1|0:0,0:0:0:0:
259,281,101920,2,0,L|231:191,1,80,2|0,0:0|0:0,0:0:0:0:
400,224,102170,2,0,L|428:133,1,80,8|2,0:0|0:0,0:0:0:0:
268,108,102420,2,0,L|132:94,1,120,0|0,0:0|0:0,0:0:0:0:
342,235,102837,6,0,P|395:187|336:149,1,160,8|10,0:0|0:0,0:0:0:0:
109,236,103337,2,0,L|210:251,1,80,0|2,0:0|0:0,0:0:0:0:
419,106,103670,2,0,L|401:222,1,80,10|0,0:0|0:0,0:0:0:0:
250,119,104003,2,0,L|346:136,1,80,10|10,0:0|0:0,0:0:0:0:
71,238,104337,6,0,L|44:69,1,160,12|10,0:0|0:0,0:0:0:0:
286,261,104837,2,0,P|278:196|185:195,1,160,8|10,0:0|0:0,0:0:0:0:
441,116,105337,6,0,L|270:128,1,160,8|10,0:0|0:0,0:0:0:0:
36,207,105837,2,0,L|207:219,1,160,8|0,0:0|0:0,0:0:0:0:
357,115,106337,2,0,L|262:133,2,80,2|2|10,0:0|0:0|0:0,0:0:0:0:
437,167,106837,1,2,0:0:0:0:
204,248,107003,6,0,P|219:170|302:144,1,160,12|10,0:0|0:0,0:0:0:0:
54,141,107503,2,0,L|208:85,1,160,8|10,0:0|0:0,0:0:0:0:
442,264,108003,6,0,P|483:253|424:191,1,160,8|10,0:0|0:0,0:0:0:0:
202,206,108503,2,0,L|371:246,1,160,8|10,0:0|0:0,0:0:0:0:
195,288,109003,2,0,L|287:274,2,80,10|0|8,0:0|0:0|0:0,0:0:0:0:
112,258,109503,1,2,0:0:0:0:
72,266,109587,1,2,0:0:0:0:
261,183,109670,6,0,L|415:194,1,120,12|0,0:0|0:0,0:0:0:0:
227,232,110003,2,0,L|127:208,1,80,2|8,0:0|0:0,0:0:0:0:
384,198,110337,2,0,P|385:140|309:102,1,120,8|0,0:0|0:0,0:0:0:0:
178,247,110670,2,0,L|80:237,1,80,2|0,0:0|0:0,0:0:0:0:
255,124,111003,6,0,L|282:102,7,26.6666666666667,10|2|2|2|2|2|2|2,0:0|0:0|0:0|0:0|0:0|0:0|0:0|0:0,0:0:0:0:
125,179,111503,2,0,L|69:161,2,40,0|0|0,0:0|0:0|0:0,0:0:0:0:
283,138,111837,1,8,0:0:0:0:
42,257,112003,2,0,L|18:155,1,80,8|8,0:0|0:0,0:0:0:0:
279,229,112337,6,0,L|450:202,1,160,10|8,0:0|0:0,0:0:0:0:
355,169,112837,1,2,0:0:0:0:
201,238,113003,2,0,L|149:159,1,80,0|2,0:0|0:0,0:0:0:0:
313,137,113337,2,0,L|405:126,1,80,10|0,0:0|0:0,0:0:0:0:
131,290,113670,6,0,L|237:318,1,80,8|8,0:0|0:0,0:0:0:0:
363,218,114003,2,0,L|386:133,1,80,8|8,0:0|0:0,0:0:0:0:
131,184,114337,2,0,L|68:173,1,40,10|2,0:0|0:0,0:0:0:0:
91,177,114503,2,0,L|131:184,1,40,10|2,0:0|0:0,0:0:0:0:
312,152,114670,2,0,L|375:141,1,40,10|2,0:0|0:0,0:0:0:0:
351,145,114836,2,0,L|311:151,1,40,10|2,0:0|0:0,0:0:0:0:
115,243,115003,6,0,L|94:131,1,80,10|0,0:0|0:0,0:0:0:0:
243,216,115337,1,0,0:0:0:0:
324,248,115503,1,2,0:0:0:0:
359,242,115587,1,2,0:0:0:0:
394,237,115670,1,2,0:0:0:0:
318,311,115837,2,0,L|220:298,2,80,2|0|0,0:0|0:0|0:0,0:0:0:0:
162,203,116337,6,0,L|67:215,1,80,2|0,0:0|0:0,0:0:0:0:
171,244,116670,2,0,L|196:146,1,80,2|0,0:0|0:0,0:0:0:0:
270,332,117003,2,0,L|245:234,1,80,2|0,0:0|0:0,0:0:0:0:
334,242,117337,2,0,L|359:144,1,80,2|0,0:0|0:0,0:0:0:0:
203,226,117670,6,0,L|112:241,2,80,2|0|0,0:0|0:0|0:0,0:0:0:0:
289,264,118170,1,2,0:0:0:0:
356,236,118337,1,0,0:0:0:0:
387,171,118503,1,0,0:0:0:0:
356,236,118670,1,0,0:0:0:0:
289,264,118837,1,0,0:0:0:0:
134,157,119003,6,0,L|115:51,1,80,2|0,0:0|0:0,0:0:0:0:
208,207,119337,2,0,L|227:101,1,80,0|0,0:0|0:0,0:0:0:0:
303,269,119670,2,0,L|284:163,1,80,2|0,0:0|0:0,0:0:0:0:
371,312,120003,2,0,L|463:294,1,80,0|0,0:0|0:0,0:0:0:0:
179,246,120337,6,0,L|77:265,1,80,2|0,0:0|0:0,0:0:0:0:
256,176,120671,1,0,0:0:0:0:
189,232,120837,1,2,0:0:0:0:
154,226,120921,1,2,0:0:0:0:
119,221,121004,1,2,0:0:0:0:
44,163,121171,2,0,L|142:150,2,80,2|0|0,0:0|0:0|0:0,0:0:0:0:
207,274,121671,6,0,L|294:256,1,80,2|0,0:0|0:0,0:0:0:0:
367,308,122004,2,0,L|392:210,1,80,2|0,0:0|0:0,0:0:0:0:
302,239,122337,2,0,L|277:141,1,80,2|0,0:0|0:0,0:0:0:0:
376,189,122671,2,0,L|401:91,1,80,2|0,0:0|0:0,0:0:0:0:
240,249,123004,6,0,L|331:264,2,80,2|0|0,0:0|0:0|0:0,0:0:0:0:
160,284,123504,1,0,0:0:0:0:
93,256,123671,1,2,0:0:0:0:
62,191,123837,1,2,0:0:0:0:
93,256,124004,1,2,0:0:0:0:
160,284,124171,1,2,0:0:0:0:
317,174,124337,6,0,L|331:95,1,80,2|0,0:0|0:0,0:0:0:0:
254,227,124671,2,0,L|235:121,1,80,0|0,0:0|0:0,0:0:0:0:
161,303,125004,2,0,L|180:197,1,80,2|0,0:0|0:0,0:0:0:0:
94,365,125337,2,0,L|76:273,1,80,0|0,0:0|0:0,0:0:0:0:
238,154,125670,6,0,L|348:165,1,80,2|0,0:0|0:0,0:0:0:0:
230,247,126003,2,0,L|209:154,1,80,0|0,0:0|0:0,0:0:0:0:
299,309,126337,2,0,L|316:218,1,80,0|0,0:0|0:0,0:0:0:0:
397,321,126670,2,0,L|310:334,1,80,0|0,0:0|0:0,0:0:0:0:
168,216,127003,6,0,L|145:134,1,80,2|0,0:0|0:0,0:0:0:0:
237,251,127337,2,0,L|146:259,1,80,0|0,0:0|0:0,0:0:0:0:
243,295,127670,2,0,L|344:307,1,80,0|0,0:0|0:0,0:0:0:0:
397,254,128003,2,0,L|301:271,1,80,2|0,0:0|0:0,0:0:0:0:
36,124,128337,5,12,0:0:0:0:
256,192,128503,12,0,132337,0:0:0:0:
