osu file format v14

[General]
AudioFilename: mikisayaka.mp3
AudioLeadIn: 0
PreviewTime: 81588
Countdown: 0
SampleSet: Soft
StackLeniency: 0.7
Mode: 2
LetterboxInBreaks: 0
WidescreenStoryboard: 0

[Editor]
Bookmarks: 2673,10673,26673,42673,61338,70671,83004,104337,115003,128337,132337
DistanceSpacing: 1.7
BeatDivisor: 4
GridSize: 32
TimelineZoom: 2.2

[Metadata]
Title:squartatrice
TitleUnicode:squartatrice
Artist:Miki Sayaka vs. Miki Sayaka (fw. Miki Sayaka)
ArtistUnicode:美樹さやか vs. 美樹さやか (fw. 美樹さやか)
Creator:celerih
Version:Miki Sayaka
Source:
Tags:Deif ZiRoX Ascendance HARD RENAISSAYAKA BOF2011 OF FIGHTERS 2011 Kozato Yuzuki gmtn. LUZE BMS
BeatmapID:1699790
BeatmapSetID:810108

[Difficulty]
HPDrainRate:6
CircleSize:4
OverallDifficulty:9.6
ApproachRate:9.6
SliderMultiplier:1.8
SliderTickRate:2

[Events]
//Background and Video events
0,0,"mikisayaka.jpg",0,0
//Break Periods
2,61538,69784
//Storyboard Layer 0 (Background)
//Storyboard Layer 1 (Fail)
//Storyboard Layer 2 (Pass)
//Storyboard Layer 3 (Foreground)
//Storyboard Layer 4 (Overlay)
//Storyboard Sound Samples

[TimingPoints]
2674,333.333333333333,3,2,1,70,1,0
26340,-100,3,2,2,70,0,0
42673,333.333333333333,6,2,2,90,1,0
58672,333.333333333333,4,2,2,90,1,0
81338,333.333333333333,5,2,1,90,1,0
83004,333.333333333333,4,2,2,100,1,1
104337,-100,4,2,2,100,0,0
115003,-100,4,2,1,80,0,0

[Colours]
Combo1 : 193,137,146
Combo2 : 95,116,161
Combo3 : 159,70,88
Combo4 : 149,160,214

[HitObjects]
256,192,674,12,0,2340,0:0:0:0:
102,207,2673,6,0,L|91:81,1,90,10|0,0:0|0:0,0:0:0:0:
181,224,3007,2,0,L|170:98,1,90
146,199,3340,2,0,L|153:109,1,90
314,193,3673,2,0,L|325:67,1,90
408,263,4007,2,0,L|397:137,1,90
487,295,4341,2,0,L|498:169,1,90
336,145,4673,6,0,L|328:235,1,90,2|0,0:0|0:0,0:0:0:0:
421,128,5007,2,0,L|413:218,1,90
336,145,5340,2,0,L|328:235,1,90
161,145,5673,2,0,L|153:235,1,90
76,98,6007,2,0,L|84:188,1,90
176,102,6341,2,0,L|168:192,1,90
398,121,6673,6,0,L|506:114,1,90,2|0,0:0|0:0,0:0:0:0:
318,267,7007,1,0,0:0:0:0:
241,242,7173,1,0,0:0:0:0:
207,168,7340,1,0,0:0:0:0:
241,242,7507,1,0,0:0:0:0:
318,267,7673,1,0,0:0:0:0:
482,137,7840,5,2,0:0:0:0:
391,116,8007,2,0,L|403:10,1,90,2|0,0:0|0:0,0:0:0:0:
319,195,8340,2,0,L|307:89,1,90
65,218,8673,6,0,L|48:126,1,90,2|0,0:0|0:0,0:0:0:0:
140,281,9007,2,0,L|156:189,1,90
246,310,9340,2,0,L|157:324,1,90
417,180,9673,6,0,L|434:88,1,90,2|0,0:0|0:0,0:0:0:0:
342,243,10007,2,0,L|326:151,1,90
236,272,10340,2,0,L|325:286,1,90
41,170,10673,6,0,L|234:136,2,180,10|0|2,0:0|0:0|0:0,0:0:0:0:
434,194,11673,2,0,L|219:157,2,180,2|0|8,0:0|0:0|0:0,0:0:0:0:
200,238,12673,5,2,0:0:0:0:
163,220,12757,1,0,0:0:0:0:
142,185,12840,1,0,0:0:0:0:
143,144,12923,1,0,0:0:0:0:
235,129,13007,1,2,0:0:0:0:
272,111,13091,1,0,0:0:0:0:
293,76,13174,1,0,0:0:0:0:
292,35,13257,1,0,0:0:0:0:
148,57,13340,2,0,L|50:40,1,90,2|0,0:0|0:0,0:0:0:0:
292,178,13673,6,0,L|324:81,1,90,10|0,0:0|0:0,0:0:0:0:
224,247,14007,2,0,L|192:150,1,90
298,186,14340,2,0,L|392:197,1,90
111,281,14673,5,2,0:0:0:0:
263,242,15007,1,8,0:0:0:0:
331,200,15173,1,0,0:0:0:0:
331,200,15340,1,0,0:0:0:0:
263,242,15507,1,0,0:0:0:0:
105,228,15673,6,0,L|7:177,1,90,2|0,0:0|0:0,0:0:0:0:
190,169,16007,2,0,L|208:70,1,90,2|0,0:0|0:0,0:0:0:0:
118,241,16340,2,0,L|100:142,1,90,8|0,0:0|0:0,0:0:0:0:
342,150,16673,5,8,0:0:0:0:
424,175,16840,1,0,0:0:0:0:
342,150,17007,1,0,0:0:0:0:
424,175,17173,1,0,0:0:0:0:
262,223,17340,1,0,0:0:0:0:
348,219,17507,1,0,0:0:0:0:
113,145,17673,6,0,L|93:45,1,90,10|0,0:0|0:0,0:0:0:0:
194,192,18007,2,0,L|214:92,1,90,8|0,0:0|0:0,0:0:0:0:
305,256,18340,2,0,L|285:156,1,90
50,81,18673,6,0,L|246:110,2,180,2|8|0,0:0|0:0|0:0,0:0:0:0:
446,136,19673,2,0,L|250:165,2,180,2|8|0,0:0|0:0|0:0,0:0:0:0:
220,255,20673,5,2,0:0:0:0:
180,243,20757,1,0,0:0:0:0:
220,238,20840,1,0,0:0:0:0:
260,233,20923,1,0,0:0:0:0:
352,225,21007,1,10,0:0:0:0:
392,213,21091,1,0,0:0:0:0:
352,208,21174,1,0,0:0:0:0:
312,203,21257,1,0,0:0:0:0:
168,199,21340,2,0,L|142:105,1,90,8|0,0:0|0:0,0:0:0:0:
373,83,21673,6,0,L|275:95,1,90,2|0,0:0|0:0,0:0:0:0:
196,174,22007,2,0,L|172:85,1,90,8|0,0:0|0:0,0:0:0:0:
260,237,22340,2,0,L|284:148,1,90,8|0,0:0|0:0,0:0:0:0:
51,163,22673,5,2,0:0:0:0:
194,228,23007,1,0,0:0:0:0:
281,207,23173,1,0,0:0:0:0:
369,187,23340,1,0,0:0:0:0:
457,170,23507,1,0,0:0:0:0:
301,147,23673,6,0,L|269:56,1,90,10|0,0:0|0:0,0:0:0:0:
435,110,24007,2,0,L|347:89,1,90,2|0,0:0|0:0,0:0:0:0:
264,163,24340,2,0,L|363:140,1,90,2|0,0:0|0:0,0:0:0:0:
123,171,24673,5,0,0:0:0:0:
210,158,24840,1,0,0:0:0:0:
123,171,25007,1,0,0:0:0:0:
210,158,25174,1,0,0:0:0:0:
47,177,25340,1,0,0:0:0:0:
134,164,25507,1,0,0:0:0:0:
298,229,25673,5,2,0:0:0:0:
305,188,25757,1,0,0:0:0:0:
213,289,25840,1,2,0:0:0:0:
220,248,25924,1,0,0:0:0:0:
125,255,26007,1,2,0:0:0:0:
82,240,26090,1,0,0:0:0:0:
82,240,26173,1,0,0:0:0:0:
125,255,26257,1,0,0:0:0:0:
344,166,26340,5,2,0:0:0:0:
354,122,26423,1,2,0:0:0:0:
174,218,26507,1,2,0:0:0:0:
164,174,26590,1,2,0:0:0:0:
433,265,26673,6,0,L|503:193,1,90,4|0,0:0|0:0,0:0:0:0:
446,200,26923,1,0,0:0:0:0:
289,198,27007,2,0,L|188:184,1,90,8|0,0:0|0:0,0:0:0:0:
362,146,27340,2,0,L|376:45,1,90,10|0,0:0|0:0,0:0:0:0:
139,212,27673,6,0,L|252:201,1,90,8|2,0:0|0:0,0:0:0:0:
184,189,27923,1,2,0:0:0:0:
40,264,28007,2,0,L|18:150,1,90,8|0,0:0|0:0,0:0:0:0:
259,121,28340,2,0,L|149:135,1,90,8|0,0:0|0:0,0:0:0:0:
426,226,28673,6,0,L|444:111,1,90,8|2,0:0|0:0,0:0:0:0:
392,146,28923,1,2,0:0:0:0:
250,213,29007,2,0,L|153:200,1,90,8|0,0:0|0:0,0:0:0:0:
315,117,29340,2,0,L|408:102,1,90,8|0,0:0|0:0,0:0:0:0:
146,260,29673,6,0,L|112:154,1,90,8|0,0:0|0:0,0:0:0:0:
270,192,30007,2,0,L|179:200,1,90,10|0,0:0|0:0,0:0:0:0:
342,236,30340,1,10,0:0:0:0:
376,194,30423,1,2,0:0:0:0:
367,140,30507,1,2,0:0:0:0:
319,113,30590,1,2,0:0:0:0:
147,171,30673,6,0,L|48:154,1,90,8|2,0:0|0:0,0:0:0:0:
104,139,30923,1,2,0:0:0:0:
253,233,31007,2,0,L|362:220,1,90,10|0,0:0|0:0,0:0:0:0:
178,298,31340,1,8,0:0:0:0:
147,213,31507,1,2,0:0:0:0:
437,155,31673,6,0,L|316:169,1,90,10|0,0:0|0:0,0:0:0:0:
95,101,32007,2,0,L|216:115,1,90,10|0,0:0|0:0,0:0:0:0:
410,190,32340,2,0,L|421:88,1,90,8|0,0:0|0:0,0:0:0:0:
147,246,32673,5,8,0:0:0:0:
304,211,32840,1,2,0:0:0:0:
254,207,32923,1,2,0:0:0:0:
204,202,33007,1,8,0:0:0:0:
373,144,33173,1,2,0:0:0:0:
323,140,33256,1,2,0:0:0:0:
273,135,33340,1,8,0:0:0:0:
435,74,33507,1,2,0:0:0:0:
385,70,33590,1,2,0:0:0:0:
214,177,33673,6,0,L|185:74,1,90,8|0,0:0|0:0,0:0:0:0:
238,102,33923,1,0,0:0:0:0:
393,167,34007,2,0,L|505:158,1,90,8|0,0:0|0:0,0:0:0:0:
246,290,34340,1,10,0:0:0:0:
198,277,34423,1,2,0:0:0:0:
198,277,34507,1,2,0:0:0:0:
246,290,34590,1,2,0:0:0:0:
402,253,34673,6,0,L|290:264,1,90,8|2,0:0|0:0,0:0:0:0:
266,251,34923,1,2,0:0:0:0:
100,187,35007,2,0,L|82:94,1,90,8|0,0:0|0:0,0:0:0:0:
309,175,35340,2,0,L|191:185,1,90,10|0,0:0|0:0,0:0:0:0:
459,246,35673,6,0,L|469:127,1,90,8|0,0:0|0:0,0:0:0:0:
418,166,35923,1,2,0:0:0:0:
250,248,36007,2,0,L|145:224,1,90,10|0,0:0|0:0,0:0:0:0:
326,193,36340,2,0,L|342:94,1,90,10|0,0:0|0:0,0:0:0:0:
90,141,36673,6,0,L|188:149,1,90,8|2,0:0|0:0,0:0:0:0:
222,134,36923,1,2,0:0:0:0:
378,185,37007,2,0,L|407:83,1,90,8|0,0:0|0:0,0:0:0:0:
241,238,37340,2,0,L|352:249,1,90,8|0,0:0|0:0,0:0:0:0:
104,312,37673,6,0,L|-7:294,1,90,8|2,0:0|0:0,0:0:0:0:
61,288,37923,1,2,0:0:0:0:
224,259,38007,2,0,L|346:246,1,90,10|0,0:0|0:0,0:0:0:0:
151,143,38340,1,10,0:0:0:0:
196,147,38423,1,2,0:0:0:0:
242,150,38507,1,2,0:0:0:0:
287,153,38590,1,2,0:0:0:0:
132,239,38673,6,0,L|105:125,1,90,10|0,0:0|0:0,0:0:0:0:
156,149,38923,1,0,0:0:0:0:
298,208,39007,2,0,L|411:184,1,90,8|0,0:0|0:0,0:0:0:0:
220,278,39340,1,10,0:0:0:0:
205,196,39507,1,2,0:0:0:0:
438,175,39673,6,0,L|464:84,1,90,10|0,0:0|0:0,0:0:0:0:
238,256,40007,2,0,L|212:165,1,90,10|0,0:0|0:0,0:0:0:0:
444,201,40340,2,0,L|323:210,1,90,8|0,0:0|0:0,0:0:0:0:
105,140,40673,5,12,0:0:0:0:
259,108,40840,1,2,0:0:0:0:
214,108,40923,1,2,0:0:0:0:
168,109,41007,1,12,0:0:0:0:
322,42,41173,1,2,0:0:0:0:
276,43,41257,1,2,0:0:0:0:
453,190,41340,6,0,L|465:123,1,45,12|0,0:0|0:0,0:0:0:0:
309,235,41507,2,2,L|297:168,1,45
467,117,41673,2,0,L|405:113,1,45,8|0,0:0|0:0,0:0:0:0:
263,178,41840,2,0,L|201:174,1,45
399,289,42007,1,8,0:0:0:0:
449,266,42090,1,0,0:0:0:0:
466,214,42173,1,0,0:0:0:0:
449,266,42257,1,0,0:0:0:0:
399,289,42340,1,14,0:0:0:0:
346,287,42423,1,2,0:0:0:0:
182,229,42507,2,2,L|124:234,1,45,6|2,0:0|0:0,0:0:0:0:
374,185,42673,5,12,0:0:0:0:
197,167,43006,1,12,0:0:0:0:
433,121,43506,1,12,0:0:0:0:
120,85,43839,1,8,0:0:0:0:
269,67,44006,1,8,0:0:0:0:
120,85,44173,1,8,0:0:0:0:
269,67,44339,1,8,0:0:0:0:
36,212,44506,1,10,0:0:0:0:
58,215,44548,1,2,0:0:0:0:
79,219,44589,1,2,0:0:0:0:
277,196,44673,5,12,0:0:0:0:
299,116,44839,1,8,0:0:0:0:
65,254,45006,1,12,0:0:0:0:
43,174,45172,1,12,0:0:0:0:
219,225,45506,1,12,0:0:0:0:
55,248,45839,5,8,0:0:0:0:
218,107,46006,1,8,0:0:0:0:
303,159,46173,1,10,0:0:0:0:
259,166,46256,1,10,0:0:0:0:
215,173,46339,1,10,0:0:0:0:
135,192,46506,1,8,0:0:0:0:
375,214,46672,5,12,0:0:0:0:
208,175,47006,1,12,0:0:0:0:
462,129,47505,1,12,0:0:0:0:
165,107,47838,1,8,0:0:0:0:
319,93,48005,1,8,0:0:0:0:
165,107,48172,1,8,0:0:0:0:
319,93,48338,1,8,0:0:0:0:
91,201,48505,1,10,0:0:0:0:
68,198,48547,1,2,0:0:0:0:
46,194,48588,1,2,0:0:0:0:
238,177,48672,5,12,0:0:0:0:
324,155,48838,1,8,0:0:0:0:
98,269,49006,1,12,0:0:0:0:
12,247,49172,1,12,0:0:0:0:
194,193,49505,1,12,0:0:0:0:
25,131,49838,5,8,0:0:0:0:
307,149,50006,2,8,L|222:135,2,60,10|8|8,0:0|0:0|0:0,0:0:0:0:
118,180,50339,2,8,L|203:166,2,60,10|8|8,0:0|0:0|0:0,0:0:0:0:
328,249,50672,6,0,L|367:141,1,90,12|2,0:0|0:0,0:0:0:0:
312,169,50922,1,2,0:0:0:0:
153,224,51006,2,0,L|340:203,1,180,10|8,0:0|0:0,0:0:0:0:
100,181,51506,2,0,L|79:59,1,90,2|0,0:0|0:0,0:0:0:0:
175,113,51839,1,2,0:0:0:0:
332,231,52006,2,0,L|233:241,1,90,8|0,0:0|0:0,0:0:0:0:
474,153,52339,1,12,0:0:0:0:
223,112,52506,1,12,0:0:0:0:
481,166,52672,6,0,L|499:55,1,90,12|0,0:0|0:0,0:0:0:0:
336,168,53006,1,8,0:0:0:0:
95,123,53172,2,0,L|212:126,1,90,2|8,0:0|0:0,0:0:0:0:
419,189,53506,2,0,L|227:205,1,180,2|2,0:0|0:0,0:0:0:0:
287,179,53922,1,2,0:0:0:0:
110,262,54006,1,12,0:0:0:0:
62,249,54089,1,0,0:0:0:0:
234,228,54172,1,2,0:0:0:0:
282,215,54256,1,2,0:0:0:0:
108,176,54339,2,0,L|54:164,1,45,12|0,0:0|0:0,0:0:0:0:
64,166,54506,2,0,L|108:176,1,45
350,119,54672,6,0,L|372:25,1,90,12|2,0:0|0:0,0:0:0:0:
326,44,54922,1,2,0:0:0:0:
169,113,55006,1,12,0:0:0:0:
392,156,55506,1,12,0:0:0:0:
82,220,55839,1,8,0:0:0:0:
325,270,56006,2,0,L|345:174,1,90,10|0,0:0|0:0,0:0:0:0:
185,160,56339,2,0,L|175:101,1,45,10|0,0:0|0:0,0:0:0:0:
379,149,56506,2,0,L|425:141,1,45,10|0,0:0|0:0,0:0:0:0:
193,272,56672,6,0,L|166:169,1,90,12|2,0:0|0:0,0:0:0:0:
214,193,56922,1,2,0:0:0:0:
421,231,57006,2,0,L|448:128,1,90,12|0,0:0|0:0,0:0:0:0:
400,152,57256,1,0,0:0:0:0:
193,272,57339,2,0,L|96:250,1,90,12|0,0:0|0:0,0:0:0:0:
153,228,57589,1,0,0:0:0:0:
384,245,57672,5,12,0:0:0:0:
129,211,57839,1,8,0:0:0:0:
384,245,58006,1,12,0:0:0:0:
129,211,58173,1,8,0:0:0:0:
384,245,58339,1,12,0:0:0:0:
129,211,58506,1,8,0:0:0:0:
379,219,58672,6,0,L|403:157,1,45,8|0,0:0|0:0,0:0:0:0:
180,110,58838,2,2,L|121:121,2,45
414,222,59172,2,0,L|438:160,1,45,2|0,0:0|0:0,0:0:0:0:
195,120,59338,2,2,L|136:131,2,45
441,232,59672,2,0,L|379:219,1,45,8|0,0:0|0:0,0:0:0:0:
168,268,59838,2,0,L|158:223,1,45,2|0,0:0|0:0,0:0:0:0:
414,154,60005,6,0,L|438:92,1,45,8|0,0:0|0:0,0:0:0:0:
207,46,60171,2,2,L|148:57,2,45
445,168,60505,2,0,L|463:107,1,45,8|0,0:0|0:0,0:0:0:0:
220,63,60671,2,8,L|161:74,2,45
473,171,61005,1,8,0:0:0:0:
217,240,61172,2,0,L|144:231,1,45,8|0,0:0|0:0,0:0:0:0:
447,105,61338,5,6,0:0:0:0:
176,207,70338,6,0,L|18:172,1,157.5,2|0,0:0|0:0,0:0:0:0:
338,143,70671,1,8,0:0:0:0:
98,178,71338,1,12,0:0:0:0:
263,239,71671,1,2,0:0:0:0:
267,216,71712,1,2,0:0:0:0:
271,194,71754,1,2,0:0:0:0:
276,172,71796,1,2,0:0:0:0:
280,150,71837,1,2,0:0:0:0:
285,128,71879,1,2,0:0:0:0:
289,106,71921,1,2,0:0:0:0:
76,187,72005,6,0,L|18:171,1,45,8|0,0:0|0:0,0:0:0:0:
32,175,72171,2,0,L|76:187,1,45
183,175,72338,1,2,0:0:0:0:
336,268,72671,1,2,0:0:0:0:
388,251,72755,1,2,0:0:0:0:
388,251,72838,1,2,0:0:0:0:
336,268,72921,1,2,0:0:0:0:
172,219,73005,2,0,L|158:167,1,45
307,267,73171,2,0,L|321:215,1,45
142,142,73338,6,0,L|135:76,1,45,2|0,0:0|0:0,0:0:0:0:
229,181,73505,2,0,L|222:115,1,45
315,210,73671,1,2,0:0:0:0:
171,264,74005,1,2,0:0:0:0:
123,250,74088,1,2,0:0:0:0:
171,243,74171,1,2,0:0:0:0:
220,238,74255,1,2,0:0:0:0:
382,233,74338,2,0,L|395:166,1,45
239,275,74505,2,0,L|248:206,1,45
90,237,74671,5,2,0:0:0:0:
40,228,74755,1,0,0:0:0:0:
40,228,74838,1,0,0:0:0:0:
90,237,74921,1,0,0:0:0:0:
192,231,75005,1,2,0:0:0:0:
349,167,75338,1,0,0:0:0:0:
295,159,75421,1,0,0:0:0:0:
242,151,75504,1,0,0:0:0:0:
188,143,75587,1,0,0:0:0:0:
348,89,75671,2,0,L|407:99,1,45,2|0,0:0|0:0,0:0:0:0:
245,137,75838,2,0,L|186:147,1,45,2|0,0:0|0:0,0:0:0:0:
360,251,76005,6,0,L|377:141,1,90,0|2,0:0|0:0,0:0:0:0:
327,180,76255,1,2,0:0:0:0:
160,223,76338,2,0,L|240:233,1,45,2|0,0:0|0:0,0:0:0:0:
354,191,76505,2,0,L|434:201,1,45
239,295,76671,1,2,0:0:0:0:
177,287,76755,1,2,0:0:0:0:
177,287,76838,1,2,0:0:0:0:
239,295,76921,1,0,0:0:0:0:
395,208,77005,2,0,L|452:160,1,45
279,179,77171,2,0,L|222:131,1,45
435,109,77338,5,8,0:0:0:0:
391,102,77421,1,0,0:0:0:0:
346,96,77504,1,0,0:0:0:0:
302,90,77587,1,0,0:0:0:0:
399,75,77671,1,2,0:0:0:0:
67,189,78005,2,0,L|53:133,1,45,8|0,0:0|0:0,0:0:0:0:
150,117,78171,2,0,L|164:61,1,45
63,26,78338,1,2,0:0:0:0:
335,93,78505,1,8,0:0:0:0:
65,274,78671,6,0,L|50:198,1,45,8|0,0:0|0:0,0:0:0:0:
149,224,78838,2,0,L|134:148,1,45
234,156,79005,1,2,0:0:0:0:
471,231,79338,2,0,L|418:240,1,45,8|0,0:0|0:0,0:0:0:0:
326,290,79505,2,0,L|273:299,1,45
373,228,79671,1,2,0:0:0:0:
132,164,79838,1,8,0:0:0:0:
392,123,80005,6,0,L|398:59,1,45,8|0,0:0|0:0,0:0:0:0:
230,206,80171,2,0,L|220:149,1,45,8|0,0:0|0:0,0:0:0:0:
407,125,80338,1,2,0:0:0:0:
117,233,80505,2,0,L|63:236,1,45,8|0,0:0|0:0,0:0:0:0:
279,303,80671,2,0,L|211:297,1,45,8|0,0:0|0:0,0:0:0:0:
62,193,80838,1,2,0:0:0:0:
338,235,81005,6,0,L|407:218,1,45,8|0,0:0|0:0,0:0:0:0:
175,187,81171,2,0,L|109:170,1,45,8|0,0:0|0:0,0:0:0:0:
355,101,81338,2,0,P|423:99|421:23,1,135,2|0,0:0|0:0,0:0:0:0:
205,189,81671,5,10,0:0:0:0:
151,182,81754,1,2,0:0:0:0:
96,175,81838,1,2,0:0:0:0:
42,167,81921,1,2,0:0:0:0:
296,97,82004,1,2,0:0:0:0:
242,90,82087,1,2,0:0:0:0:
188,82,82171,1,2,0:0:0:0:
134,74,82254,1,2,0:0:0:0:
376,186,82338,5,2,0:0:0:0:
408,167,82379,1,0,0:0:0:0:
421,130,82421,1,0,0:0:0:0:
409,93,82463,1,0,0:0:0:0:
258,155,82504,2,0,L|201:145,1,45,2|0,0:0|0:0,0:0:0:0:
428,239,82671,2,0,L|372:227,1,45,2|0,0:0|0:0,0:0:0:0:
155,298,82838,2,0,L|99:286,1,45,2|0,0:0|0:0,0:0:0:0:
390,316,83004,6,0,L|490:300,1,90,12|0,0:0|0:0,0:0:0:0:
436,288,83254,1,2,0:0:0:0:
202,219,83337,2,0,L|173:113,1,90,8|0,0:0|0:0,0:0:0:0:
374,163,83587,2,0,L|399:43,1,90,2|0,0:0|0:0,0:0:0:0:
145,102,83837,1,0,0:0:0:0:
388,212,84004,1,10,0:0:0:0:
463,183,84087,1,2,0:0:0:0:
419,173,84170,1,2,0:0:0:0:
374,163,84254,1,2,0:0:0:0:
129,220,84337,5,10,0:0:0:0:
275,203,84504,2,0,L|289:136,1,45
104,120,84670,1,8,0:0:0:0:
157,113,84754,1,0,0:0:0:0:
210,107,84837,1,0,0:0:0:0:
455,213,85004,2,0,L|407:202,1,45,8|0,0:0|0:0,0:0:0:0:
205,275,85170,2,0,L|157:264,1,45
393,274,85337,1,10,0:0:0:0:
417,226,85420,1,2,0:0:0:0:
399,174,85504,1,2,0:0:0:0:
350,150,85587,1,2,0:0:0:0:
110,237,85670,6,0,L|242:249,1,90,8|0,0:0|0:0,0:0:0:0:
250,232,85920,1,2,0:0:0:0:
69,269,86004,1,10,0:0:0:0:
327,112,86170,1,2,0:0:0:0:
339,59,86254,1,0,0:0:0:0:
52,176,86420,1,2,0:0:0:0:
105,161,86504,1,0,0:0:0:0:
402,210,86670,1,10,0:0:0:0:
453,228,86754,1,2,0:0:0:0:
453,228,86837,1,2,0:0:0:0:
402,210,86920,1,2,0:0:0:0:
156,225,87004,6,0,L|139:129,1,90,8|0,0:0|0:0,0:0:0:0:
192,139,87254,1,0,0:0:0:0:
407,163,87337,2,0,L|453:155,2,45,8|0|0,0:0|0:0|0:0,0:0:0:0:
135,273,87670,1,8,0:0:0:0:
60,247,87754,1,0,0:0:0:0:
108,238,87837,1,8,0:0:0:0:
156,231,87920,1,0,0:0:0:0:
403,168,88004,1,10,0:0:0:0:
456,160,88087,1,2,0:0:0:0:
212,244,88170,1,10,0:0:0:0:
159,236,88253,1,2,0:0:0:0:
433,240,88337,5,10,0:1:0:0:
178,151,88504,2,0,L|105:155,2,45,2|0|8,0:0|0:0|0:0,0:0:0:0:
458,111,88837,2,0,L|462:58,1,45,2|0,0:0|0:0,0:0:0:0:
90,194,89087,2,0,L|35:177,1,45,2|2,0:0|0:0,0:0:0:0:
364,134,89337,2,2,L|414:125,1,45,10|2,0:0|0:0,0:0:0:0:
187,207,89504,2,2,L|245:216,1,45
469,271,89670,6,0,L|488:151,1,90,10|0,0:0|0:0,0:0:0:0:
264,174,89920,2,0,L|283:54,1,90,2|0,0:0|0:0,0:0:0:0:
378,82,90170,2,0,L|357:25,1,45,2|0,0:0|0:0,0:0:0:0:
132,139,90337,2,0,L|204:149,1,45,8|0,0:0|0:0,0:0:0:0:
374,196,90503,2,0,L|446:206,1,45
161,280,90670,2,0,L|149:221,1,45,8|0,0:0|0:0,0:0:0:0:
334,204,90837,2,0,L|380:213,1,45,8|0,0:0|0:0,0:0:0:0:
65,115,91003,6,0,L|187:96,1,90,4|0,0:0|0:0,0:0:0:0:
209,110,91253,1,0,0:0:0:0:
437,174,91337,2,0,L|448:118,1,45,8|0,0:0|0:0,0:0:0:0:
220,260,91503,2,0,L|209:204,1,45,8|0,0:0|0:0,0:0:0:0:
312,114,91670,2,0,L|371:128,1,45
162,175,91837,1,8,0:0:0:0:
67,203,92003,1,0,0:0:0:0:
330,197,92170,1,10,0:1:0:0:
33,87,92337,5,8,0:0:0:0:
179,172,92503,1,2,0:0:0:0:
211,165,92587,1,2,0:0:0:0:
63,239,92753,1,2,0:0:0:0:
57,207,92837,1,2,0:0:0:0:
324,196,93003,5,10,0:0:0:0:
382,189,93086,1,2,0:0:0:0:
440,182,93169,1,2,0:0:0:0:
498,175,93252,1,2,0:0:0:0:
230,125,93337,1,10,0:0:0:0:
288,118,93420,1,2,0:0:0:0:
346,111,93503,1,2,0:0:0:0:
404,104,93586,1,2,0:0:0:0:
100,251,93670,6,0,P|49:217|95:156,1,135
387,162,94003,2,0,L|404:49,1,90,8|0,0:0|0:0,0:0:0:0:
193,132,94253,2,0,L|279:84,1,90,2|0,0:0|0:0,0:0:0:0:
466,187,94503,1,2,0:0:0:0:
142,256,94670,2,0,L|200:264,1,45,8|0,0:0|0:0,0:0:0:0:
397,215,94837,2,0,L|455:223,1,45
188,184,95003,6,0,L|167:79,1,90,8|2,0:0|0:0,0:0:0:0:
219,101,95253,1,2,0:0:0:0:
442,94,95337,1,2,0:0:0:0:
389,83,95420,1,2,0:0:0:0:
335,74,95503,1,2,0:0:0:0:
55,222,95670,2,0,L|39:159,1,45,8|0,0:0|0:0,0:0:0:0:
271,246,95837,2,0,L|314:234,1,45
73,293,96003,1,10,0:0:0:0:
21,275,96087,1,2,0:0:0:0:
21,275,96170,1,2,0:0:0:0:
73,293,96253,1,2,0:0:0:0:
322,207,96337,6,0,L|193:187,1,90,8|0,0:0|0:0,0:0:0:0:
180,210,96587,1,0,0:0:0:0:
349,170,96670,1,8,0:0:0:0:
61,115,96837,2,2,L|48:65,1,45
297,205,97087,2,2,L|368:193,1,45
66,258,97337,2,2,L|47:191,1,45,10|2,0:0|0:0,0:0:0:0:
294,133,97503,2,2,L|310:74,1,45
33,158,97670,6,0,L|142:174,1,90,8|2,0:0|0:0,0:0:0:0:
73,146,97920,1,2,0:0:0:0:
291,95,98003,1,2,0:0:0:0:
236,90,98087,1,2,0:0:0:0:
182,82,98170,1,2,0:0:0:0:
414,264,98337,1,8,0:0:0:0:
489,232,98420,1,0,0:0:0:0:
436,228,98503,1,8,0:0:0:0:
383,221,98587,1,0,0:0:0:0:
150,208,98670,2,0,L|87:176,1,45,8|0,0:0|0:0,0:0:0:0:
354,156,98837,2,0,L|417:124,1,45,8|0,0:0|0:0,0:0:0:0:
93,116,99003,5,2,0:1:0:0:
376,181,99170,2,2,L|434:170,2,45
74,120,99503,1,2,0:1:0:0:
409,185,99670,2,2,L|467:174,2,45
90,136,100003,2,2,L|79:68,1,45,10|2,0:0|0:0,0:0:0:0:
189,211,100170,2,2,L|200:154,1,45
446,91,100337,6,0,L|359:82,1,45,10|0,0:1|0:0,0:0:0:0:
150,234,100503,2,0,L|81:229,1,45,2|0,0:0|0:0,0:0:0:0:
376,231,100670,2,0,L|421:226,1,45,8|0,0:0|0:0,0:0:0:0:
179,127,100836,2,0,L|223:132,1,45,2|0,0:0|0:0,0:0:0:0:
474,113,101003,2,0,L|486:44,1,45,8|0,0:0|0:0,0:0:0:0:
225,238,101170,2,0,L|164:232,1,45,2|0,0:0|0:0,0:0:0:0:
469,181,101337,2,0,L|487:76,1,90,10|0,0:1|0:0,0:0:0:0:
441,98,101587,1,0,0:0:0:0:
169,175,101670,6,0,L|55:167,1,90,10|0,0:1|0:0,0:0:0:0:
182,257,101920,2,0,L|296:249,1,90,2|0,0:0|0:0,0:0:0:0:
72,123,102170,1,8,0:0:0:0:
406,103,102337,2,2,L|418:164,1,45
110,212,102587,2,0,L|63:210,2,45,2|0|0,0:0|0:0|0:0,0:0:0:0:
330,280,102837,2,0,L|393:277,1,45,8|0,0:0|0:0,0:0:0:0:
115,197,103003,5,2,0:1:0:0:
430,150,103170,2,2,L|450:99,1,45,10|2,0:0|0:0,0:0:0:0:
115,62,103420,2,2,L|135:113,1,45
432,233,103670,2,2,L|364:227,1,45,10|2,0:0|0:0,0:0:0:0:
71,195,103920,2,2,L|127:182,1,45,2|10,0:0|0:0,0:0:0:0:
450,252,104170,1,10,0:0:0:0:
69,175,104337,6,0,L|46:56,1,90,12|0,0:0|0:0,0:0:0:0:
159,123,104670,1,10,0:0:0:0:
483,206,104837,2,0,L|357:188,1,90,8|0,0:0|0:0,0:0:0:0:
494,191,105170,1,10,0:0:0:0:
103,252,105337,2,0,L|208:238,1,90,8|0,0:0|0:0,0:0:0:0:
90,233,105670,5,10,0:0:0:0:
386,345,105837,2,0,L|186:323,1,180,8|0,0:0|0:0,0:0:0:0:
452,183,106337,2,2,L|497:190,2,45
188,251,106670,1,10,0:0:0:0:
463,180,106837,1,2,0:0:0:0:
113,193,107003,6,0,L|80:46,1,135,12|0,0:0|0:0,0:0:0:0:
306,125,107337,1,10,0:0:0:0:
30,189,107503,2,8,L|157:174,1,90
19,176,107837,1,10,0:0:0:0:
383,262,108003,2,0,L|411:138,1,90,8|0,0:0|0:0,0:0:0:0:
311,193,108337,5,10,0:0:0:0:
33,256,108503,2,0,L|227:239,1,180,8|10,0:0|0:0,0:0:0:0:
258,261,108920,1,2,0:0:0:0:
69,175,109003,2,0,L|47:80,1,90,10|0,0:0|0:0,0:0:0:0:
395,175,109337,1,8,0:0:0:0:
259,223,109503,1,2,0:0:0:0:
204,219,109587,1,2,0:0:0:0:
408,192,109670,6,0,L|431:41,1,135,12|0,0:0|0:0,0:0:0:0:
228,106,110003,1,2,0:0:0:0:
329,70,110170,1,8,0:0:0:0:
29,178,110337,2,0,L|181:200,1,135,8|0,0:0|0:0,0:0:0:0:
382,203,110670,1,2,0:0:0:0:
473,190,110837,1,0,0:0:0:0:
165,296,111003,5,10,0:0:0:0:
135,301,111058,1,2,0:0:0:0:
107,293,111114,1,2,0:0:0:0:
85,273,111169,1,2,0:0:0:0:
74,245,111225,1,2,0:0:0:0:
76,215,111280,1,2,0:0:0:0:
92,190,111336,1,2,0:0:0:0:
117,174,111391,1,2,0:0:0:0:
147,171,111447,1,2,0:0:0:0:
312,234,111503,5,0,0:0:0:0:
365,223,111587,1,0,0:0:0:0:
417,212,111670,1,0,0:0:0:0:
122,153,111837,2,0,L|68:139,1,45,8|0,0:0|0:0,0:0:0:0:
363,182,112003,2,0,L|417:168,1,45,8|0,0:0|0:0,0:0:0:0:
121,235,112170,1,8,0:0:0:0:
446,164,112337,6,0,L|462:40,1,90,10|0,0:0|0:0,0:0:0:0:
403,84,112587,1,0,0:0:0:0:
223,111,112670,1,8,0:0:0:0:
466,214,112837,2,0,L|249:244,1,180,2|2,0:0|0:0,0:0:0:0:
242,261,113253,1,2,0:0:0:0:
421,148,113337,2,0,L|472:68,1,90,10|0,0:0|0:0,0:0:0:0:
142,271,113670,6,0,L|120:176,1,90,8|8,0:0|0:0,0:0:0:0:
169,183,113920,1,2,0:0:0:0:
367,183,114003,2,0,L|466:142,1,90,8|8,0:0|0:0,0:0:0:0:
110,169,114337,2,2,L|42:151,1,45,10|2,0:0|0:0,0:0:0:0:
347,127,114503,2,2,L|414:114,1,45,10|2,0:0|0:0,0:0:0:0:
91,186,114670,2,2,L|38:168,1,45,10|2,0:0|0:0,0:0:0:0:
367,138,114837,2,2,L|427:124,1,45,10|2,0:0|0:0,0:0:0:0:
69,146,115003,6,0,L|43:53,1,90,10|0,0:0|0:0,0:0:0:0:
201,202,115337,1,0,0:0:0:0:
104,235,115503,1,2,0:0:0:0:
147,237,115587,1,2,0:0:0:0:
183,238,115670,1,2,0:0:0:0:
273,184,115837,2,0,L|376:190,2,90,2|0|0,0:0|0:0|0:0,0:0:0:0:
108,105,116337,6,0,L|225:90,1,90,2|0,0:0|0:0,0:0:0:0:
359,184,116670,2,0,L|364:89,1,90,2|0,0:0|0:0,0:0:0:0:
277,221,117003,2,0,L|282:126,1,90,2|0,0:0|0:0,0:0:0:0:
373,250,117337,2,0,L|257:263,1,90,2|0,0:0|0:0,0:0:0:0:
123,175,117670,6,0,L|103:83,1,90,2|0,0:0|0:0,0:0:0:0:
199,120,118003,1,0,0:0:0:0:
358,174,118170,2,0,L|234:188,2,90,2|0|0,0:0|0:0|0:0,0:0:0:0:
447,220,118670,2,0,L|462:126,1,90
291,261,119003,6,0,L|197:250,1,90,2|0,0:0|0:0,0:0:0:0:
294,347,119337,2,0,L|393:316,1,90
215,131,119670,1,2,0:0:0:0:
127,164,119837,1,0,0:0:0:0:
127,164,120003,1,0,0:0:0:0:
215,131,120170,1,0,0:0:0:0:
456,205,120337,6,0,L|466:94,1,90,2|0,0:0|0:0,0:0:0:0:
308,190,120670,1,0,0:0:0:0:
391,233,120837,1,2,0:0:0:0:
435,226,120920,1,2,0:0:0:0:
479,221,121003,1,2,0:0:0:0:
330,309,121170,2,0,L|227:299,2,90,2|0|0,0:0|0:0|0:0,0:0:0:0:
96,211,121670,6,0,L|79:109,1,90,2|0,0:0|0:0,0:0:0:0:
244,144,122003,2,0,L|253:44,1,90,2|0,0:0|0:0,0:0:0:0:
94,223,122337,2,0,L|103:123,1,90,2|0,0:0|0:0,0:0:0:0:
259,240,122670,2,0,L|134:259,1,90,2|0,0:0|0:0,0:0:0:0:
413,185,123003,6,0,L|322:196,1,90,2|0,0:0|0:0,0:0:0:0:
163,223,123337,2,0,L|140:126,1,90
307,86,123670,1,2,0:0:0:0:
395,99,123837,1,2,0:0:0:0:
395,99,124003,1,2,0:0:0:0:
307,86,124170,1,2,0:0:0:0:
76,228,124337,6,0,L|190:207,1,90,2|0,0:0|0:0,0:0:0:0:
332,290,124670,2,0,L|218:269,1,90
400,182,125003,1,2,0:0:0:0:
484,169,125170,1,0,0:0:0:0:
400,182,125337,1,0,0:0:0:0:
484,169,125503,1,0,0:0:0:0:
217,239,125670,6,0,L|203:148,1,90,2|0,0:0|0:0,0:0:0:0:
362,169,126003,2,0,L|376:68,1,90
279,264,126337,2,0,L|293:163,1,90
458,268,126670,2,0,L|344:275,1,90
203,119,127003,6,0,L|328:128,1,90,2|0,0:0|0:0,0:0:0:0:
140,292,127337,2,0,L|125:170,1,90
291,220,127670,2,0,L|306:98,1,90
139,192,128003,2,0,L|38:178,1,90,2|0,0:0|0:0,0:0:0:0:
396,88,128337,5,12,0:0:0:0:
256,192,128503,12,0,132337,0:0:0:0:
