osu file format v14

[General]
AudioFilename: mikisayaka.mp3
AudioLeadIn: 0
PreviewTime: 81588
Countdown: 0
SampleSet: Soft
StackLeniency: 0.7
Mode: 2
LetterboxInBreaks: 0
WidescreenStoryboard: 1

[Editor]
Bookmarks: 2673,10673,26673,42673,61338,70671,83004,104337,107003,115003,128337,132337
DistanceSpacing: 1.2
BeatDivisor: 4
GridSize: 32
TimelineZoom: 1.4

[Metadata]
Title:squartatrice
TitleUnicode:squartatrice
Artist:Miki Sayaka vs. Miki Sayaka (fw. Miki Sayaka)
ArtistUnicode:美樹さやか vs. 美樹さやか (fw. 美樹さやか)
Creator:celerih
Version:Cup
Source:
Tags:Deif ZiRoX Ascendance HARD RENAISSAYAKA BOF2011 OF FIGHTERS 2011 Kozato Yuzuki gmtn. LUZE BMS
BeatmapID:1702943
BeatmapSetID:810108

[Difficulty]
HPDrainRate:2
CircleSize:2.5
OverallDifficulty:6
ApproachRate:6
SliderMultiplier:0.999999999999999
SliderTickRate:1

[Events]
//Background and Video events
0,0,"mikisayaka.jpg",0,0
//Break Periods
2,61538,69621
//Storyboard Layer 0 (Background)
//Storyboard Layer 1 (Fail)
//Storyboard Layer 2 (Pass)
//Storyboard Layer 3 (Foreground)
//Storyboard Layer 4 (Overlay)
//Storyboard Sound Samples

[TimingPoints]
2674,333.333333333333,3,2,1,70,1,0
26340,-100,3,2,2,70,0,0
42673,333.333333333333,6,2,2,90,1,0
58672,333.333333333333,4,2,2,100,1,0
81338,333.333333333333,5,2,2,90,1,0
83004,333.333333333333,4,2,2,100,1,1
104337,-100,4,2,2,100,0,0
115003,-100,4,2,1,80,0,0

[Colours]
Combo1 : 193,137,146
Combo2 : 95,116,161
Combo3 : 159,70,88
Combo4 : 149,160,214

[HitObjects]
280,191,10673,6,0,L|400:179,2,99.9999999999999,10|0|2,0:0|0:0|0:0,0:0:0:0:
143,252,11673,2,0,L|23:240,2,99.9999999999999,2|0|8,0:0|0:0|0:0,0:0:0:0:
45,194,12673,2,0,L|152:176,1,99.9999999999999,2|2,0:0|0:0,0:0:0:0:
279,195,13340,1,2,0:0:0:0:
134,159,13673,6,0,L|121:47,1,99.9999999999999,10|0,0:0|0:0,0:0:0:0:
229,85,14340,1,0,0:0:0:0:
122,59,14673,1,2,0:0:0:0:
274,179,15007,2,0,L|321:133,2,50,8|0|0,0:0|0:0|0:0,0:0:0:0:
128,219,15673,6,0,L|12:208,2,99.9999999999999,2|2|8,0:0|0:0|0:0,0:0:0:0:
265,223,16673,2,0,P|295:195|263:152,1,99.9999999999999,8|0,0:0|0:0,0:0:0:0:
165,165,17340,1,0,0:0:0:0:
310,170,17673,2,0,L|335:53,1,99.9999999999999,10|8,0:0|0:0,0:0:0:0:
227,108,18340,1,0,0:0:0:0:
371,183,18673,6,0,L|259:165,2,99.9999999999999,2|8|0,0:0|0:0|0:0,0:0:0:0:
227,252,19673,2,0,L|115:234,2,99.9999999999999,2|8|0,0:0|0:0|0:0,0:0:0:0:
372,170,20673,2,0,L|270:178,1,99.9999999999999,2|10,0:0|0:0,0:0:0:0:
176,141,21340,1,8,0:0:0:0:
323,116,21673,6,0,L|341:9,1,99.9999999999999,2|8,0:0|0:0,0:0:0:0:
214,56,22340,1,8,0:0:0:0:
323,116,22673,1,2,0:0:0:0:
181,183,23007,2,0,L|116:173,2,50,0|0|0,0:0|0:0|0:0,0:0:0:0:
321,228,23673,6,0,L|437:217,2,99.9999999999999,10|2|2,0:0|0:0|0:0,0:0:0:0:
198,290,24673,2,0,L|218:171,1,99.9999999999999
108,177,25340,1,0,0:0:0:0:
5,183,25673,1,2,0:0:0:0:
309,222,26673,6,0,L|420:201,1,99.9999999999999,4|8,0:0|0:0,0:0:0:0:
304,195,27340,1,10,0:0:0:0:
169,268,27673,2,0,L|151:154,1,99.9999999999999,8|8,0:0|0:0,0:0:0:0:
252,191,28340,1,8,0:0:0:0:
393,173,28673,5,8,0:0:0:0:
275,150,29007,1,8,0:0:0:0:
158,128,29340,1,8,0:0:0:0:
288,136,29673,2,0,L|390:124,1,99.9999999999999,8|10,0:0|0:0,0:0:0:0:
239,253,30340,2,0,L|227:196,1,50,10|2,0:0|0:0,0:0:0:0:
319,185,30673,6,0,P|317:155|254:133,1,99.9999999999999,8|10,0:0|0:0,0:0:0:0:
155,156,31340,1,8,0:0:0:0:
291,243,31673,2,0,L|178:230,2,99.9999999999999,10|10|8,0:0|0:0|0:0,0:0:0:0:
436,201,32673,5,8,0:0:0:0:
317,218,33007,1,8,0:0:0:0:
191,231,33340,1,8,0:0:0:0:
331,237,33673,2,0,L|355:123,1,99.9999999999999,8|8,0:0|0:0,0:0:0:0:
258,116,34340,1,10,0:0:0:0:
114,204,34673,6,0,L|58:103,1,99.9999999999999,8|8,0:0|0:0,0:0:0:0:
162,118,35340,1,10,0:0:0:0:
308,207,35673,2,0,L|364:106,1,99.9999999999999,8|10,0:0|0:0,0:0:0:0:
260,121,36340,1,10,0:0:0:0:
112,173,36673,5,8,0:0:0:0:
225,186,37007,1,8,0:0:0:0:
112,173,37340,1,8,0:0:0:0:
225,186,37673,2,0,L|102:199,1,99.9999999999999,8|10,0:0|0:0,0:0:0:0:
271,286,38340,2,0,L|295:226,1,50,10|2,0:0|0:0,0:0:0:0:
207,218,38673,6,0,L|84:224,1,99.9999999999999,10|8,0:0|0:0,0:0:0:0:
211,190,39340,1,10,0:0:0:0:
348,283,39673,2,0,L|235:270,2,99.9999999999999,10|10|8,0:0|0:0|0:0,0:0:0:0:
498,223,40673,1,12,0:0:0:0:
379,244,41007,1,12,0:0:0:0:
224,293,41340,2,0,P|383:340|475:234,1,300,12|14,0:0|0:0,0:0:0:0:
328,226,42673,6,0,L|426:203,1,99.9999999999999,12|12,0:0|0:0,0:0:0:0:
300,134,43506,1,12,0:0:0:0:
145,189,44006,2,0,L|118:140,2,50,8|8|8,0:0|0:0|0:0,0:0:0:0:
286,232,44673,6,0,L|334:139,1,99.9999999999999,12|0,0:0|0:0,0:0:0:0:
264,142,45173,1,12,0:0:0:0:
146,205,45506,1,12,0:0:0:0:
327,225,46006,2,0,L|437:211,1,99.9999999999999,8|10,0:0|0:0,0:0:0:0:
283,281,46672,6,0,L|256:161,1,99.9999999999999,12|12,0:0|0:0,0:0:0:0:
394,193,47506,1,12,0:0:0:0:
181,251,48006,2,0,L|77:230,1,99.9999999999999,8|0,0:0|0:0,0:0:0:0:
237,189,48672,6,0,L|345:171,1,99.9999999999999,12|0,0:0|0:0,0:0:0:0:
391,163,49172,1,12,0:0:0:0:
245,129,49506,1,12,0:0:0:0:
389,239,50006,1,10,0:0:0:0:
267,260,50339,1,10,0:0:0:0:
408,247,50672,6,0,L|421:143,1,99.9999999999999,12|10,0:0|0:0,0:0:0:0:
255,250,51506,2,0,L|140:234,1,99.9999999999999,2|2,0:0|0:0,0:0:0:0:
227,211,52006,1,8,0:0:0:0:
358,243,52339,1,12,0:0:0:0:
214,344,52672,6,0,P|163:325|207:251,1,150,12|2,0:0|0:0,0:0:0:0:
317,211,53506,2,0,L|216:194,1,99.9999999999999,2|2,0:0|0:0,0:0:0:0:
136,220,54006,2,0,L|114:112,1,99.9999999999999,12|12,0:0|0:0,0:0:0:0:
267,116,54672,5,12,0:0:0:0:
147,90,55006,1,12,0:0:0:0:
312,115,55506,2,0,L|428:102,1,99.9999999999999,12|8,0:0|0:0,0:0:0:0:
490,139,56006,2,0,L|469:239,1,99.9999999999999,10|10,0:0|0:0,0:0:0:0:
326,265,56672,6,0,L|215:283,2,99.9999999999999,12|12|12,0:0|0:0|0:0,0:0:0:0:
456,288,57672,1,12,0:0:0:0:
336,276,58006,1,12,0:0:0:0:
216,262,58339,1,12,0:0:0:0:
363,226,58672,6,0,L|377:117,1,99.9999999999999,8|2,0:0|0:0,0:0:0:0:
290,151,59172,2,0,L|276:42,1,99.9999999999999,2|2,0:0|0:0,0:0:0:0:
368,37,59672,1,8,0:0:0:0:
223,302,60005,6,0,L|209:193,1,99.9999999999999,8|2,0:0|0:0,0:0:0:0:
296,227,60505,2,0,L|310:118,1,99.9999999999999,8|8,0:0|0:0,0:0:0:0:
218,113,61005,1,8,0:0:0:0:
372,89,61338,1,6,0:0:0:0:
152,181,70671,5,8,0:0:0:0:
309,134,71338,1,12,0:0:0:0:
204,141,71671,1,2,0:0:0:0:
363,167,72005,5,8,0:0:0:0:
240,271,72671,2,0,L|222:158,1,99.9999999999999,2|0,0:0|0:0,0:0:0:0:
327,195,73338,1,2,0:0:0:0:
153,303,74005,2,0,L|135:190,1,99.9999999999999,2|0,0:0|0:0,0:0:0:0:
240,227,74672,5,2,0:0:0:0:
418,215,75338,2,0,L|436:108,1,99.9999999999999,0|2,0:0|0:0,0:0:0:0:
310,157,76005,2,0,L|306:104,1,50,0|2,0:0|0:0,0:0:0:0:
224,82,76338,2,0,L|113:102,2,99.9999999999999,2|2|0,0:0|0:0|0:0,0:0:0:0:
371,145,77338,5,8,0:0:0:0:
179,133,78005,1,8,0:0:0:0:
371,145,78671,1,8,0:0:0:0:
195,177,79338,2,0,L|312:196,1,99.9999999999999,8|2,0:0|0:0,0:0:0:0:
444,131,80005,6,0,L|334:142,2,99.9999999999999,8|2|8,0:0|0:0|0:0,0:0:0:0:
350,111,81005,1,8,0:0:0:0:
198,163,81338,5,2,0:0:0:0:
339,233,82504,2,0,L|403:225,2,50,2|2|2,0:0|0:0|0:0,0:0:0:0:
252,213,83004,5,12,0:0:0:0:
379,159,83337,1,8,0:0:0:0:
331,119,83504,2,0,L|214:131,1,99.9999999999999,0|0,0:0|0:0,0:0:0:0:
316,194,84004,1,10,0:0:0:0:
205,187,84337,5,10,0:0:0:0:
354,123,84670,2,0,L|460:136,2,99.9999999999999,8|8|10,0:0|0:0|0:0,0:0:0:0:
205,236,85670,1,8,0:0:0:0:
312,219,86004,1,10,0:0:0:0:
324,183,86170,1,2,0:0:0:0:
207,159,86504,1,0,0:0:0:0:
195,123,86670,1,10,0:0:0:0:
353,105,87004,6,0,L|468:91,1,99.9999999999999,8|8,0:0|0:0,0:0:0:0:
304,242,87670,2,0,L|293:170,1,50,8|8,0:0|0:0,0:0:0:0:
355,160,88004,2,0,L|366:88,1,50,10|10,0:0|0:0,0:0:0:0:
274,96,88337,6,0,L|157:86,1,99.9999999999999,10|8,0:1|0:0,0:0:0:0:
116,112,88837,1,2,0:0:0:0:
287,198,89170,2,0,L|306:80,1,99.9999999999999,2|2,0:0|0:0,0:0:0:0:
122,245,90004,2,0,L|14:230,2,99.9999999999999,0|8|8,0:0|0:0|0:0,0:0:0:0:
281,222,91003,6,0,L|301:105,1,99.9999999999999,4|8,0:0|0:0,0:0:0:0:
208,138,91503,1,8,0:0:0:0:
332,119,91837,1,8,0:0:0:0:
166,225,92170,2,0,P|110:188|176:154,1,150,10|0,0:1|0:0,0:0:0:0:
278,150,93003,2,0,L|164:138,1,99.9999999999999,10|10,0:0|0:0,0:0:0:0:
366,244,93670,6,0,L|381:133,1,99.9999999999999,0|8,0:0|0:0,0:0:0:0:
298,139,94170,2,0,L|411:120,1,99.9999999999999,0|2,0:0|0:0,0:0:0:0:
316,106,94670,1,8,0:0:0:0:
422,145,95003,5,8,0:0:0:0:
272,224,95337,2,0,L|158:212,2,99.9999999999999,2|8|10,0:0|0:0|0:0,0:0:0:0:
133,248,96336,1,8,0:0:0:0:
258,169,96670,1,8,0:0:0:0:
297,163,96836,1,2,0:0:0:0:
160,197,97170,1,2,0:0:0:0:
121,191,97336,1,10,0:0:0:0:
255,119,97670,6,0,L|175:57,1,99.9999999999999,8|2,0:0|0:0,0:0:0:0:
321,224,98336,2,0,L|328:174,1,50,8|8,0:0|0:0,0:0:0:0:
262,168,98670,2,0,L|251:96,1,50,8|8,0:0|0:0,0:0:0:0:
341,86,99003,6,0,L|458:76,1,99.9999999999999,2|2,0:1|0:0,0:0:0:0:
353,66,99503,1,2,0:1:0:0:
210,159,99836,2,0,L|99:143,1,99.9999999999999,2|2,0:0|0:0,0:0:0:0:
299,243,100670,2,0,L|407:228,2,99.9999999999999,8|8|10,0:0|0:0|0:1,0:0:0:0:
149,242,101669,6,0,L|120:127,1,99.9999999999999,10|0,0:1|0:0,0:0:0:0:
216,153,102169,1,8,0:0:0:0:
95,146,102503,1,0,0:0:0:0:
251,229,102836,2,0,L|402:184,1,150,8|0,0:0|0:0,0:0:0:0:
263,154,103669,2,0,L|149:142,1,99.9999999999999,10|10,0:0|0:0,0:0:0:0:
321,119,104337,5,12,0:0:0:0:
159,105,104837,1,8,0:0:0:0:
321,119,105337,1,8,0:0:0:0:
159,105,105837,1,8,0:0:0:0:
267,190,106170,1,0,0:0:0:0:
318,208,106337,2,0,L|387:196,2,50,2|2|10,0:0|0:0|0:0,0:0:0:0:
174,109,107003,5,12,0:0:0:0:
336,95,107503,1,8,0:0:0:0:
174,109,108003,1,8,0:0:0:0:
336,95,108503,1,8,0:0:0:0:
226,185,108837,1,10,0:0:0:0:
175,203,109004,2,0,L|106:191,2,50,10|0|8,0:0|0:0|0:0,0:0:0:0:
337,226,109670,6,0,L|354:110,1,99.9999999999999,12|2,0:0|0:0,0:0:0:0:
282,160,110170,2,0,L|265:44,1,99.9999999999999,8|0,0:0|0:0,0:0:0:0:
347,40,110670,1,2,0:0:0:0:
195,235,111003,2,0,P|136:176|280:130,1,300,10|8,0:0|0:0,0:0:0:0:
132,245,112337,6,0,L|108:145,1,99.9999999999999,10|8,0:0|0:0,0:0:0:0:
186,162,112837,2,0,L|293:156,1,99.9999999999999,2|2,0:0|0:0,0:0:0:0:
205,138,113337,1,10,0:0:0:0:
355,211,113670,2,0,L|408:178,2,50,8|8|8,0:0|0:0|0:0,0:0:0:0:
231,255,114337,2,0,L|178:222,2,50,10|10|10,0:0|0:0|0:0,0:0:0:0:
393,231,115003,1,10,0:0:0:0:
