osu file format v14

[General]
AudioFilename: squartatrice.mp3
AudioLeadIn: 0
PreviewTime: 81674
Countdown: 0
SampleSet: Soft
StackLeniency: 0.4
Mode: 0
LetterboxInBreaks: 0
WidescreenStoryboard: 0

[Editor]
Bookmarks: 58008,109672,114339
DistanceSpacing: 0.4
BeatDivisor: 4
GridSize: 4
TimelineZoom: 3.199999

[Metadata]
Title:squartatrice
TitleUnicode:squartatrice
Artist:Miki Sayaka vs. Miki Sayaka (fw. Miki Sayaka)
ArtistUnicode:美樹さやか vs. 美樹さやか (fw. 美樹さやか)
Creator:Reol
Version:XtrA
Source:BMS
Tags:THE BMS OF FIGHTERS 2011 bof2011 Mahou Shoujo Magi Madoka Magica gmtn kozato TKS [_halloween_] halloween
BeatmapID:407413
BeatmapSetID:167783

[Difficulty]
HPDrainRate:7
CircleSize:5
OverallDifficulty:8
ApproachRate:9.3
SliderMultiplier:1.8
SliderTickRate:1

[Events]
//Background and Video events
0,0,"BG.jpg",0,0
//Break Periods
//Storyboard Layer 0 (Background)
//Storyboard Layer 1 (Fail)
//Storyboard Layer 2 (Pass)
//Storyboard Layer 3 (Foreground)
//Storyboard Sound Samples

[TimingPoints]
12,333.333333333333,3,2,0,5,1,0
512,-100,3,2,0,10,0,0
845,-100,3,2,0,15,0,0
1012,-100,3,2,0,20,0,0
1178,-100,3,2,0,30,0,0
1345,-100,3,2,0,35,0,0
1512,-100,3,2,0,40,0,0
1678,-100,3,2,0,45,0,0
1845,-100,3,2,0,55,0,0
2012,-100,3,2,0,65,0,0
2178,-100,3,2,0,75,0,0
2345,-100,3,2,0,5,0,0
2678,333.333333333333,3,2,0,30,1,0
10677,-100,3,2,0,50,0,0
24677,-100,3,2,0,20,0,0
25677,-100,3,2,0,20,0,0
25844,-100,3,2,0,30,0,0
26011,-100,3,2,0,35,0,0
26177,-100,3,2,0,40,0,0
26344,-100,3,2,0,55,0,0
26511,-100,3,2,0,60,0,0
26677,333.333333333333,4,2,0,65,1,0
42676,333.333333333333,6,1,0,50,1,0
50675,-100,6,2,0,60,0,0
54675,-100,6,1,0,65,0,0
58675,333.333333333333,4,2,0,65,1,0
61341,-133.333333333333,4,2,0,75,0,0
71674,-133.333333333333,4,2,0,55,0,0
72008,-117.647058823529,4,2,0,50,0,0
76008,-83.3333333333333,4,2,0,50,0,0
76341,-117.647058823529,4,2,0,65,0,0
78008,-100,4,2,0,55,0,0
78674,-83.3333333333333,4,2,0,60,0,0
79341,-71.4285714285714,4,2,0,65,0,0
80008,-62.5,4,2,0,75,0,0
81341,-100,5,2,0,80,0,0
81674,333.333333333333,4,2,0,85,1,0
83007,-100,4,2,0,75,0,1
93673,-200,4,2,0,100,0,0
93923,-200,4,2,0,5,0,0
94007,-100,4,2,0,75,0,1
101673,-100,4,2,0,75,0,0
104340,-133.333333333333,4,2,0,85,0,1
104673,-100,4,2,0,70,0,1
104840,-133.333333333333,4,2,0,85,0,1
105173,-100,4,2,0,70,0,1
105340,-133.333333333333,4,2,0,85,0,1
105673,-100,4,2,0,70,0,1
105840,-133.333333333333,4,2,0,85,0,1
106173,-100,4,2,0,70,0,1
107006,-133.333333333333,4,2,0,85,0,1
107340,-100,4,2,0,70,0,1
107506,-133.333333333333,4,2,0,85,0,1
107840,-100,4,2,0,70,0,1
108006,-133.333333333333,4,2,0,85,0,1
108340,-100,4,2,0,70,0,1
108506,-133.333333333333,4,2,0,85,0,1
108840,-100,4,2,0,70,0,1
109340,-133.333333333333,4,2,0,85,0,1
109673,-100,4,2,0,60,0,1
110173,-100,4,2,0,70,0,1
110673,-100,4,2,0,80,0,1
111007,-100,4,2,0,50,0,0
112007,-83.3333333333333,4,2,0,75,0,1
115007,-100,4,2,0,100,0,0
115090,-100,4,2,0,50,0,0
128340,-100,4,2,0,100,0,0
128381,-100,4,2,0,70,0,0
129673,-100,4,2,0,60,0,0
131006,-100,4,2,0,50,0,0
132340,-100,4,2,0,5,0,0

[Colours]
Combo1 : 255,77,77
Combo2 : 192,192,192
Combo3 : 128,128,128
Combo4 : 0,85,170
Combo5 : 0,132,196
Combo6 : 98,203,242
Combo7 : 95,149,250
Combo8 : 255,0,0

[HitObjects]
256,192,178,12,0,2345,0:0:0:0:
40,44,2678,5,2,0:0:0:0:
100,84,2844,1,0,0:0:0:0:
160,124,3011,1,0,0:0:0:0:
164,52,3177,1,0,0:0:0:0:
100,84,3344,1,0,0:0:0:0:
36,120,3511,5,0,0:0:0:0:
96,156,3677,1,0,0:0:0:0:
32,188,3844,1,0,0:0:0:0:
92,224,4011,1,0,0:0:0:0:
28,256,4177,1,0,0:0:0:0:
88,292,4344,1,0,0:0:0:0:
152,260,4511,101,0,0:0:0:0:
156,188,4677,1,0,0:0:0:0:
216,296,4844,1,0,0:0:0:0:
220,224,5011,1,0,0:0:0:0:
284,260,5177,1,0,0:0:0:0:
288,188,5344,1,0,0:0:0:0:
348,296,5511,1,0,0:0:0:0:
352,224,5677,1,0,0:0:0:0:
356,152,5844,5,0,0:0:0:0:
416,192,6011,1,0,0:0:0:0:
352,224,6177,1,0,0:0:0:0:
412,264,6344,1,0,0:0:0:0:
348,296,6511,1,0,0:0:0:0:
356,152,6677,101,2,0:0:0:0:
288,188,6844,1,0,0:0:0:0:
284,116,7011,1,0,0:0:0:0:
218,92,7177,1,0,0:0:0:0:
160,130,7344,1,0,0:0:0:0:
156,199,7511,1,0,0:0:0:0:
84,192,7677,1,0,0:0:0:0:
12,184,7844,1,0,0:0:0:0:
40,252,8011,5,0,0:0:0:0:
112,256,8177,1,0,0:0:0:0:
128,132,8344,101,0,0:0:0:0:
56,128,8511,1,0,0:0:0:0:
0,308,8677,5,2,0:0:0:0:
72,316,8844,1,0,0:0:0:0:
144,323,9011,1,0,0:0:0:0:
216,328,9177,1,0,0:0:0:0:
184,264,9344,1,0,0:0:0:0:
256,269,9511,1,0,0:0:0:0:
152,199,9677,1,2,0:0:0:0:
224,204,9844,1,0,0:0:0:0:
192,140,10011,1,0,0:0:0:0:
264,145,10177,1,0,0:0:0:0:
296,208,10344,101,0,0:0:0:0:
152,199,10511,1,0,0:0:0:0:
216,328,10677,21,2,0:0:0:0:
348,364,10844,1,0,0:0:0:0:
364,228,11011,1,0,0:0:0:0:
284,336,11177,5,0,0:0:0:0:
412,296,11344,1,0,0:0:0:0:
396,160,11511,1,0,0:0:0:0:
340,284,11677,101,2,0:0:0:0:
448,204,11844,1,0,0:0:0:0:
388,84,12011,1,0,0:0:0:0:
376,220,12177,5,0,0:0:0:0:
448,108,12344,1,0,0:0:0:0:
332,40,12511,1,0,0:0:0:0:
252,148,12677,1,2,0:0:0:0:
236,152,12761,1,0,0:0:0:0:
220,156,12844,1,0,0:0:0:0:
204,160,12927,1,0,0:0:0:0:
188,164,13011,1,2,0:0:0:0:
214,140,13094,1,0,0:0:0:0:
223,105,13177,1,0,0:0:0:0:
212,72,13261,1,0,0:0:0:0:
184,50,13344,1,2,0:0:0:0:
148,112,13511,101,0,0:0:0:0:
292,84,13677,1,2,0:0:0:0:
248,224,13844,1,0,0:0:0:0:
216,92,14011,5,0,0:0:0:0:
183,198,14177,1,0,0:0:0:0:
291,177,14344,1,0,0:0:0:0:
132,106,14511,101,0,0:0:0:0:
304,73,14677,1,2,0:0:0:0:
251,240,14844,1,0,0:0:0:0:
114,169,15011,5,0,0:0:0:0:
184,32,15177,1,0,0:0:0:0:
322,102,15344,1,0,0:0:0:0:
252,240,15511,1,0,0:0:0:0:
155,110,15677,101,2,0:0:0:0:
243,73,15844,1,0,0:0:0:0:
280,161,16011,1,0,0:0:0:0:
192,198,16177,1,0,0:0:0:0:
340,204,16344,1,0,0:0:0:0:
188,272,16511,1,0,0:0:0:0:
296,296,16677,5,2,0:0:0:0:
128,232,16844,1,0,0:0:0:0:
344,132,17011,1,0,0:0:0:0:
224,360,17177,1,0,0:0:0:0:
392,276,17344,1,0,0:0:0:0:
332,360,17511,1,0,0:0:0:0:
296,296,17677,1,2,0:0:0:0:
210,236,17844,101,0,0:0:0:0:
236,168,18011,1,0,0:0:0:0:
174,100,18177,1,0,0:0:0:0:
200,32,18344,1,0,0:0:0:0:
296,48,18511,1,0,0:0:0:0:
364,24,18677,1,2,0:0:0:0:
464,116,18844,1,0,0:0:0:0:
336,160,19011,1,0,0:0:0:0:
444,40,19177,5,0,0:0:0:0:
460,200,19344,1,0,0:0:0:0:
460,200,19511,1,0,0:0:0:0:
300,228,19677,1,2,0:0:0:0:
424,124,19844,101,0,0:0:0:0:
368,276,20011,1,0,0:0:0:0:
228,192,20177,1,0,0:0:0:0:
392,200,20344,5,0,0:0:0:0:
244,264,20511,1,0,0:0:0:0:
180,116,20677,1,2,0:0:0:0:
196,120,20761,1,0,0:0:0:0:
212,124,20844,1,0,0:0:0:0:
228,128,20927,1,0,0:0:0:0:
224,92,21011,1,2,0:0:0:0:
189,102,21094,1,0,0:0:0:0:
163,126,21177,1,0,0:0:0:0:
148,158,21261,1,0,0:0:0:0:
148,194,21344,1,2,0:0:0:0:
120,260,21511,101,0,0:0:0:0:
264,328,21677,1,2,0:0:0:0:
260,164,21844,1,0,0:0:0:0:
188,308,22011,5,0,0:0:0:0:
328,228,22177,1,0,0:0:0:0:
272,76,22344,1,0,0:0:0:0:
240,236,22511,101,0,0:0:0:0:
348,116,22677,1,2,0:0:0:0:
212,28,22844,1,0,0:0:0:0:
204,100,23011,5,0,0:0:0:0:
360,44,23177,1,0,0:0:0:0:
348,116,23344,1,0,0:0:0:0:
212,28,23511,1,0,0:0:0:0:
148,56,23677,101,2,0:0:0:0:
416,92,23844,1,0,0:0:0:0:
288,20,24011,5,0,0:0:0:0:
296,196,24177,1,0,0:0:0:0:
272,108,24344,101,0,0:0:0:0:
280,284,24511,1,0,0:0:0:0:
212,224,24677,85,2,0:0:0:0:
203,224,24844,1,2,0:0:0:0:
198,216,25011,1,2,0:0:0:0:
203,208,25177,1,2,0:0:0:0:
212,208,25344,1,2,0:0:0:0:
216,216,25511,1,2,0:0:0:0:
212,224,25677,5,2,0:0:0:0:
204,228,25761,1,2,0:0:0:0:
196,228,25844,1,2,0:0:0:0:
188,224,25927,1,2,0:0:0:0:
176,212,26011,1,2,0:0:0:0:
172,196,26094,1,2,0:0:0:0:
176,180,26177,1,2,0:0:0:0:
186,165,26261,1,2,0:0:0:0:
220,154,26344,1,2,0:0:0:0:
254,165,26427,1,2,0:0:0:0:
268,198,26511,1,2,0:0:0:0:
261,233,26594,1,2,0:0:0:0:
243,264,26677,6,0,P|287:280|343:252,1,90,6|0,1:2|0:0,0:0:0:0:
484,328,27010,2,0,P|440:312|384:340,1,90,2|0,1:2|0:0,0:0:0:0:
419,238,27260,1,0,0:0:0:0:
419,238,27343,2,0,P|382:213|368:172,1,90,2|0,1:2|0:0,0:0:0:0:
464,84,27593,1,0,0:0:0:0:
464,84,27677,2,0,P|468:127|445:165,1,90,2|0,1:2|0:0,0:0:0:0:
296,160,28010,6,0,P|248:128|112:156,1,180,2|2,1:2|1:2,0:0:0:0:
28,310,28510,1,0,0:0:0:0:
28,310,28593,1,0,0:0:0:0:
28,310,28676,2,0,L|140:302,1,90,2|0,1:2|0:0,0:0:0:0:
187,335,28926,1,0,0:0:0:0:
192,352,29010,2,0,L|198:262,1,90,2|0,1:2|0:0,0:0:0:0:
176,52,29343,6,0,P|260:24|364:40,1,180,2|2,1:2|1:2,0:0:0:0:
400,88,29843,1,0,0:0:0:0:
400,88,29926,1,0,0:0:0:0:
400,88,30010,2,0,L|500:84,1,90,2|0,1:2|0:0,0:0:0:0:
292,156,30343,1,2,1:2:0:0:
308,188,30426,1,2,0:0:0:0:
340,204,30510,1,2,0:0:0:0:
376,200,30593,1,2,0:0:0:0:
404,180,30676,102,0,P|376:200|240:168,1,180,2|2,1:2|1:2,0:0:0:0:
228,104,31176,1,0,0:0:0:0:
224,88,31260,1,0,0:0:0:0:
220,72,31343,2,0,P|172:64|112:80,1,90,2|2,1:2|0:0,0:0:0:0:
16,256,31676,2,0,L|124:248,1,90,2|2,1:2|0:2,0:0:0:0:
224,164,32010,6,0,L|116:156,1,90,2|2,1:2|0:0,0:0:0:0:
48,344,32343,2,0,P|92:352|136:344,1,90,2|2,1:2|0:2,0:0:0:0:
308,304,32676,2,0,L|200:296,1,90,2|0,1:2|0:0,0:0:0:0:
324,236,32926,1,2,0:0:0:0:
324,236,33010,6,0,P|368:252|424:224,1,90,2|0,1:2|0:0,0:0:0:0:
280,168,33260,1,0,0:0:0:0:
280,168,33343,102,0,P|239:191|224:252,1,90,2|0,1:2|0:0,0:0:0:0:
352,160,33593,1,0,0:0:0:0:
352,160,33676,6,0,P|360:113|322:63,1,90,2|0,1:2|0:0,0:0:0:0:
276,44,34010,1,2,1:2:0:0:
184,140,34176,1,0,0:0:0:0:
140,12,34343,1,2,1:2:0:0:
260,120,34510,1,0,0:0:0:0:
272,152,34593,1,0,0:0:0:0:
284,184,34676,1,2,1:2:0:0:
392,284,34843,101,2,0:2:0:0:
384,268,34926,1,0,0:0:0:0:
376,252,35010,1,2,1:2:0:0:
348,276,35093,1,0,0:0:0:0:
316,288,35176,1,0,0:0:0:0:
280,292,35260,1,0,0:0:0:0:
244,284,35343,5,2,1:2:0:0:
140,344,35510,1,0,0:0:0:0:
28,308,35676,1,2,1:2:0:0:
132,252,35843,1,0,0:0:0:0:
12,324,36010,102,0,L|4:128,1,180,2|2,1:2|1:2,0:0:0:0:
132,176,36510,1,0,0:0:0:0:
130,193,36593,1,0,0:0:0:0:
128,210,36676,2,0,L|119:332,1,90,2|0,1:2|0:0,0:0:0:0:
208,352,36926,1,0,0:0:0:0:
208,352,37010,2,0,L|201:262,1,90,2|0,1:2|0:0,0:0:0:0:
148,104,37343,6,0,P|200:80|332:100,1,180,2|2,1:2|1:2,0:0:0:0:
445,162,37843,1,0,0:0:0:0:
445,162,37926,1,0,0:0:0:0:
445,162,38010,2,0,L|356:156,1,90,2|0,1:2|0:0,0:0:0:0:
320,220,38343,1,2,1:2:0:0:
308,256,38426,1,2,0:0:0:0:
316,292,38510,1,2,0:0:0:0:
348,312,38593,1,2,0:0:0:0:
384,308,38676,102,0,P|336:288|200:324,1,180,2|2,1:2|1:2,0:0:0:0:
160,360,39176,1,0,0:0:0:0:
60,268,39343,1,2,1:2:0:0:
188,224,39510,1,2,0:2:0:0:
100,328,39676,5,2,1:2:0:0:
76,196,39843,1,2,0:2:0:0:
208,160,40010,1,2,1:2:0:0:
288,268,40176,101,2,0:2:0:0:
248,108,40343,1,2,1:2:0:0:
280,276,40510,5,2,0:2:0:0:
304,76,40676,1,6,1:2:0:0:
272,284,40843,101,0,1:0:0:0:
276,300,40926,1,2,0:2:0:0:
280,316,41010,1,6,1:2:0:0:
416,236,41176,5,0,0:0:0:0:
412,252,41260,1,0,0:0:0:0:
408,268,41343,1,6,1:2:0:0:
404,284,41426,1,0,0:0:0:0:
400,300,41510,1,2,0:2:0:0:
396,316,41593,1,0,0:0:0:0:
392,332,41676,1,6,1:2:0:0:
368,304,41760,1,0,0:0:0:0:
357,270,41843,1,2,0:2:0:0:
364,235,41926,1,0,0:0:0:0:
384,206,42010,1,2,1:2:0:0:
410,181,42093,1,0,0:0:0:0:
426,149,42176,1,0,1:0:0:0:
426,114,42260,1,0,0:0:0:0:
411,81,42343,2,0,L|352:76,1,45,2|0,1:2|0:0,0:0:0:0:
240,16,42510,2,0,L|299:10,1,45,6|0,1:2|0:0,0:0:0:0:
424,100,42676,38,0,B|368:92|368:92|296:112|296:112|236:104,1,180,4|4,0:2|0:2,0:0:0:0:
24,176,43509,6,4,B|80:168|80:168|152:188|152:188|212:180,1,180,4|4,0:2|0:2,0:2:0:0:
268,204,44009,1,0,0:0:0:0:
392,308,44176,1,0,0:0:0:0:
432,152,44342,1,0,0:0:0:0:
320,268,44509,2,0,L|288:272,1,22.5
316,284,44592,2,0,L|284:288,1,22.5
312,300,44676,101,4,0:2:0:0:
472,212,44842,1,4,0:2:0:0:
372,84,45009,1,4,0:2:0:0:
216,128,45176,1,4,0:2:0:0:
216,120,45509,5,0,0:0:0:0:
216,112,45842,101,0,0:0:0:0:
128,248,46009,2,0,L|140:300,1,45,0|0,0:0|2:0,0:0:0:0:
60,100,46176,2,0,L|48:48,1,45
200,204,46342,5,0,0:0:0:0:
64,296,46509,1,0,0:0:0:0:
64,136,46675,2,0,B|116:116|116:116|184:128|184:128|252:100,1,180,4|4,0:2|0:2,0:0:0:0:
472,136,47509,102,0,B|420:156|420:156|352:144|352:144|284:172,1,180,4|4,0:2|0:2,0:0:0:0:
300,236,48009,1,0,0:0:0:0:
140,244,48175,1,0,0:0:0:0:
208,96,48342,1,0,0:0:0:0:
220,256,48509,2,0,L|248:272,1,22.5
224,272,48592,2,0,L|252:288,1,22.5
228,288,48675,5,4,0:2:0:0:
60,272,48842,1,4,0:2:0:0:
72,112,49009,1,4,0:2:0:0:
232,132,49175,1,4,0:2:0:0:
228,124,49509,101,0,0:0:0:0:
224,120,49842,5,0,0:0:0:0:
344,40,50009,69,2,0:2:0:0:
328,104,50120,1,2,0:2:0:0:
312,168,50231,1,2,0:2:0:0:
392,88,50342,5,2,0:2:0:0:
376,152,50453,1,2,0:2:0:0:
360,216,50564,1,2,0:2:0:0:
444,136,50675,38,0,B|428:204|428:204|436:236|436:236|416:332,1,180,6|2,0:2|1:2,0:0:0:0:
344,376,51175,1,0,0:0:0:0:
328,372,51259,1,0,0:0:0:0:
312,368,51342,1,0,1:0:0:0:
192,328,51509,2,0,P|240:328|272:280,1,90,2|0,0:0|1:0,0:0:0:0:
124,368,51842,2,0,L|116:260,1,90,2|2,0:0|1:2,0:0:0:0:
64,228,52175,1,2,0:0:0:0:
208,152,52342,1,0,1:2:0:0:
76,56,52509,1,0,1:0:0:0:
92,52,52592,1,0,1:0:0:0:
108,48,52675,5,6,1:2:0:0:
148,224,52842,1,0,0:0:0:0:
308,196,53009,1,2,1:2:0:0:
284,36,53175,1,0,0:0:0:0:
300,40,53259,1,0,0:0:0:0:
316,44,53342,1,0,1:0:0:0:
447,85,53509,2,0,P|409:108|368:96,1,90,2|0,0:0|1:0,0:0:0:0:
304,128,53842,1,2,0:0:0:0:
404,256,54009,102,0,P|428:264|460:260,1,45,2|0,1:2|0:0,0:0:0:0:
244,276,54175,2,0,P|220:268|188:272,1,45,2|0,1:2|0:0,0:0:0:0:
372,176,54342,6,0,P|384:168|396:136,1,45,2|0,1:2|0:0,0:0:0:0:
344,336,54509,2,0,P|332:344|320:376,1,45,2|0,0:2|0:0,0:0:0:0:
184,316,54675,102,0,B|120:300|120:300|68:316|68:316|8:296,1,180,4|4,1:2|1:2,0:0:0:0:
0,132,55509,6,0,B|64:148|64:148|116:132|116:132|172:150,1,180,4|4,0:2|0:2,0:0:0:0:
224,200,56009,1,0,0:0:0:0:
380,244,56175,1,0,0:0:0:0:
328,88,56342,1,0,0:0:0:0:
292,248,56509,102,0,P|284:272|264:296,1,45
452,268,56675,1,4,0:2:0:0:
424,108,56842,1,0,0:0:0:0:
408,104,56925,1,0,0:0:0:0:
392,100,57009,1,0,0:0:0:0:
326,277,57175,5,0,0:0:0:0:
344,284,57259,1,0,0:0:0:0:
360,292,57342,1,0,0:0:0:0:
483,241,57509,101,0,0:0:0:0:
488,224,57592,1,0,0:0:0:0:
492,208,57675,2,0,L|480:152,1,45,0|0,0:0|2:0,0:0:0:0:
432,64,57842,2,0,L|420:120,1,45,0|0,0:0|2:0,0:0:0:0:
399,239,58009,6,0,L|385:177,1,45,0|0,0:0|2:0,0:0:0:0:
333,80,58175,2,0,L|319:142,1,45,0|0,0:0|2:0,0:0:0:0:
313,289,58342,102,0,L|298:222,1,45,0|0,0:0|2:0,0:0:0:0:
240,116,58509,2,0,L|226:183,1,45,0|0,0:0|2:0,0:0:0:0:
223,333,58675,5,4,0:2:0:0:
183,353,58758,1,0,0:0:0:0:
139,353,58841,1,0,0:0:0:0:
99,333,58925,1,0,0:0:0:0:
73,297,59008,1,0,0:0:0:0:
288,320,59175,101,4,1:2:0:0:
327,299,59258,1,0,0:0:0:0:
372,299,59341,1,0,0:0:0:0:
412,320,59425,1,0,0:0:0:0:
438,356,59508,1,0,0:0:0:0:
256,256,59675,5,4,1:2:0:0:
256,211,59758,1,0,0:0:0:0:
256,166,59841,1,0,0:0:0:0:
256,121,59925,1,0,0:0:0:0:
256,76,60008,102,0,L|200:56,1,45,4|0,1:2|0:0,0:0:0:0:
256,166,60175,2,0,L|312:146,1,45
256,256,60341,1,0,0:0:0:0:
160,200,60508,6,0,P|132:188|112:160,1,45,0|0,1:2|0:0,0:0:0:0:
184,116,60675,2,0,P|175:86|183:53,1,45
256,76,60841,2,0,L|256:24,1,45,0|0,1:0|0:0,0:0:0:0:
327,115,61008,2,0,P|335:94|335:72,1,45
351,199,61175,2,0,P|372:192|390:178,1,45,0|0,1:0|0:0,0:0:0:0:
256,192,61341,70,0,L|256:288,1,67.5000025749208,2|0,0:0|0:0,0:0:0:0:
196,344,61675,2,0,P|168:328|124:328,1,67.5000025749208,2|0,0:0|0:0,0:0:0:0:
316,344,62008,2,0,P|344:328|388:328,1,67.5000025749208,2|0,0:0|0:0,0:0:0:0:
476,360,62341,2,0,L|484:280,1,67.5000025749208,2|0,0:0|0:0,0:0:0:0:
448,232,62674,5,2,0:0:0:0:
411,176,62841,1,0,0:0:0:0:
409,109,63008,1,2,0:0:0:0:
441,51,63174,1,0,0:0:0:0:
499,17,63341,1,2,0:0:0:0:
441,51,63508,1,0,0:0:0:0:
375,63,63674,1,2,0:0:0:0:
308,52,63841,1,0,0:0:0:0:
249,20,64008,102,0,L|172:16,1,67.5000025749208,2|0,0:0|0:0,0:0:0:0:
52,96,64341,2,0,L|129:91,1,67.5000025749208,2|0,0:0|0:0,0:0:0:0:
192,152,64674,2,0,P|200:120|184:72,1,67.5000025749208,2|0,0:0|0:0,0:0:0:0:
88,168,65008,2,0,P|81:200|89:233,1,67.5000025749208,2|0,0:0|0:0,0:0:0:0:
156,240,65341,5,2,0:0:0:0:
123,294,65508,1,0,0:0:0:0:
58,294,65675,1,2,0:0:0:0:
15,245,65841,1,0,0:0:0:0:
22,179,66008,1,2,0:0:0:0:
72,137,66174,1,0,0:0:0:0:
138,139,66341,1,2,0:0:0:0:
194,177,66508,1,0,0:0:0:0:
221,237,66674,102,0,L|312:244,1,67.5000025749208,2|0,0:0|0:0,0:0:0:0:
418,262,67008,2,0,P|424:295|416:328,1,67.5000025749208,2|0,0:0|0:0,0:0:0:0:
336,372,67341,2,0,P|330:338|338:306,1,67.5000025749208,2|0,0:0|0:0,0:0:0:0:
440,188,67674,2,0,L|507:182,1,67.5000025749208,2|0,0:0|0:0,0:0:0:0:
480,120,68008,5,2,0:0:0:0:
412,123,68174,1,0,0:0:0:0:
345,126,68341,1,2,0:0:0:0:
293,166,68508,1,0,0:0:0:0:
229,151,68674,1,2,0:0:0:0:
201,92,68841,1,0,0:0:0:0:
228,33,69008,1,2,0:0:0:0:
291,17,69174,1,0,0:0:0:0:
344,56,69341,102,0,L|424:52,1,67.5000025749208,2|0,0:0|0:0,0:0:0:0:
232,104,69674,2,0,L|299:107,1,67.5000025749208,2|0,0:0|0:0,0:0:0:0:
120,52,70008,2,0,L|187:48,1,67.5000025749208,2|0,0:0|0:0,0:0:0:0:
12,112,70341,2,0,L|79:115,1,67.5000025749208,2|0,0:0|0:0,0:0:0:0:
128,288,70674,5,2,1:2:0:0:
94,348,70841,1,0,0:0:0:0:
96,232,71008,1,2,0:0:0:0:
195,290,71174,1,0,0:0:0:0:
384,288,71341,101,2,1:2:0:0:
344,344,71508,1,0,0:0:0:0:
416,232,71674,2,0,L|432:208,7,16.8750006437302,0|0|0|0|0|0|0|0,1:0|1:0|1:0|1:0|1:0|1:0|1:0|1:0,0:0:0:0:
391,219,72008,5,2,1:2:0:0:
372,196,72091,1,0,0:0:0:0:
361,167,72174,1,0,0:0:0:0:
361,136,72258,1,0,0:0:0:0:
371,108,72341,2,0,P|396:80|404:28,1,76.5000014591217,2|0,0:0|0:0,0:0:0:0:
340,112,72674,101,2,0:0:0:0:
312,98,72758,1,0,0:0:0:0:
282,94,72841,1,0,0:0:0:0:
253,102,72924,1,0,0:0:0:0:
228,120,73008,2,0,L|256:168,1,38.2500007295609,2|0,0:0|0:0,0:0:0:0:
168,80,73174,2,0,L|149:131,1,38.2500007295609
96,164,73341,5,2,0:0:0:0:
65,162,73424,1,0,0:0:0:0:
39,177,73508,1,0,0:0:0:0:
23,203,73591,1,0,0:0:0:0:
24,233,73674,2,0,P|56:260|60:324,1,76.5000014591217,2|0,0:0|0:0,0:0:0:0:
56,360,73924,1,0,0:0:0:0:
56,360,74008,2,0,L|12:368,1,38.2500007295609,2|0,0:0|0:0,0:0:0:0:
164,356,74174,2,0,L|126:349,1,38.2500007295609
232,316,74341,101,2,0:0:0:0:
255,334,74424,1,0,0:0:0:0:
284,344,74508,1,0,0:0:0:0:
315,344,74591,1,0,0:0:0:0:
343,333,74674,2,0,L|396:352,1,38.2500007295609,2|0,0:0|0:0,0:0:0:0:
468,364,74841,2,0,L|448:312,1,38.2500007295609
424,232,75008,2,0,B|400:284|400:284|384:248,1,76.5000014591217,2|0,0:0|0:0,0:0:0:0:
428,164,75341,5,2,0:0:0:0:
406,142,75424,1,0,0:0:0:0:
397,113,75508,1,0,0:0:0:0:
404,84,75591,1,0,0:0:0:0:
424,61,75674,2,0,P|440:72|472:76,1,38.2500007295609,2|0,0:0|0:0,0:0:0:0:
356,20,75841,2,0,P|338:24|314:46,1,38.2500007295609
328,120,76008,70,0,L|180:104,1,107.999996704102
160,124,76258,21,0,0:0:0:0:
144,148,76341,1,2,0:0:0:0:
120,168,76424,1,0,0:0:0:0:
88,176,76508,1,0,0:0:0:0:
60,172,76591,1,0,0:0:0:0:
84,104,76674,6,0,P|76:88|72:64,1,38.2500007295609,2|0,0:0|0:0,0:0:0:0:
160,124,76841,2,0,P|177:128|198:140,1,38.2500007295609
276,196,77008,2,0,P|261:206|238:214,1,38.2500007295609,2|0,0:0|0:0,0:0:0:0:
152,244,77174,2,0,P|153:226|161:203,1,38.2500007295609
220,288,77341,5,2,1:2:0:0:
236,292,77424,1,0,0:0:0:0:
252,296,77508,1,0,0:0:0:0:
268,300,77591,1,0,0:0:0:0:
284,304,77674,2,0,L|360:268,1,76.5000014591217,2|0,0:0|0:0,0:0:0:0:
480,264,78008,5,2,1:2:0:0:
453,240,78091,1,0,0:0:0:0:
437,208,78174,1,0,0:0:0:0:
435,172,78258,1,0,0:0:0:0:
448,138,78341,2,0,L|344:96,1,90,2|0,0:2|1:0,0:0:0:0:
280,28,78674,101,2,1:2:0:0:
236,32,78758,1,0,0:0:0:0:
192,36,78841,1,0,0:0:0:0:
148,40,78924,1,0,0:0:0:0:
104,44,79008,2,0,B|68:60|32:92|32:92|44:76|36:64,1,107.999996704102,2|0,0:2|0:0,0:0:0:0:
92,176,79341,5,2,1:2:0:0:
125,211,79424,1,0,0:0:0:0:
117,259,79508,1,0,0:0:0:0:
75,281,79591,1,0,0:0:0:0:
30,261,79674,2,0,P|80:240|148:308,1,125.999996154785,2|0,0:2|1:0,0:0:0:0:
360,292,80008,37,2,1:2:0:0:
323,340,80091,1,0,0:0:0:0:
263,326,80174,1,0,1:0:0:0:
253,266,80258,1,0,1:0:0:0:
304,232,80341,2,0,P|360:220|436:288,1,144,2|0,0:2|1:0,0:0:0:0:
460,332,80591,1,0,0:0:0:0:
428,266,80674,2,0,L|432:180,1,72,2|0,1:2|0:0,0:0:0:0:
480,144,80841,1,0,1:0:0:0:
344,72,81008,6,0,L|432:64,1,72,0|0,1:0|0:0,0:0:0:0:
168,72,81174,2,0,L|80:64,1,72,0|0,1:0|0:0,0:0:0:0:
256,156,81341,1,4,1:0:0:0:
256,156,81674,5,4,1:0:0:0:
258,164,81757,1,0,0:0:0:0:
260,172,81840,1,0,0:0:0:0:
262,180,81924,1,0,0:0:0:0:
256,196,82007,1,0,0:0:0:0:
248,212,82090,1,0,0:0:0:0:
240,228,82174,1,0,0:0:0:0:
232,244,82257,1,0,0:0:0:0:
216,252,82340,2,0,L|236:284,1,22.5,0|0,0:0|0:0,0:0:0:0:
200,260,82424,2,0,L|224:288,1,22.5,0|0,0:0|0:0,0:0:0:0:
184,268,82507,1,2,0:0:0:0:
151,252,82590,1,0,0:0:0:0:
116,253,82674,1,2,0:0:0:0:
84,269,82757,1,0,0:0:0:0:
99,217,82840,1,2,0:0:0:0:
97,163,82924,1,0,0:0:0:0:
79,113,83007,54,0,B|132:124|132:124|240:96,1,135,6|2,1:2|0:2,0:0:0:0:
220,88,83340,2,0,L|212:196,1,90,0|2,1:0|0:2,0:0:0:0:
252,236,83590,1,0,0:0:0:0:
268,244,83674,1,0,1:0:0:0:
284,252,83757,1,0,0:0:0:0:
300,260,83840,2,0,L|292:368,1,90,2|2,0:2|1:2,0:0:0:0:
416,305,84174,2,0,P|423:274|405:241,1,45
376,208,84340,6,0,P|360:164|444:116,1,135,0|0,1:0|0:0,0:0:0:0:
428,112,84674,2,0,P|376:112|324:64,1,90,2|0,1:2|0:0,0:0:0:0:
208,28,85007,2,0,L|316:20,1,90,2|0,1:2|0:0,0:0:0:0:
224,100,85257,1,0,0:0:0:0:
224,100,85340,2,0,P|176:92|128:120,1,90,2|0,1:2|0:0,0:0:0:0:
132,125,85590,1,0,0:0:0:0:
72,168,85674,102,0,B|64:216|64:216|76:244|76:244|64:320,1,135,2|2,1:2|0:2,0:0:0:0:
60,316,86007,2,0,B|104:332|104:332|172:316,1,90,0|2,1:0|0:2,0:0:0:0:
208,288,86257,1,0,0:0:0:0:
224,296,86340,1,0,1:0:0:0:
240,304,86424,1,0,0:0:0:0:
256,312,86507,2,0,L|348:292,1,90,2|2,0:2|1:2,0:0:0:0:
464,316,86840,1,0,0:0:0:0:
472,300,86924,1,0,0:0:0:0:
480,284,87007,6,0,B|456:240|456:240|472:140,1,135,0|0,1:0|0:0,0:0:0:0:
476,139,87340,1,0,1:0:0:0:
482,122,87424,1,0,0:0:0:0:
488,105,87507,1,0,0:0:0:0:
400,92,87674,70,0,P|414:60|413:33,1,45,2|0,1:2|0:0,0:0:0:0:
244,48,87840,2,0,P|209:51|186:66,1,45,2|0,1:2|0:0,0:0:0:0:
273,208,88007,2,0,P|293:236|317:248,1,45,0|0,1:2|0:0,0:0:0:0:
332,56,88174,6,0,L|328:9,1,45,2|0,1:2|0:0,0:0:0:0:
176,104,88340,2,0,B|128:120|128:120|24:100,1,135,2|0,1:2|0:0,0:0:0:0:
27,100,88674,2,0,L|46:194,1,90,2|2,1:2|0:0,0:0:0:0:
39,205,88923,1,0,0:0:0:0:
35,222,89007,2,0,L|46:278,1,45,0|2,1:0|0:0,0:0:0:0:
40,344,89173,2,0,B|84:332|84:332|140:344,1,90,2|0,0:2|1:0,0:0:0:0:
252,324,89507,1,2,0:2:0:0:
236,320,89590,1,0,0:0:0:0:
220,316,89673,2,0,P|272:296|364:336,1,135,0|0,1:0|0:0,0:0:0:0:
364,304,90007,6,0,L|360:349,1,45,2|0,1:2|0:0,0:0:0:0:
292,160,90173,2,0,L|296:115,1,45,0|0,0:2|0:0,0:0:0:0:
452,188,90340,2,0,L|456:233,1,45,2|0,1:2|0:0,0:0:0:0:
300,240,90507,5,0,0:0:0:0:
300,240,90590,1,0,0:0:0:0:
300,240,90673,2,0,L|232:232,1,45,2|0,1:2|0:0,0:0:0:0:
160,164,90840,2,0,L|228:156,1,45,0|0,1:0|0:0,0:0:0:0:
164,248,91007,70,0,L|48:232,1,90,6|0,1:2|0:0,0:0:0:0:
16,272,91257,1,0,0:0:0:0:
16,272,91340,2,0,P|0:224|28:172,1,90,6|6,1:2|1:2,0:0:0:0:
80,160,91590,1,0,0:0:0:0:
80,160,91673,2,0,L|76:214,1,45,0|0,0:0|0:0,0:0:0:0:
208,60,91840,2,0,L|212:6,1,45,6|0,1:2|0:0,0:0:0:0:
52,20,92007,1,0,0:0:0:0:
168,132,92173,5,6,1:2:0:0:
317,70,92340,1,0,1:0:0:0:
378,220,92507,1,0,1:0:0:0:
228,281,92673,1,6,1:2:0:0:
324,152,92840,5,0,1:2:0:0:
484,172,93007,2,0,P|492:152|508:124,1,45,6|0,1:2|1:0,0:0:0:0:
384,300,93173,2,0,P|376:320|360:348,1,45,0|0,1:0|1:0,0:0:0:0:
228,281,93340,1,6,1:2:0:0:
190,256,93423,1,0,1:0:0:0:
172,296,93507,1,0,1:0:0:0:
152,336,93590,1,0,1:0:0:0:
132,368,93673,70,0,L|48:359,1,67.5,2|2,1:2|0:0,0:0:0:0:
88,272,94007,6,0,P|44:260|56:200,1,90,6|2,1:2|0:0,0:0:0:0:
56,160,94257,1,0,0:0:0:0:
72,167,94340,2,0,L|57:62,1,90,0|2,1:0|2:0,0:0:0:0:
176,80,94673,1,2,1:2:0:0:
188,68,94757,1,0,0:0:0:0:
200,56,94840,1,0,0:0:0:0:
212,44,94923,1,0,0:0:0:0:
224,32,95007,2,0,B|216:76|216:76|260:124|212:188,1,135,0|0,1:0|0:0,0:0:0:0:
236,176,95340,1,2,1:2:0:0:
184,304,95507,6,0,P|136:296|64:308,1,90,0|2,0:0|1:2,0:0:0:0:
84,312,95757,1,0,0:0:0:0:
72,324,95840,1,0,0:0:0:0:
60,336,95923,1,0,0:0:0:0:
48,348,96007,2,0,L|96:348,1,45,2|0,1:2|0:0,0:0:0:0:
212,372,96173,2,0,L|164:372,1,45,0|0,0:0|0:0,0:0:0:0:
276,332,96340,6,0,P|308:324|368:340,1,90,2|0,1:2|0:0,0:0:0:0:
368,344,96590,1,2,0:0:0:0:
372,352,96673,2,0,P|352:304|376:252,1,90,0|2,1:0|0:2,0:0:0:0:
356,252,96923,1,0,0:0:0:0:
428,244,97007,2,0,L|472:252,1,45,0|0,1:0|0:0,0:0:0:0:
488,184,97173,2,0,L|400:168,1,90,2|2,0:2|1:2,0:0:0:0:
236,80,97507,1,0,0:0:0:0:
236,80,97590,1,0,0:0:0:0:
236,80,97673,2,0,P|284:60|368:80,1,135,0|0,1:0|0:0,0:0:0:0:
280,136,98007,2,0,P|231:151|176:120,1,90,0|0,1:0|0:0,0:0:0:0:
128,160,98340,6,0,L|98:193,1,45,2|0,1:2|0:0,0:0:0:0:
56,304,98507,2,0,L|110:288,1,45,2|0,1:2|0:0,0:0:0:0:
216,276,98673,2,0,L|179:224,1,45,2|0,1:2|0:0,0:0:0:0:
74,228,98840,69,2,1:2:0:0:
144,360,99007,2,0,B|188:372|188:372|300:352,1,135,2|0,1:2|0:0,0:0:0:0:
292,364,99340,1,2,1:2:0:0:
488,284,99507,1,2,0:2:0:0:
472,356,99673,5,0,1:0:0:0:
344,256,99840,1,2,0:2:0:0:
492,192,100007,1,0,1:0:0:0:
396,324,100173,6,0,L|388:371,1,45,2|0,0:0|0:0,0:0:0:0:
344,172,100340,2,0,B|328:128|328:128|352:28,1,135,0|0,1:0|0:0,0:0:0:0:
340,28,100673,2,0,L|282:22,1,45,2|0,1:2|0:0,0:0:0:0:
136,36,100840,2,0,L|194:30,1,45,0|0,0:2|0:0,0:0:0:0:
208,104,101007,5,0,1:0:0:0:
169,127,101090,1,0,0:0:0:0:
125,131,101173,1,0,0:0:0:0:
83,115,101257,1,0,0:0:0:0:
136,36,101340,70,0,L|140:-8,1,45,6|0,1:2|0:0,0:0:0:0:
208,104,101507,2,0,L|244:129,1,45,0|0,1:0|0:0,0:0:0:0:
83,115,101673,85,6,1:2:0:0:
348,56,102173,5,6,1:2:0:0:
272,296,102507,101,6,1:2:0:0:
84,128,102840,22,0,B|73:189|73:189|89:229|89:229|69:337,1,180,6|2,1:2|1:2,0:0:0:0:
176,360,103257,1,0,0:0:0:0:
176,360,103340,2,0,L|158:261,1,90,6|0,1:2|0:0,0:0:0:0:
216,168,103673,5,6,1:2:0:0:
212,152,103757,1,0,0:0:0:0:
316,44,103923,1,4,1:2:0:0:
312,60,104007,1,2,0:2:0:0:
344,192,104173,1,6,1:2:0:0:
456,108,104340,86,0,L|464:8,1,101.250003862381,6|2,1:2|0:0,0:0:0:0:
432,128,104673,70,0,L|444:192,1,45,2|0,1:2|0:0,0:0:0:0:
428,300,104840,38,0,L|420:200,1,101.250003862381,6|0,1:2|0:0,0:0:0:0:
404,324,105173,70,0,L|416:388,1,45,2|0,1:2|0:0,0:0:0:0:
304,288,105340,38,0,P|264:300|196:276,1,101.250003862381,6|0,1:2|0:0,0:0:0:0:
124,356,105673,70,0,L|180:352,1,45,2|0,1:2|0:0,0:0:0:0:
104,280,105840,38,0,L|-20:288,1,101.250003862381,4|0,1:2|0:0,0:0:0:0:
108,200,106173,70,0,P|132:196|160:208,1,45,0|0,1:0|0:0,0:0:0:0:
184,256,106340,1,6,1:2:0:0:
264,116,106507,1,2,0:0:0:0:
104,100,106673,1,6,1:2:0:0:
236,196,106840,37,2,0:0:0:0:
172,48,107007,2,0,P|132:24|56:24,1,101.250003862381,6|2,1:2|0:0,0:0:0:0:
44,148,107340,70,0,L|88:145,1,45,0|0,1:0|0:0,0:0:0:0:
120,288,107507,38,0,P|69:283|26:258,1,101.250003862381,6|0,1:2|0:0,0:0:0:0:
184,256,107840,70,0,L|192:204,1,45,2|0,1:2|0:0,0:0:0:0:
160,348,108007,38,0,P|210:352|253:377,1,101.250003862381,6|0,1:2|0:0,0:0:0:0:
356,308,108340,70,0,L|300:312,1,45,0|0,1:0|0:0,0:0:0:0:
432,360,108507,38,0,P|440:308|428:240,1,101.250003862381,4|0,1:2|0:0,0:0:0:0:
473,143,108840,70,0,L|468:188,1,45,0|0,1:0|0:0,0:0:0:0:
416,244,109007,1,4,1:2:0:0:
280,156,109173,1,0,0:0:0:0:
404,52,109340,38,0,L|512:44,1,101.250003862381,4|0,1:2|0:0,0:0:0:0:
496,60,109673,37,2,1:2:0:0:
376,168,109840,1,0,1:0:0:0:
304,24,110007,1,0,1:0:0:0:
440,112,110173,5,2,1:2:0:0:
440,275,110340,1,0,1:0:0:0:
282,326,110507,1,0,1:0:0:0:
185,193,110673,1,0,1:0:0:0:
282,60,110840,1,0,1:0:0:0:
328,196,111007,54,0,P|344:204|364:200,1,22.5,2|2,1:2|0:0,0:0:0:0:
316,208,111090,102,0,P|328:220|348:224,1,22.5,2|2,0:0|0:0,0:0:0:0:
304,220,111173,6,0,P|311:236|329:246,1,22.5,2|2,0:0|0:0,0:0:0:0:
292,232,111257,102,0,P|293:249|306:265,1,22.5,2|2,0:0|0:0,0:0:0:0:
280,244,111340,6,0,P|274:261|282:280,1,22.5,2|2,0:0|0:0,0:0:0:0:
256,252,111423,102,0,P|261:234|253:215,1,22.5,2|2,0:0|0:0,0:0:0:0:
240,244,111507,6,0,P|238:226|225:210,1,22.5,2|2,0:0|0:0,0:0:0:0:
224,240,111590,102,0,P|216:223|198:213,1,22.5,2|2,0:0|0:0,0:0:0:0:
204,240,111673,6,0,P|191:227|171:223,1,22.5,2|2,0:0|0:0,0:0:0:0:
188,244,111757,102,0,P|171:236|152:239,1,22.5,2|2,0:0|0:0,0:0:0:0:
180,260,111840,5,6,1:2:0:0:
172,276,111896,101,2,0:0:0:0:
164,292,111951,5,2,0:0:0:0:
156,308,112007,38,0,B|104:320|104:320|32:296,1,107.999996704102,6|0,1:2|1:0,0:0:0:0:
0,160,112340,2,0,B|56:148|56:148|164:172,1,161.999995056153,6|0,1:2|0:0,0:0:0:0:
164,180,112673,2,0,P|148:128|176:72,1,107.999996704102,0|2,1:0|0:2,0:0:0:0:
164,60,112923,1,0,0:0:0:0:
156,40,113007,2,0,B|188:64|188:64|276:48,1,107.999996704102,0|0,1:0|0:0,0:0:0:0:
401,87,113257,1,0,0:0:0:0:
421,94,113340,6,0,P|378:125|328:112,1,107.999996704102,0|0,1:0|0:0,0:0:0:0:
316,128,113590,1,0,0:0:0:0:
304,144,113673,1,6,1:2:0:0:
452,272,113840,1,0,1:0:0:0:
260,296,114007,1,0,1:0:0:0:
431,150,114173,101,0,1:0:0:0:
411,335,114340,6,0,P|435:326|471:334,1,53.9999983520508,4|0,1:2|1:0,0:0:0:0:
228,375,114507,102,0,P|204:384|168:376,1,53.9999983520508,0|0,1:0|1:0,0:0:0:0:
132,211,114673,6,0,P|109:198|92:165,1,53.9999983520508,4|0,1:2|1:0,0:0:0:0:
260,72,114840,102,0,P|255:46|269:12,1,53.9999983520508,0|0,1:0|1:0,0:0:0:0:
431,150,115007,53,6,1:2:0:0:
301,185,115173,1,0,0:0:0:0:
396,282,115340,1,2,0:0:0:0:
455,168,115507,5,2,0:0:0:0:
448,152,115590,1,2,0:0:0:0:
440,136,115673,1,2,0:0:0:0:
305,155,115840,1,0,0:0:0:0:
367,293,116007,1,2,0:0:0:0:
244,236,116173,1,0,0:0:0:0:
248,372,116340,1,2,0:0:0:0:
312,252,116507,101,0,0:0:0:0:
444,280,116673,1,2,0:0:0:0:
352,380,116840,1,0,0:0:0:0:
384,248,117007,5,2,0:0:0:0:
368,176,117173,1,0,0:0:0:0:
320,124,117340,1,2,0:0:0:0:
252,100,117507,1,0,0:0:0:0:
80,180,117673,101,2,0:0:0:0:
150,190,117840,1,0,0:0:0:0:
215,160,118007,1,2,0:0:0:0:
252,100,118173,1,0,0:0:0:0:
140,24,118340,1,2,0:0:0:0:
132,160,118507,1,0,0:0:0:0:
204,48,118673,5,2,0:0:0:0:
84,112,118840,1,0,0:0:0:0:
180,204,119007,1,2,0:0:0:0:
144,76,119173,101,0,0:0:0:0:
112,208,119340,1,2,0:0:0:0:
244,232,119507,1,0,0:0:0:0:
272,296,119673,1,2,0:0:0:0:
352,304,119840,5,0,0:0:0:0:
380,368,120007,1,2,0:0:0:0:
444,320,120173,1,0,0:0:0:0:
456,252,120340,101,2,0:0:0:0:
500,124,120507,1,0,0:0:0:0:
368,152,120673,1,2,0:0:0:0:
473,260,120840,5,2,0:0:0:0:
480,276,120923,1,2,0:0:0:0:
488,292,121007,1,2,0:0:0:0:
498,104,121173,1,0,0:0:0:0:
351,163,121340,1,2,0:0:0:0:
260,92,121507,1,0,0:0:0:0:
244,208,121673,1,2,0:0:0:0:
336,84,121840,101,0,0:0:0:0:
314,238,122007,1,2,0:0:0:0:
191,142,122173,1,0,0:0:0:0:
382,167,122340,5,2,0:0:0:0:
224,232,122507,1,0,0:0:0:0:
248,62,122673,1,2,0:0:0:0:
303,221,122840,101,0,0:0:0:0:
233,189,123007,1,2,0:0:0:0:
264,120,123173,1,0,0:0:0:0:
334,151,123340,1,2,0:0:0:0:
236,275,123507,5,0,0:0:0:0:
179,122,123673,1,2,0:0:0:0:
329,65,123840,1,0,0:0:0:0:
387,217,124007,1,2,0:0:0:0:
284,172,124173,101,0,0:0:0:0:
167,213,124340,1,2,0:0:0:0:
238,54,124507,1,0,0:0:0:0:
399,126,124673,1,2,0:0:0:0:
328,286,124840,1,0,0:0:0:0:
400,292,125007,1,2,0:0:0:0:
472,360,125173,1,0,0:0:0:0:
400,365,125340,1,2,0:0:0:0:
328,372,125507,1,0,0:0:0:0:
252,324,125673,5,2,0:0:0:0:
234,253,125840,1,0,0:0:0:0:
152,216,126007,101,0,0:0:0:0:
134,145,126173,1,0,0:0:0:0:
44,152,126340,5,0,0:0:0:0:
71,83,126507,1,0,0:0:0:0:
156,112,126673,101,0,0:0:0:0:
229,107,126840,1,0,0:0:0:0:
389,123,127007,5,0,0:0:0:0:
316,128,127173,1,0,0:0:0:0:
350,311,127340,69,2,0:0:0:0:
308,252,127507,1,0,0:0:0:0:
111,206,127673,5,2,0:0:0:0:
184,200,127840,1,0,0:0:0:0:
327,69,128007,101,2,0:0:0:0:
296,136,128173,1,0,0:0:0:0:
256,196,128340,101,4,1:0:0:0:
256,192,128423,12,0,132340,0:0:0:0:
