osu file format v14

[General]
AudioFilename: audio.mp3
AudioLeadIn: 0
PreviewTime: 81717
Countdown: 0
SampleSet: Soft
StackLeniency: 0.7
Mode: 3
LetterboxInBreaks: 0
SpecialStyle: 0
WidescreenStoryboard: 0

[Editor]
Bookmarks: 2719,10719,26719,42719,50718,58718,61384,72051,83050,104383,115049
DistanceSpacing: 0.8
BeatDivisor: 1
GridSize: 4
TimelineZoom: 0.4999999

[Metadata]
Title:squartatrice
TitleUnicode:squartatrice
Artist:Miki Sayaka vs. Miki Sayaka (fw. Miki Sayaka)
ArtistUnicode:美樹さやか vs. 美樹さやか (fw. 美樹さやか)
Creator:Garalulu
Version:Beginner
Source:BMS
Tags:Wonki bms of fighters 2011 BOF2011 HARD RENAISSAYAKA gmtn. kozato LUZE
BeatmapID:1145460
BeatmapSetID:540175

[Difficulty]
HPDrainRate:7
CircleSize:7
OverallDifficulty:7
ApproachRate:10
SliderMultiplier:1.4
SliderTickRate:1

[Events]
//Background and Video events
0,0,"bg.jpg",0,0
//Break Periods
//Storyboard Layer 0 (Background)
//Storyboard Layer 1 (Fail)
//Storyboard Layer 2 (Pass)
//Storyboard Layer 3 (Foreground)
//Storyboard Sound Samples

[TimingPoints]
720,333.333333333333,3,2,1,60,1,0
42719,333.333333333333,6,2,1,60,1,0
58718,333.333333333333,4,2,1,60,1,0
81384,333.333333333333,5,2,1,60,1,0
83050,333.333333333333,4,2,1,60,1,0
83050,-100,4,2,1,60,0,1
93716,-100,4,2,1,60,0,0
94049,-100,4,2,1,60,0,1
101716,-100,4,2,1,60,0,0

[HitObjects]
36,192,2719,5,0,0:0:0:40:tp1_30.wav
329,192,3053,1,0,0:0:0:40:tp1_34.wav
329,192,3386,1,0,0:0:0:40:tp1_34.wav
475,192,3719,1,0,0:0:0:40:tp1_33.wav
329,192,4053,1,0,0:0:0:40:tp1_32.wav
182,192,4386,1,0,0:0:0:40:tp1_31.wav
402,192,4719,5,0,0:0:0:40:tp1_30.wav
256,192,5053,1,0,0:0:0:40:tp1_28.wav
109,192,5386,5,0,0:0:0:40:tp1_30.wav
256,192,5719,1,0,0:0:0:40:tp1_31.wav
402,192,6053,1,0,0:0:0:40:tp1_32.wav
36,192,6386,1,0,0:0:0:40:tp1_28.wav
182,192,6719,5,0,0:0:0:40:tp1_30.wav
329,192,7053,128,0,7719:0:0:0:40:tp1_30.wav
182,192,7719,5,0,0:0:0:40:tp1_30.wav
475,192,8053,1,0,0:0:0:40:tp1_34.wav
329,192,8386,1,0,0:0:0:40:tp1_33.wav
182,192,8719,128,0,9719:0:0:0:40:tp1_32.wav
402,192,9719,1,0,0:0:0:40:tp1_33.wav
329,192,10053,1,0,0:0:0:40:tp1_32.wav
256,192,10386,1,0,0:0:0:40:tp1_31.wav
475,192,10719,5,0,0:0:0:40:tp1_30.wav
182,192,11053,1,0,0:0:0:40:tp1_34.wav
182,192,11386,1,0,0:0:0:40:tp1_34.wav
36,192,11719,1,0,0:0:0:40:tp1_33.wav
329,192,12053,1,0,0:0:0:40:tp1_32.wav
182,192,12386,1,0,0:0:0:40:tp1_31.wav
402,192,12719,5,0,0:0:0:40:tp1_30.wav
182,192,13053,1,0,0:0:0:40:tp1_28.wav
329,192,13386,5,0,0:0:0:40:tp1_30.wav
109,192,13719,1,0,0:0:0:40:tp1_31.wav
329,192,14053,1,0,0:0:0:40:tp1_32.wav
182,192,14386,1,0,0:0:0:40:tp1_28.wav
402,192,14719,5,0,0:0:0:40:tp1_30.wav
256,192,15053,128,0,15719:0:0:0:40:tp1_30.wav
329,192,15719,5,0,0:0:0:40:tp1_30.wav
475,192,16053,1,0,0:0:0:40:tp1_34.wav
182,192,16386,1,0,0:0:0:40:tp1_33.wav
36,192,16719,128,0,17719:0:0:0:40:tp1_32.wav
475,192,17719,1,0,0:0:0:0:tp1_33.wav
329,192,18053,1,0,0:0:0:40:tp1_32.wav
182,192,18386,1,0,0:0:0:40:tp1_31.wav
36,192,18719,5,0,0:0:0:40:tp1_30.wav
329,192,19053,1,0,0:0:0:40:tp1_34.wav
329,192,19386,1,0,0:0:0:40:tp1_34.wav
475,192,19719,1,0,0:0:0:40:tp1_33.wav
182,192,20053,1,0,0:0:0:40:tp1_32.wav
329,192,20386,1,0,0:0:0:40:tp1_31.wav
109,192,20719,5,0,0:0:0:40:tp1_30.wav
329,192,21053,1,0,0:0:0:40:tp1_28.wav
182,192,21386,5,0,0:0:0:40:tp1_30.wav
402,192,21719,1,0,0:0:0:40:tp1_31.wav
182,192,22053,1,0,0:0:0:40:tp1_32.wav
329,192,22386,1,0,0:0:0:40:tp1_28.wav
109,192,22719,5,0,0:0:0:40:tp1_30.wav
256,192,23053,128,0,23719:0:0:0:40:tp1_30.wav
36,192,23719,5,0,0:0:0:40:tp1_30.wav
182,192,24053,1,0,0:0:0:40:tp1_34.wav
329,192,24386,1,0,0:0:0:40:tp1_33.wav
475,192,24719,1,0,0:0:0:40:tp1_32.wav
182,192,24719,128,0,26719:0:0:0:0:
329,192,25719,128,0,26719:0:0:0:40:tp1_17.wav
475,192,26719,1,2,0:0:0:0:
36,192,26719,1,4,0:0:0:0:
256,192,26719,1,0,0:0:0:0:
182,192,27053,1,2,0:0:0:0:
182,192,27386,1,2,0:0:0:0:
36,192,27719,1,2,0:0:0:0:
475,192,27719,1,0,0:0:0:0:
329,192,28053,1,2,0:0:0:0:
182,192,28386,1,2,0:0:0:0:
475,192,28719,1,2,0:0:0:0:
36,192,28719,1,0,0:0:0:0:
256,192,29053,1,2,0:0:0:0:
402,192,29386,1,2,0:0:0:0:
36,192,29719,1,2,0:0:0:0:
475,192,29719,1,0,0:0:0:0:
182,192,30053,1,2,0:0:0:0:
329,192,30386,1,2,0:0:0:0:
402,192,30719,1,2,0:0:0:0:
109,192,30719,1,0,0:0:0:0:
256,192,31053,1,2,0:0:0:0:
182,192,31386,1,2,0:0:0:0:
109,192,31719,1,2,0:0:0:0:
402,192,31719,1,0,0:0:0:0:
256,192,32053,1,2,0:0:0:0:
329,192,32386,1,2,0:0:0:0:
402,192,32719,1,2,0:0:0:0:
109,192,32719,1,0,0:0:0:0:
182,192,33053,1,2,0:0:0:0:
329,192,33386,1,2,0:0:0:0:
109,192,33719,1,2,0:0:0:0:
402,192,33719,1,0,0:0:0:0:
256,192,34053,1,2,0:0:0:0:
182,192,34386,1,0,0:0:0:60:bd_8c.wav
329,192,34553,1,0,0:0:0:60:bd_8c.wav
36,192,34719,1,2,0:0:0:0:
475,192,34719,1,0,0:0:0:0:
256,192,35053,1,2,0:0:0:0:
256,192,35386,1,2,0:0:0:0:
109,192,35719,1,0,0:0:0:0:
475,192,35719,1,2,0:0:0:0:
329,192,36053,1,2,0:0:0:0:
182,192,36386,1,2,0:0:0:0:
36,192,36719,1,2,0:0:0:0:
402,192,36719,1,0,0:0:0:0:
109,192,37053,1,2,0:0:0:0:
256,192,37386,1,2,0:0:0:0:
109,192,37719,1,0,0:0:0:0:
475,192,37719,1,2,0:0:0:0:
402,192,38053,1,2,0:0:0:0:
256,192,38386,1,2,0:0:0:0:
36,192,38719,1,2,0:0:0:0:
329,192,38719,1,0,0:0:0:0:
182,192,39053,1,2,0:0:0:0:
402,192,39386,1,2,0:0:0:0:
475,192,39719,1,2,0:0:0:0:
182,192,39719,1,0,0:0:0:0:
36,192,40053,1,2,0:0:0:0:
256,192,40386,1,2,0:0:0:0:
182,192,40719,1,4,0:0:0:0:
329,192,40719,1,0,0:0:0:60:bd_8c.wav
109,192,41053,1,4,0:0:0:0:
402,192,41053,1,2,0:0:0:0:
256,192,41386,1,2,0:0:0:0:
36,192,41719,1,4,0:0:0:0:
475,192,41719,1,2,0:0:0:0:
329,192,42053,1,4,0:0:0:0:
182,192,42053,1,0,0:0:0:60:bd_8c.wav
182,192,42386,1,4,0:0:0:0:
329,192,42386,1,0,0:0:0:60:bd_8c.wav
36,192,42719,1,2,0:0:0:0:
475,192,42719,1,0,0:0:0:60:cym_8c.wav
182,192,43052,1,2,0:0:0:0:
329,192,43552,1,2,0:0:0:0:
329,192,44052,1,2,0:0:0:0:
402,192,44719,1,2,0:0:0:0:
36,192,44719,1,0,0:0:0:60:cym_16c.wav
182,192,45052,1,2,0:0:0:0:
329,192,45552,1,2,0:0:0:0:
182,192,46052,1,2,0:0:0:0:
329,192,46385,1,2,0:0:0:0:
475,192,46718,1,2,0:0:0:0:
182,192,46718,1,0,0:0:0:60:cym_8c.wav
329,192,47052,1,2,0:0:0:0:
36,192,47552,1,2,0:0:0:0:
256,192,48052,1,2,0:0:0:0:
402,192,48718,1,2,0:0:0:0:
36,192,48718,1,0,0:0:0:60:cym_16c.wav
256,192,49052,1,2,0:0:0:0:
109,192,49552,1,2,0:0:0:0:
256,192,50052,128,0,50718:0:0:0:60:bd_24c.wav
36,192,50718,1,4,0:0:0:0:
329,192,50718,1,2,0:0:0:0:
182,192,51052,1,2,0:0:0:0:
402,192,51385,1,2,0:0:0:0:
109,192,51718,1,2,0:0:0:0:
329,192,52052,1,2,0:0:0:0:
182,192,52385,1,0,0:0:0:60:bd_8c.wav
475,192,52718,1,2,0:0:0:0:
36,192,52718,1,4,0:0:0:0:
329,192,53052,1,2,0:0:0:0:
109,192,53385,1,2,0:0:0:0:
402,192,53718,1,2,0:0:0:0:
182,192,54052,1,0,0:0:0:60:bd_8c.wav
329,192,54385,1,2,0:0:0:0:
109,192,54718,1,2,0:0:0:0:
402,192,54718,1,0,0:0:0:60:cym_8c.wav
256,192,55052,1,2,0:0:0:0:
475,192,55552,1,2,0:0:0:0:
36,192,55552,1,0,0:0:0:60:cym_8c.wav
182,192,55885,1,0,0:0:0:60:bd_8c.wav
329,192,56052,1,0,0:0:0:60:bd_8c.wav
109,192,56218,1,0,0:0:0:60:bd_8c.wav
256,192,56385,1,0,0:0:0:60:bd_8c.wav
402,192,56552,1,0,0:0:0:60:bd_16c.wav
182,192,56718,1,0,0:0:0:60:bd_8c.wav
36,192,56718,1,0,0:0:0:60:cym_8c.wav
475,192,57052,1,0,0:0:0:60:bd_8c.wav
36,192,57385,1,0,0:0:0:60:bd_8c.wav
256,192,57718,1,0,0:0:0:60:bd_8c.wav
329,192,58052,1,0,0:0:0:60:bd_8c.wav
402,192,58385,1,0,0:0:0:60:bd_8c.wav
182,192,58718,1,2,0:0:0:0:
36,192,58718,1,0,0:0:0:60:cym_8c.wav
402,192,59218,1,2,0:0:0:0:
109,192,59718,1,2,0:0:0:0:
329,192,60051,1,2,0:0:0:0:
475,192,60051,1,0,0:0:0:60:cym_8c.wav
182,192,60551,1,2,0:0:0:0:
329,192,60884,1,2,0:0:0:0:
182,192,61218,1,2,0:0:0:0:
329,192,61384,1,2,0:0:0:0:
475,192,61384,1,0,0:0:0:50:grc_01.wav
109,192,61718,1,0,0:0:0:50:grc_02.wav
256,192,62051,1,0,0:0:0:50:grc_01.wav
475,192,62384,1,0,0:0:0:50:grc_03.wav
329,192,62717,1,0,0:0:0:50:grc_04.wav
256,192,63051,1,0,0:0:0:50:grc_05.wav
109,192,63384,1,0,0:0:0:50:grc_06.wav
36,192,63717,1,0,0:0:0:50:grc_07.wav
402,192,64051,1,0,0:0:0:50:grc_01.wav
182,192,64384,1,0,0:0:0:50:grc_02.wav
329,192,64717,1,0,0:0:0:50:grc_01.wav
475,192,65051,1,0,0:0:0:50:grc_03.wav
109,192,65384,1,0,0:0:0:50:grc_04.wav
256,192,65718,1,0,0:0:0:50:grc_03.wav
402,192,66051,1,0,0:0:0:50:grc_08.wav
329,192,66384,1,0,0:0:0:50:grc_03.wav
182,192,66717,1,0,0:0:0:50:grc_01.wav
402,192,67051,1,0,0:0:0:50:grc_02.wav
256,192,67384,1,0,0:0:0:50:grc_01.wav
36,192,67717,1,0,0:0:0:50:grc_03.wav
182,192,68051,1,0,0:0:0:50:grc_04.wav
256,192,68384,1,0,0:0:0:50:grc_05.wav
329,192,68717,1,0,0:0:0:50:grc_06.wav
402,192,69051,1,0,0:0:0:50:grc_07.wav
475,192,69384,1,0,0:0:0:50:grc_01.wav
182,192,69717,1,0,0:0:0:50:grc_02.wav
329,192,70051,1,0,0:0:0:50:grc_01.wav
36,192,70384,1,0,0:0:0:50:grc_03.wav
329,192,70717,1,0,0:0:0:50:grc_04.wav
475,192,70717,1,0,0:0:0:60:bd_dr.wav
256,192,71051,1,0,0:0:0:50:grc_03.wav
402,192,71384,1,0,0:0:0:50:grc_08.wav
109,192,71384,1,0,0:0:0:60:bd_dr.wav
182,192,71717,128,0,72051:0:0:0:50:grc_03.wav
329,192,71717,128,0,72051:0:0:0:60:bd_32c.wav
36,192,72051,1,2,0:0:0:0:
475,192,72051,1,0,0:0:0:50:grc_01.wav
256,192,72384,1,0,0:0:0:50:grc_02.wav
109,192,72717,1,0,0:0:0:50:grc_01.wav
402,192,73051,1,0,0:0:0:50:grc_03.wav
256,192,73384,1,0,0:0:0:50:grc_04.wav
109,192,73717,1,0,0:0:0:50:grc_05.wav
329,192,74051,1,0,0:0:0:50:grc_06.wav
36,192,74384,1,0,0:0:0:50:grc_07.wav
475,192,74717,1,0,0:0:0:50:grc_01.wav
256,192,75051,1,0,0:0:0:50:grc_02.wav
402,192,75384,1,0,0:0:0:50:grc_01.wav
109,192,75717,1,0,0:0:0:50:grc_03.wav
256,192,76051,1,0,0:0:0:50:grc_04.wav
402,192,76384,1,0,0:0:0:50:grc_03.wav
182,192,76717,1,0,0:0:0:50:grc_08.wav
475,192,77051,1,0,0:0:0:50:grc_03.wav
329,192,77384,1,2,0:0:0:0:
36,192,77384,1,0,0:0:0:50:grc_01.wav
256,192,77717,1,0,0:0:0:50:grc_02.wav
36,192,78051,1,2,0:0:0:0:
182,192,78051,1,0,0:0:0:50:grc_01.wav
402,192,78384,1,0,0:0:0:50:grc_03.wav
475,192,78717,1,2,0:0:0:0:
256,192,78717,1,0,0:0:0:50:grc_04.wav
109,192,79051,1,0,0:0:0:50:grc_05.wav
329,192,79384,1,2,0:0:0:0:
182,192,79384,1,0,0:0:0:50:grc_06.wav
36,192,79717,1,0,0:0:0:50:grc_07.wav
329,192,80051,1,0,0:0:0:50:grc_01.wav
475,192,80051,1,0,0:0:0:60:bd_8c.wav
182,192,80384,1,0,0:0:0:50:grc_02.wav
329,192,80717,1,0,0:0:0:50:grc_01.wav
182,192,81051,1,0,0:0:0:50:grc_03.wav
402,192,81384,1,0,0:0:0:50:grc_04.wav
109,192,81384,1,0,0:0:0:60:bd_dr.wav
36,192,81717,128,2,83050:0:0:0:0:
256,192,82050,128,0,83050:0:0:0:0:
475,192,82384,128,0,83050:0:0:0:0:
182,192,83050,1,2,0:0:0:0:
329,192,83050,1,0,0:0:0:0:
36,192,83383,1,2,0:0:0:0:
475,192,83716,1,2,0:0:0:0:
109,192,84050,1,2,0:0:0:0:
182,192,84383,1,2,0:0:0:0:
329,192,84383,1,0,0:0:0:0:
402,192,84716,1,2,0:0:0:0:
36,192,85050,1,2,0:0:0:0:
475,192,85383,1,2,0:0:0:0:
256,192,85716,1,2,0:0:0:0:
109,192,85716,1,0,0:0:0:40:tp1_31.wav
402,192,86050,1,2,0:0:0:0:
36,192,86383,1,2,0:0:0:0:
329,192,86716,1,2,0:0:0:0:
402,192,87050,1,0,0:0:0:0:
182,192,87050,1,2,0:0:0:0:
109,192,87383,1,2,0:0:0:0:
36,192,87716,1,0,0:0:0:60:bd_8c.wav
329,192,87716,1,0,0:0:0:40:tp1_30.wav
109,192,88050,1,0,0:0:0:60:bd_8c.wav
402,192,88050,1,0,0:0:0:40:tp1_32.wav
182,192,88383,1,2,0:0:0:0:
475,192,88383,1,0,0:0:0:40:tp1_43.wav
36,192,88716,1,2,0:0:0:0:
256,192,89050,1,2,0:0:0:0:
475,192,89383,1,2,0:0:0:0:
36,192,89716,1,0,0:0:0:0:
182,192,89716,1,2,0:0:0:0:
329,192,90050,1,2,0:0:0:0:
109,192,90383,1,2,0:0:0:0:
329,192,90716,1,2,0:0:0:0:
475,192,91049,1,2,0:0:0:0:
36,192,91049,1,0,0:0:0:40:tp1_40.wav
256,192,91383,1,0,0:0:0:60:bd_8c.wav
402,192,91549,1,2,0:0:0:0:
109,192,91883,1,2,0:0:0:0:
402,192,92216,1,0,0:0:0:60:bd_8c.wav
182,192,92716,1,0,0:0:0:60:bd_8c.wav
36,192,92716,1,0,0:0:0:60:cym_8c.wav
475,192,93049,1,0,0:0:0:60:bd_16c.wav
329,192,93049,1,0,0:0:0:60:cym_8c.wav
182,192,93383,1,0,0:0:0:60:bd_16c.wav
36,192,93383,1,0,0:0:0:60:cym_8c.wav
329,192,93716,1,0,0:0:0:60:bd_dr.wav
36,192,94049,1,4,0:0:0:0:
475,192,94049,1,2,0:0:0:0:
182,192,94383,1,2,0:0:0:0:
402,192,94716,1,2,0:0:0:0:
36,192,95049,1,2,0:0:0:0:
182,192,95049,1,0,0:0:0:0:
329,192,95383,1,2,0:0:0:0:
36,192,95716,1,2,0:0:0:0:
256,192,96049,1,2,0:0:0:0:
475,192,96383,1,2,0:0:0:0:
329,192,96383,1,0,0:0:0:40:tp1_31.wav
109,192,96716,1,2,0:0:0:0:
402,192,97049,1,2,0:0:0:0:
182,192,97383,1,2,0:0:0:0:
475,192,97716,1,2,0:0:0:0:
36,192,97716,1,0,0:0:0:0:
256,192,98049,1,2,0:0:0:0:
109,192,98383,1,0,0:0:0:60:bd_8c.wav
402,192,98383,1,0,0:0:0:40:tp1_30.wav
182,192,98716,1,0,0:0:0:60:bd_8c.wav
475,192,98716,1,0,0:0:0:40:tp1_32.wav
256,192,99049,1,2,0:0:0:0:
36,192,99049,1,0,0:0:0:40:tp1_43.wav
475,192,99383,1,2,0:0:0:0:
109,192,99716,1,2,0:0:0:0:
402,192,100049,1,2,0:0:0:0:
36,192,100383,1,0,0:0:0:0:
182,192,100383,1,2,0:0:0:0:
329,192,100716,1,2,0:0:0:0:
402,192,101049,1,2,0:0:0:0:
109,192,101383,1,0,0:0:0:60:cym_8c.wav
256,192,101383,1,0,0:0:0:60:bd_8c.wav
475,192,101716,1,2,0:0:0:0:
36,192,101716,1,0,0:0:0:60:cym_8ss.wav
475,192,102216,1,2,0:0:0:0:
329,192,102549,1,2,0:0:0:0:
182,192,102883,1,2,0:0:0:0:
402,192,103383,1,2,0:0:0:0:
256,192,103716,1,2,0:0:0:0:
109,192,104049,1,2,0:0:0:0:
475,192,104383,1,2,0:0:0:0:
36,192,104383,1,0,0:0:0:60:cym_8ss.wav
475,192,104883,1,2,0:0:0:0:
36,192,104883,1,0,0:0:0:60:cym_8ss.wav
475,192,105383,1,2,0:0:0:0:
36,192,105383,1,0,0:0:0:60:cym_8ss.wav
402,192,105883,1,2,0:0:0:0:
182,192,105883,1,0,0:0:0:60:cym_8ss.wav
329,192,106383,1,2,0:0:0:0:
182,192,106716,1,2,0:0:0:0:
36,192,107049,1,2,0:0:0:0:
475,192,107049,1,0,0:0:0:60:cym_8ss.wav
36,192,107549,1,2,0:0:0:0:
475,192,107549,1,0,0:0:0:60:cym_8ss.wav
36,192,108049,1,2,0:0:0:0:
475,192,108049,1,0,0:0:0:60:cym_8ss.wav
109,192,108549,1,2,0:0:0:0:
329,192,108549,1,0,0:0:0:60:cym_8ss.wav
182,192,109049,1,2,0:0:0:0:
329,192,109383,1,2,0:0:0:0:
36,192,109716,1,2,0:0:0:0:
475,192,109716,1,0,0:0:0:0:
402,192,110216,1,0,0:0:0:60:bd_8c.wav
329,192,110716,1,0,0:0:0:60:bd_8c.wav
109,192,111049,128,2,111883:0:0:0:0:
329,192,111883,1,0,0:0:0:60:bd_8c.wav
182,192,112049,1,0,0:0:0:60:bd_8c.wav
475,192,112383,128,0,112883:0:0:0:0:
36,192,112383,128,2,112883:0:0:0:0:
256,192,112383,1,4,0:0:0:0:
402,192,112883,128,0,113383:0:0:0:0:
109,192,112883,128,2,113383:0:0:0:0:
182,192,113383,128,2,114883:0:0:0:0:
329,192,113383,128,0,114883:0:0:0:0:
36,192,115049,1,0,0:0:0:40:tp1_30.wav
256,192,115049,1,2,0:0:0:0:
475,192,115383,1,0,0:0:0:40:tp1_34.wav
256,192,115716,1,0,0:0:0:40:tp1_32.wav
36,192,116049,1,0,0:0:0:40:tp1_32.wav
475,192,116383,1,0,0:0:0:40:tp1_30.wav
109,192,116716,1,0,0:0:0:40:tp1_34.wav
329,192,117049,1,0,0:0:0:40:tp1_34.wav
182,192,117383,1,0,0:0:0:40:tp1_33.wav
475,192,117716,1,0,0:0:0:40:tp1_32.wav
36,192,118049,1,0,0:0:0:40:tp1_33.wav
256,192,118383,1,0,0:0:0:40:tp1_32.wav
475,192,118716,1,0,0:0:0:40:tp1_31.wav
36,192,119049,1,0,0:0:0:40:tp1_32.wav
256,192,119383,1,0,0:0:0:40:tp1_33.wav
402,192,119716,1,0,0:0:0:40:tp1_34.wav
256,192,120049,1,0,0:0:0:40:tp1_33.wav
109,192,120383,1,0,0:0:0:40:tp1_30.wav
475,192,120716,1,0,0:0:0:40:tp1_34.wav
402,192,121049,1,0,0:0:0:40:tp1_32.wav
329,192,121383,1,0,0:0:0:40:tp1_32.wav
182,192,121716,1,0,0:0:0:40:tp1_30.wav
36,192,122049,1,0,0:0:0:40:tp1_34.wav
109,192,122383,1,0,0:0:0:40:tp1_34.wav
182,192,122716,1,0,0:0:0:40:tp1_33.wav
256,192,123049,1,0,0:0:0:40:tp1_27.wav
36,192,123383,1,0,0:0:0:40:tp1_30.wav
402,192,123716,1,0,0:0:0:40:tp1_32.wav
182,192,124049,1,0,0:0:0:40:tp1_31.wav
329,192,124383,1,0,0:0:0:40:tp1_32.wav
475,192,124716,1,0,0:0:0:40:tp1_33.wav
36,192,125049,1,0,0:0:0:40:tp1_34.wav
182,192,125383,1,0,0:0:0:40:tp1_33.wav
256,192,125716,1,0,0:0:0:40:tp1_30.wav
329,192,126049,1,0,0:0:0:40:tp1_34.wav
475,192,126383,1,0,0:0:0:40:tp1_34.wav
256,192,126716,1,0,0:0:0:40:tp1_33.wav
36,192,127049,1,0,0:0:0:40:tp1_32.wav
182,192,127383,1,0,0:0:0:40:tp1_31.wav
475,192,127716,1,0,0:0:0:40:tp1_32.wav
329,192,128049,1,0,0:0:0:40:tp1_33.wav
256,192,128383,1,0,0:0:0:40:tp1_47.wav
36,192,128383,128,2,132383:0:0:0:0:
475,192,128383,128,0,132383:0:0:0:40:tp1_49.wav
