osu file format v14

[General]
AudioFilename: audio.mp3
AudioLeadIn: 0
PreviewTime: 81717
Countdown: 0
SampleSet: Soft
StackLeniency: 0.7
Mode: 3
LetterboxInBreaks: 0
SpecialStyle: 0
WidescreenStoryboard: 0

[Editor]
Bookmarks: 2719,10719,26719,42719,50718,58718,61384,72051,83050,104383,115049
DistanceSpacing: 0.8
BeatDivisor: 4
GridSize: 4
TimelineZoom: 1.4

[Metadata]
Title:squartatrice
TitleUnicode:squartatrice
Artist:Miki Sayaka vs. Miki Sayaka (fw. Miki Sayaka)
ArtistUnicode:美樹さやか vs. 美樹さやか (fw. 美樹さやか)
Creator:Garalulu
Version:Another
Source:BMS
Tags:Wonki bms of fighters 2011 BOF2011 HARD RENAISSAYAKA gmtn. kozato LUZE
BeatmapID:1145468
BeatmapSetID:540175

[Difficulty]
HPDrainRate:8.5
CircleSize:7
OverallDifficulty:8.2
ApproachRate:10
SliderMultiplier:1.4
SliderTickRate:1

[Events]
//Background and Video events
0,0,"bg.jpg",0,0
//Break Periods
//Storyboard Layer 0 (Background)
//Storyboard Layer 1 (Fail)
//Storyboard Layer 2 (Pass)
//Storyboard Layer 3 (Foreground)
//Storyboard Sound Samples

[TimingPoints]
720,333.333333333333,3,2,1,60,1,0
42719,333.333333333333,6,2,1,60,1,0
58718,333.333333333333,4,2,1,60,1,0
81384,333.333333333333,5,2,1,60,1,0
83050,333.333333333333,4,2,1,60,1,0
83050,-100,4,2,1,60,0,1
93716,-200,4,2,1,60,0,0
93966,-66.6666666666667,4,2,1,60,0,0
94049,-100,4,2,1,60,0,1
101716,-100,4,2,1,60,0,0

[HitObjects]
475,192,2719,5,0,0:0:0:40:tp2_43.wav
329,192,2719,1,0,0:0:0:40:tp1_30.wav
36,192,2719,1,0,0:0:0:0:
182,192,2886,1,0,0:0:0:40:tp1_26.wav
475,192,3053,1,0,0:0:0:40:tp1_34.wav
182,192,3219,1,0,0:0:0:40:tp1_26.wav
475,192,3386,1,0,0:0:0:40:tp1_34.wav
182,192,3553,1,0,0:0:0:40:tp1_26.wav
402,192,3719,1,0,0:0:0:40:tp1_33.wav
182,192,3886,1,0,0:0:0:40:tp1_26.wav
329,192,4053,1,0,0:0:0:40:tp1_32.wav
182,192,4219,1,0,0:0:0:40:tp1_26.wav
256,192,4386,1,0,0:0:0:40:tp1_31.wav
182,192,4553,1,0,0:0:0:40:tp1_26.wav
109,192,4719,1,0,0:0:0:40:tp1_30.wav
182,192,4886,1,0,0:0:0:40:tp1_26.wav
36,192,5053,1,0,0:0:0:40:tp1_28.wav
182,192,5219,1,0,0:0:0:40:tp1_26.wav
109,192,5386,1,0,0:0:0:40:tp1_30.wav
182,192,5553,1,0,0:0:0:40:tp1_26.wav
256,192,5719,1,0,0:0:0:40:tp1_31.wav
182,192,5886,1,0,0:0:0:40:tp1_26.wav
329,192,6053,1,0,0:0:0:40:tp1_32.wav
182,192,6219,1,0,0:0:0:40:tp1_26.wav
256,192,6386,1,0,0:0:0:40:tp1_28.wav
182,192,6553,1,0,0:0:0:40:tp1_26.wav
36,192,6719,1,0,0:0:0:40:tp2_46.wav
329,192,6719,1,0,0:0:0:40:tp1_30.wav
182,192,6886,1,0,0:0:0:40:tp1_26.wav
256,192,7053,1,0,0:0:0:40:tp1_30.wav
329,192,7219,1,0,0:0:0:40:tp1_31.wav
402,192,7386,1,0,0:0:0:40:tp1_32.wav
256,192,7553,1,0,0:0:0:40:tp1_28.wav
109,192,7719,1,0,0:0:0:40:tp1_30.wav
329,192,7886,1,0,0:0:0:40:tp1_26.wav
182,192,8053,1,0,0:0:0:40:tp1_34.wav
329,192,8219,1,0,0:0:0:40:tp1_26.wav
256,192,8386,1,0,0:0:0:40:tp1_33.wav
329,192,8553,1,0,0:0:0:40:tp1_26.wav
402,192,8719,1,0,0:0:0:40:tp1_32.wav
109,192,8719,1,0,0:0:0:40:tp2_40.wav
182,192,8886,1,0,0:0:0:40:tp1_31.wav
329,192,9053,1,0,0:0:0:40:tp1_32.wav
256,192,9219,1,0,0:0:0:40:tp1_33.wav
402,192,9386,1,0,0:0:0:40:tp1_34.wav
109,192,9553,1,0,0:0:0:40:tp1_28.wav
36,192,9719,1,0,0:0:0:40:tp2_41.wav
475,192,9719,1,0,0:0:0:40:tp1_33.wav
182,192,9886,1,0,0:0:0:40:tp1_26.wav
402,192,10053,1,0,0:0:0:40:tp1_32.wav
182,192,10219,1,0,0:0:0:40:tp1_26.wav
329,192,10386,1,0,0:0:0:40:tp1_31.wav
182,192,10553,1,0,0:0:0:40:tp1_26.wav
475,192,10719,1,0,0:0:0:0:
329,192,10719,1,0,0:0:0:40:tp1_30.wav
36,192,10719,1,0,0:0:0:40:tp2_22.wav
256,192,10886,1,0,0:0:0:40:tp1_26.wav
402,192,11053,1,0,0:0:0:40:tp1_34.wav
109,192,11053,1,0,0:0:0:40:tp2_14.wav
36,192,11053,1,0,0:0:0:0:
182,192,11219,1,0,0:0:0:40:tp1_26.wav
256,192,11219,1,0,0:0:0:40:tp2_16.wav
36,192,11386,1,0,0:0:0:0:
329,192,11386,1,0,0:0:0:40:tp1_34.wav
475,192,11386,1,0,0:0:0:40:tp2_17.wav
256,192,11553,1,0,0:0:0:40:tp2_18.wav
402,192,11553,1,0,0:0:0:40:tp1_26.wav
475,192,11719,1,0,0:0:0:0:
182,192,11719,1,0,0:0:0:40:tp1_33.wav
36,192,11719,1,0,0:0:0:40:tp2_19.wav
256,192,11886,1,0,0:0:0:40:tp1_26.wav
402,192,11886,1,0,0:0:0:40:tp2_16.wav
475,192,12053,1,0,0:0:0:0:
329,192,12053,1,0,0:0:0:40:tp1_32.wav
182,192,12053,1,0,0:0:0:40:tp2_19.wav
109,192,12219,1,0,0:0:0:40:tp2_20.wav
256,192,12219,1,0,0:0:0:40:tp1_26.wav
36,192,12386,1,0,0:0:0:0:
182,192,12386,1,0,0:0:0:40:tp2_19.wav
329,192,12386,1,0,0:0:0:40:tp1_31.wav
256,192,12553,1,0,0:0:0:40:tp1_26.wav
402,192,12553,1,0,0:0:0:40:tp2_18.wav
329,192,12719,1,0,0:0:0:0:
182,192,12719,1,0,0:0:0:40:tp1_30.wav
475,192,12719,1,0,0:0:0:40:tp2_17.wav
256,192,12886,1,0,0:0:0:40:tp2_01.wav
36,192,12886,1,0,0:0:0:40:tp1_26.wav
182,192,12969,1,0,0:0:0:40:tp2_02.wav
329,192,13053,1,0,0:0:0:40:tp2_03.wav
109,192,13053,1,0,0:0:0:0:
475,192,13053,1,0,0:0:0:40:tp1_28.wav
256,192,13136,1,0,0:0:0:40:tp2_04.wav
182,192,13219,1,0,0:0:0:40:tp2_05.wav
109,192,13303,1,0,0:0:0:40:tp2_06.wav
36,192,13386,1,0,0:0:0:40:tp2_20.wav
475,192,13386,1,0,0:0:0:0:
329,192,13386,1,0,0:0:0:40:tp1_30.wav
256,192,13553,1,0,0:0:0:40:tp2_06.wav
402,192,13553,1,0,0:0:0:40:tp1_26.wav
109,192,13719,1,0,0:0:0:0:
36,192,13719,1,0,0:0:0:40:tp2_18.wav
329,192,13719,1,0,0:0:0:40:tp1_31.wav
182,192,13886,1,0,0:0:0:40:tp2_19.wav
256,192,13886,1,0,0:0:0:40:tp1_26.wav
475,192,14053,1,0,0:0:0:0:
36,192,14053,1,0,0:0:0:40:tp2_20.wav
402,192,14053,1,0,0:0:0:40:tp1_32.wav
256,192,14219,1,0,0:0:0:40:tp2_19.wav
329,192,14219,1,0,0:0:0:40:tp1_26.wav
402,192,14386,1,0,0:0:0:0:
109,192,14386,1,0,0:0:0:40:tp2_18.wav
182,192,14386,1,0,0:0:0:40:tp1_28.wav
256,192,14553,1,0,0:0:0:40:tp1_26.wav
36,192,14719,1,0,0:0:0:0:
329,192,14719,1,0,0:0:0:40:tp1_30.wav
475,192,14719,1,0,0:0:0:40:tp2_15.wav
109,192,14886,1,0,0:0:0:40:tp1_26.wav
182,192,15053,1,0,0:0:0:0:
256,192,15053,1,0,0:0:0:0:tp1_30.wav
402,192,15053,1,0,0:0:0:40:tp2_15.wav
329,192,15219,1,0,0:0:0:40:tp1_31.wav
109,192,15219,1,0,0:0:0:0:
36,192,15386,1,0,0:0:0:0:
256,192,15386,1,0,0:0:0:40:tp1_32.wav
475,192,15386,1,0,0:0:0:40:tp2_17.wav
402,192,15553,1,0,0:0:0:40:tp2_18.wav
182,192,15553,1,0,0:0:0:40:tp1_28.wav
329,192,15719,1,0,0:0:0:0:
109,192,15719,1,0,0:0:0:40:tp1_30.wav
475,192,15719,1,0,0:0:0:40:tp2_19.wav
256,192,15886,1,0,0:0:0:40:tp1_26.wav
475,192,16053,1,0,0:0:0:0:
36,192,16053,1,0,0:0:0:40:tp2_20.wav
182,192,16053,1,0,0:0:0:40:tp1_34.wav
402,192,16219,1,0,0:0:0:40:tp1_26.wav
182,192,16386,1,0,0:0:0:0:
329,192,16386,1,0,0:0:0:0:tp1_33.wav
109,192,16386,1,0,0:0:0:40:tp2_19.wav
256,192,16553,1,0,0:0:0:40:tp1_26.wav
475,192,16719,1,0,0:0:0:0:
36,192,16719,1,0,0:0:0:40:tp2_20.wav
329,192,16719,1,0,0:0:0:0:tp1_32.wav
256,192,16886,1,0,0:0:0:0:tp1_31.wav
109,192,16886,1,0,0:0:0:0:
475,192,17053,1,0,0:0:0:0:
182,192,17053,1,0,0:0:0:40:tp2_19.wav
329,192,17053,1,0,0:0:0:0:tp1_32.wav
402,192,17219,1,0,0:0:0:0:tp1_33.wav
256,192,17219,1,0,0:0:0:0:
475,192,17386,1,0,0:0:0:0:
36,192,17386,1,0,0:0:0:40:tp1_34.wav
329,192,17386,1,0,0:0:0:0:tp2_20.wav
182,192,17553,1,0,0:0:0:0:tp1_28.wav
109,192,17553,1,0,0:0:0:0:
402,192,17719,1,0,0:0:0:0:
36,192,17719,1,0,0:0:0:40:tp2_21.wav
256,192,17719,1,0,0:0:0:0:tp1_33.wav
329,192,17886,1,0,0:0:0:40:tp1_26.wav
402,192,18053,1,0,0:0:0:0:
182,192,18053,1,0,0:0:0:40:tp1_32.wav
109,192,18053,1,0,0:0:0:70:tp2_20.wav
256,192,18219,1,0,0:0:0:40:tp1_26.wav
475,192,18386,1,0,0:0:0:0:
402,192,18386,1,0,0:0:0:40:tp1_31.wav
182,192,18386,1,0,0:0:0:40:tp2_18.wav
329,192,18553,1,0,0:0:0:40:tp1_26.wav
256,192,18719,1,0,0:0:0:40:tp1_30.wav
36,192,18719,1,0,0:0:0:0:
475,192,18719,1,0,0:0:0:40:tp2_22.wav
182,192,18886,1,0,0:0:0:40:tp1_26.wav
475,192,19053,1,0,0:0:0:0:
109,192,19053,1,0,0:0:0:40:tp1_34.wav
402,192,19053,1,0,0:0:0:40:tp2_14.wav
256,192,19219,1,0,0:0:0:40:tp1_26.wav
329,192,19219,1,0,0:0:0:40:tp2_16.wav
475,192,19386,1,0,0:0:0:0:
36,192,19386,1,0,0:0:0:40:tp2_17.wav
182,192,19386,1,0,0:0:0:40:tp1_34.wav
109,192,19553,1,0,0:0:0:40:tp2_18.wav
256,192,19553,1,0,0:0:0:40:tp1_26.wav
36,192,19719,1,0,0:0:0:0:
329,192,19719,1,0,0:0:0:40:tp1_33.wav
475,192,19719,1,0,0:0:0:40:tp2_19.wav
109,192,19886,1,0,0:0:0:40:tp2_16.wav
256,192,19886,1,0,0:0:0:40:tp1_26.wav
36,192,20053,1,0,0:0:0:0:
182,192,20053,1,0,0:0:0:40:tp2_19.wav
329,192,20053,1,0,0:0:0:40:tp1_32.wav
402,192,20219,1,0,0:0:0:40:tp1_26.wav
256,192,20219,1,0,0:0:0:40:tp2_20.wav
182,192,20386,1,0,0:0:0:0:
475,192,20386,1,0,0:0:0:40:tp1_31.wav
329,192,20386,1,0,0:0:0:40:tp2_19.wav
256,192,20553,1,0,0:0:0:40:tp2_18.wav
109,192,20553,1,0,0:0:0:40:tp1_26.wav
182,192,20719,1,0,0:0:0:0:
329,192,20719,1,0,0:0:0:40:tp2_17.wav
36,192,20719,1,0,0:0:0:40:tp1_30.wav
256,192,20886,1,0,0:0:0:40:tp2_01.wav
475,192,20886,1,0,0:0:0:40:tp1_26.wav
329,192,20969,1,0,0:0:0:40:tp2_02.wav
36,192,21053,1,0,0:0:0:0:
402,192,21053,1,0,0:0:0:40:tp2_03.wav
182,192,21053,1,0,0:0:0:40:tp1_28.wav
256,192,21136,1,0,0:0:0:40:tp2_04.wav
329,192,21219,1,0,0:0:0:40:tp2_05.wav
402,192,21303,1,0,0:0:0:40:tp2_06.wav
182,192,21386,1,0,0:0:0:0:
475,192,21386,1,0,0:0:0:40:tp2_20.wav
36,192,21386,1,0,0:0:0:40:tp1_30.wav
109,192,21553,1,0,0:0:0:40:tp1_26.wav
256,192,21553,1,0,0:0:0:40:tp2_19.wav
402,192,21719,1,0,0:0:0:0:
475,192,21719,1,0,0:0:0:40:tp2_17.wav
182,192,21719,1,0,0:0:0:40:tp1_31.wav
256,192,21886,1,0,0:0:0:40:tp1_26.wav
329,192,21886,1,0,0:0:0:40:tp2_19.wav
36,192,22053,1,0,0:0:0:0:
109,192,22053,1,0,0:0:0:40:tp1_32.wav
475,192,22053,1,0,0:0:0:40:tp2_20.wav
256,192,22219,1,0,0:0:0:40:tp2_19.wav
182,192,22219,1,0,0:0:0:40:tp1_26.wav
402,192,22386,1,0,0:0:0:0:
109,192,22386,1,0,0:0:0:40:tp1_28.wav
329,192,22386,1,0,0:0:0:40:tp2_18.wav
256,192,22553,1,0,0:0:0:40:tp1_26.wav
36,192,22719,1,0,0:0:0:0:
182,192,22719,1,0,0:0:0:40:tp1_30.wav
475,192,22719,1,0,0:0:0:40:tp2_15.wav
402,192,22886,1,0,0:0:0:40:tp1_26.wav
256,192,23053,1,0,0:0:0:0:
109,192,23053,1,0,0:0:0:40:tp2_15.wav
329,192,23053,1,0,0:0:0:40:tp1_30.wav
182,192,23219,1,0,0:0:0:40:tp1_31.wav
402,192,23219,1,0,0:0:0:0:
475,192,23386,1,0,0:0:0:0:
256,192,23386,1,0,0:0:0:40:tp1_32.wav
36,192,23386,1,0,0:0:0:40:tp2_17.wav
109,192,23553,1,0,0:0:0:40:tp2_18.wav
329,192,23553,1,0,0:0:0:40:tp1_28.wav
36,192,23719,1,0,0:0:0:0:
402,192,23719,1,0,0:0:0:40:tp2_19.wav
182,192,23719,1,0,0:0:0:40:tp1_30.wav
256,192,23886,1,0,0:0:0:40:tp1_26.wav
329,192,24053,1,0,0:0:0:0:
475,192,24053,1,0,0:0:0:40:tp1_34.wav
36,192,24053,1,0,0:0:0:40:tp2_20.wav
109,192,24219,1,0,0:0:0:40:tp1_26.wav
402,192,24386,1,0,0:0:0:0:
182,192,24386,1,0,0:0:0:40:tp1_33.wav
475,192,24386,1,0,0:0:0:40:tp2_19.wav
329,192,24553,1,0,0:0:0:40:tp1_26.wav
256,192,24719,1,0,0:0:0:40:tp1_32.wav
36,192,24886,1,0,0:0:0:40:tp1_31.wav
329,192,25053,1,0,0:0:0:40:tp1_32.wav
109,192,25219,1,0,0:0:0:40:tp1_33.wav
402,192,25386,1,0,0:0:0:40:tp1_34.wav
182,192,25553,1,0,0:0:0:40:tp1_28.wav
475,192,25719,1,0,0:0:0:40:tp1_17.wav
256,192,25803,1,0,0:0:0:40:tp1_15.wav
402,192,25886,1,0,0:0:0:40:tp1_16.wav
182,192,25969,1,0,0:0:0:40:tp1_14.wav
109,192,26053,1,0,0:0:0:40:tp1_13.wav
36,192,26136,1,0,0:0:0:40:tp1_09.wav
475,192,26219,1,0,0:0:0:40:tp1_08.wav
402,192,26303,1,0,0:0:0:40:tp1_07.wav
256,192,26386,1,0,0:0:0:0:
329,192,26386,1,0,0:0:0:40:tp1_06.wav
109,192,26469,1,0,0:0:0:0:
36,192,26469,1,0,0:0:0:40:tp1_07.wav
329,192,26553,1,0,0:0:0:0:
402,192,26553,1,0,0:0:0:40:tp1_06.wav
182,192,26636,1,0,0:0:0:0:
109,192,26636,1,0,0:0:0:40:tp1_01.wav
402,192,26719,1,0,0:0:0:0:
475,192,26719,1,2,0:0:0:0:
36,192,26719,1,4,0:0:0:0:
329,192,26719,1,0,0:0:0:40:tp1_22.wav
182,192,26803,1,0,0:0:0:0:
329,192,26886,1,0,0:0:0:0:
109,192,26969,1,0,0:0:0:0:
475,192,27053,1,2,0:0:0:0:
256,192,27053,1,0,0:0:0:40:tp1_32.wav
402,192,27053,1,0,0:0:0:0:
36,192,27136,1,0,0:0:0:0:
329,192,27219,1,0,0:0:0:0:
109,192,27303,1,0,0:0:0:0:
475,192,27386,1,2,0:0:0:0:
256,192,27386,1,0,0:0:0:40:tp1_32.wav
36,192,27386,1,0,0:0:0:0:
182,192,27469,1,0,0:0:0:0:
402,192,27553,1,0,0:0:0:0:
36,192,27636,1,0,0:0:0:0:
182,192,27719,1,2,0:0:0:0:
329,192,27719,1,0,0:0:0:40:tp1_31.wav
256,192,27719,1,0,0:0:0:0:
475,192,27803,1,0,0:0:0:0:
109,192,27886,1,0,0:0:0:0:
402,192,27969,1,0,0:0:0:0:
36,192,28053,1,2,0:0:0:0:
256,192,28053,1,0,0:0:0:40:tp1_28.wav
182,192,28053,1,0,0:0:0:0:
329,192,28136,1,0,0:0:0:0:
109,192,28219,1,0,0:0:0:0:
256,192,28303,1,0,0:0:0:0:
182,192,28386,1,2,0:0:0:0:
402,192,28386,1,0,0:0:0:40:tp1_30.wav
475,192,28386,1,0,0:0:0:0:
329,192,28469,1,0,0:0:0:0:
36,192,28553,1,0,0:0:0:0:
475,192,28636,1,0,0:0:0:0:
329,192,28719,1,2,0:0:0:0:
109,192,28719,1,0,0:0:0:40:tp1_26.wav
256,192,28719,1,0,0:0:0:0:
182,192,28803,1,0,0:0:0:0:
36,192,28886,1,0,0:0:0:0:
329,192,28969,1,0,0:0:0:0:
475,192,29053,1,2,0:0:0:0:
256,192,29053,1,0,0:0:0:40:tp1_25.wav
182,192,29053,1,0,0:0:0:0:
109,192,29136,1,0,0:0:0:0:
329,192,29219,1,0,0:0:0:0:
182,192,29303,1,0,0:0:0:0:
36,192,29386,1,2,0:0:0:0:
109,192,29386,1,0,0:0:0:40:tp1_30.wav
402,192,29386,1,0,0:0:0:0:
256,192,29469,1,0,0:0:0:0:
182,192,29553,1,0,0:0:0:0:
329,192,29636,1,0,0:0:0:0:
475,192,29719,1,2,0:0:0:0:
109,192,29719,1,0,0:0:0:40:tp1_28.wav
402,192,29719,1,0,0:0:0:0:
256,192,29803,1,0,0:0:0:0:
36,192,29886,1,0,0:0:0:0:
329,192,29969,1,0,0:0:0:0:
182,192,30053,1,2,0:0:0:0:
402,192,30053,1,0,0:0:0:40:tp1_26.wav
256,192,30053,1,0,0:0:0:0:
109,192,30136,1,0,0:0:0:0:
475,192,30219,1,0,0:0:0:0:
329,192,30303,1,0,0:0:0:0:
36,192,30386,1,2,0:0:0:0:
182,192,30386,1,0,0:0:0:40:tp1_11.wav
402,192,30386,1,0,0:0:0:0:
256,192,30469,1,0,0:0:0:40:tp1_13.wav
109,192,30553,1,0,0:0:0:0:
329,192,30553,1,0,0:0:0:40:tp1_14.wav
402,192,30636,1,0,0:0:0:40:tp1_15.wav
256,192,30719,1,2,0:0:0:0:
475,192,30719,1,0,0:0:0:40:tp1_33.wav
36,192,30719,1,0,0:0:0:0:
182,192,30803,1,0,0:0:0:0:
402,192,30886,1,0,0:0:0:0:
109,192,30969,1,0,0:0:0:0:
36,192,31053,1,2,0:0:0:0:
256,192,31053,1,0,0:0:0:40:tp1_28.wav
475,192,31053,1,0,0:0:0:0:
182,192,31136,1,0,0:0:0:0:
402,192,31219,1,0,0:0:0:0:
256,192,31303,1,0,0:0:0:0:
475,192,31386,1,2,0:0:0:0:
329,192,31386,1,0,0:0:0:40:tp1_33.wav
36,192,31386,1,0,0:0:0:0:
109,192,31469,1,0,0:0:0:0:
329,192,31553,1,0,0:0:0:0:
182,192,31553,1,0,0:0:0:40:tp1_32.wav
402,192,31636,1,0,0:0:0:0:
182,192,31719,1,2,0:0:0:0:
36,192,31719,1,0,0:0:0:40:tp1_31.wav
475,192,31719,1,0,0:0:0:0:
256,192,31803,1,0,0:0:0:0:
475,192,31886,1,0,0:0:0:0:
329,192,31886,1,0,0:0:0:40:tp1_32.wav
109,192,31969,1,0,0:0:0:0:
402,192,32053,1,2,0:0:0:0:
256,192,32053,1,0,0:0:0:40:tp1_31.wav
182,192,32053,1,0,0:0:0:0:
36,192,32136,1,0,0:0:0:0:
329,192,32219,1,0,0:0:0:0:
182,192,32219,1,0,0:0:0:40:tp1_28.wav
475,192,32303,1,0,0:0:0:0:
256,192,32386,1,2,0:0:0:0:
109,192,32386,1,0,0:0:0:40:tp1_26.wav
329,192,32386,1,0,0:0:0:0:
402,192,32469,1,0,0:0:0:0:
182,192,32553,1,0,0:0:0:0:
36,192,32553,1,0,0:0:0:40:tp1_25.wav
256,192,32636,1,0,0:0:0:0:
475,192,32719,1,2,0:0:0:0:
329,192,32719,1,0,0:0:0:40:tp1_24.wav
36,192,32719,1,0,0:0:0:0:
109,192,32803,1,0,0:0:0:0:
256,192,32886,1,0,0:0:0:0:
36,192,32969,1,0,0:0:0:0:
329,192,32969,1,0,0:0:0:40:tp1_07.wav
182,192,33053,1,2,0:0:0:0:
402,192,33053,1,0,0:0:0:40:tp1_25.wav
475,192,33053,1,0,0:0:0:0:
109,192,33136,1,0,0:0:0:0:
36,192,33219,1,0,0:0:0:0:
256,192,33219,1,0,0:0:0:40:tp1_26.wav
329,192,33303,1,0,0:0:0:0:
475,192,33386,1,2,0:0:0:0:
402,192,33386,1,0,0:0:0:40:tp1_29.wav
109,192,33386,1,0,0:0:0:0:
182,192,33469,1,0,0:0:0:0:
329,192,33553,1,0,0:0:0:0:
256,192,33553,1,0,0:0:0:40:tp1_26.wav
109,192,33636,1,0,0:0:0:0:
36,192,33719,1,2,0:0:0:0:
329,192,33719,1,0,0:0:0:0:
475,192,33719,1,0,0:0:0:40:tp1_32.wav
402,192,33803,1,0,0:0:0:0:
256,192,33886,1,0,0:0:0:0:
109,192,33969,1,0,0:0:0:0:
475,192,34053,1,2,0:0:0:0:
182,192,34053,1,0,0:0:0:0:
329,192,34053,1,0,0:0:0:40:tp1_31.wav
109,192,34136,1,0,0:0:0:0:
256,192,34219,1,0,0:0:0:0:
402,192,34303,1,0,0:0:0:0:
329,192,34386,1,0,0:0:0:0:
36,192,34386,1,0,0:0:0:60:bd_8c.wav
182,192,34386,1,0,0:0:0:40:tp1_26.wav
256,192,34469,1,0,0:0:0:0:
329,192,34553,1,0,0:0:0:0:
109,192,34553,1,0,0:0:0:60:bd_8c.wav
402,192,34636,1,0,0:0:0:0:
36,192,34719,1,2,0:0:0:0:
256,192,34719,1,0,0:0:0:0:
475,192,34719,1,0,0:0:0:40:tp1_22.wav
182,192,34803,1,0,0:0:0:0:
109,192,34886,1,0,0:0:0:0:
402,192,34969,1,0,0:0:0:0:
256,192,35053,1,2,0:0:0:0:
329,192,35053,1,0,0:0:0:0:
36,192,35053,1,0,0:0:0:40:tp1_32.wav
109,192,35136,1,0,0:0:0:0:
182,192,35219,1,0,0:0:0:0:
329,192,35303,1,0,0:0:0:0:
475,192,35386,1,2,0:0:0:0:
402,192,35386,1,0,0:0:0:0:
36,192,35386,1,0,0:0:0:40:tp1_32.wav
109,192,35469,1,0,0:0:0:0:
182,192,35553,1,0,0:0:0:0:
329,192,35636,1,0,0:0:0:0:
402,192,35719,1,0,0:0:0:0:
36,192,35719,1,2,0:0:0:0:
256,192,35719,1,0,0:0:0:40:tp1_31.wav
182,192,35803,1,0,0:0:0:0:
475,192,35886,1,0,0:0:0:0:
329,192,35969,1,0,0:0:0:0:
182,192,36053,1,0,0:0:0:0:
256,192,36053,1,2,0:0:0:0:
109,192,36053,1,0,0:0:0:40:tp1_28.wav
36,192,36136,1,0,0:0:0:0:
402,192,36219,1,0,0:0:0:0:
475,192,36303,1,0,0:0:0:0:
182,192,36386,1,2,0:0:0:0:
256,192,36386,1,0,0:0:0:0:
329,192,36386,1,0,0:0:0:40:tp1_30.wav
109,192,36469,1,0,0:0:0:0:
402,192,36553,1,0,0:0:0:0:
329,192,36636,1,0,0:0:0:0:
36,192,36719,1,0,0:0:0:0:
475,192,36719,1,2,0:0:0:0:
109,192,36719,1,0,0:0:0:40:tp1_26.wav
256,192,36803,1,0,0:0:0:0:
402,192,36886,1,0,0:0:0:0:
109,192,36969,1,0,0:0:0:0:
475,192,37053,1,0,0:0:0:0:
329,192,37053,1,2,0:0:0:0:
256,192,37053,1,0,0:0:0:40:tp1_25.wav
182,192,37136,1,0,0:0:0:0:
402,192,37219,1,0,0:0:0:0:
256,192,37303,1,0,0:0:0:0:
109,192,37386,1,0,0:0:0:0:
475,192,37386,1,2,0:0:0:0:
182,192,37386,1,0,0:0:0:40:tp1_30.wav
36,192,37469,1,0,0:0:0:0:
329,192,37553,1,0,0:0:0:0:
109,192,37636,1,0,0:0:0:0:
475,192,37719,1,0,0:0:0:0:
182,192,37719,1,2,0:0:0:0:
402,192,37719,1,0,0:0:0:40:tp1_28.wav
256,192,37803,1,0,0:0:0:0:
36,192,37886,1,0,0:0:0:0:
109,192,37969,1,0,0:0:0:0:
402,192,38053,1,0,0:0:0:0:
475,192,38053,1,2,0:0:0:0:
182,192,38053,1,0,0:0:0:40:tp1_26.wav
329,192,38136,1,0,0:0:0:0:
256,192,38219,1,0,0:0:0:0:
182,192,38303,1,0,0:0:0:0:
475,192,38386,1,0,0:0:0:0:
109,192,38386,1,2,0:0:0:0:
329,192,38386,1,0,0:0:0:40:tp1_11.wav
256,192,38469,1,0,0:0:0:40:tp1_13.wav
402,192,38553,1,0,0:0:0:0:
182,192,38553,1,0,0:0:0:40:tp1_14.wav
109,192,38636,1,0,0:0:0:40:tp1_15.wav
256,192,38719,1,0,0:0:0:0:
475,192,38719,1,2,0:0:0:0:
36,192,38719,1,0,0:0:0:40:tp1_33.wav
329,192,38803,1,0,0:0:0:0:
402,192,38886,1,0,0:0:0:0:
109,192,38969,1,0,0:0:0:0:
475,192,39053,1,2,0:0:0:0:
329,192,39053,1,0,0:0:0:0:
256,192,39053,1,0,0:0:0:40:tp1_28.wav
36,192,39136,1,0,0:0:0:0:
182,192,39219,1,0,0:0:0:0:
329,192,39303,1,0,0:0:0:0:
475,192,39386,1,2,0:0:0:0:
109,192,39386,1,0,0:0:0:40:tp1_33.wav
256,192,39386,1,0,0:0:0:0:
402,192,39469,1,0,0:0:0:0:
329,192,39553,1,0,0:0:0:0:
182,192,39553,1,0,0:0:0:40:tp1_32.wav
109,192,39636,1,0,0:0:0:0:
36,192,39719,1,2,0:0:0:0:
475,192,39719,1,0,0:0:0:0:
256,192,39719,1,0,0:0:0:40:tp1_31.wav
329,192,39803,1,0,0:0:0:0:
402,192,39886,1,0,0:0:0:0:
109,192,39886,1,0,0:0:0:40:tp1_32.wav
182,192,39969,1,0,0:0:0:0:
475,192,40053,1,0,0:0:0:0:
36,192,40053,1,2,0:0:0:0:
256,192,40053,1,0,0:0:0:40:tp1_31.wav
402,192,40136,1,0,0:0:0:0:
329,192,40219,1,0,0:0:0:0:
182,192,40219,1,0,0:0:0:40:tp1_28.wav
109,192,40303,1,0,0:0:0:0:
36,192,40386,1,2,0:0:0:0:
256,192,40386,1,0,0:0:0:0:
402,192,40386,1,0,0:0:0:40:tp1_26.wav
182,192,40469,1,0,0:0:0:0:
109,192,40553,1,0,0:0:0:0:
329,192,40553,1,0,0:0:0:40:tp1_25.wav
256,192,40636,1,0,0:0:0:0:
475,192,40719,1,4,0:0:0:0:
182,192,40719,1,0,0:0:0:40:tp1_24.wav
36,192,40719,1,0,0:0:0:60:bd_8c.wav
402,192,40886,1,0,0:0:0:0:
36,192,40886,1,0,0:0:0:60:bd_8c.wav
182,192,40886,1,0,0:0:0:40:tp1_05.wav
256,192,40969,1,0,0:0:0:40:tp1_07.wav
475,192,41053,1,4,0:0:0:0:
109,192,41053,1,2,0:0:0:0:
329,192,41053,1,0,0:0:0:40:tp1_25.wav
402,192,41219,1,0,0:0:0:0:
182,192,41219,1,0,0:0:0:40:tp1_05.wav
256,192,41303,1,0,0:0:0:40:tp1_08.wav
329,192,41386,1,2,0:0:0:0:
475,192,41386,1,4,0:0:0:0:
109,192,41386,1,0,0:0:0:40:tp1_09.wav
182,192,41469,1,0,0:0:0:40:tp1_11.wav
256,192,41553,1,0,0:0:0:0:
36,192,41553,1,0,0:0:0:40:tp1_15.wav
109,192,41636,1,0,0:0:0:40:tp1_14.wav
182,192,41719,1,2,0:0:0:0:
475,192,41719,1,4,0:0:0:0:
329,192,41719,1,0,0:0:0:40:tp1_12.wav
256,192,41803,1,0,0:0:0:40:tp1_09.wav
109,192,41886,1,0,0:0:0:0:
402,192,41886,1,0,0:0:0:40:tp1_08.wav
329,192,41969,1,0,0:0:0:40:tp1_09.wav
256,192,42053,1,0,0:0:0:0:
475,192,42053,1,0,0:0:0:40:tp1_08.wav
36,192,42053,1,0,0:0:0:60:bd_8c.wav
402,192,42136,1,0,0:0:0:40:tp1_07.wav
109,192,42219,1,0,0:0:0:40:tp1_06.wav
329,192,42219,1,0,0:0:0:60:bd_8c.wav
182,192,42303,1,0,0:0:0:40:tp1_04.wav
475,192,42386,1,0,0:0:0:40:tp1_07.wav
256,192,42386,1,0,0:0:0:60:cym_8c.wav
36,192,42386,1,0,0:0:0:60:bd_8c.wav
402,192,42469,1,0,0:0:0:40:tp1_06.wav
182,192,42553,1,0,0:0:0:40:tp1_04.wav
36,192,42553,1,0,0:0:0:60:bd_8c.wav
329,192,42553,1,0,0:0:0:60:cym_8c.wav
109,192,42636,1,0,0:0:0:40:tp1_01.wav
402,192,42719,1,0,0:0:0:0:
256,192,42719,1,0,0:0:0:0:
36,192,42719,1,2,0:0:0:0:
475,192,42719,1,0,0:0:0:60:cym_8c.wav
36,192,43052,1,2,0:0:0:0:
182,192,43052,1,0,0:0:0:0:
329,192,43052,1,0,0:0:0:0:
402,192,43052,1,0,0:0:0:60:cym_8c.wav
109,192,43552,1,2,0:0:0:0:
182,192,43552,1,0,0:0:0:0:
329,192,43552,1,0,0:0:0:0:
475,192,43552,1,0,0:0:0:60:cym_8c.wav
182,192,43885,1,0,0:0:0:0:
329,192,43885,1,0,0:0:0:0:
36,192,43885,1,0,0:0:0:60:bd_8c.wav
402,192,43885,1,0,0:0:0:60:cym_16c.wav
256,192,44052,1,0,0:0:0:0:
329,192,44052,1,0,0:0:0:0:
475,192,44052,1,0,0:0:0:60:cym_16c.wav
109,192,44052,1,0,0:0:0:60:bd_8c.wav
182,192,44219,1,0,0:0:0:0:
256,192,44219,1,0,0:0:0:0:
402,192,44219,1,0,0:0:0:60:cym_16c.wav
36,192,44219,1,0,0:0:0:60:bd_8c.wav
109,192,44385,1,0,0:0:0:60:bd_8c.wav
329,192,44385,1,0,0:0:0:60:cym_16c.wav
475,192,44552,1,0,0:0:0:60:bd_32c.wav
36,192,44552,1,0,0:0:0:60:cym_16c.wav
402,192,44594,1,0,0:0:0:60:bd_32c.wav
329,192,44635,1,0,0:0:0:60:bd_32c.wav
256,192,44677,1,0,0:0:0:60:bd_32c.wav
182,192,44719,1,0,0:0:0:0:
402,192,44719,1,0,0:0:0:0:
36,192,44719,1,0,0:0:0:60:bd_8c.wav
475,192,44719,1,0,0:0:0:60:cym_16c.wav
182,192,44885,1,0,0:0:0:0:
402,192,44885,1,0,0:0:0:0:
36,192,44885,1,0,0:0:0:60:bd_8c.wav
475,192,44885,1,0,0:0:0:60:cym_16c.wav
109,192,45052,1,0,0:0:0:0:
329,192,45052,1,0,0:0:0:0:
36,192,45052,1,0,0:0:0:60:bd_8c.wav
475,192,45052,1,0,0:0:0:60:cym_16c.wav
109,192,45219,1,0,0:0:0:0:
36,192,45219,1,2,0:0:0:0:
329,192,45219,1,0,0:0:0:0:
475,192,45219,1,0,0:0:0:60:cym_16c.wav
109,192,45552,1,2,0:0:0:0:
329,192,45552,1,0,0:0:0:0:
182,192,45552,1,0,0:0:0:0:
402,192,45552,1,0,0:0:0:60:cym_8c.wav
109,192,45885,1,0,0:0:0:0:
402,192,45885,1,0,0:0:0:0:
475,192,45885,1,0,0:0:0:60:cym_16c2.wav
36,192,45885,1,0,0:0:0:60:bd_8c.wav
182,192,46052,1,0,0:0:0:0:
329,192,46052,1,0,0:0:0:0:
109,192,46052,1,0,0:0:0:60:bd_8c.wav
402,192,46052,1,0,0:0:0:60:cym_16c2.wav
256,192,46135,1,0,0:0:0:0:
109,192,46219,1,0,0:0:0:0:
329,192,46219,1,0,0:0:0:0:
36,192,46219,1,0,0:0:0:60:bd_16c.wav
182,192,46302,1,0,0:0:0:0:
402,192,46302,1,0,0:0:0:0:
256,192,46302,1,0,0:0:0:60:bd_16c.wav
109,192,46385,1,0,0:0:0:0:
329,192,46385,1,0,0:0:0:0:
36,192,46385,1,0,0:0:0:60:bd_8c.wav
475,192,46385,1,0,0:0:0:60:cym_16c2.wav
182,192,46552,1,0,0:0:0:0:
329,192,46552,1,0,0:0:0:0:
402,192,46552,1,0,0:0:0:60:cym_16c2.wav
109,192,46552,1,0,0:0:0:60:bd_8c.wav
36,192,46718,1,2,0:0:0:0:
329,192,46718,1,0,0:0:0:0:
182,192,46718,1,0,0:0:0:0:
475,192,46718,1,0,0:0:0:60:cym_8c.wav
109,192,47052,5,2,0:0:0:0:
256,192,47052,1,0,0:0:0:0:
329,192,47052,1,0,0:0:0:0:
475,192,47052,1,0,0:0:0:60:cym_8c.wav
36,192,47552,1,2,0:0:0:0:
182,192,47552,1,0,0:0:0:0:
329,192,47552,1,0,0:0:0:0:
402,192,47552,1,0,0:0:0:60:cym_8c.wav
182,192,47885,1,0,0:0:0:0:
256,192,47885,1,0,0:0:0:0:
109,192,47885,1,0,0:0:0:60:bd_8c.wav
402,192,47885,1,0,0:0:0:60:cym_16c.wav
182,192,48052,1,0,0:0:0:0:
329,192,48052,1,0,0:0:0:0:
475,192,48052,1,0,0:0:0:60:cym_16c.wav
36,192,48052,1,0,0:0:0:60:bd_8c.wav
329,192,48218,1,0,0:0:0:0:
256,192,48218,1,0,0:0:0:0:
109,192,48218,1,0,0:0:0:60:bd_8c.wav
402,192,48218,1,0,0:0:0:60:cym_16c.wav
182,192,48385,1,0,0:0:0:0:
402,192,48385,1,0,0:0:0:60:cym_16c.wav
109,192,48385,1,0,0:0:0:60:bd_8c.wav
36,192,48552,1,0,0:0:0:60:bd_32c.wav
475,192,48552,1,0,0:0:0:60:cym_16c.wav
109,192,48593,1,0,0:0:0:60:bd_32c.wav
182,192,48635,1,0,0:0:0:60:bd_32c.wav
256,192,48677,1,0,0:0:0:60:bd_32c.wav
329,192,48718,1,0,0:0:0:0:
109,192,48718,1,0,0:0:0:0:
475,192,48718,1,0,0:0:0:60:cym_16c.wav
36,192,48718,1,0,0:0:0:60:bd_8c.wav
109,192,48885,1,0,0:0:0:0:
329,192,48885,1,0,0:0:0:0:
36,192,48885,1,0,0:0:0:60:bd_8c.wav
475,192,48885,1,0,0:0:0:60:cym_16c.wav
402,192,49052,1,0,0:0:0:0:
256,192,49052,1,0,0:0:0:0:
475,192,49052,1,0,0:0:0:60:cym_16c.wav
182,192,49052,1,0,0:0:0:60:bd_8c.wav
402,192,49218,1,0,0:0:0:0:
256,192,49218,1,0,0:0:0:0:
182,192,49218,1,2,0:0:0:0:
475,192,49218,1,0,0:0:0:60:cym_16c.wav
109,192,49552,1,2,0:0:0:0:
182,192,49552,1,0,0:0:0:0:
329,192,49552,1,0,0:0:0:0:
402,192,49552,1,0,0:0:0:60:cym_8c.wav
36,192,49885,1,2,0:0:0:0:
109,192,49885,1,0,0:0:0:0:
256,192,49885,1,0,0:0:0:0:
329,192,49885,1,0,0:0:0:60:cym_16c.wav
475,192,50052,1,0,0:0:0:0:
36,192,50052,1,0,0:0:0:60:bd_24c.wav
402,192,50052,1,0,0:0:0:60:cym_24c.wav
475,192,50163,1,0,0:0:0:0:
109,192,50163,1,0,0:0:0:60:bd_24c.wav
402,192,50163,1,0,0:0:0:60:cym_24c.wav
475,192,50274,1,0,0:0:0:0:
182,192,50274,1,0,0:0:0:60:bd_24c.wav
402,192,50274,1,0,0:0:0:60:cym_24c.wav
36,192,50385,1,0,0:0:0:0:
256,192,50385,1,0,0:0:0:60:bd_24c.wav
109,192,50385,1,0,0:0:0:60:cym_24c.wav
36,192,50496,1,0,0:0:0:0:
329,192,50496,1,0,0:0:0:60:bd_24c.wav
109,192,50496,1,0,0:0:0:60:cym_24c.wav
36,192,50607,1,0,0:0:0:0:
402,192,50607,1,0,0:0:0:60:bd_24c.wav
109,192,50607,1,0,0:0:0:60:cym_24c.wav
36,192,50718,1,0,0:0:0:0:
109,192,50718,1,4,0:0:0:0:
475,192,50718,1,2,0:0:0:0:
256,192,50718,128,0,52385:0:0:0:0:
475,192,50885,1,0,0:0:0:0:
182,192,50968,1,0,0:0:0:0:
329,192,51052,1,2,0:0:0:0:
36,192,51052,1,0,0:0:0:0:
109,192,51052,1,0,0:0:0:0:
182,192,51218,1,0,0:0:0:0:
329,192,51302,1,0,0:0:0:0:
475,192,51385,1,0,0:0:0:0:
36,192,51385,1,2,0:0:0:0:
109,192,51552,1,0,0:0:0:0:
182,192,51552,1,0,0:0:0:0:
329,192,51635,1,0,0:0:0:0:
36,192,51718,1,0,0:0:0:0:
475,192,51718,1,2,0:0:0:0:
402,192,51885,1,0,0:0:0:0:
329,192,51885,1,0,0:0:0:0:
182,192,51968,1,0,0:0:0:0:
36,192,52052,1,2,0:0:0:0:
475,192,52052,1,0,0:0:0:0:
109,192,52052,1,0,0:0:0:0:
182,192,52218,1,0,0:0:0:0:
329,192,52218,1,0,0:0:0:0:
109,192,52302,1,0,0:0:0:0:
36,192,52385,1,4,0:0:0:0:
402,192,52385,1,0,0:0:0:0:
329,192,52385,128,0,52468:0:0:0:0:
475,192,52385,1,0,0:0:0:60:bd_8c.wav
256,192,52468,128,0,52552:0:0:0:0:
329,192,52552,1,0,0:0:0:0:
182,192,52552,128,0,52635:0:0:0:0:
402,192,52552,1,0,0:0:0:60:bd_8c.wav
109,192,52635,128,0,52718:0:0:0:0:
36,192,52718,128,0,54385:0:0:0:0:
256,192,52718,1,4,0:0:0:0:
475,192,52718,1,2,0:0:0:0:
329,192,52718,1,0,0:0:0:0:
329,192,52885,1,0,0:0:0:0:
475,192,52885,1,0,0:0:0:0:
182,192,52968,1,0,0:0:0:0:
109,192,53052,1,0,0:0:0:0:
256,192,53052,1,2,0:0:0:0:
109,192,53218,1,0,0:0:0:0:
256,192,53218,1,0,0:0:0:0:
329,192,53302,1,0,0:0:0:0:
475,192,53385,1,2,0:0:0:0:
182,192,53385,1,0,0:0:0:0:
402,192,53552,1,0,0:0:0:0:
256,192,53552,1,0,0:0:0:0:
182,192,53635,1,0,0:0:0:0:
109,192,53718,1,0,0:0:0:0:
475,192,53718,1,2,0:0:0:0:
329,192,53885,1,0,0:0:0:0:
182,192,53885,1,0,0:0:0:0:
109,192,53968,1,0,0:0:0:0:
402,192,54052,1,4,0:0:0:0:
475,192,54052,1,0,0:0:0:60:bd_8c.wav
256,192,54052,1,0,0:0:0:0:
109,192,54135,1,0,0:0:0:0:
182,192,54218,1,0,0:0:0:0:
475,192,54218,1,0,0:0:0:60:bd_8c.wav
256,192,54302,1,0,0:0:0:0:
329,192,54385,1,4,0:0:0:0:
475,192,54385,1,2,0:0:0:0:
109,192,54385,128,0,54468:0:0:0:0:
402,192,54385,1,0,0:0:0:0:
182,192,54468,128,0,54552:0:0:0:0:
256,192,54552,128,0,54635:0:0:0:0:
329,192,54635,128,0,54718:0:0:0:0:
182,192,54718,1,0,0:0:0:0:
475,192,54718,1,2,0:0:0:0:
402,192,54718,1,0,0:0:0:0:
36,192,54718,1,0,0:0:0:60:cym_8c.wav
402,192,55052,1,2,0:0:0:0:
329,192,55052,1,0,0:0:0:0:
182,192,55052,1,0,0:0:0:0:
109,192,55052,1,0,0:0:0:60:cym_8c.wav
182,192,55552,1,0,0:0:0:0:
329,192,55552,1,0,0:0:0:0:
475,192,55552,1,2,0:0:0:0:
36,192,55552,1,0,0:0:0:60:cym_8c.wav
256,192,55885,1,0,0:0:0:0:
182,192,55885,1,0,0:0:0:0:
36,192,55885,1,0,0:0:0:60:cym_16c.wav
402,192,55885,1,0,0:0:0:60:bd_8c.wav
256,192,56052,1,0,0:0:0:0:
329,192,56052,1,0,0:0:0:0:
109,192,56052,1,0,0:0:0:60:cym_16c.wav
475,192,56052,1,0,0:0:0:60:bd_8c.wav
182,192,56218,1,0,0:0:0:0:
256,192,56218,1,0,0:0:0:0:
402,192,56218,1,0,0:0:0:60:bd_8c.wav
36,192,56218,1,0,0:0:0:60:cym_16c.wav
256,192,56385,1,0,0:0:0:0:
182,192,56385,1,0,0:0:0:0:
36,192,56385,1,0,0:0:0:60:cym_16c.wav
402,192,56385,1,0,0:0:0:60:bd_8c.wav
329,192,56552,1,0,0:0:0:0:
36,192,56552,1,0,0:0:0:60:cym_16c.wav
402,192,56552,1,0,0:0:0:60:bd_16c.wav
182,192,56635,1,0,0:0:0:0:
256,192,56635,1,0,0:0:0:60:bd_16c.wav
402,192,56718,1,0,0:0:0:0:
475,192,56718,1,0,0:0:0:60:bd_8c.wav
109,192,56718,1,0,0:0:0:60:cym_8c.wav
109,192,56885,1,0,0:0:0:0:
182,192,56885,1,0,0:0:0:0:
475,192,56885,1,0,0:0:0:60:bd_16c.wav
402,192,56968,1,0,0:0:0:0:
329,192,56968,1,0,0:0:0:60:bd_16c.wav
256,192,57052,1,0,0:0:0:0:
182,192,57052,1,0,0:0:0:60:bd_8c.wav
36,192,57052,1,0,0:0:0:60:cym_8c.wav
329,192,57218,1,0,0:0:0:0:
402,192,57218,1,0,0:0:0:0:
36,192,57218,1,0,0:0:0:60:bd_16c.wav
109,192,57302,1,0,0:0:0:0:
182,192,57302,1,0,0:0:0:60:bd_16c.wav
256,192,57385,1,0,0:0:0:0:
329,192,57385,1,0,0:0:0:60:bd_8c.wav
475,192,57385,1,0,0:0:0:60:cym_8c.wav
182,192,57552,1,0,0:0:0:0:
109,192,57552,1,0,0:0:0:0:
475,192,57552,1,0,0:0:0:60:bd_16c.wav
329,192,57635,1,0,0:0:0:0:
256,192,57635,1,0,0:0:0:60:bd_16c.wav
109,192,57718,1,0,0:0:0:0:
36,192,57718,1,0,0:0:0:60:bd_8c.wav
402,192,57718,1,0,0:0:0:60:cym_16c.wav
36,192,57885,1,0,0:0:0:60:bd_8c.wav
329,192,57885,1,0,0:0:0:60:cym_16c.wav
109,192,57885,1,0,0:0:0:0:
109,192,58052,1,0,0:0:0:0:
256,192,58052,1,0,0:0:0:60:cym_16c.wav
36,192,58052,1,0,0:0:0:60:bd_8c.wav
475,192,58218,1,0,0:0:0:0:
109,192,58218,1,0,0:0:0:60:cym_16c.wav
402,192,58218,1,0,0:0:0:60:bd_8c.wav
475,192,58385,1,0,0:0:0:0:
182,192,58385,1,0,0:0:0:60:cym_16c.wav
402,192,58385,1,0,0:0:0:60:bd_8c.wav
475,192,58552,1,0,0:0:0:0:
256,192,58552,1,0,0:0:0:60:cym_16c.wav
402,192,58552,1,0,0:0:0:60:bd_8c.wav
402,192,58718,1,2,0:0:0:0:
475,192,58718,1,0,0:0:0:0:
182,192,58718,1,0,0:0:0:0:
36,192,58718,1,0,0:0:0:60:cym_8c.wav
329,192,58801,1,0,0:0:0:0:
182,192,58884,1,0,0:0:0:0:
329,192,58968,1,0,0:0:0:0:
182,192,59051,1,0,0:0:0:0:
109,192,59218,1,0,0:0:0:0:
475,192,59218,1,0,0:0:0:0:
36,192,59218,1,0,0:0:0:60:cym_8c.wav
329,192,59218,1,2,0:0:0:0:
182,192,59301,1,0,0:0:0:0:
329,192,59384,1,0,0:0:0:0:
182,192,59468,1,0,0:0:0:0:
329,192,59551,1,0,0:0:0:0:
402,192,59718,1,0,0:0:0:0:
182,192,59718,1,0,0:0:0:0:
475,192,59718,1,2,0:0:0:0:
36,192,59718,1,0,0:0:0:60:cym_8c.wav
329,192,59801,1,0,0:0:0:0:
109,192,59884,1,0,0:0:0:0:
256,192,59968,1,0,0:0:0:0:
402,192,60051,1,0,0:0:0:0:
182,192,60051,1,0,0:0:0:0:
36,192,60051,1,0,0:0:0:60:cym_8c.wav
475,192,60051,1,2,0:0:0:0:
329,192,60134,1,0,0:0:0:0:
182,192,60218,1,0,0:0:0:0:
329,192,60301,1,0,0:0:0:0:
182,192,60384,1,0,0:0:0:0:
109,192,60551,1,0,0:0:0:0:
329,192,60551,1,0,0:0:0:0:
475,192,60551,1,2,0:0:0:0:
36,192,60551,1,0,0:0:0:60:cym_16c2.wav
182,192,60634,1,0,0:0:0:0:
329,192,60718,1,0,0:0:0:0:
402,192,60718,1,0,0:0:0:0:
182,192,60801,1,0,0:0:0:0:
109,192,60801,1,0,0:0:0:0:
329,192,60884,1,0,0:0:0:0:
36,192,60884,1,0,0:0:0:60:cym_16c2.wav
475,192,60884,1,2,0:0:0:0:
109,192,61051,1,0,0:0:0:0:
256,192,61051,1,0,0:0:0:0:
329,192,61218,1,0,0:0:0:0:
182,192,61218,1,0,0:0:0:60:cym_16c2.wav
475,192,61218,1,2,0:0:0:0:
256,192,61384,1,4,0:0:0:0:
475,192,61384,1,2,0:0:0:0:
36,192,61384,1,0,0:0:0:40:th3_04.wav
109,192,61468,1,0,0:0:0:40:th3_01.wav
402,192,61551,1,0,0:0:0:0:
182,192,61551,1,0,0:0:0:40:th3_04.wav
256,192,61634,1,0,0:0:0:40:th3_05.wav
109,192,61718,1,0,0:0:0:40:th3_06.wav
329,192,61718,1,8,0:0:0:0:
182,192,61801,1,0,0:0:0:40:th3_04.wav
36,192,61884,1,0,0:0:0:0:
256,192,61884,1,0,0:0:0:40:th3_06.wav
329,192,61968,1,0,0:0:0:40:th3_07.wav
182,192,62051,1,0,0:0:0:40:th3_08.wav
402,192,62051,1,0,0:0:0:0:
256,192,62134,1,0,0:0:0:40:th3_07.wav
109,192,62218,1,0,0:0:0:0:
329,192,62218,1,0,0:0:0:40:th3_06.wav
402,192,62301,1,0,0:0:0:40:th3_10.wav
475,192,62384,1,8,0:0:0:0:
256,192,62384,1,0,0:0:0:40:th3_09.wav
182,192,62467,1,0,0:0:0:40:th3_08.wav
329,192,62551,1,0,0:0:0:0:
109,192,62551,1,0,0:0:0:40:th3_07.wav
36,192,62634,1,0,0:0:0:40:th3_06.wav
182,192,62717,1,0,0:0:0:0:
475,192,62717,1,0,0:0:0:40:th3_07.wav
402,192,62801,1,0,0:0:0:40:th3_06.wav
36,192,62884,1,0,0:0:0:0:
329,192,62884,1,0,0:0:0:40:th3_05.wav
256,192,62967,1,0,0:0:0:40:th3_07.wav
182,192,63051,1,8,0:0:0:0:
402,192,63051,1,0,0:0:0:40:th3_06.wav
329,192,63134,1,0,0:0:0:40:th3_05.wav
475,192,63217,1,0,0:0:0:0:
256,192,63217,1,0,0:0:0:40:th3_04.wav
182,192,63301,1,0,0:0:0:40:th3_03.wav
109,192,63384,1,0,0:0:0:0:
329,192,63384,1,0,0:0:0:40:th3_04.wav
256,192,63467,1,0,0:0:0:40:th3_05.wav
402,192,63551,1,0,0:0:0:0:
182,192,63551,1,0,0:0:0:40:th3_06.wav
109,192,63634,1,0,0:0:0:40:th3_04.wav
36,192,63717,1,8,0:0:0:0:
256,192,63717,1,0,0:0:0:60:th3_08.wav
329,192,63801,1,0,0:0:0:40:th3_07.wav
182,192,63884,1,0,0:0:0:0:
402,192,63884,1,0,0:0:0:40:th3_06.wav
475,192,63967,1,0,0:0:0:40:th3_07.wav
256,192,64051,1,0,0:0:0:0:
36,192,64051,1,0,0:0:0:60:grc_01.wav
36,192,64217,1,0,0:0:0:0:
256,192,64217,1,0,0:0:0:0:
182,192,64384,1,8,0:0:0:0:
402,192,64384,1,0,0:0:0:60:grc_02.wav
182,192,64551,1,0,0:0:0:0:
402,192,64551,1,0,0:0:0:0:
329,192,64717,1,0,0:0:0:0:
36,192,64717,1,0,0:0:0:60:grc_01.wav
109,192,64884,1,0,0:0:0:0:
329,192,64884,1,0,0:0:0:0:
182,192,65051,1,8,0:0:0:0:
402,192,65051,1,0,0:0:0:60:grc_03.wav
182,192,65217,1,0,0:0:0:0:
475,192,65217,1,0,0:0:0:0:
475,192,65384,1,0,0:0:0:0:
256,192,65384,1,0,0:0:0:60:grc_04.wav
256,192,65551,1,0,0:0:0:0:
475,192,65551,1,0,0:0:0:0:
109,192,65718,1,8,0:0:0:0:
329,192,65718,1,0,0:0:0:60:grc_03.wav
109,192,65884,1,0,0:0:0:0:
329,192,65884,1,0,0:0:0:0:
182,192,66051,1,0,0:0:0:0:
475,192,66051,1,0,0:0:0:60:grc_08.wav
402,192,66217,1,0,0:0:0:0:
182,192,66217,1,0,0:0:0:0:
109,192,66384,1,8,0:0:0:0:
329,192,66384,1,0,0:0:0:60:grc_03.wav
36,192,66551,1,0,0:0:0:0:
329,192,66551,1,0,0:0:0:0:
36,192,66717,1,0,0:0:0:0:
475,192,66717,1,0,0:0:0:40:th3_04.wav
402,192,66801,1,0,0:0:0:40:th3_01.wav
109,192,66884,1,0,0:0:0:0:
329,192,66884,1,0,0:0:0:40:th3_04.wav
256,192,66967,1,0,0:0:0:40:th3_05.wav
182,192,67051,1,8,0:0:0:0:
402,192,67051,1,0,0:0:0:40:th3_06.wav
329,192,67134,1,0,0:0:0:40:th3_04.wav
475,192,67217,1,0,0:0:0:0:
256,192,67217,1,0,0:0:0:40:th3_06.wav
182,192,67301,1,0,0:0:0:40:th3_07.wav
109,192,67384,1,0,0:0:0:0:
329,192,67384,1,0,0:0:0:60:th3_08.wav
256,192,67467,1,0,0:0:0:40:th3_07.wav
402,192,67551,1,0,0:0:0:0:
182,192,67551,1,0,0:0:0:40:th3_06.wav
109,192,67634,1,0,0:0:0:40:th3_10.wav
36,192,67717,1,8,0:0:0:0:
256,192,67717,1,0,0:0:0:40:th3_09.wav
329,192,67801,1,0,0:0:0:60:th3_08.wav
182,192,67884,1,0,0:0:0:0:
402,192,67884,1,0,0:0:0:40:th3_07.wav
475,192,67967,1,0,0:0:0:40:th3_06.wav
329,192,68051,1,0,0:0:0:0:
36,192,68051,1,0,0:0:0:40:th3_07.wav
109,192,68134,1,0,0:0:0:40:th3_06.wav
475,192,68217,1,0,0:0:0:0:
182,192,68217,1,0,0:0:0:40:th3_05.wav
256,192,68301,1,0,0:0:0:40:th3_07.wav
329,192,68384,1,8,0:0:0:0:
109,192,68384,1,0,0:0:0:40:th3_06.wav
182,192,68467,1,0,0:0:0:40:th3_05.wav
36,192,68551,1,0,0:0:0:0:
256,192,68551,1,0,0:0:0:40:th3_04.wav
329,192,68634,1,0,0:0:0:40:th3_03.wav
402,192,68717,1,0,0:0:0:0:
182,192,68717,1,0,0:0:0:40:th3_04.wav
256,192,68801,1,0,0:0:0:40:th3_05.wav
109,192,68884,1,0,0:0:0:0:
329,192,68884,1,0,0:0:0:40:th3_06.wav
402,192,68967,1,0,0:0:0:40:th3_04.wav
475,192,69051,1,8,0:0:0:0:
256,192,69051,1,0,0:0:0:60:th3_08.wav
182,192,69134,1,0,0:0:0:40:th3_07.wav
329,192,69217,1,0,0:0:0:0:
109,192,69217,1,0,0:0:0:40:th3_06.wav
36,192,69301,1,0,0:0:0:40:th3_07.wav
182,192,69384,1,0,0:0:0:0:
475,192,69384,1,0,0:0:0:60:grc_01.wav
402,192,69551,1,0,0:0:0:0:
256,192,69551,1,0,0:0:0:0:
329,192,69717,1,8,0:0:0:0:
36,192,69717,1,0,0:0:0:60:grc_02.wav
109,192,69884,1,0,0:0:0:0:
256,192,69884,1,0,0:0:0:0:
182,192,70051,1,0,0:0:0:0:
475,192,70051,1,0,0:0:0:60:grc_01.wav
402,192,70217,1,0,0:0:0:0:
36,192,70217,1,0,0:0:0:0:
329,192,70384,1,8,0:0:0:0:
109,192,70384,1,0,0:0:0:60:grc_03.wav
182,192,70551,1,0,0:0:0:0:
475,192,70551,1,0,0:0:0:0:
256,192,70717,1,0,0:0:0:0:
36,192,70717,1,0,0:0:0:60:bd_dr.wav
109,192,70717,1,0,0:0:0:60:cym_8ss.wav
402,192,70717,1,0,0:0:0:60:grc_04.wav
329,192,70801,1,0,0:0:0:0:
402,192,70884,1,0,0:0:0:0:
182,192,70884,1,0,0:0:0:0:
109,192,71051,1,0,0:0:0:0:
475,192,71051,1,0,0:0:0:60:grc_03.wav
182,192,71217,1,0,0:0:0:0:
329,192,71217,1,0,0:0:0:0:
256,192,71384,1,0,0:0:0:0:
475,192,71384,1,0,0:0:0:60:bd_dr.wav
402,192,71384,1,0,0:0:0:60:cym_8ss.wav
109,192,71384,1,0,0:0:0:60:grc_08.wav
182,192,71467,1,0,0:0:0:0:
109,192,71551,1,0,0:0:0:0:
329,192,71551,1,0,0:0:0:0:
256,192,71717,1,0,0:0:0:60:bd_32c.wav
402,192,71717,1,0,0:0:0:60:cym_4c.wav
182,192,71759,1,0,0:0:0:60:bd_32c.wav
109,192,71801,1,0,0:0:0:60:bd_32c.wav
36,192,71842,1,0,0:0:0:60:bd_32c.wav
475,192,71884,1,0,0:0:0:0:
329,192,71884,1,0,0:0:0:60:bd_32c.wav
256,192,71926,1,0,0:0:0:60:bd_32c.wav
182,192,71967,1,0,0:0:0:60:bd_32c.wav
109,192,72009,1,0,0:0:0:60:bd_32c.wav
36,192,72051,1,2,0:0:0:0:
475,192,72051,1,4,0:0:0:0:
329,192,72051,1,0,0:0:0:60:grc_01.wav
182,192,72134,1,0,0:0:0:0:
329,192,72217,1,0,0:0:0:0:
182,192,72301,1,0,0:0:0:0:
475,192,72384,1,8,0:0:0:0:
329,192,72384,1,0,0:0:0:0:
36,192,72384,1,0,0:0:0:60:grc_02.wav
36,192,72717,1,0,0:0:0:0:
475,192,72717,1,0,0:0:0:0:
182,192,72717,1,0,0:0:0:60:grc_01.wav
329,192,72801,1,0,0:0:0:0:
182,192,72884,1,0,0:0:0:0:
329,192,72967,1,0,0:0:0:0:
36,192,73051,1,8,0:0:0:0:
182,192,73051,1,0,0:0:0:0:
475,192,73051,1,0,0:0:0:60:grc_03.wav
402,192,73134,1,0,0:0:0:0:
329,192,73217,1,0,0:0:0:0:
109,192,73217,1,0,0:0:0:0:
256,192,73301,1,0,0:0:0:0:
475,192,73384,1,0,0:0:0:0:
36,192,73384,1,0,0:0:0:0:
182,192,73384,1,0,0:0:0:60:grc_04.wav
329,192,73467,1,0,0:0:0:0:
182,192,73551,1,0,0:0:0:0:
329,192,73634,1,0,0:0:0:0:
475,192,73717,1,8,0:0:0:0:
182,192,73717,1,0,0:0:0:0:
36,192,73717,1,0,0:0:0:60:grc_05.wav
402,192,74051,1,0,0:0:0:0:
36,192,74051,1,0,0:0:0:0:
109,192,74051,1,0,0:0:0:60:grc_06.wav
256,192,74134,1,0,0:0:0:0:
402,192,74217,1,0,0:0:0:0:
256,192,74301,1,0,0:0:0:0:
109,192,74384,1,8,0:0:0:0:
402,192,74384,1,0,0:0:0:0:
475,192,74384,1,0,0:0:0:60:grc_07.wav
182,192,74467,1,0,0:0:0:0:
256,192,74551,1,0,0:0:0:0:
329,192,74634,1,0,0:0:0:0:
402,192,74717,1,0,0:0:0:0:
109,192,74717,1,0,0:0:0:0:
36,192,74717,1,0,0:0:0:60:grc_01.wav
256,192,74801,1,0,0:0:0:0:
402,192,74884,1,0,0:0:0:0:
256,192,74967,1,0,0:0:0:0:
109,192,75051,1,0,0:0:0:0:
402,192,75051,1,0,0:0:0:60:grc_02.wav
475,192,75051,1,8,0:0:0:0:
475,192,75384,1,0,0:0:0:0:
402,192,75384,1,0,0:0:0:0:
109,192,75384,1,0,0:0:0:60:grc_01.wav
256,192,75467,1,0,0:0:0:0:
109,192,75551,1,0,0:0:0:0:
256,192,75634,1,0,0:0:0:0:
402,192,75717,1,0,0:0:0:0:
36,192,75717,1,8,0:0:0:0:
475,192,75717,1,0,0:0:0:60:grc_03.wav
329,192,75801,1,0,0:0:0:0:
256,192,75884,1,0,0:0:0:0:
182,192,75967,1,0,0:0:0:0:
475,192,76051,1,0,0:0:0:0:
36,192,76051,1,0,0:0:0:0:
109,192,76051,1,0,0:0:0:60:grc_04.wav
36,192,76217,1,0,0:0:0:0:
109,192,76217,1,0,0:0:0:0:
182,192,76301,1,0,0:0:0:0:
402,192,76384,1,0,0:0:0:0:
475,192,76384,1,8,0:0:0:0:
256,192,76384,1,0,0:0:0:60:grc_03.wav
109,192,76467,1,0,0:0:0:0:
182,192,76551,1,0,0:0:0:0:
256,192,76634,1,0,0:0:0:0:
329,192,76717,1,0,0:0:0:0:
36,192,76717,1,0,0:0:0:0:
402,192,76717,1,0,0:0:0:60:grc_08.wav
182,192,76801,1,0,0:0:0:0:
109,192,76884,1,0,0:0:0:0:
256,192,76967,1,0,0:0:0:0:
329,192,77051,1,0,0:0:0:0:
475,192,77051,1,8,0:0:0:0:
182,192,77051,1,0,0:0:0:60:grc_03.wav
402,192,77217,1,0,0:0:0:0:
36,192,77384,1,2,0:0:0:0:
256,192,77384,1,0,0:0:0:0:
475,192,77384,1,4,0:0:0:0:
109,192,77384,1,0,0:0:0:60:grc_01.wav
402,192,77467,1,0,0:0:0:0:
182,192,77551,1,0,0:0:0:0:
329,192,77634,1,0,0:0:0:0:
109,192,77717,1,0,0:0:0:0:
475,192,77717,1,8,0:0:0:0:
256,192,77717,1,0,0:0:0:60:grc_02.wav
475,192,78051,1,4,0:0:0:0:
36,192,78051,1,2,0:0:0:0:
256,192,78051,1,0,0:0:0:0:
402,192,78051,1,0,0:0:0:60:grc_01.wav
109,192,78134,1,0,0:0:0:0:
329,192,78217,1,0,0:0:0:0:
182,192,78301,1,0,0:0:0:0:
402,192,78384,1,0,0:0:0:0:
36,192,78384,1,8,0:0:0:0:
256,192,78384,1,0,0:0:0:60:grc_03.wav
256,192,78551,1,0,0:0:0:0:
109,192,78551,1,0,0:0:0:60:bd_8c.wav
402,192,78551,1,0,0:0:0:60:cym_24c.wav
36,192,78717,1,2,0:0:0:0:
475,192,78717,1,4,0:0:0:0:
329,192,78717,1,0,0:0:0:0:
182,192,78717,1,0,0:0:0:60:grc_04.wav
256,192,78801,1,0,0:0:0:0:
109,192,78884,1,0,0:0:0:0:
329,192,78967,1,0,0:0:0:0:
475,192,79051,1,8,0:0:0:0:
182,192,79051,1,0,0:0:0:0:
36,192,79051,1,0,0:0:0:60:grc_05.wav
36,192,79384,1,2,0:0:0:0:
182,192,79384,1,0,0:0:0:0:
475,192,79384,1,4,0:0:0:0:
329,192,79384,1,0,0:0:0:60:grc_06.wav
256,192,79467,1,0,0:0:0:0:
402,192,79551,1,0,0:0:0:0:
182,192,79634,1,0,0:0:0:0:
329,192,79717,1,0,0:0:0:0:
475,192,79717,1,0,0:0:0:60:grc_07.wav
36,192,79717,1,8,0:0:0:0:
256,192,79884,1,0,0:0:0:0:
109,192,79884,1,0,0:0:0:60:bd_8c.wav
402,192,79884,1,0,0:0:0:60:cym_24c.wav
109,192,80051,1,0,0:0:0:0:
475,192,80051,1,0,0:0:0:60:cym_4c.wav
36,192,80051,1,0,0:0:0:60:bd_8c.wav
329,192,80051,1,0,0:0:0:60:grc_01.wav
256,192,80134,1,0,0:0:0:0:
182,192,80217,1,0,0:0:0:0:
109,192,80217,1,0,0:0:0:60:bd_16c.wav
475,192,80301,1,0,0:0:0:0:
402,192,80301,1,0,0:0:0:60:bd_8c.wav
256,192,80384,1,0,0:0:0:60:cym_4c.wav
182,192,80384,1,8,0:0:0:0:
36,192,80467,1,0,0:0:0:0:
109,192,80467,1,0,0:0:0:60:bd_16c.wav
402,192,80551,1,0,0:0:0:0:
329,192,80551,1,0,0:0:0:60:bd_8c.wav
256,192,80717,1,0,0:0:0:0:
36,192,80717,1,0,0:0:0:60:bd_8c.wav
329,192,80717,1,0,0:0:0:60:grc_01.wav
475,192,80717,1,0,0:0:0:60:cym_4c.wav
182,192,80801,1,0,0:0:0:0:
402,192,80884,1,0,0:0:0:0:
109,192,80884,1,0,0:0:0:0:
329,192,80884,1,0,0:0:0:0:
36,192,81051,1,8,0:0:0:0:
182,192,81051,1,0,0:0:0:60:bd_8c.wav
256,192,81051,1,0,0:0:0:60:grc_03.wav
475,192,81051,1,0,0:0:0:60:cym_4c.wav
329,192,81134,1,0,0:0:0:0:
109,192,81217,1,0,0:0:0:0:
402,192,81217,1,0,0:0:0:0:
182,192,81217,1,0,0:0:0:60:bd_8c.wav
256,192,81301,1,0,0:0:0:0:
36,192,81384,1,0,0:0:0:0:
109,192,81384,1,0,0:0:0:60:bd_dr.wav
475,192,81384,1,0,0:0:0:60:cym_4c.wav
329,192,81384,1,0,0:0:0:0:
329,192,81717,1,2,0:0:0:0:
475,192,81717,1,4,0:0:0:0:
256,192,81717,128,0,81967:0:0:0:0:
182,192,81800,128,0,82050:0:0:0:0:
109,192,81884,128,0,82134:0:0:0:0:
36,192,81967,128,0,82217:0:0:0:0:
329,192,82050,128,0,82300:0:0:0:0:
402,192,82050,1,0,0:0:0:0:
256,192,82134,128,0,82384:0:0:0:0:
182,192,82217,128,0,82467:0:0:0:0:
109,192,82300,128,0,82550:0:0:0:0:
402,192,82384,128,0,82634:0:0:0:0:
475,192,82384,1,0,0:0:0:0:
329,192,82467,128,0,82717:0:0:0:0:
256,192,82550,128,0,82800:0:0:0:0:
36,192,82550,1,0,0:0:0:40:tp1_26.wav
182,192,82634,128,0,82884:0:0:0:0:
475,192,82717,1,0,0:0:0:40:tp1_33.wav
402,192,82800,1,0,0:0:0:0:
329,192,82884,1,0,0:0:0:40:tp1_31.wav
256,192,82967,1,0,0:0:0:0:
475,192,83050,1,2,0:0:0:0:
402,192,83050,1,0,0:0:0:0:
36,192,83050,1,4,0:0:0:0:
182,192,83050,1,0,0:0:0:40:tp1_31.wav
109,192,83216,1,0,0:0:0:0:
329,192,83216,1,0,0:0:0:0:
182,192,83300,1,0,0:0:0:0:
402,192,83300,1,0,0:0:0:40:tp1_32.wav
36,192,83383,1,8,0:0:0:0:
475,192,83383,1,2,0:0:0:0:
256,192,83383,1,0,0:0:0:0:
182,192,83550,1,0,0:0:0:0:
329,192,83550,1,0,0:0:0:40:tp1_32.wav
109,192,83633,1,0,0:0:0:0:
329,192,83716,1,0,0:0:0:0:
475,192,83716,1,2,0:0:0:0:
36,192,83716,1,0,0:0:0:0:
182,192,83800,1,0,0:0:0:0:
402,192,83883,1,0,0:0:0:0:
256,192,83883,1,0,0:0:0:40:tp1_26.wav
475,192,84050,1,2,0:0:0:0:
36,192,84050,1,8,0:0:0:0:
256,192,84050,1,0,0:0:0:40:tp1_37.wav
109,192,84133,1,0,0:0:0:0:
182,192,84216,1,0,0:0:0:0:
402,192,84216,1,0,0:0:0:0:
256,192,84300,1,0,0:0:0:0:
475,192,84383,1,0,0:0:0:0:
329,192,84383,1,0,0:0:0:0:
36,192,84383,1,2,0:0:0:0:
182,192,84550,1,0,0:0:0:0:
402,192,84550,1,0,0:0:0:0:
256,192,84633,1,0,0:0:0:0:
36,192,84716,1,2,0:0:0:0:
109,192,84716,1,8,0:0:0:0:
329,192,84716,1,0,0:0:0:40:tp1_37.wav
402,192,84800,1,0,0:0:0:0:
475,192,84883,1,0,0:0:0:0:
182,192,84883,1,0,0:0:0:0:
36,192,85050,1,2,0:0:0:0:
329,192,85050,1,0,0:0:0:0:
475,192,85050,1,0,0:0:0:40:tp1_42.wav
256,192,85133,1,0,0:0:0:0:
182,192,85216,1,0,0:0:0:0:
402,192,85216,1,0,0:0:0:0:
109,192,85300,1,0,0:0:0:0:
256,192,85383,1,0,0:0:0:40:tp1_40.wav
475,192,85383,1,8,0:0:0:0:
36,192,85383,1,2,0:0:0:0:
402,192,85466,1,0,0:0:0:0:
329,192,85550,1,0,0:0:0:0:
109,192,85550,1,0,0:0:0:0:
256,192,85633,1,0,0:0:0:0:
182,192,85716,1,0,0:0:0:0:
475,192,85716,1,2,0:0:0:0:
36,192,85716,1,0,0:0:0:40:tp1_31.wav
329,192,85883,1,0,0:0:0:0:
109,192,85883,1,0,0:0:0:0:
402,192,85966,1,0,0:0:0:0:
182,192,85966,1,0,0:0:0:40:tp1_32.wav
36,192,86050,1,0,0:0:0:0:
475,192,86050,1,2,0:0:0:0:
256,192,86050,1,8,0:0:0:0:
402,192,86216,1,0,0:0:0:0:
182,192,86216,1,0,0:0:0:40:tp1_32.wav
109,192,86300,1,0,0:0:0:0:
329,192,86383,1,0,0:0:0:0:
36,192,86383,1,0,0:0:0:0:
475,192,86383,1,2,0:0:0:0:
182,192,86466,1,0,0:0:0:0:
402,192,86550,1,0,0:0:0:0:
256,192,86550,1,0,0:0:0:40:tp1_26.wav
36,192,86716,1,8,0:0:0:0:
475,192,86716,1,2,0:0:0:0:
182,192,86716,1,0,0:0:0:40:tp1_37.wav
256,192,86800,1,0,0:0:0:0:
329,192,86883,1,0,0:0:0:0:
109,192,86883,1,0,0:0:0:0:
402,192,86966,1,0,0:0:0:0:
256,192,87050,1,0,0:0:0:0:
475,192,87050,1,0,0:0:0:0:
182,192,87050,1,2,0:0:0:0:
36,192,87216,1,0,0:0:0:0:
329,192,87216,1,0,0:0:0:0:
109,192,87300,1,0,0:0:0:0:
182,192,87383,1,2,0:0:0:0:
402,192,87383,1,0,0:0:0:0:
475,192,87383,1,8,0:0:0:0:
256,192,87466,1,0,0:0:0:0:
329,192,87550,1,0,0:0:0:0:
109,192,87550,1,0,0:0:0:0:
402,192,87716,1,0,0:0:0:0:
256,192,87716,1,0,0:0:0:40:tp1_30.wav
475,192,87716,1,0,0:0:0:60:bd_8c.wav
182,192,87800,1,0,0:0:0:0:
329,192,87883,1,0,0:0:0:40:tp1_31.wav
36,192,87883,1,0,0:0:0:0:
109,192,87883,1,0,0:0:0:60:bd_8c.wav
256,192,87966,1,0,0:0:0:0:
402,192,88050,1,0,0:0:0:40:tp1_32.wav
109,192,88050,1,0,0:0:0:0:
182,192,88050,1,0,0:0:0:60:bd_8c.wav
329,192,88133,1,0,0:0:0:0:
475,192,88216,1,0,0:0:0:40:tp1_33.wav
182,192,88216,1,0,0:0:0:0:
256,192,88216,1,0,0:0:0:60:bd_8c.wav
402,192,88300,1,0,0:0:0:0:
329,192,88383,1,2,0:0:0:0:
36,192,88383,1,0,0:0:0:40:tp1_43.wav
256,192,88383,1,0,0:0:0:0:
182,192,88550,1,0,0:0:0:0:
402,192,88550,1,0,0:0:0:0:
256,192,88633,1,0,0:0:0:0:
36,192,88716,1,2,0:0:0:0:
475,192,88716,1,8,0:0:0:0:
329,192,88716,1,0,0:0:0:40:tp1_26.wav
256,192,88883,1,0,0:0:0:0:
109,192,88883,1,0,0:0:0:40:tp1_43.wav
329,192,88966,1,0,0:0:0:0:
36,192,89050,1,2,0:0:0:0:
182,192,89050,1,0,0:0:0:0:
402,192,89050,1,0,0:0:0:0:
256,192,89133,1,0,0:0:0:0:
109,192,89216,1,0,0:0:0:0:
329,192,89216,1,0,0:0:0:40:tp1_44.wav
182,192,89300,1,0,0:0:0:0:
36,192,89383,1,2,0:0:0:0:
256,192,89383,1,0,0:0:0:0:
475,192,89383,1,8,0:0:0:0:
402,192,89466,1,0,0:0:0:0:
109,192,89550,1,0,0:0:0:0:
182,192,89550,1,0,0:0:0:40:tp1_42.wav
329,192,89633,1,0,0:0:0:0:
36,192,89716,1,0,0:0:0:0:
256,192,89716,1,0,0:0:0:0:
475,192,89716,1,2,0:0:0:0:
182,192,89883,1,0,0:0:0:0:
109,192,89883,1,0,0:0:0:0:
329,192,89966,1,0,0:0:0:0:
256,192,90050,1,8,0:0:0:0:
475,192,90050,1,2,0:0:0:0:
36,192,90050,1,0,0:0:0:40:tp1_41.wav
182,192,90133,1,0,0:0:0:0:
329,192,90216,1,0,0:0:0:0:
402,192,90216,1,0,0:0:0:0:
109,192,90299,1,0,0:0:0:0:
475,192,90383,1,2,0:0:0:0:
402,192,90383,1,0,0:0:0:0:
256,192,90383,1,0,0:0:0:40:tp1_40.wav
182,192,90466,1,0,0:0:0:0:
109,192,90549,1,0,0:0:0:0:
329,192,90549,1,0,0:0:0:0:
36,192,90633,1,0,0:0:0:0:
402,192,90716,1,0,0:0:0:0:
182,192,90716,1,0,0:0:0:40:tp1_41.wav
329,192,90716,1,0,0:0:0:60:bd_8c.wav
475,192,90799,1,0,0:0:0:0:
109,192,90883,1,0,0:0:0:0:
329,192,90883,1,0,0:0:0:0:
256,192,90883,1,0,0:0:0:60:bd_8c.wav
402,192,90966,1,0,0:0:0:0:
182,192,91049,1,2,0:0:0:0:
475,192,91049,1,0,0:0:0:60:cym_8c.wav
36,192,91049,1,0,0:0:0:40:tp1_40.wav
256,192,91049,1,0,0:0:0:0:
329,192,91216,1,0,0:0:0:0:
182,192,91216,1,0,0:0:0:0:
109,192,91299,1,0,0:0:0:0:
475,192,91383,1,0,0:0:0:60:cym_16c2.wav
402,192,91383,1,0,0:0:0:40:tp1_32.wav
256,192,91383,1,0,0:0:0:60:bd_8c.wav
36,192,91466,1,0,0:0:0:0:
182,192,91549,1,2,0:0:0:0:
402,192,91549,1,0,0:0:0:60:cym_16c2.wav
329,192,91549,1,0,0:0:0:40:tp1_33.wav
256,192,91716,1,0,0:0:0:60:cym_16c2.wav
475,192,91799,1,0,0:0:0:0:
329,192,91883,1,2,0:0:0:0:
36,192,91883,1,0,0:0:0:60:cym_16c2.wav
109,192,91883,1,0,0:0:0:40:tp1_40.wav
182,192,91966,1,0,0:0:0:0:
329,192,92049,1,0,0:0:0:0:
182,192,92216,1,0,0:0:0:60:bd_8c.wav
402,192,92216,1,0,0:0:0:60:cym_16c2.wav
329,192,92216,1,0,0:0:0:40:tp1_34.wav
109,192,92299,1,0,0:0:0:0:
256,192,92383,1,0,0:0:0:0:
475,192,92383,1,0,0:0:0:60:cym_16c2.wav
36,192,92383,1,0,0:0:0:60:bd_8c.wav
256,192,92549,1,0,0:0:0:0:
475,192,92549,1,0,0:0:0:60:cym_16c2.wav
36,192,92549,1,0,0:0:0:60:bd_8c.wav
182,192,92633,1,0,0:0:0:0:
329,192,92716,1,0,0:0:0:40:tp1_37.wav
109,192,92716,1,0,0:0:0:60:bd_8c.wav
402,192,92716,1,0,0:0:0:60:cym_8c.wav
256,192,92799,1,0,0:0:0:0:
402,192,92883,1,0,0:0:0:0:
182,192,92883,1,0,0:0:0:60:bd_8c.wav
475,192,92883,1,0,0:0:0:60:cym_8c.wav
109,192,93049,1,0,0:0:0:40:tp1_42.wav
36,192,93049,1,0,0:0:0:60:bd_16c.wav
256,192,93049,1,0,0:0:0:60:cym_8c.wav
402,192,93133,1,0,0:0:0:0:
475,192,93133,1,0,0:0:0:60:bd_16c.wav
109,192,93216,1,0,0:0:0:0:
36,192,93216,1,0,0:0:0:60:bd_16c.wav
402,192,93299,1,0,0:0:0:0:
475,192,93299,1,0,0:0:0:60:bd_16c.wav
36,192,93383,1,0,0:0:0:60:cym_8c.wav
182,192,93383,1,0,0:0:0:60:bd_16c.wav
256,192,93383,1,0,0:0:0:40:tp1_40.wav
402,192,93466,1,0,0:0:0:0:
329,192,93466,1,0,0:0:0:60:bd_16c.wav
182,192,93549,1,0,0:0:0:0:
109,192,93549,1,0,0:0:0:60:bd_16c.wav
329,192,93633,1,0,0:0:0:0:
256,192,93633,1,0,0:0:0:60:bd_16c.wav
402,192,93716,1,0,0:0:0:40:tp1_31.wav
475,192,93716,1,0,0:0:0:60:bd_dr.wav
36,192,93716,1,0,0:0:0:60:cym_16c2.wav
36,192,94049,1,4,0:0:0:0:
182,192,94049,1,8,0:0:0:0:
475,192,94049,1,2,0:0:0:0:
256,192,94216,1,0,0:0:0:0:
329,192,94216,1,0,0:0:0:40:tp1_32.wav
402,192,94299,1,0,0:0:0:0:
182,192,94383,1,2,0:0:0:0:
36,192,94383,1,0,0:0:0:0:
475,192,94466,1,0,0:0:0:0:
109,192,94549,1,0,0:0:0:0:
329,192,94549,1,0,0:0:0:40:tp1_26.wav
475,192,94716,1,8,0:0:0:0:
36,192,94716,1,2,0:0:0:0:
256,192,94716,1,0,0:0:0:40:tp1_37.wav
402,192,94799,1,0,0:0:0:0:
329,192,94883,1,0,0:0:0:0:
256,192,94966,1,0,0:0:0:0:
36,192,95049,1,0,0:0:0:0:
182,192,95049,1,0,0:0:0:0:
475,192,95049,1,2,0:0:0:0:
329,192,95216,1,0,0:0:0:0:
109,192,95216,1,0,0:0:0:0:
256,192,95299,1,0,0:0:0:0:
475,192,95383,1,2,0:0:0:0:
402,192,95383,1,8,0:0:0:0:
182,192,95383,1,0,0:0:0:40:tp1_37.wav
109,192,95466,1,0,0:0:0:0:
36,192,95549,1,0,0:0:0:0:
329,192,95549,1,0,0:0:0:0:
475,192,95716,1,2,0:0:0:0:
182,192,95716,1,0,0:0:0:0:
36,192,95716,1,0,0:0:0:40:tp1_42.wav
256,192,95799,1,0,0:0:0:0:
329,192,95883,1,0,0:0:0:0:
109,192,95883,1,0,0:0:0:0:
402,192,95966,1,0,0:0:0:0:
256,192,96049,1,0,0:0:0:40:tp1_40.wav
36,192,96049,1,8,0:0:0:0:
475,192,96049,1,2,0:0:0:0:
109,192,96133,1,0,0:0:0:0:
182,192,96216,1,0,0:0:0:0:
402,192,96216,1,0,0:0:0:0:
256,192,96299,1,0,0:0:0:0:
329,192,96383,1,0,0:0:0:40:tp1_31.wav
36,192,96383,1,2,0:0:0:0:
475,192,96383,1,0,0:0:0:0:
182,192,96549,1,0,0:0:0:0:
402,192,96549,1,0,0:0:0:0:
329,192,96633,1,0,0:0:0:0:
109,192,96633,1,0,0:0:0:40:tp1_32.wav
475,192,96716,1,8,0:0:0:0:
36,192,96716,1,2,0:0:0:0:
256,192,96716,1,0,0:0:0:0:
329,192,96883,1,0,0:0:0:0:
109,192,96883,1,0,0:0:0:40:tp1_32.wav
402,192,96966,1,0,0:0:0:0:
182,192,97049,1,0,0:0:0:0:
475,192,97049,1,0,0:0:0:0:
36,192,97049,1,2,0:0:0:0:
329,192,97133,1,0,0:0:0:0:
109,192,97216,1,0,0:0:0:0:
256,192,97216,1,0,0:0:0:40:tp1_26.wav
475,192,97383,1,8,0:0:0:0:
36,192,97383,1,2,0:0:0:0:
329,192,97383,1,0,0:0:0:40:tp1_37.wav
256,192,97466,1,0,0:0:0:0:
182,192,97549,1,0,0:0:0:0:
402,192,97549,1,0,0:0:0:0:
109,192,97633,1,0,0:0:0:0:
256,192,97716,1,0,0:0:0:0:
36,192,97716,1,0,0:0:0:0:
329,192,97716,1,2,0:0:0:0:
475,192,97883,1,0,0:0:0:0:
182,192,97883,1,0,0:0:0:0:
402,192,97966,1,0,0:0:0:0:
329,192,98049,1,2,0:0:0:0:
109,192,98049,1,0,0:0:0:0:
36,192,98049,1,8,0:0:0:0:
256,192,98133,1,0,0:0:0:0:
182,192,98216,1,0,0:0:0:0:
402,192,98216,1,0,0:0:0:0:
256,192,98383,1,0,0:0:0:40:tp1_30.wav
109,192,98383,1,0,0:0:0:0:
36,192,98383,1,0,0:0:0:60:bd_8c.wav
329,192,98466,1,0,0:0:0:0:
402,192,98549,1,0,0:0:0:0:
182,192,98549,1,0,0:0:0:40:tp1_31.wav
475,192,98549,1,0,0:0:0:60:bd_8c.wav
256,192,98633,1,0,0:0:0:0:
329,192,98716,1,0,0:0:0:0:
109,192,98716,1,0,0:0:0:40:tp1_32.wav
402,192,98716,1,0,0:0:0:60:bd_8c.wav
182,192,98799,1,0,0:0:0:0:
256,192,98883,1,0,0:0:0:0:
36,192,98883,1,0,0:0:0:40:tp1_33.wav
329,192,98883,1,0,0:0:0:60:bd_8c.wav
109,192,98966,1,0,0:0:0:0:
182,192,99049,1,0,0:0:0:0:
256,192,99049,1,2,0:0:0:0:
475,192,99049,1,0,0:0:0:40:tp1_43.wav
329,192,99216,1,0,0:0:0:0:
109,192,99216,1,0,0:0:0:0:
256,192,99299,1,0,0:0:0:0:
475,192,99383,1,2,0:0:0:0:
36,192,99383,1,8,0:0:0:0:
182,192,99383,1,0,0:0:0:40:tp1_26.wav
402,192,99549,1,0,0:0:0:0:
256,192,99549,1,0,0:0:0:40:tp1_43.wav
475,192,99716,1,2,0:0:0:0:
329,192,99716,1,0,0:0:0:0:
109,192,99716,1,0,0:0:0:0:
256,192,99799,1,0,0:0:0:0:
182,192,99883,1,0,0:0:0:0:
402,192,99883,1,0,0:0:0:40:tp1_44.wav
475,192,100049,1,2,0:0:0:0:
256,192,100049,1,8,0:0:0:0:
36,192,100049,1,0,0:0:0:0:
109,192,100133,1,0,0:0:0:0:
402,192,100216,1,0,0:0:0:0:
329,192,100216,1,0,0:0:0:40:tp1_42.wav
182,192,100299,1,0,0:0:0:0:
475,192,100383,1,0,0:0:0:0:
256,192,100383,1,0,0:0:0:0:
36,192,100383,1,2,0:0:0:0:
329,192,100466,1,0,0:0:0:0:
402,192,100549,1,0,0:0:0:0:
109,192,100549,1,0,0:0:0:0:
182,192,100633,1,0,0:0:0:0:
256,192,100716,1,8,0:0:0:0:
36,192,100716,1,2,0:0:0:0:
475,192,100716,1,0,0:0:0:40:tp1_41.wav
329,192,100799,1,0,0:0:0:0:
182,192,100883,1,0,0:0:0:0:
109,192,100883,1,0,0:0:0:0:
402,192,100966,1,0,0:0:0:0:
256,192,101049,1,0,0:0:0:40:tp1_42.wav
36,192,101049,1,2,0:0:0:0:
109,192,101049,1,0,0:0:0:0:
329,192,101133,1,0,0:0:0:0:
402,192,101216,1,0,0:0:0:0:
182,192,101216,1,0,0:0:0:0:
475,192,101299,1,0,0:0:0:0:
109,192,101383,1,0,0:0:0:60:cym_8c.wav
182,192,101383,1,0,0:0:0:60:bd_8c.wav
329,192,101383,1,0,0:0:0:40:tp1_43.wav
36,192,101466,1,0,0:0:0:0:
402,192,101549,1,0,0:0:0:0:
182,192,101549,1,0,0:0:0:0:
256,192,101549,1,0,0:0:0:60:bd_8c.wav
109,192,101633,1,0,0:0:0:0:
329,192,101716,1,2,0:0:0:0:
36,192,101716,1,0,0:0:0:60:cym_8ss.wav
475,192,101716,1,0,0:0:0:40:tp1_44.wav
256,192,101716,1,0,0:0:0:0:
475,192,102216,1,2,0:0:0:0:
36,192,102216,1,0,0:0:0:60:cym_16c2.wav
256,192,102216,1,0,0:0:0:40:tp1_35.wav
329,192,102216,1,0,0:0:0:40:tp2_17.wav
475,192,102549,1,2,0:0:0:0:
36,192,102549,1,0,0:0:0:60:cym_16c2.wav
256,192,102549,1,0,0:0:0:40:tp1_35.wav
329,192,102549,1,0,0:0:0:40:tp2_19.wav
36,192,102883,1,4,0:0:0:0:
402,192,102883,1,2,0:0:0:0:
182,192,102883,1,0,0:0:0:40:tp1_43.wav
256,192,102883,1,0,0:0:0:40:tp2_18.wav
182,192,103216,1,0,0:0:0:40:tp2_21.wav
109,192,103216,1,0,0:0:0:60:bd_8c.wav
475,192,103383,1,2,0:0:0:0:
36,192,103383,1,0,0:0:0:60:cym_4c.wav
256,192,103383,1,0,0:0:0:40:tp1_42.wav
402,192,103383,1,0,0:0:0:40:tp2_17.wav
475,192,103716,1,2,0:0:0:0:
36,192,103716,1,4,0:0:0:0:
329,192,103716,1,0,0:0:0:40:tp1_41.wav
109,192,103716,1,0,0:0:0:40:tp2_20.wav
256,192,103966,1,2,0:0:0:0:
402,192,103966,1,4,0:0:0:0:
36,192,104049,1,8,0:0:0:0:
182,192,104049,1,0,0:0:0:40:tp1_40.wav
475,192,104049,1,0,0:0:0:40:tp2_18.wav
109,192,104216,1,2,0:0:0:0:
402,192,104216,1,0,0:0:0:0:
256,192,104216,1,0,0:0:0:60:cym_8ss.wav
36,192,104383,128,0,104633:0:0:0:0:
256,192,104383,128,0,104633:0:0:0:0:
475,192,104383,128,0,104633:0:0:0:0:
329,192,104383,1,0,0:0:0:60:cym_8ss.wav
182,192,104383,1,2,0:0:0:0:
36,192,104716,1,0,0:0:0:0:
475,192,104716,1,0,0:0:0:0:
256,192,104716,1,0,0:0:0:60:bd_8c.wav
109,192,104883,128,0,105133:0:0:0:0:
256,192,104883,128,0,105133:0:0:0:0:
402,192,104883,128,0,105133:0:0:0:0:
329,192,104883,1,0,0:0:0:60:cym_8ss.wav
182,192,104883,1,2,0:0:0:0:
109,192,105216,1,0,0:0:0:0:
256,192,105216,1,0,0:0:0:60:bd_8c.wav
402,192,105216,1,0,0:0:0:0:
182,192,105383,128,0,105633:0:0:0:0:
256,192,105383,128,0,105633:0:0:0:0:
329,192,105383,128,0,105633:0:0:0:0:
36,192,105383,1,2,0:0:0:0:
475,192,105383,1,0,0:0:0:60:cym_8ss.wav
182,192,105716,1,0,0:0:0:0:
329,192,105716,1,0,0:0:0:0:
256,192,105716,1,0,0:0:0:60:bd_8c.wav
109,192,105883,128,0,106133:0:0:0:0:
256,192,105883,128,0,106133:0:0:0:0:
402,192,105883,128,0,106133:0:0:0:0:
475,192,105883,1,0,0:0:0:60:cym_8ss.wav
36,192,105883,1,2,0:0:0:0:
109,192,106216,1,0,0:0:0:0:
402,192,106216,1,0,0:0:0:0:
256,192,106216,1,0,0:0:0:60:bd_8c.wav
402,192,106383,128,0,106549:0:0:0:0:
475,192,106383,128,0,106549:0:0:0:0:
36,192,106383,1,2,0:0:0:0:
109,192,106383,1,0,0:0:0:60:cym_4c.wav
182,192,106549,128,0,106716:0:0:0:0:
109,192,106716,128,0,106883:0:0:0:0:
36,192,106716,128,0,106883:0:0:0:0:
402,192,106716,1,0,0:0:0:60:cym_4c.wav
475,192,106716,1,2,0:0:0:0:
329,192,106883,128,0,107049:0:0:0:0:
256,192,107049,128,0,107299:0:0:0:0:
36,192,107049,128,0,107299:0:0:0:0:
475,192,107049,128,0,107299:0:0:0:0:
109,192,107049,1,2,0:0:0:0:
402,192,107049,1,0,0:0:0:60:cym_8ss.wav
475,192,107383,1,0,0:0:0:0:
36,192,107383,1,0,0:0:0:0:
256,192,107383,1,0,0:0:0:60:bd_8c.wav
109,192,107549,128,0,107799:0:0:0:0:
256,192,107549,128,0,107799:0:0:0:0:
402,192,107549,128,0,107799:0:0:0:0:
182,192,107549,1,2,0:0:0:0:
329,192,107549,1,0,0:0:0:60:cym_8ss.wav
402,192,107883,1,0,0:0:0:0:
109,192,107883,1,0,0:0:0:0:
256,192,107883,1,0,0:0:0:60:bd_8c.wav
182,192,108049,128,0,108299:0:0:0:0:
256,192,108049,128,0,108299:0:0:0:0:
329,192,108049,128,0,108299:0:0:0:0:
36,192,108049,1,2,0:0:0:0:
475,192,108049,1,0,0:0:0:60:cym_8ss.wav
182,192,108383,1,0,0:0:0:0:
329,192,108383,1,0,0:0:0:0:
256,192,108383,1,0,0:0:0:60:bd_8c.wav
109,192,108549,128,0,108799:0:0:0:0:
402,192,108549,128,0,108799:0:0:0:0:
256,192,108549,128,0,108799:0:0:0:0:
475,192,108549,1,0,0:0:0:60:cym_8ss.wav
36,192,108549,1,2,0:0:0:0:
109,192,108883,1,0,0:0:0:0:
402,192,108883,1,0,0:0:0:0:
256,192,108883,1,0,0:0:0:60:bd_8c.wav
109,192,109049,128,0,109216:0:0:0:0:
182,192,109049,1,2,0:0:0:0:
36,192,109049,128,0,109216:0:0:0:60:cym_4c.wav
329,192,109049,1,0,0:0:0:0:
475,192,109216,128,0,109383:0:0:0:0:
402,192,109216,128,0,109383:0:0:0:0:
256,192,109383,128,0,109716:0:0:0:0:
329,192,109383,1,2,0:0:0:0:
182,192,109383,128,0,109716:0:0:0:60:cym_4c.wav
36,192,109383,1,0,0:0:0:0:
36,192,109716,1,4,0:0:0:0:
475,192,109716,1,0,0:0:0:60:bd_8c.wav
329,192,109716,1,0,0:0:0:40:tp1_27.wav
109,192,109716,1,0,0:0:0:0:
329,192,109883,1,0,0:0:0:0:
182,192,109883,1,0,0:0:0:0:
475,192,109883,1,0,0:0:0:60:bd_8c.wav
109,192,109966,1,0,0:0:0:40:tp1_28.wav
402,192,110049,1,0,0:0:0:0:
256,192,110049,1,0,0:0:0:0:
36,192,110049,1,0,0:0:0:60:bd_8c.wav
182,192,110216,1,0,0:0:0:0:
402,192,110216,1,0,0:0:0:0:
36,192,110216,1,0,0:0:0:60:bd_8c.wav
256,192,110216,1,0,0:0:0:40:tp1_30.wav
109,192,110383,1,0,0:0:0:0:
475,192,110383,1,0,0:0:0:60:bd_8c.wav
329,192,110383,1,0,0:0:0:40:tp1_30.wav
109,192,110549,1,0,0:0:0:0:
329,192,110549,1,0,0:0:0:0:
475,192,110549,1,0,0:0:0:60:bd_8c.wav
182,192,110633,1,0,0:0:0:40:tp1_31.wav
36,192,110716,1,0,0:0:0:0:
402,192,110716,1,0,0:0:0:0:
256,192,110716,1,0,0:0:0:0:
475,192,110716,1,0,0:0:0:60:bd_8c.wav
109,192,110883,1,0,0:0:0:0:
402,192,110883,1,0,0:0:0:60:bd_8c.wav
256,192,110883,1,0,0:0:0:40:tp1_32.wav
475,192,111049,1,2,0:0:0:0:
36,192,111049,1,4,0:0:0:0:
329,192,111049,1,0,0:0:0:40:tp1_40.wav
109,192,111105,1,0,0:0:0:0:
182,192,111161,1,0,0:0:0:0:
256,192,111216,1,0,0:0:0:0:
329,192,111272,1,0,0:0:0:0:
402,192,111327,1,0,0:0:0:0:
475,192,111383,1,0,0:0:0:0:
182,192,111438,1,0,0:0:0:0:
109,192,111494,1,0,0:0:0:0:
36,192,111549,1,0,0:0:0:0:
329,192,111605,1,0,0:0:0:0:
402,192,111661,1,0,0:0:0:0:
475,192,111716,1,0,0:0:0:40:tp1_31.wav
182,192,111772,1,0,0:0:0:0:
109,192,111827,1,0,0:0:0:0:
36,192,111883,1,0,0:0:0:40:tp1_30.wav
475,192,111883,1,0,0:0:0:60:bd_8c.wav
329,192,111883,1,0,0:0:0:0:
256,192,111938,1,0,0:0:0:0:
182,192,111994,1,0,0:0:0:0:
109,192,112049,1,0,0:0:0:60:bd_8c.wav
402,192,112049,1,0,0:0:0:60:cym_8c.wav
329,192,112049,1,0,0:0:0:40:tp1_29.wav
182,192,112216,1,0,0:0:0:60:bd_8c.wav
329,192,112216,1,0,0:0:0:60:cym_8c.wav
36,192,112383,1,0,0:0:0:0:
475,192,112383,1,4,0:0:0:0:
256,192,112383,1,2,0:0:0:0:
109,192,112383,1,0,0:0:0:40:tp1_32.wav
329,192,112549,1,0,0:0:0:0:
402,192,112549,1,0,0:0:0:0:
182,192,112633,1,0,0:0:0:40:tp1_31.wav
109,192,112716,1,0,0:0:0:0:
475,192,112716,1,2,0:0:0:0:
36,192,112883,1,0,0:0:0:0:
256,192,112883,1,0,0:0:0:40:tp1_46.wav
329,192,112966,1,0,0:0:0:0:
475,192,113049,1,2,0:0:0:0:
182,192,113049,1,0,0:0:0:0:
402,192,113216,1,0,0:0:0:0:
36,192,113216,1,0,0:0:0:0:
109,192,113299,1,0,0:0:0:0:
475,192,113383,1,2,0:0:0:0:
256,192,113383,1,0,0:0:0:0:
182,192,113383,1,0,0:0:0:0:
329,192,113549,1,0,0:0:0:0:
36,192,113549,1,0,0:0:0:0:
402,192,113633,1,0,0:0:0:0:
475,192,113716,1,4,0:0:0:0:
182,192,113716,1,0,0:0:0:40:tp1_28.wav
109,192,113716,1,0,0:0:0:60:bd_8c.wav
402,192,113883,1,0,0:0:0:0:
329,192,113883,1,0,0:0:0:60:bd_8c.wav
109,192,114049,1,0,0:0:0:0:
475,192,114049,1,0,0:0:0:0:
36,192,114049,1,0,0:0:0:60:bd_8c.wav
329,192,114216,1,0,0:0:0:0:
256,192,114216,1,0,0:0:0:60:bd_8c.wav
182,192,114383,1,0,0:0:0:0:
475,192,114383,1,0,0:0:0:0:
109,192,114383,1,0,0:0:0:60:bd_16c.wav
402,192,114466,1,0,0:0:0:0:
329,192,114466,1,0,0:0:0:60:bd_16c.wav
109,192,114549,1,0,0:0:0:0:
36,192,114549,1,0,0:0:0:60:bd_16c.wav
475,192,114633,1,0,0:0:0:0:
402,192,114633,1,0,0:0:0:60:bd_16c.wav
256,192,114716,1,0,0:0:0:0:
36,192,114716,1,4,0:0:0:0:
182,192,114716,1,0,0:0:0:60:bd_16c.wav
402,192,114799,1,0,0:0:0:0:
329,192,114799,1,0,0:0:0:60:bd_16c.wav
182,192,114883,1,0,0:0:0:0:
109,192,114883,1,0,0:0:0:60:bd_16c.wav
329,192,114966,1,0,0:0:0:0:
256,192,114966,1,0,0:0:0:60:bd_16c.wav
475,192,115049,1,0,0:0:0:0:
402,192,115049,1,2,0:0:0:0:
36,192,115049,1,4,0:0:0:0:
109,192,115049,1,0,0:0:0:40:tp1_30.wav
256,192,115216,1,0,0:0:0:40:tp1_26.wav
109,192,115383,1,0,0:0:0:0:
402,192,115383,1,0,0:0:0:40:tp1_34.wav
256,192,115549,1,0,0:0:0:40:tp1_13.wav
182,192,115633,1,0,0:0:0:40:tp1_14.wav
109,192,115716,1,0,0:0:0:40:tp1_32.wav
329,192,115883,1,0,0:0:0:0:
36,192,115883,1,0,0:0:0:40:tp1_33.wav
475,192,116049,1,0,0:0:0:0:
182,192,116049,1,0,0:0:0:40:tp1_32.wav
256,192,116216,1,0,0:0:0:40:tp1_31.wav
475,192,116383,1,0,0:0:0:0:
329,192,116383,1,0,0:0:0:40:tp1_30.wav
182,192,116549,1,0,0:0:0:40:tp1_26.wav
36,192,116716,1,0,0:0:0:0:
402,192,116716,1,0,0:0:0:40:tp1_34.wav
182,192,116883,1,0,0:0:0:40:tp1_30.wav
329,192,117049,1,0,0:0:0:40:tp1_34.wav
475,192,117216,1,0,0:0:0:0:
182,192,117216,1,0,0:0:0:40:tp1_30.wav
475,192,117383,1,0,0:0:0:0:
109,192,117383,1,0,0:0:0:40:tp1_33.wav
182,192,117549,1,0,0:0:0:40:tp1_30.wav
36,192,117716,1,0,0:0:0:0:
256,192,117716,1,0,0:0:0:40:tp1_32.wav
329,192,117883,1,0,0:0:0:40:tp1_30.wav
475,192,118049,1,0,0:0:0:0:
109,192,118049,1,0,0:0:0:40:tp1_33.wav
329,192,118216,1,0,0:0:0:40:tp1_26.wav
182,192,118383,1,0,0:0:0:40:tp1_32.wav
36,192,118549,1,0,0:0:0:0:
329,192,118549,1,0,0:0:0:40:tp1_26.wav
36,192,118716,1,0,0:0:0:0:
402,192,118716,1,0,0:0:0:40:tp1_31.wav
329,192,118883,1,0,0:0:0:40:tp1_26.wav
475,192,119049,1,0,0:0:0:0:
256,192,119049,1,0,0:0:0:40:tp1_32.wav
109,192,119216,1,0,0:0:0:40:tp1_28.wav
402,192,119383,1,0,0:0:0:0:
182,192,119383,1,0,0:0:0:40:tp1_33.wav
109,192,119549,1,0,0:0:0:40:tp1_28.wav
329,192,119716,1,0,0:0:0:40:tp1_34.wav
475,192,119883,1,0,0:0:0:0:
109,192,119883,1,0,0:0:0:40:tp1_31.wav
475,192,120049,1,0,0:0:0:0:
182,192,120049,1,0,0:0:0:40:tp1_33.wav
109,192,120216,1,0,0:0:0:40:tp1_28.wav
36,192,120383,1,0,0:0:0:0:
475,192,120383,1,0,0:0:0:0:
256,192,120383,1,0,0:0:0:40:tp1_30.wav
329,192,120549,1,0,0:0:0:40:tp1_26.wav
402,192,120716,1,0,0:0:0:0:
109,192,120716,1,0,0:0:0:40:tp1_34.wav
329,192,120883,1,0,0:0:0:40:tp1_13.wav
182,192,120966,1,0,0:0:0:40:tp1_14.wav
475,192,121049,1,0,0:0:0:0:
36,192,121049,1,0,0:0:0:40:tp1_32.wav
182,192,121216,1,0,0:0:0:0:
402,192,121216,1,0,0:0:0:40:tp1_33.wav
109,192,121383,1,0,0:0:0:0:
329,192,121383,1,0,0:0:0:40:tp1_32.wav
256,192,121549,1,0,0:0:0:40:tp1_31.wav
475,192,121716,1,0,0:0:0:0:
182,192,121716,1,0,0:0:0:40:tp1_30.wav
402,192,121883,1,0,0:0:0:40:tp1_26.wav
36,192,122049,1,0,0:0:0:0:
329,192,122049,1,0,0:0:0:40:tp1_34.wav
402,192,122216,1,0,0:0:0:40:tp1_26.wav
182,192,122383,1,0,0:0:0:40:tp1_34.wav
36,192,122549,1,0,0:0:0:0:
402,192,122549,1,0,0:0:0:40:tp1_26.wav
36,192,122716,1,0,0:0:0:0:
256,192,122716,1,0,0:0:0:40:tp1_33.wav
402,192,122883,1,0,0:0:0:40:tp1_26.wav
475,192,123049,1,0,0:0:0:0:
256,192,123049,1,0,0:0:0:40:tp1_27.wav
36,192,123049,1,0,0:0:0:0:
182,192,123216,1,0,0:0:0:40:tp1_26.wav
402,192,123383,1,0,0:0:0:0:
109,192,123383,1,0,0:0:0:40:tp1_30.wav
329,192,123549,1,0,0:0:0:40:tp1_26.wav
109,192,123716,1,0,0:0:0:40:tp1_32.wav
475,192,123883,1,0,0:0:0:0:
182,192,123883,1,0,0:0:0:40:tp1_26.wav
475,192,124049,1,0,0:0:0:0:
256,192,124049,1,0,0:0:0:40:tp1_31.wav
182,192,124216,1,0,0:0:0:40:tp1_26.wav
329,192,124383,1,0,0:0:0:0:
109,192,124383,1,0,0:0:0:40:tp1_32.wav
402,192,124549,1,0,0:0:0:40:tp1_28.wav
36,192,124716,1,0,0:0:0:0:
256,192,124716,1,0,0:0:0:40:tp1_33.wav
402,192,124883,1,0,0:0:0:40:tp1_28.wav
182,192,125049,1,0,0:0:0:40:tp1_34.wav
36,192,125216,1,0,0:0:0:0:
402,192,125216,1,0,0:0:0:40:tp1_31.wav
36,192,125383,1,0,0:0:0:0:
256,192,125383,1,0,0:0:0:40:tp1_33.wav
402,192,125549,1,0,0:0:0:40:tp1_28.wav
256,192,125716,128,0,127049:0:0:0:0:
475,192,125716,1,0,0:0:0:40:tp1_30.wav
109,192,125883,1,0,0:0:0:40:tp1_26.wav
329,192,126049,1,0,0:0:0:40:tp1_34.wav
109,192,126216,1,0,0:0:0:40:tp1_26.wav
475,192,126383,1,0,0:0:0:40:tp1_34.wav
109,192,126549,1,0,0:0:0:40:tp1_26.wav
402,192,126716,1,0,0:0:0:40:tp1_33.wav
109,192,126883,1,0,0:0:0:40:tp1_26.wav
475,192,127049,1,0,0:0:0:40:tp1_32.wav
329,192,127049,128,0,127383:0:0:0:0:
109,192,127216,1,0,0:0:0:40:tp1_26.wav
256,192,127383,128,0,127716:0:0:0:0:
182,192,127383,1,0,0:0:0:40:tp1_31.wav
36,192,127549,1,0,0:0:0:40:tp1_26.wav
182,192,127716,128,0,128383:0:0:0:0:
109,192,127716,1,0,0:0:0:40:tp1_32.wav
329,192,127883,128,0,128383:0:0:0:0:
402,192,127883,1,0,0:0:0:40:tp1_26.wav
109,192,128049,1,0,0:0:0:40:tp1_33.wav
256,192,128216,1,0,0:0:0:40:tp1_26.wav
109,192,128383,128,2,132383:0:0:0:0:
402,192,128383,128,0,132383:0:0:0:0:
475,192,128383,1,0,0:0:0:40:tp1_49.wav
36,192,128383,1,0,0:0:0:40:tp1_47.wav
