osu file format v14

[General]
AudioFilename: audio.mp3
AudioLeadIn: 0
PreviewTime: 47574
Countdown: 0
SampleSet: Soft
StackLeniency: 0.7
Mode: 0
LetterboxInBreaks: 0
WidescreenStoryboard: 1

[Editor]
DistanceSpacing: 1.3
BeatDivisor: 4
GridSize: 8
TimelineZoom: 1.5

[Metadata]
Title:and I'm home
TitleUnicode:and I'm home
Artist:Miki Sayaka (CV: Kitamura Eri), Sakura Kyoko (CV: Nonaka Ai)
ArtistUnicode:美樹さやか(CV:喜多村英梨)、佐倉杏子(CV:野中藍)
Creator:VanillaSandvich
Version:Keitaro's Hard
Source:魔法少女まどか☆マギカ
Tags:puella magi madoka magica magical girl mahou shoujou shoujo full version
BeatmapID:1985152
BeatmapSetID:949565

[Difficulty]
HPDrainRate:5
CircleSize:3.6
OverallDifficulty:7
ApproachRate:7.6
SliderMultiplier:1.6
SliderTickRate:1

[Events]
//Background and Video events
0,0,"andim home.jpg",0,0
//Break Periods
//Storyboard Layer 0 (Background)
//Storyboard Layer 1 (Fail)
//Storyboard Layer 2 (Pass)
//Storyboard Layer 3 (Foreground)
//Storyboard Sound Samples

[TimingPoints]
654,480,4,2,3,30,1,0
654,-125,4,2,3,30,0,0
8814,-125,4,2,3,52,0,0
16014,-100,4,2,3,52,0,0
48654,-83.3333333333333,4,2,3,52,0,1
61854,-83.3333333333333,4,2,3,52,0,0
64014,-83.3333333333333,4,2,3,52,0,1
71694,-133.333333333333,4,2,3,52,0,0
77214,-100,4,2,3,52,0,0
81294,-100,4,2,3,52,0,0
112494,-133.333333333333,4,2,3,52,0,0
113934,-83.3333333333333,4,2,3,52,0,1
127134,-83.3333333333333,4,2,3,52,0,0
129294,-83.3333333333333,4,2,3,52,0,1
142494,-83.3333333333333,4,2,3,52,0,0
144654,-83.3333333333333,4,2,3,52,0,1
152334,-83.3333333333333,4,2,3,52,0,0
152814,-83.3333333333333,4,2,3,52,0,0
156174,-133.333333333333,4,2,3,52,0,0
157854,-400,4,2,3,52,0,0

[Colours]
Combo1 : 255,255,21
Combo2 : 225,0,0
Combo3 : 0,236,236
Combo4 : 149,0,149
Combo5 : 255,108,182

[HitObjects]
117,162,414,5,0,0:0:0:0:
174,74,654,2,0,P|192:120|184:214,1,128,6|2,0:0|0:0,0:0:0:0:
149,278,1374,1,2,0:0:0:0:
43,220,1614,1,2,0:0:0:0:
50,316,1854,1,2,0:0:0:0:
162,236,2094,1,10,0:0:0:0:
224,375,2334,1,10,0:3:0:0:
326,316,2574,6,0,B|264:313|277:372|208:354|191:315,1,128,10|2,0:3|0:0,0:0:0:0:
211,176,3294,2,0,P|227:262|219:331,1,128,2|0,0:0|0:0,0:0:0:0:
132,279,4014,1,2,0:0:0:0:
132,279,4494,2,0,P|185:276|182:359,1,128,8|0,0:3|0:0,0:0:0:0:
287,335,5214,1,0,0:0:0:0:
337,182,5454,2,0,P|325:234|317:329,1,128,2|8,0:0|0:0,0:0:0:0:
475,129,6414,6,0,P|394:125|372:179,1,128,8|4,0:3|0:0,0:0:0:0:
446,205,7134,1,0,0:0:0:0:
464,46,7374,2,0,P|466:138|457:188,1,128,2|2,0:0|0:0,0:0:0:0:
386,237,8094,1,8,0:3:0:0:
323,128,8334,6,0,P|338:182|339:212,1,64,8|0,0:3|0:0,0:0:0:0:
274,155,8814,2,0,P|273:101|282:68,1,64,8|8,0:3|0:3,0:0:0:0:
393,29,9294,2,0,P|425:28|481:41,1,64,8|8,0:3|0:3,0:0:0:0:
505,147,9774,2,0,P|465:175|442:177,1,64,8|8,0:3|0:3,0:0:0:0:
290,136,10254,5,8,0:3:0:0:
314,226,10494,1,8,0:3:0:0:
256,331,10734,1,8,0:3:0:0:
227,250,10974,1,8,0:3:0:0:
293,111,11214,2,0,L|288:42,1,64,8|8,0:3|0:3,0:0:0:0:
170,2,11694,1,8,0:3:0:0:
209,92,11934,1,8,0:3:0:0:
374,120,12174,5,6,0:0:0:0:
396,138,14094,1,2,0:0:0:0:
411,159,15294,2,0,B|420:150|420:150|430:213,2,64,0|10|0,0:0|0:0|0:0,0:0:0:0:
342,168,16014,6,0,P|394:196|443:295,1,160,6|10,0:0|0:0,0:0:0:0:
495,356,16734,1,8,0:3:0:0:
363,369,16974,2,0,P|381:321|409:308,1,80,10|0,0:3|0:0,0:0:0:0:
500,346,17454,2,0,P|453:341|404:329,1,80,10|0,0:0|0:0,0:0:0:0:
315,262,17934,6,0,P|265:279|250:378,1,160,2|10,0:0|0:0,0:0:0:0:
252,273,18654,2,0,P|225:177|192:125,1,160,8|0,0:3|0:0,0:0:0:0:
140,68,19374,1,10,0:0:0:0:
101,159,19614,1,0,0:0:0:0:
55,44,19854,6,0,P|58:125|66:215,1,160,6|10,0:0|0:0,0:0:0:0:
137,246,20574,1,8,0:3:0:0:
234,150,20814,2,0,P|211:206|214:254,1,80,10|0,0:3|0:0,0:0:0:0:
267,313,21294,2,0,P|239:253|207:235,1,80,10|0,0:0|0:0,0:0:0:0:
341,384,21774,6,0,P|347:322|401:213,1,160,2|10,0:0|0:0,0:0:0:0:
487,204,22494,2,0,P|447:207|407:206,1,80,10|0,0:3|0:0,0:0:0:0:
307,159,22973,1,0,0:0:0:0:
441,93,23214,2,0,P|441:137|446:185,1,80,10|0,0:0|0:0,0:0:0:0:
432,287,23694,6,0,P|431:231|376:131,1,160,6|10,0:0|0:0,0:0:0:0:
310,116,24414,1,8,0:3:0:0:
222,44,24654,2,0,P|228:102|237:152,1,80,10|0,0:3|0:0,0:0:0:0:
337,191,25134,2,0,P|321:140|298:95,1,80,10|0,0:0|0:0,0:0:0:0:
268,248,25614,6,0,P|352:225|424:174,1,160,2|10,0:0|0:0,0:0:0:0:
374,287,26334,2,0,P|301:272|200:292,1,160,10|0,0:3|0:0,0:0:0:0:
147,331,27054,1,10,0:0:0:0:
86,251,27294,1,0,0:0:0:0:
93,351,27534,6,0,P|95:272|75:188,1,160,6|10,0:0|0:0,0:0:0:0:
53,276,28254,1,8,0:3:0:0:
160,144,28494,2,0,P|107:120|134:180,1,160,10|10,0:3|0:0,0:0:0:0:
235,186,29214,1,0,0:0:0:0:
242,45,29454,6,0,P|251:91|251:138,1,80,4|0,0:0|0:0,0:0:0:0:
261,233,29934,1,10,0:0:0:0:
363,131,30174,2,0,P|353:169|351:209,1,80,2|10,0:0|0:3,0:0:0:0:
446,177,30653,1,8,0:0:0:0:
512,252,30894,1,10,0:0:0:0:
512,252,31134,1,8,0:3:0:0:
402,358,31374,6,0,P|349:333|301:329,1,80,6|0,0:0|0:0,0:0:0:0:
241,364,31854,1,10,0:0:0:0:
161,313,32094,1,8,0:3:0:0:
94,384,32334,2,0,P|113:344|109:193,1,160,10|10,0:3|0:0,0:0:0:0:
56,172,33054,1,0,0:0:0:0:
36,281,33294,5,10,0:3:0:0:
162,312,33534,1,0,0:0:0:0:
227,218,33774,2,0,P|210:274|202:384,1,160,10|10,0:0|0:3,0:0:0:0:
291,305,34494,1,0,0:0:0:0:
315,217,34734,2,0,P|308:262|322:308,1,80,10|0,0:0|0:0,0:0:0:0:
415,130,35214,6,0,P|416:222|405:308,1,160,2|10,0:0|0:0,0:0:0:0:
308,220,35934,2,0,P|292:163|289:55,1,160,8|0,0:3|0:0,0:0:0:0:
368,34,36654,1,10,0:0:0:0:
221,114,36894,2,0,P|268:102|209:44,1,160,2|8,0:0|0:3,0:0:0:0:
123,21,37614,2,0,P|137:67|129:129,1,80,10|0,0:0|0:0,0:0:0:0:
45,130,38094,2,0,P|86:105|137:101,1,80,10|0,0:3|0:0,0:0:0:0:
141,195,38574,2,0,L|135:97,1,80,10|0,0:0|0:0,0:0:0:0:
272,192,39054,6,0,B|213:188|185:266|115:196,1,160,6|10,0:0|0:0,0:0:0:0:
29,201,39774,1,8,0:3:0:0:
44,289,40014,2,0,B|91:277|91:277|90:324|144:386,1,160,10|10,0:3|0:0,0:0:0:0:
215,352,40734,1,8,0:3:0:0:
302,307,40974,6,0,P|265:344|242:269,1,160,10|10,0:3|0:0,0:0:0:0:
309,230,41694,1,8,0:3:0:0:
400,322,41934,2,0,B|360:330|360:330|352:314|352:314|322:326,1,80,10|0,0:3|0:0,0:0:0:0:
406,228,42414,1,10,0:0:0:0:
476,297,42654,1,0,0:0:0:0:
476,297,42894,1,2,0:0:0:0:
486,292,43374,6,0,P|469:240|468:199,1,80,10|0,0:0|0:0,0:0:0:0:
465,120,43854,2,0,P|469:68|481:26,1,80,10|8,0:3|0:3,0:0:0:0:
398,4,44334,1,10,0:0:0:0:
299,72,44574,5,6,0:0:0:0:
299,72,45054,1,8,0:3:0:0:
214,59,45294,2,0,P|150:69|100:82,1,80,8|8,0:3|0:3,0:0:0:0:
0,134,45774,2,0,P|61:135|95:137,1,80,8|8,0:3|0:3,0:0:0:0:
195,158,46254,1,6,0:0:0:0:
284,174,46494,1,6,0:0:0:0:
286,205,48654,6,0,B|349:192|374:305|464:194,1,191.999994140625,6|10,0:0|0:0,0:0:0:0:
428,133,49374,1,8,0:3:0:0:
354,232,49614,2,0,P|345:184|343:136,1,95.9999970703126,10|0,0:3|0:0,0:0:0:0:
364,52,50094,1,10,0:0:0:0:
441,33,50334,1,0,0:0:0:0:
332,13,50574,6,0,P|272:39|129:61,1,191.999994140625,4|10,0:0|0:0,0:0:0:0:
54,37,51294,1,8,0:3:0:0:
97,118,51534,1,10,0:3:0:0:
120,213,51774,1,0,0:0:0:0:
61,136,52014,2,0,P|73:211|77:247,1,95.9999970703126,10|0,0:0|0:0,0:0:0:0:
86,341,52494,6,0,P|77:265|159:173,1,191.999994140625,6|10,0:0|0:0,0:0:0:0:
214,108,53214,2,0,P|169:205|183:323,1,191.999994140625,8|0,0:3|0:0,0:0:0:0:
244,344,53934,1,10,0:0:0:0:
252,249,54174,2,0,P|257:318|258:378,1,95.9999970703126,0|6,0:0|0:0,0:0:0:0:
164,252,54654,5,0,0:0:0:0:
352,180,54894,2,0,P|311:182|364:247,1,143.999995605469,10|0,0:0|0:0,0:0:0:0:
353,257,55374,2,0,P|297:255|278:364,1,143.999995605469,10|0,0:3|0:0,0:0:0:0:
265,333,55854,2,0,L|369:320,1,95.9999970703126,10|0,0:0|0:0,0:0:0:0:
504,283,56334,6,0,P|421:295|296:284,1,191.999994140625,6|10,0:0|0:0,0:0:0:0:
262,209,57054,1,8,0:3:0:0:
275,310,57294,2,0,P|247:182|231:118,1,191.999994140625,10|10,0:3|0:0,0:0:0:0:
262,46,58014,1,0,0:0:0:0:
171,125,58254,6,0,P|240:117|355:174,1,191.999994140625,10|10,0:3|0:0,0:0:0:0:
386,88,58974,1,8,0:3:0:0:
421,211,59214,2,0,P|360:184|385:284,1,191.999994140625,10|10,0:3|0:0,0:0:0:0:
431,295,59934,1,0,0:0:0:0:
474,135,60174,6,0,P|464:298|472:368,1,191.999994140625,2|10,0:0|0:0,0:0:0:0:
512,245,60894,2,0,P|452:221|299:217,1,191.999994140625,8|0,0:3|0:0,0:0:0:0:
282,284,61614,1,10,0:0:0:0:
348,384,61854,5,6,0:0:0:0:
348,384,62334,2,0,P|288:354|244:352,1,95.9999970703126,8|8,0:0|0:0,0:0:0:0:
181,321,62814,1,8,0:3:0:0:
95,372,63054,2,0,P|146:344|182:271,1,95.9999970703126,8|8,0:3|0:3,0:0:0:0:
186,216,63534,1,8,0:0:0:0:
186,216,63654,1,8,0:0:0:0:
186,216,63774,1,8,0:0:0:0:
85,329,64014,6,0,P|88:300|61:118,1,191.999994140625,10|10,0:0|0:0,0:0:0:0:
34,64,64734,1,0,0:0:0:0:
47,257,64974,2,0,P|62:189|55:124,1,95.9999970703126,10|0,0:0|0:0,0:0:0:0:
133,45,65454,2,0,P|129:105|128:175,1,95.9999970703126,10|0,0:0|0:0,0:0:0:0:
246,248,65934,6,0,P|191:190|216:64,1,191.999994140625,14|10,0:0|0:0,0:0:0:0:
132,44,66654,1,0,0:0:0:0:
273,71,66894,2,0,P|320:77|368:74,1,95.9999970703126,10|0,0:0|0:0,0:0:0:0:
442,32,67374,2,0,P|479:80|478:149,1,95.9999970703126,10|0,0:0|0:0,0:0:0:0:
492,214,67854,6,0,P|461:144|341:138,1,191.999994140625,10|8,0:0|0:0,0:0:0:0:
355,40,68574,2,0,L|355:244,1,191.999994140625,2|2,0:0|0:0,0:0:0:0:
294,296,69294,1,8,0:0:0:0:
401,310,69534,1,8,0:3:0:0:
255,225,69774,6,0,P|264:307|171:317,1,191.999994140625,6|10,0:0|0:0,0:0:0:0:
162,183,70494,2,0,B|171:251|171:251|147:312|144:312|65:297,1,191.999994140625,12|0,0:0|0:0,0:0:0:0:
60,150,71214,2,0,P|73:203|35:208,1,95.9999970703126,10|0,0:0|0:0,0:0:0:0:
119,83,71694,6,0,P|205:91|252:109,1,120.000004577637,6|0,0:0|0:0,0:0:0:0:
319,135,72414,1,2,0:0:0:0:
406,44,72654,2,0,P|372:58|416:57,1,120.000004577637,2|2,0:0|0:0,0:0:0:0:
486,93,73374,1,2,0:0:0:0:
467,240,73614,6,0,P|433:191|368:176,1,120.000004577637,2|0,0:0|0:0,0:0:0:0:
303,214,74334,1,2,0:0:0:0:
280,293,74574,2,0,B|285:321|285:321|308:358|357:316|350:271,1,120.000004577637,2|2,0:0|0:0,0:0:0:0:
303,214,75294,1,2,0:0:0:0:
204,334,75534,6,0,P|173:351|92:305,1,120.000004577637,2|0,0:0|0:0,0:0:0:0:
76,243,76254,1,2,0:0:0:0:
159,212,76494,2,0,P|159:280|167:349,1,120.000004577637,2|2,0:0|0:0,0:0:0:0:
250,358,77214,6,0,P|233:284|200:168,1,160,6|8,0:0|0:3,0:0:0:0:
90,101,77934,2,0,P|114:143|130:194,1,80,8|0,0:0|0:0,0:0:0:0:
71,260,78414,1,2,0:0:0:0:
192,295,78654,1,8,0:3:0:0:
311,195,78894,2,0,P|244:210|207:237,1,80,8|8,0:0|0:3,0:0:0:0:
166,333,79374,6,0,P|174:282|167:226,1,80,2|8,0:0|0:3,0:0:0:0:
133,139,79854,1,8,0:0:0:0:
317,9,80334,1,10,0:3:0:0:
218,28,80574,1,8,0:0:0:0:
108,36,80814,2,0,P|166:36|197:40,1,80,8|8,0:0|0:3,0:0:0:0:
302,6,81294,6,0,P|281:46|222:148,1,160,6|10,0:0|0:0,0:0:0:0:
109,174,82014,1,8,0:3:0:0:
65,258,82254,2,0,P|103:279|150:302,1,80,10|0,0:3|0:0,0:0:0:0:
187,185,82734,2,0,P|129:173|101:175,1,80,10|0,0:0|0:0,0:0:0:0:
22,110,83214,6,0,P|78:127|192:71,1,160,2|10,0:0|0:0,0:0:0:0:
242,21,83934,2,0,B|187:43|191:62|242:187,1,160,8|0,0:3|0:0,0:0:0:0:
346,117,84654,1,10,0:0:0:0:
310,198,84894,1,0,0:0:0:0:
366,118,85134,6,0,P|362:170|340:295,1,160,2|10,0:0|0:0,0:0:0:0:
253,293,85854,1,8,0:3:0:0:
309,348,86094,2,0,B|240:286|212:396|171:292,1,160,10|10,0:3|0:0,0:0:0:0:
164,223,86814,1,0,0:0:0:0:
91,336,87054,6,0,B|4:341|-10:328|11:240,1,160,10|10,0:3|0:0,0:0:0:0:
80,61,87774,2,0,P|80:121|70:169,1,80,8|2,0:3|0:0,0:0:0:0:
120,248,88254,1,8,0:3:0:0:
200,198,88494,1,10,0:0:0:0:
248,100,88734,1,8,0:3:0:0:
273,9,88974,6,0,P|270:86|280:196,1,160,6|10,0:0|0:0,0:0:0:0:
325,238,89694,1,8,0:3:0:0:
396,166,89934,2,0,P|368:221|355:257,1,80,10|0,0:3|0:0,0:0:0:0:
377,317,90414,2,0,P|408:354|455:376,1,80,10|0,0:0|0:0,0:0:0:0:
472,255,90894,6,0,P|382:283|285:286,1,160,2|10,0:0|0:0,0:0:0:0:
241,256,91614,2,0,P|242:308|249:356,1,80,8|10,0:3|0:3,0:0:0:0:
142,384,92094,2,0,P|141:325|136:267,1,80,0|10,0:0|0:0,0:0:0:0:
86,216,92574,1,0,0:0:0:0:
50,304,92814,6,0,P|88:291|105:159,1,160,2|10,0:0|0:0,0:0:0:0:
74,96,93534,1,8,0:3:0:0:
27,180,93774,2,0,P|22:69|76:16,1,160,10|10,0:3|0:0,0:0:0:0:
135,26,94494,1,0,0:0:0:0:
223,65,94734,6,0,P|241:110|242:164,1,80,2|0,0:0|0:0,0:0:0:0:
255,225,95214,1,10,0:0:0:0:
236,366,95454,1,6,0:0:0:0:
236,366,95934,1,8,0:0:0:0:
333,320,96174,2,0,P|376:317|425:317,1,80,8|8,0:0|0:3,0:0:0:0:
500,315,96654,6,0,P|459:305|421:248,1,80,6|0,0:0|0:0,0:0:0:0:
402,184,97134,1,10,0:0:0:0:
443,88,97374,1,8,0:3:0:0:
496,34,97614,2,0,P|454:66|339:67,1,160,8|10,0:3|0:0,0:0:0:0:
249,105,98334,1,0,0:0:0:0:
336,168,98574,6,0,P|337:128|339:89,1,80,10|0,0:3|0:0,0:0:0:0:
315,0,99054,2,0,P|305:64|214:114,1,160,10|10,0:0|0:3,0:0:0:0:
148,18,99774,1,0,0:0:0:0:
87,76,100014,1,10,0:0:0:0:
66,157,100254,1,2,0:0:0:0:
118,252,100494,6,0,P|84:208|12:264,1,160,10|10,0:3|0:0,0:0:0:0:
79,315,101214,2,0,B|127:287|127:287|198:385,1,160,8|0,0:3|0:0,0:0:0:0:
264,310,101934,1,10,0:0:0:0:
352,356,102174,5,2,0:3:0:0:
352,356,102654,1,2,0:0:0:0:
422,280,102894,2,0,P|378:280|341:261,1,80,0|8,0:0|0:3,0:0:0:0:
329,83,103374,2,0,P|341:143|341:179,1,80,10|0,0:3|0:0,0:0:0:0:
256,266,103854,2,0,P|205:230|169:234,1,80,2|0,0:0|0:0,0:0:0:0:
90,281,104334,6,0,B|40:185|150:160|92:108,1,160,6|10,0:0|0:0,0:0:0:0:
56,68,105054,1,8,0:3:0:0:
182,146,105294,2,0,B|213:104|230:189|318:77,1,160,10|10,0:3|0:0,0:0:0:0:
393,32,106014,1,8,0:3:0:0:
243,0,106254,6,0,P|257:128|265:178,1,160,2|0,0:0|0:0,0:0:0:0:
310,228,106974,1,0,0:0:0:0:
427,292,107214,1,2,0:0:0:0:
432,289,107694,1,10,0:0:0:0:
321,281,107934,1,2,0:0:0:0:
225,342,108174,6,0,P|240:271|174:215,1,160,0|10,0:0|0:0,0:0:0:0:
99,220,108894,1,0,0:0:0:0:
31,278,109134,2,0,P|39:326|40:357,1,80,10|8,0:3|0:3,0:0:0:0:
134,300,109614,1,2,0:0:0:0:
52,151,109854,5,4,0:0:0:0:
52,151,110334,1,8,0:3:0:0:
128,92,110574,1,8,0:3:0:0:
221,70,110814,1,8,0:3:0:0:
320,94,111054,2,0,P|355:121|381:153,1,80,8|8,0:3|0:3,0:0:0:0:
458,276,111534,2,0,P|464:325|466:374,1,80,2|8,0:0|0:0,0:0:0:0:
462,366,113934,6,0,P|380:334|253:296,1,191.999994140625,6|10,0:0|0:0,0:0:0:0:
165,271,114654,1,8,0:3:0:0:
30,298,114894,2,0,P|87:306|131:302,1,95.9999970703126,10|0,0:3|0:0,0:0:0:0:
250,206,115374,2,0,P|210:267|201:316,1,95.9999970703126,8|0,0:0|0:0,0:0:0:0:
117,366,115854,6,0,P|85:297|-8:217,1,191.999994140625,6|10,0:0|0:0,0:0:0:0:
23,124,116574,1,8,0:3:0:0:
91,67,116814,2,0,P|153:67|191:75,1,95.9999970703126,10|0,0:3|0:0,0:0:0:0:
300,104,117294,2,0,P|363:112|406:126,1,95.9999970703126,10|0,0:0|0:0,0:0:0:0:
446,53,117774,6,0,B|421:108|487:136|402:238,1,191.999994140625,6|10,0:0|0:0,0:0:0:0:
248,225,118494,2,0,B|307:194|320:262|235:312|304:373,1,191.999994140625,8|0,0:3|0:0,0:0:0:0:
374,316,119214,1,10,0:0:0:0:
193,283,119454,6,0,B|140:276|151:344|-1:337,1,191.999994140625,0|0,0:0|0:0,0:0:0:0:
116,218,120174,1,10,0:0:0:0:
223,4,120654,1,2,0:0:0:0:
271,85,120894,1,8,0:3:0:0:
279,173,121134,2,0,P|277:248|277:290,1,95.9999970703126,10|2,0:0|0:0,0:0:0:0:
319,356,121614,6,0,P|304:269|316:153,1,191.999994140625,6|10,0:0|0:0,0:0:0:0:
390,93,122334,1,0,0:0:0:0:
469,129,122574,2,0,P|421:189|436:308,1,191.999994140625,2|10,0:0|0:0,0:0:0:0:
512,345,123294,1,0,0:0:0:0:
423,237,123534,6,0,P|358:228|267:318,1,191.999994140625,2|10,0:0|0:0,0:0:0:0:
347,271,124254,1,8,0:3:0:0:
258,149,124494,2,0,P|206:168|154:160,1,95.9999970703126,10|0,0:3|0:0,0:0:0:0:
85,111,124974,1,10,0:0:0:0:
31,27,125214,1,0,0:0:0:0:
155,66,125454,6,0,P|166:135|182:290,1,191.999994140625,2|10,0:0|0:0,0:0:0:0:
278,288,126174,2,0,B|176:242|220:331|136:318|77:284,1,191.999994140625,10|2,0:3|0:0,0:0:0:0:
92,210,126894,1,0,0:0:0:0:
199,379,127134,5,6,0:0:0:0:
199,379,127614,1,8,0:0:0:0:
293,346,127854,1,10,0:0:0:0:
360,273,128094,1,8,0:3:0:0:
360,273,128214,1,8,0:3:0:0:
360,273,128334,2,0,P|357:222|339:173,1,95.9999970703126,10|8,0:3|0:3,0:0:0:0:
294,105,128814,1,10,0:0:0:0:
294,105,128934,1,8,0:0:0:0:
294,105,129054,1,8,0:0:0:0:
189,48,129294,6,0,P|186:104|192:159,1,95.9999970703126,10|0,0:0|0:0,0:0:0:0:
244,199,129774,2,0,P|257:246|257:295,1,95.9999970703126,10|0,0:0|0:0,0:0:0:0:
157,350,130254,1,10,0:0:0:0:
142,246,130494,1,0,0:0:0:0:
57,167,130734,1,10,0:0:0:0:
122,264,130974,1,0,0:0:0:0:
215,166,131214,6,0,B|137:148|182:244|32:252,1,191.999994140625,10|10,0:0|0:0,0:0:0:0:
82,127,131934,1,0,0:0:0:0:
29,30,132174,2,0,P|39:83|54:141,1,95.9999970703126,10|0,0:0|0:0,0:0:0:0:
165,0,132654,2,0,P|160:57|147:118,1,95.9999970703126,10|0,0:0|0:0,0:0:0:0:
221,177,133134,6,0,P|253:137|332:132,1,95.9999970703126,10|0,0:0|0:0,0:0:0:0:
256,47,133614,1,10,0:0:0:0:
344,0,133854,2,0,P|341:81|330:203,1,191.999994140625,0|0,0:0|0:0,0:0:0:0:
313,287,134574,1,10,0:0:0:0:
420,225,134814,1,0,0:0:0:0:
315,129,135054,6,0,P|305:197|294:221,1,95.9999970703126,10|0,0:0|0:0,0:0:0:0:
178,183,135534,2,0,P|189:245|195:297,1,95.9999970703126,10|0,0:0|0:0,0:0:0:0:
277,337,136014,1,10,0:0:0:0:
385,293,136254,1,0,0:0:0:0:
489,324,136494,2,0,P|437:325|366:324,1,95.9999970703126,10|0,0:0|0:0,0:0:0:0:
308,331,136974,6,0,P|383:331|506:275,1,191.999994140625,6|10,0:0|0:0,0:0:0:0:
422,222,137694,1,0,0:0:0:0:
364,152,137934,2,0,P|358:101|356:46,1,95.9999970703126,2|0,0:0|0:0,0:0:0:0:
473,7,138414,2,0,P|423:58|397:77,1,95.9999970703126,10|0,0:0|0:0,0:0:0:0:
271,10,138894,6,0,B|194:17|230:92|58:68,1,191.999994140625,2|10,0:0|0:0,0:0:0:0:
11,10,139614,1,0,0:0:0:0:
122,26,139854,2,0,P|145:73|145:124,1,95.9999970703126,2|0,0:0|0:0,0:0:0:0:
22,193,140334,1,10,0:0:0:0:
103,164,140574,1,8,0:3:0:0:
202,179,140814,6,0,P|130:169|141:270,1,191.999994140625,2|10,0:0|0:0,0:0:0:0:
244,286,141534,2,0,P|220:202|206:157,1,95.9999970703126,2|0,0:0|0:0,0:0:0:0:
293,93,142014,2,0,P|300:163|305:219,1,95.9999970703126,2|0,0:0|0:0,0:0:0:0:
325,358,142494,5,6,0:0:0:0:
325,358,142974,1,8,0:0:0:0:
419,331,143214,1,10,0:0:0:0:
479,257,143454,1,8,0:3:0:0:
479,257,143574,1,8,0:3:0:0:
479,257,143694,1,10,0:3:0:0:
480,149,143934,1,0,0:0:0:0:
444,60,144174,1,10,0:0:0:0:
444,60,144294,1,8,0:0:0:0:
444,60,144414,1,8,0:0:0:0:
340,15,144654,6,0,P|286:14|225:30,1,95.9999970703126,14|0,0:0|0:0,0:0:0:0:
127,48,145134,2,0,P|87:118|74:175,1,95.9999970703126,14|0,0:0|0:0,0:0:0:0:
257,271,145614,2,0,P|246:203|226:162,1,95.9999970703126,14|0,0:0|0:0,0:0:0:0:
13,219,146094,1,14,0:0:0:0:
104,231,146334,1,0,0:0:0:0:
242,99,146574,6,0,P|221:147|197:208,1,95.9999970703126,14|0,0:0|0:0,0:0:0:0:
320,274,147054,2,0,P|306:213|273:154,1,95.9999970703126,14|0,0:0|0:0,0:0:0:0:
151,314,147534,1,14,0:0:0:0:
237,324,147774,1,0,0:0:0:0:
137,258,148014,1,14,0:0:0:0:
44,369,148254,1,0,0:0:0:0:
136,288,148494,6,0,P|125:239|112:88,1,191.999994140625,14|14,0:0|0:0,0:0:0:0:
208,0,149214,2,0,P|167:79|116:196,1,191.999994140625,0|0,0:0|0:0,0:0:0:0:
200,232,149934,1,14,0:0:0:0:
332,176,150174,1,8,0:3:0:0:
329,55,150414,6,0,P|290:156|294:280,1,191.999994140625,6|2,0:0|0:0,0:0:0:0:
377,273,151134,2,0,B|306:243|366:374|270:329|209:290,1,191.999994140625,6|8,0:0|0:0,0:0:0:0:
204,384,151854,2,0,P|183:291|140:205,1,191.999994140625,10|6,0:0|0:0,0:0:0:0:
140,206,152814,6,0,P|138:148|146:100,1,95.9999970703126,2|2,0:0|0:0,0:0:0:0:
212,53,153294,1,2,0:0:0:0:
212,53,153774,2,0,P|232:101|236:161,1,95.9999970703126,2|2,0:0|0:0,0:0:0:0:
242,221,154254,2,0,P|269:145|298:112,1,95.9999970703126,2|2,0:0|0:0,0:0:0:0:
349,79,154734,1,2,0:0:0:0:
413,96,154974,6,0,P|349:90|266:-8,1,191.999994140625,2|2,0:0|0:0,0:0:0:0:
199,55,155694,1,2,0:0:0:0:
116,63,155934,1,2,0:0:0:0:
38,31,156174,6,0,P|60:70|70:149,1,120.000004577637,2|2,0:0|0:0,0:0:0:0:
51,224,156894,2,0,P|53:218|88:246,1,60.0000022888184,2|0,0:0|0:0,0:0:0:0:
143,273,157374,2,0,P|107:246|81:260,1,60.0000022888184,2|0,0:0|0:0,0:0:0:0:
114,309,157854,6,0,L|485:26,1,460,6|0,0:0|0:0,0:0:0:0:
