osu file format v14

[General]
AudioFilename: audio.mp3
AudioLeadIn: 0
PreviewTime: 47574
Countdown: 0
SampleSet: Soft
StackLeniency: 0.7
Mode: 0
LetterboxInBreaks: 0
WidescreenStoryboard: 1

[Editor]
DistanceSpacing: 3.1
BeatDivisor: 4
GridSize: 8
TimelineZoom: 1.5

[Metadata]
Title:and I'm home
TitleUnicode:and I'm home
Artist:Miki Sayaka (CV: Kitamura Eri), Sakura Kyoko (CV: Nonaka Ai)
ArtistUnicode:美樹さやか(CV:喜多村英梨)、佐倉杏子(CV:野中藍)
Creator:VanillaSandvich
Version:I'll see you again
Source:魔法少女まどか☆マギカ
Tags:puella magi madoka magica magical girl mahou shoujou shoujo full version
BeatmapID:1984139
BeatmapSetID:949565

[Difficulty]
HPDrainRate:5
CircleSize:4
OverallDifficulty:8.5
ApproachRate:8.5
SliderMultiplier:1.8
SliderTickRate:1

[Events]
//Background and Video events
0,0,"andim home.jpg",0,0
//Break Periods
//Storyboard Layer 0 (Background)
//Storyboard Layer 1 (Fail)
//Storyboard Layer 2 (Pass)
//Storyboard Layer 3 (Foreground)
//Storyboard Sound Samples

[TimingPoints]
654,480,4,2,3,30,1,0
654,-125,4,2,3,30,0,0
8814,-83.3333333333333,4,2,3,52,0,0
16014,-100,4,2,3,52,0,0
48654,-83.3333333333333,4,2,3,52,0,1
61854,-83.3333333333333,4,2,3,52,0,0
64014,-83.3333333333333,4,2,3,52,0,1
71694,-133.333333333333,4,2,3,52,0,0
81294,-100,4,2,3,52,0,0
112494,-133.333333333333,4,2,3,52,0,0
113934,-83.3333333333333,4,2,3,52,0,1
127134,-83.3333333333333,4,2,3,52,0,0
129294,-83.3333333333333,4,2,3,52,0,1
142494,-83.3333333333333,4,2,3,52,0,0
144654,-83.3333333333333,4,2,3,52,0,1
152334,-83.3333333333333,4,2,3,52,0,0
152814,-83.3333333333333,4,2,3,52,0,0
156174,-200,4,2,3,52,0,0
157854,-400,4,2,3,52,0,0

[Colours]
Combo1 : 255,255,21
Combo2 : 225,0,0
Combo3 : 0,236,236
Combo4 : 149,0,149
Combo5 : 255,108,182

[HitObjects]
0,167,414,5,0,0:0:0:0:
43,301,654,2,0,B|143:318|143:318|195:296,1,144,6|2,0:0|0:0,0:0:0:0:
90,383,1374,1,2,0:0:0:0:
247,379,1614,1,2,0:0:0:0:
144,287,1854,1,2,0:0:0:0:
387,257,2094,1,10,0:0:0:0:
289,206,2334,1,10,0:3:0:0:
283,220,2574,6,0,P|222:178|192:87,1,144,10|2,0:3|0:0,0:0:0:0:
415,281,3294,2,0,P|476:239|505:81,1,216,2|2,0:0|0:0,0:0:0:0:
314,200,4254,1,8,0:3:0:0:
316,228,4494,6,0,L|311:371,1,144,8|0,0:3|0:0,0:0:0:0:
460,352,5214,1,0,0:0:0:0:
441,157,5454,2,0,L|424:13,1,144,2|8,0:0|0:0,0:0:0:0:
278,185,6174,1,8,0:3:0:0:
283,215,6414,2,0,L|278:358,1,144,8|4,0:3|0:0,0:0:0:0:
417,340,7134,1,0,0:0:0:0:
398,145,7374,2,0,L|381:1,1,144,2|2,0:0|0:0,0:0:0:0:
199,24,8094,1,8,0:3:0:0:
70,138,8334,1,8,0:3:0:0:
70,138,8814,5,8,0:3:0:0:
63,161,9054,1,8,0:3:0:0:
139,247,9294,5,8,0:3:0:0:
133,196,9534,1,8,0:3:0:0:
235,93,9774,5,8,0:3:0:0:
223,171,10014,1,8,0:3:0:0:
324,254,10254,5,8,0:3:0:0:
304,128,10494,1,8,0:3:0:0:
416,70,10734,5,8,0:3:0:0:
295,249,10974,1,8,0:3:0:0:
235,77,11214,5,8,0:3:0:0:
512,215,11454,1,8,0:3:0:0:
385,346,11694,5,8,0:3:0:0:
356,52,11934,1,8,0:3:0:0:
228,384,12174,5,6,0:0:0:0:
0,56,14094,1,2,0:0:0:0:
102,51,15294,5,0,0:0:0:0:
122,246,15534,1,10,0:0:0:0:
146,174,15774,1,0,0:0:0:0:
0,140,16014,6,0,B|-17:214|33:229|33:229|73:191|138:224,1,180,6|10,0:0|0:0,0:0:0:0:
121,306,16734,1,8,0:3:0:0:
151,298,16974,2,0,P|203:298|250:311,1,90,10|0,0:3|0:0,0:0:0:0:
355,338,17454,2,0,P|311:350|266:350,1,90,10|0,0:0|0:0,0:0:0:0:
60,238,17934,2,0,B|176:212|126:291|253:248,1,180,2|10,0:0|0:0,0:0:0:0:
233,220,18654,2,0,B|190:253|190:253|210:396,1,180,8|0,0:3|0:0,0:0:0:0:
56,347,19374,1,10,0:0:0:0:
0,300,19614,1,0,0:0:0:0:
164,338,19854,6,0,B|146:390|48:317|-13:359|5:386|74:392,1,180,6|10,0:0|0:0,0:0:0:0:
120,211,20574,1,8,0:3:0:0:
135,199,20814,2,0,B|153:251|251:178|312:220|294:247|225:253,1,180,10|10,0:3|0:0,0:0:0:0:
271,103,21534,1,0,0:0:0:0:
115,30,21774,2,0,B|137:-2|182:15|182:15|196:75|152:140,1,180,2|10,0:0|0:0,0:0:0:0:
160,140,22494,2,0,B|128:118|145:73|145:73|205:59|270:103,1,180,10|0,0:3|0:0,0:0:0:0:
314,213,23214,1,10,0:0:0:0:
235,222,23454,1,0,0:0:0:0:
399,23,23694,6,0,B|496:-16|486:81|443:150,1,180,6|10,0:0|0:0,0:0:0:0:
343,234,24414,1,8,0:3:0:0:
361,202,24654,2,0,L|356:104,1,90,10|0,0:3|0:0,0:0:0:0:
329,224,25134,2,0,L|333:313,1,90,10|0,0:0|0:0,0:0:0:0:
217,199,25614,2,0,B|163:201|139:215|137:252|171:274|176:308|144:346,1,180,2|10,0:0|0:0,0:0:0:0:
150,356,26334,2,0,B|107:368|113:292|189:299|184:333|226:354|267:315,1,180,10|0,0:3|0:0,0:0:0:0:
407,201,27054,1,10,0:0:0:0:
318,191,27294,1,0,0:0:0:0:
397,384,27534,6,0,P|317:347|228:354,1,180,6|10,0:0|0:0,0:0:0:0:
53,290,28254,1,8,0:3:0:0:
61,279,28494,2,0,P|141:242|230:249,1,180,10|10,0:3|0:0,0:0:0:0:
297,98,29214,1,0,0:0:0:0:
319,219,29454,2,0,L|326:114,2,90,4|0|10,0:0|0:0|0:0,0:0:0:0:
379,0,30174,2,0,L|287:37,1,90,2|10,0:0|0:3,0:0:0:0:
227,200,30654,1,8,0:0:0:0:
89,55,30894,1,10,0:0:0:0:
107,49,31134,1,8,0:3:0:0:
137,231,31374,5,6,0:0:0:0:
213,256,31614,1,0,0:0:0:0:
131,350,31855,2,0,B|120:295|120:295|124:262,1,90,10|8,0:0|0:3,0:0:0:0:
129,224,32334,2,0,B|143:180|143:180|136:135,1,90,10|0,0:3|0:3,0:0:0:0:
205,310,32814,1,10,0:0:0:0:
249,222,33054,1,0,0:0:0:0:
264,242,33294,2,0,B|296:255|296:255|360:236,1,90,10|0,0:3|0:3,0:0:0:0:
361,360,33774,2,0,B|329:347|329:347|265:366,1,90,10|8,0:0|0:3,0:0:0:0:
246,352,34254,5,10,0:3:0:0:
477,346,34494,2,0,L|488:243,2,90,0|10|0,0:0|0:0|0:0,0:0:0:0:
492,94,35214,2,0,B|522:146|507:237|400:240,1,180,2|10,0:0|0:0,0:0:0:0:
408,219,35934,2,0,B|254:175|269:287|146:241,1,270,8|10,0:3|0:0,0:0:0:0:
281,383,36894,2,0,B|342:363|342:363|363:286|298:233,1,180,2|8,0:0|0:3,0:0:0:0:
425,344,37614,1,10,0:0:0:0:
494,312,37854,1,0,0:0:0:0:
475,283,38094,2,0,B|462:241|462:241|474:197,1,90,10|0,0:3|0:0,0:0:0:0:
502,36,38574,2,0,P|511:79|502:123,1,90,10|0,0:0|0:0,0:0:0:0:
218,20,39054,6,0,B|280:34|280:34|315:22|315:22|404:45,1,180,6|10,0:0|0:0,0:0:0:0:
142,98,39774,1,8,0:3:0:0:
126,114,40014,2,0,B|162:160|239:150,1,90,10|0,0:3|0:0,0:0:0:0:
336,75,40494,1,10,0:0:0:0:
416,151,40734,1,8,0:3:0:0:
404,147,40974,2,0,B|322:164|402:264|299:291,1,180,10|10,0:3|0:0,0:0:0:0:
72,276,41694,1,8,0:3:0:0:
83,267,41934,2,0,B|181:281|203:353|203:353|186:385,1,180,10|10,0:3|0:0,0:0:0:0:
266,297,42654,1,0,0:0:0:0:
61,357,42894,1,6,0:0:0:0:
27,252,43374,6,0,B|18:297|18:297|21:352,1,90,10|0,0:0|0:0,0:0:0:0:
123,164,43854,1,10,0:3:0:0:
121,152,44094,1,8,0:3:0:0:
110,272,44334,1,10,0:0:0:0:
243,0,44574,1,6,0:0:0:0:
310,39,45054,5,8,0:3:0:0:
246,130,45294,1,8,0:3:0:0:
380,163,45534,1,8,0:3:0:0:
197,225,45774,1,8,0:3:0:0:
405,271,46014,1,8,0:3:0:0:
128,346,46254,5,6,0:0:0:0:
511,157,46494,1,6,0:0:0:0:
483,112,48654,6,0,B|433:93|371:133|464:222|306:239|287:184,1,215.999993408203,6|10,0:0|0:0,0:0:0:0:
212,142,49374,1,8,0:3:0:0:
193,139,49614,2,0,P|251:180|254:169,1,107.999996704102,10|0,0:3|0:0,0:0:0:0:
84,72,50094,2,0,P|142:31|145:42,1,107.999996704102,10|0,0:0|0:0,0:0:0:0:
22,257,50574,2,0,B|-50:319|-27:377|72:392|125:378|128:346,1,215.999993408203,4|10,0:0|0:0,0:0:0:0:
153,280,51294,1,8,0:3:0:0:
170,270,51534,2,0,P|206:326|198:328,1,107.999996704102,10|0,0:3|0:0,0:0:0:0:
369,188,52014,2,0,P|371:236|322:237,1,107.999996704102,10|0,0:0|0:0,0:0:0:0:
418,50,52494,6,0,B|347:74|329:180|419:235,1,215.999993408203,6|10,0:0|0:0,0:0:0:0:
340,78,53214,2,0,P|322:123|367:140,1,107.999996704102,8|10,0:3|0:3,0:0:0:0:
488,220,53694,2,0,P|443:201|425:246,1,107.999996704102,0|10,0:0|0:0,0:0:0:0:
491,302,54174,1,0,0:0:0:0:
107,353,54414,2,0,B|235:327|235:327|244:330|244:330|339:308,1,215.999993408203,6|10,0:0|0:0,0:0:0:0:
327,114,55134,1,8,0:3:0:0:
315,97,55374,2,0,P|288:51|237:11,1,107.999996704102,10|0,0:3|0:0,0:0:0:0:
83,164,55854,2,0,P|136:158|188:173,1,107.999996704102,10|0,0:0|0:0,0:0:0:0:
471,373,56334,6,0,B|528:288|509:240|509:240|508:258|488:285|443:295,1,215.999993408203,6|10,0:0|0:0,0:0:0:0:
353,292,57054,1,8,0:3:0:0:
342,280,57294,2,0,B|282:240|300:194|323:147|263:99|211:115,1,215.999993408203,10|10,0:3|0:0,0:0:0:0:
68,191,58014,1,0,0:0:0:0:
60,293,58254,2,0,B|63:366|126:416|252:305,1,215.999993408203,10|10,0:3|0:0,0:0:0:0:
326,232,58974,1,8,0:3:0:0:
334,217,59214,2,0,B|292:195|272:266|188:229,1,107.999996704102,8|0,0:3|0:0,0:0:0:0:
7,174,59694,5,10,0:0:0:0:
213,275,59934,1,0,0:0:0:0:
3,321,60174,2,0,B|-39:265|-9:175|157:198,1,215.999993408203,2|10,0:0|0:0,0:0:0:0:
250,185,60894,2,0,P|291:127|280:124,1,107.999996704102,8|10,0:3|0:3,0:0:0:0:
160,32,61374,2,0,P|219:73|222:62,1,107.999996704102,0|10,0:0|0:0,0:0:0:0:
475,132,61854,2,0,P|469:79|318:66,1,215.999993408203,6|8,0:0|0:0,0:0:0:0:
160,286,62574,1,8,0:0:0:0:
270,117,62814,5,8,0:0:0:0:
286,143,63054,1,8,0:3:0:0:
287,168,63294,1,8,0:3:0:0:
269,196,63534,5,8,0:0:0:0:
193,191,63654,1,8,0:0:0:0:
155,126,63774,1,8,0:0:0:0:
423,276,64014,6,0,P|440:239|403:262,1,107.999996704102,10|0,0:0|0:0,0:0:0:0:
219,195,64494,1,10,0:0:0:0:
112,362,64734,2,0,P|52:369|5:343,2,107.999996704102,0|10|0,0:0|0:0|0:0,0:0:0:0:
383,109,65454,2,0,P|432:91|491:95,1,107.999996704102,10|0,0:0|0:0,0:0:0:0:
83,94,65934,2,0,B|49:42|59:1|101:-6|128:19,2,107.999996704102,14|0|10,0:0|0:0|0:0,0:0:0:0:
468,128,66654,1,0,0:0:0:0:
297,0,66894,2,0,L|191:20,1,107.999996704102,10|0,0:0|0:0,0:0:0:0:
304,300,67374,2,0,L|411:308,1,107.999996704102,10|0,0:0|0:0,0:0:0:0:
297,0,67854,6,0,B|243:143|352:69|291:213,1,215.999993408203,10|8,0:0|0:0,0:0:0:0:
0,108,68574,2,0,P|90:85|112:87,1,107.999996704102,2|8,0:0|0:0,0:0:0:0:
195,384,69054,2,0,P|172:294|174:272,1,107.999996704102,2|8,0:0|0:0,0:0:0:0:
325,117,69534,1,8,0:3:0:0:
454,384,69774,6,0,B|437:277,1,107.999996704102,6|0,0:0|0:0,0:0:0:0:
343,0,70254,2,0,B|326:106,1,107.999996704102,10|12,0:0|0:0,0:0:0:0:
196,365,70734,1,10,0:0:0:0:
106,139,70974,2,0,L|172:123,1,53.9999983520508
55,134,71214,1,10,0:0:0:0:
241,220,71454,1,0,0:0:0:0:
23,384,71694,6,0,P|13:299|120:229,1,202.500007724762,6|2,0:0|0:0,0:0:0:0:
150,164,72654,2,0,B|131:208|131:208|147:307,1,135.000005149842,2|2,0:0|0:0,0:0:0:0:
162,144,73374,1,2,0:0:0:0:
95,96,73614,6,0,P|144:57|266:116,1,202.500007724762,2|2,0:0|0:0,0:0:0:0:
314,184,74574,2,0,B|295:139|295:139|311:41,1,135.000005149842,2|2,0:0|0:0,0:0:0:0:
324,210,75294,1,2,0:0:0:0:
369,289,75534,6,0,L|517:302,1,135.000005149842,2|0,0:0|0:0,0:0:0:0:
283,286,76254,1,2,0:0:0:0:
378,329,76494,2,0,L|526:342,1,135.000005149842,2|2,0:0|0:0,0:0:0:0:
113,384,77214,1,6,0:0:0:0:
63,332,77454,6,0,B|35:280|71:252,1,67.5000025749208,2|8,0:0|0:3,0:0:0:0:
0,163,77934,1,8,0:0:0:0:
220,184,78174,2,0,B|248:236|212:264,1,67.5000025749208,0|2,0:0|0:0,0:0:0:0:
221,262,78653,1,8,0:3:0:0:
186,48,78893,1,8,0:0:0:0:
216,23,79134,2,0,B|205:37|205:37|222:87,1,67.5000025749208,8|2,0:3|0:0,0:0:0:0:
245,89,79614,1,8,0:3:0:0:
395,223,79854,2,0,B|384:209|384:209|401:159,1,67.5000025749208,8|0,0:0|0:0,0:0:0:0:
420,103,80214,1,0,0:0:0:0:
441,44,80334,1,10,0:3:0:0:
322,34,80574,5,8,0:0:0:0:
399,324,80814,1,8,0:0:0:0:
413,336,81054,1,8,0:3:0:0:
229,152,81294,6,0,B|139:151|239:292|100:275,1,180,6|10,0:0|0:0,0:0:0:0:
51,284,82014,1,8,0:3:0:0:
20,209,82254,2,0,P|42:156|78:172,1,90,10|0,0:3|0:0,0:0:0:0:
159,313,82734,2,0,P|105:291|122:255,1,90,10|0,0:0|0:0,0:0:0:0:
331,88,83214,6,0,B|364:137|368:207|306:291,1,180,2|10,0:0|0:0,0:0:0:0:
309,283,83934,2,0,P|225:254|145:291,1,180,8|0,0:3|0:0,0:0:0:0:
173,183,84654,1,10,0:0:0:0:
192,257,84894,1,0,0:0:0:0:
142,82,85134,6,0,P|166:126|68:136,1,180,2|10,0:0|0:0,0:0:0:0:
277,54,85854,1,8,0:3:0:0:
291,72,86094,2,0,P|247:96|237:-2,1,180,10|10,0:3|0:0,0:0:0:0:
380,48,86814,1,0,0:0:0:0:
373,74,87054,2,0,B|376:117|335:157|335:157|325:193|350:260,1,180,10|10,0:3|0:0,0:0:0:0:
400,305,87774,2,0,B|396:341|384:369|355:377,1,90,8|2,0:3|0:0,0:0:0:0:
334,384,88254,2,0,B|320:358|298:343|261:338,1,90,8|10,0:3|0:0,0:0:0:0:
233,353,88734,1,8,0:3:0:0:
100,258,88974,6,0,B|123:234|178:247|180:290|165:362|81:360,1,180,6|10,0:0|0:0,0:0:0:0:
213,189,89694,1,8,0:3:0:0:
236,188,89934,2,0,P|270:215|282:257,1,90,10|0,0:3|0:0,0:0:0:0:
393,214,90414,2,0,P|349:225|310:197,1,90,10|0,0:0|0:0,0:0:0:0:
475,64,90894,2,0,B|503:69|536:80|505:163|439:152|396:126|371:84,1,180,2|10,0:0|0:0,0:0:0:0:
280,48,91614,2,0,L|248:152,1,90,8|10,0:3|0:3,0:0:0:0:
314,244,92094,2,0,L|295:155,1,90,0|10,0:0|0:0,0:0:0:0:
396,208,92574,1,0,0:0:0:0:
130,351,92814,6,0,B|79:362|79:362|9:312|52:241,1,180,2|10,0:0|0:0,0:0:0:0:
102,153,93534,1,8,0:3:0:0:
80,134,93774,2,0,B|113:116|150:123|150:123|191:167|268:140,1,180,10|10,0:3|0:0,0:0:0:0:
325,63,94494,1,0,0:0:0:0:
415,201,94734,2,0,B|405:239|405:239|394:255|394:255|381:299,1,90,2|0,0:0|0:0,0:0:0:0:
281,380,95214,1,10,0:0:0:0:
481,278,95454,1,4,0:0:0:0:
174,100,95934,5,8,0:0:0:0:
347,8,96174,1,8,0:0:0:0:
336,32,96414,1,8,0:3:0:0:
397,254,96654,5,6,0:0:0:0:
481,286,96894,1,0,0:0:0:0:
501,164,97135,2,0,B|488:126|488:126|494:76,1,90,10|8,0:0|0:3,0:0:0:0:
498,57,97614,2,0,B|462:40|462:40|409:55,1,90,8|0,0:3|0:0,0:0:0:0:
271,5,98094,1,10,0:0:0:0:
241,84,98334,2,0,B|228:116|228:116|247:180,1,90,0|10,0:0|0:3,0:0:0:0:
157,213,98814,2,0,B|170:181|170:181|151:117,1,90,0|10,0:0|0:0,0:0:0:0:
349,233,99294,1,8,0:3:0:0:
341,245,99534,5,10,0:3:0:0:
321,131,99774,2,0,L|313:220,2,90,0|10|2,0:0|0:0|0:0,0:0:0:0:
120,134,100494,2,0,B|171:101|227:119|227:119|219:163|245:196,1,180,10|10,0:3|0:0,0:0:0:0:
249,216,101214,2,0,B|235:259|187:271|187:271|131:268|86:294,1,180,8|0,0:3|0:0,0:0:0:0:
7,352,101934,1,10,0:0:0:0:
180,311,102174,2,0,B|222:305|267:328|267:328|314:362|368:356,2,180,2|2|8,0:3|0:0|0:3,0:0:0:0:
141,312,103374,1,10,0:3:0:0:
61,206,103614,1,0,0:0:0:0:
255,116,103854,2,0,B|273:148|273:148|263:204,1,90,10|0,0:0|0:0,0:0:0:0:
476,336,104334,6,0,B|449:319|419:324|419:324|358:365|285:339,1,180,6|10,0:0|0:0,0:0:0:0:
222,207,105054,1,8,0:3:0:0:
215,211,105294,2,0,B|163:238|139:312|182:375,1,180,10|10,0:3|0:0,0:0:0:0:
210,362,106014,1,8,0:3:0:0:
48,304,106254,2,0,B|86:245|199:186|307:202,1,270,2|0,0:0|0:0,0:0:0:0:
378,201,107214,2,0,B|347:286|475:285|513:191,1,180,2|10,0:0|0:0,0:0:0:0:
512,98,107934,1,2,0:0:0:0:
316,175,108174,1,4,0:0:0:0:
226,149,108654,6,0,B|258:160|258:160|330:146,1,90,10|0,0:0|0:0,0:0:0:0:
487,187,109134,1,10,0:3:0:0:
471,186,109374,1,8,0:3:0:0:
512,40,109614,1,2,0:0:0:0:
432,306,109854,1,4,0:0:0:0:
411,287,110334,5,8,0:3:0:0:
344,322,110574,1,8,0:3:0:0:
299,236,110814,1,8,0:3:0:0:
224,340,111054,1,8,0:3:0:0:
200,146,111294,1,8,0:3:0:0:
49,383,111534,5,2,0:0:0:0:
332,59,111774,1,8,0:0:0:0:
27,126,112494,6,0,B|67:130|91:86|92:86|92:86|117:127|87:197|44:224|49:270|144:302|193:244|181:225|162:199|140:193|119:197,1,371.250014162064,2|0,0:0|0:0,0:0:0:0:
135,197,113934,6,0,B|190:176|254:202|226:235|275:260|341:222,1,215.999993408203,6|10,0:0|0:0,0:0:0:0:
318,48,114654,1,8,0:3:0:0:
297,58,114894,2,0,B|253:112|307:170,1,107.999996704102,10|0,0:3|0:0,0:0:0:0:
389,295,115374,2,0,B|431:250|387:196,1,107.999996704102,8|0,0:0|0:0,0:0:0:0:
140,307,115854,6,0,B|200:278|250:283|207:390|302:401|366:358,1,215.999993408203,6|10,0:0|0:0,0:0:0:0:
496,283,116574,1,8,0:3:0:0:
509,261,116814,2,0,B|474:217|441:274|489:332,1,107.999996704102,10|0,0:3|0:0,0:0:0:0:
319,153,117294,2,0,B|354:109|387:166|339:224,1,107.999996704102,10|0,0:0|0:0,0:0:0:0:
252,383,117774,6,0,B|260:318|225:286|179:288|130:308|103:262|109:222,1,215.999993408203,6|10,0:0|0:0,0:0:0:0:
52,149,118494,2,0,P|69:104|124:88,1,107.999996704102,8|10,0:3|0:3,0:0:0:0:
25,345,118974,2,0,B|28:238,1,107.999996704102,0|10,0:0|0:0,0:0:0:0:
150,384,119453,1,0,0:0:0:0:
232,218,119694,6,0,B|310:187|282:267|222:307|132:259,1,215.999993408203,6|10,0:0|0:0,0:0:0:0:
173,158,120414,1,8,0:3:0:0:
187,140,120654,2,0,P|241:109|325:110,1,107.999996704102,2|8,0:0|0:3,0:0:0:0:
432,247,121134,2,0,P|389:216|337:204,1,107.999996704102,10|2,0:0|0:0,0:0:0:0:
0,335,121614,6,0,B|137:286|38:414|208:363,1,215.999993408203,6|10,0:0|0:0,0:0:0:0:
166,256,122334,1,0,0:0:0:0:
273,142,122574,2,0,B|288:240|136:258|108:203,1,215.999993408203,2|10,0:0|0:0,0:0:0:0:
126,89,123294,1,0,0:0:0:0:
30,172,123534,2,0,B|-29:134|18:72|87:54|156:87,1,215.999993408203,2|10,0:0|0:0,0:0:0:0:
213,121,124254,1,8,0:3:0:0:
224,125,124494,2,0,B|378:112|245:42|412:19,1,215.999993408203,10|10,0:3|0:0,0:0:0:0:
494,36,125214,1,0,0:0:0:0:
486,179,125454,6,0,B|409:232|335:253|290:236|262:192,1,215.999993408203,2|10,0:0|0:0,0:0:0:0:
167,108,126174,2,0,P|99:116|35:163,1,107.999996704102,10|8,0:3|0:3,0:0:0:0:
289,23,126654,2,0,P|339:42|380:78,1,107.999996704102,2|0,0:0|0:0,0:0:0:0:
472,300,127134,5,6,0:0:0:0:
490,266,127614,1,8,0:0:0:0:
218,185,127854,1,10,0:0:0:0:
349,40,128094,1,8,0:3:0:0:
363,32,128214,1,8,0:3:0:0:
400,32,128334,1,10,0:3:0:0:
512,155,128574,1,8,0:3:0:0:
411,302,128814,1,10,0:0:0:0:
357,335,128934,1,8,0:0:0:0:
295,321,129054,1,4,0:0:0:0:
107,258,129294,6,0,B|-23:281,1,107.999996704102,10|0,0:0|0:0,0:0:0:0:
285,121,129774,1,10,0:0:0:0:
139,302,130014,1,0,0:0:0:0:
46,66,130254,2,0,B|23:196,1,107.999996704102,10|0,0:0|0:0,0:0:0:0:
278,311,130734,2,0,B|259:204,1,107.999996704102,10|0,0:0|0:0,0:0:0:0:
419,40,131214,6,0,B|486:15|500:18|512:28|512:29|512:29|497:46,2,107.999996704102,10|0|10,0:0|0:0|0:0,0:0:0:0:
232,152,131934,1,0,0:0:0:0:
419,245,132174,2,0,B|489:247|509:199,1,107.999996704102,10|0,0:0|0:0,0:0:0:0:
279,376,132654,2,0,B|209:378|189:330,1,107.999996704102,10|0,0:0|0:0,0:0:0:0:
56,42,133134,6,0,B|66:6|112:60|122:149|90:250,1,215.999993408203,10|10,0:0|0:0,0:0:0:0:
168,382,133854,2,0,B|161:322|201:276,1,107.999996704102,0|10,0:0|0:0,0:0:0:0:
412,293,134334,2,0,P|360:305|304:306,1,107.999996704102,0|10,0:0|0:0,0:0:0:0:
138,209,134813,1,0,0:0:0:0:
167,0,135054,5,10,0:0:0:0:
167,0,135534,2,0,B|157:52|157:52|160:57|160:57|148:110,1,107.999996704102,10|0,0:0|0:0,0:0:0:0:
394,233,136014,2,0,B|383:184|383:184|386:179|386:179|376:127,1,107.999996704102,10|0,0:0|0:0,0:0:0:0:
124,384,136494,2,0,B|134:335|134:335|131:330|131:330|141:278,1,107.999996704102,10|0,0:0|0:0,0:0:0:0:
360,17,136974,6,0,B|294:13|255:23|218:24|172:55|172:55|227:70,1,215.999993408203,14|10,0:0|0:0,0:0:0:0:
431,141,137694,1,0,0:0:0:0:
97,46,137934,2,0,B|68:113|97:225|218:172|149:122,1,215.999993408203,10|10,0:0|0:0,0:0:0:0:
8,163,138654,1,0,0:0:0:0:
94,249,138894,2,0,B|258:218|157:308|346:259,1,215.999993408203,10|10,0:0|0:0,0:0:0:0:
438,215,139614,1,0,0:0:0:0:
178,47,139854,2,0,B|141:93|141:93|172:255,1,215.999993408203,10|10,0:0|0:0,0:0:0:0:
158,274,140574,1,8,0:3:0:0:
276,173,140814,6,0,P|358:189|389:321,1,215.999993408203,10|10,0:0|0:0,0:0:0:0:
429,104,141534,2,0,B|450:154|422:186|368:217,1,107.999996704102,2|8,0:0|0:0,0:0:0:0:
124,273,142014,2,0,B|144:222|187:219|247:235,1,107.999996704102,2|8,0:0|0:0,0:0:0:0:
505,352,142494,5,6,0:0:0:0:
512,366,142974,1,8,0:0:0:0:
257,353,143214,1,10,0:0:0:0:
411,169,143454,1,8,0:3:0:0:
424,171,143574,1,8,0:3:0:0:
444,199,143694,1,10,0:3:0:0:
297,263,143934,1,0,0:0:0:0:
363,39,144174,1,10,0:0:0:0:
426,50,144294,1,8,0:0:0:0:
473,92,144414,1,8,0:0:0:0:
459,294,144654,6,0,B|430:331|430:331|344:344,2,107.999996704102,14|0|14,0:0|0:0|0:0,0:0:0:0:
294,18,145374,2,0,L|218:0,1,53.9999983520508
320,50,145614,1,14,0:0:0:0:
190,144,145854,1,0,0:0:0:0:
404,203,146094,1,14,0:0:0:0:
154,346,146334,1,0,0:0:0:0:
392,46,146574,6,0,P|349:15|296:18,2,107.999996704102,14|0|14,0:0|0:0|0:0,0:0:0:0:
446,134,147294,2,0,L|522:116,1,53.9999983520508
420,166,147534,1,14,0:0:0:0:
512,282,147774,1,0,0:0:0:0:
252,141,148014,1,14,0:0:0:0:
164,384,148254,1,0,0:0:0:0:
499,384,148494,5,14,0:0:0:0:
508,372,148974,1,14,0:0:0:0:
155,208,149214,2,0,B|32:154,1,107.999996704102,0|14,0:0|0:0,0:0:0:0:
355,84,149694,2,0,B|478:30,1,107.999996704102,0|14,0:0|0:0,0:0:0:0:
495,62,150174,1,8,0:3:0:0:
34,138,150414,6,0,B|9:83|44:18,2,107.999996704102,6|0|6,0:0|0:0|0:0,0:0:0:0:
209,284,151134,1,8,0:0:0:0:
441,110,151374,2,0,B|386:72|302:94,1,107.999996704102,2|8,0:0|0:0,0:0:0:0:
145,235,151854,1,10,0:0:0:0:
191,294,151974,1,8,0:0:0:0:
260,291,152094,1,8,0:0:0:0:
0,168,152334,5,6,0:0:0:0:
160,25,152814,5,2,0:0:0:0:
134,45,153054,1,2,0:0:0:0:
120,79,153294,1,2,0:0:0:0:
274,131,153774,5,2,0:0:0:0:
338,291,154014,1,2,0:0:0:0:
310,279,154254,1,2,0:0:0:0:
267,277,154494,1,2,0:0:0:0:
222,308,154734,1,2,0:0:0:0:
107,282,154974,1,2,0:0:0:0:
142,84,155454,5,2,0:0:0:0:
225,155,155694,1,2,0:0:0:0:
329,86,155934,1,2,0:0:0:0:
342,56,156174,6,0,B|371:150,1,90,2|2,0:0|0:0,0:0:0:0:
382,328,156894,1,2,0:0:0:0:
389,359,157374,1,2,0:0:0:0:
396,376,157854,2,0,B|34:298|394:130|26:96,1,517.5,6|0,0:0|0:0,0:0:0:0:
