osu file format v14

[General]
AudioFilename: audio.mp3
AudioLeadIn: 0
PreviewTime: 47622
Countdown: 0
SampleSet: Soft
StackLeniency: 0.5
Mode: 0
LetterboxInBreaks: 0
WidescreenStoryboard: 0

[Editor]
Bookmarks: 163422
DistanceSpacing: 0.8
BeatDivisor: 4
GridSize: 4
TimelineZoom: 0.9

[Metadata]
Title:and I'm home
TitleUnicode:and I'm home
Artist:Miki Sayaka (CV: Kitamura Eri), Sakura Kyoko (CV: Nonaka Ai)
ArtistUnicode:美樹さやか(CV:喜多村英梨)、佐倉杏子(CV:野中藍)
Creator:Kyuukai
Version:Kyoko
Source:魔法少女まどか☆マギカ
Tags:puella magi madoka magica magical girl mahou shoujou shoujo yaleufeu full version wowaka とく toku
BeatmapID:1651309
BeatmapSetID:786689

[Difficulty]
HPDrainRate:6
CircleSize:4.1
OverallDifficulty:8.3
ApproachRate:8.2
SliderMultiplier:2
SliderTickRate:1

[Events]
//Background and Video events
0,0,"the first slider was really fast.jpg",0,0
//Break Periods
//Storyboard Layer 0 (Background)
//Storyboard Layer 1 (Fail)
//Storyboard Layer 2 (Pass)
//Storyboard Layer 3 (Foreground)
//Storyboard Sound Samples

[TimingPoints]
702,480,4,2,1,40,1,0
702,-125,4,2,1,40,0,0
8382,-125,4,2,1,45,0,0
10302,-125,4,2,1,50,0,0
11742,-125,4,2,1,55,0,0
12222,-166.666666666667,4,2,1,60,0,0
14142,-166.666666666667,4,2,1,40,0,0
16062,-125,4,2,1,45,0,0
31422,-117.647058823529,4,2,1,50,0,0
44622,-111.111111111111,4,2,1,55,0,0
46542,-200,4,2,1,55,0,0
47742,-200,4,2,1,30,0,0
48702,-100,4,2,1,60,0,1
63822,-100,4,2,1,50,0,0
64062,-83.3333333333333,4,2,1,60,0,1
71742,-142.857142857143,4,2,1,40,0,0
77262,-111.111111111111,4,2,1,50,0,0
81342,-125,4,2,1,45,0,0
96702,-117.647058823529,4,2,1,50,0,0
109902,-111.111111111111,4,2,1,55,0,0
111822,-200,4,2,1,50,0,0
113022,-200,4,2,1,30,0,0
113982,-100,4,2,1,60,0,1
129102,-100,4,2,1,50,0,0
129342,-83.3333333333333,4,2,1,60,0,1
144462,-100,4,2,1,50,0,0
144702,-76.9230769230769,4,2,1,65,0,1
152382,-166.666666666667,4,2,1,30,0,0
163422,-166.666666666667,4,2,1,5,0,0

[Colours]
Combo1 : 138,138,138
Combo2 : 255,128,128
Combo3 : 0,128,255
Combo4 : 192,192,192
Combo5 : 255,85,85
Combo6 : 79,167,255

[HitObjects]
12,120,702,38,0,B|100:88|92:156|184:124,1,160,0|0,1:0|0:0,0:0:0:0:
256,76,1422,1,2,0:0:0:0:
256,75,1662,2,0,P|293:64|333:67,1,80,2|2,0:0|0:0,0:0:0:0:
436,97,2142,2,0,P|439:57|428:20,1,80,10|2,0:0|0:0,0:0:0:0:
308,188,2622,2,0,B|396:156|388:224|480:192,1,160,2|2,1:2|0:0,0:0:0:0:
502,288,3342,2,0,P|424:304|348:284,1,160,2|0,0:0|0:0,0:0:0:0:
252,242,4062,2,0,P|274:209|307:188,1,80,2|0,0:0|1:0,0:0:0:0:
264,348,4542,38,0,B|156:328|156:328|128:376,1,160,2|0,1:2|0:0,0:0:0:0:
32,340,5262,1,2,0:0:0:0:
32,340,5502,2,0,L|24:252,1,80,2|0,0:0|0:0,0:0:0:0:
116,172,5982,2,0,L|108:260,1,80,8|0,0:0|1:0,0:0:0:0:
36,103,6462,2,0,P|104:67|180:88,1,160,2|0,1:2|0:0,0:0:0:0:
272,40,7182,1,2,0:0:0:0:
272,40,7422,2,0,P|284:84|276:124,1,80,2|0,0:0|0:0,0:0:0:0:
248,196,7902,1,2,0:1:0:0:
180,88,8142,1,0,1:0:0:0:
108,251,8382,37,4,1:2:0:0:
108,251,8862,37,0,1:0:0:0:
248,196,9102,1,0,1:0:0:0:
264,280,9342,1,0,1:0:0:0:
92,167,9582,1,0,1:0:0:0:
48,336,9822,1,2,1:2:0:0:
248,196,10062,1,0,1:0:0:0:
52,92,10302,37,10,0:0:0:0:
152,344,10542,1,8,0:0:0:0:
228,96,10782,1,8,0:0:0:0:
68,256,11022,1,10,0:0:0:0:
332,224,11262,1,8,0:0:0:0:
144,32,11502,1,8,0:0:0:0:
264,280,11742,1,10,0:0:0:0:
312,32,11982,1,8,0:0:0:0:
156,356,12222,37,6,0:0:0:0:
312,32,14142,37,2,0:0:0:0:
312,32,15342,1,0,1:0:0:0:
371,95,15582,2,0,P|401:100|431:97,1,59.9999981689454,8|0,0:0|1:0,0:0:0:0:
476,208,16062,6,0,P|398:191|320:206,1,160,4|8,0:0|0:0,0:0:0:0:
248,280,16782,1,0,1:0:0:0:
248,280,17022,2,0,P|196:292|140:276,1,80,0|0,1:0|0:0,0:0:0:0:
122,200,17502,2,0,P|160:189|200:192,1,80,8|0,0:0|1:0,0:0:0:0:
52,276,17982,2,0,P|20:200|56:120,1,160,0|8,1:0|0:0,0:0:0:0:
108,32,18702,2,0,L|123:109,1,80,0|0,1:0|1:0,0:0:0:0:
208,164,19182,1,0,0:0:0:0:
232,60,19422,1,8,0:0:0:0:
304,136,19662,1,0,1:0:0:0:
400,20,19902,38,0,B|372:100|432:92|396:188,1,160,0|8,1:0|0:0,0:0:0:0:
304,136,20622,1,0,1:0:0:0:
336,260,20862,2,0,P|404:280|492:228,1,160,0|8,1:0|0:0,0:0:0:0:
400,176,21582,1,0,0:0:0:0:
284,328,21822,2,0,P|208:347|138:310,1,160,0|8,1:0|0:0,0:0:0:0:
56,244,22542,1,0,1:0:0:0:
168,128,22782,2,0,L|153:206,1,80,0|0,1:0|0:0,0:0:0:0:
28,104,23262,1,8,0:0:0:0:
56,244,23502,1,0,1:0:0:0:
112,40,23742,38,0,B|184:32|184:32|276:72,1,160,0|8,1:0|0:0,0:0:0:0:
356,116,24462,1,0,1:0:0:0:
356,116,24702,2,0,P|392:124|440:112,1,80,0|0,1:0|0:0,0:0:0:0:
272,176,25182,2,0,P|236:184|188:172,1,80,8|0,0:0|1:0,0:0:0:0:
332,260,25662,2,0,P|408:244|504:272,1,160,0|8,1:0|0:0,0:0:0:0:
368,360,26382,2,0,P|332:368|284:356,1,80,0|0,1:0|1:0,0:0:0:0:
196,328,26862,1,0,0:0:0:0:
104,368,27102,1,8,0:0:0:0:
112,268,27342,1,0,1:0:0:0:
290,359,27582,38,0,L|302:191,1,160,0|8,1:0|0:0,0:0:0:0:
104,124,28302,1,0,1:0:0:0:
188,64,28542,2,0,L|200:232,1,160,0|8,1:0|0:0,0:0:0:0:
283,160,29262,1,0,0:0:0:0:
104,124,29502,1,0,1:0:0:0:
292,56,29742,1,0,0:0:0:0:
199,223,29982,1,8,0:0:0:0:
188,64,30222,2,0,L|193:143,1,80,0|0,1:0|1:0,0:0:0:0:
320,296,30702,37,8,0:0:0:0:
284,160,30942,1,8,0:0:0:0:
144,296,31182,1,0,1:0:0:0:
193,143,31422,5,6,1:2:0:0:
375,208,31662,2,0,P|387:167|382:125,1,85.0000016212464,0|8,0:0|0:0,0:0:0:0:
284,160,32142,1,0,1:0:0:0:
464,252,32382,2,0,P|484:168|464:68,1,170.000003242493,0|8,1:0|0:0,0:0:0:0:
284,160,33102,1,0,0:0:0:0:
382,125,33342,1,0,1:0:0:0:
244,56,33582,1,0,0:0:0:0:
186,194,33822,2,0,P|145:204|104:196,2,85.0000016212464,8|0|0,0:0|1:0|1:0,0:0:0:0:
284,160,34542,2,0,L|276:244,1,85.0000016212464,0|10,0:0|0:0,0:0:0:0:
188,300,35022,1,0,1:0:0:0:
364,365,35262,38,0,L|380:196,1,170.000003242493,0|8,1:0|0:0,0:0:0:0:
392,52,35982,1,0,1:0:0:0:
464,128,36222,2,0,P|352:148|296:96,1,170.000003242493,0|8,1:0|0:0,0:0:0:0:
189,66,36942,2,0,B|234:37|234:37|205:158,1,170.000003242493,0|0,1:0|1:0,0:0:0:0:
120,260,37662,1,8,0:0:0:0:
104,156,37902,1,0,1:0:0:0:
256,308,38142,1,0,1:0:0:0:
308,184,38382,1,0,0:0:0:0:
256,324,38622,1,10,0:0:0:0:
207,150,38862,1,0,1:0:0:0:
336,304,39102,22,0,B|420:332|420:332|497:306,1,170.000003242493,4|8,0:0|0:0,0:0:0:0:
420,224,39822,1,0,1:0:0:0:
256,272,40062,2,0,L|240:92,1,170.000003242493,0|8,1:0|0:0,0:0:0:0:
172,24,40782,1,0,1:0:0:0:
312,32,41022,6,0,L|396:35,1,85.0000016212464,0|0,0:0|1:0,0:0:0:0:
512,153,41502,2,0,P|474:135|432:132,1,85.0000016212464,8|0,0:0|1:0,0:0:0:0:
292,144,41982,2,0,P|352:180|352:276,1,170.000003242493,0|10,1:0|0:0,0:0:0:0:
280,228,42702,1,0,0:0:0:0:
452,220,42942,22,0,P|440:292|424:324,1,85.0000016212464,0|0,1:0|0:0,0:0:0:0:
336,372,43422,1,8,0:0:0:0:
280,228,43662,1,0,1:0:0:0:
172,284,43902,1,0,1:0:0:0:
252,60,44142,1,0,1:0:0:0:
308,300,44382,1,8,0:0:0:0:
92,60,44622,1,4,0:0:0:0:
92,60,45102,5,0,1:0:0:0:
172,312,45342,1,0,1:0:0:0:
252,60,45582,1,0,1:0:0:0:
17,228,45822,1,8,0:0:0:0:
326,228,46062,1,8,0:0:0:0:
168,0,46302,1,10,0:0:0:0:
172,312,46542,1,10,0:0:0:0:
172,312,47742,22,0,P|184:280|212:324,1,100
220,311,48462,1,0,0:0:0:0:
76,320,48702,6,0,L|60:112,1,200,6|10,1:2|0:0,0:0:0:0:
124,16,49422,1,0,1:0:0:0:
256,112,49662,2,0,P|305:125|353:112,1,100,0|0,1:0|0:0,0:0:0:0:
200,16,50142,1,10,0:0:0:0:
304,204,50382,1,0,1:0:0:0:
488,24,50622,22,0,B|472:92|472:92|488:140|488:140|476:218,1,200,2|10,1:0|0:0,0:0:0:0:
288,348,51342,1,0,1:0:0:0:
336,172,51582,1,0,1:0:0:0:
504,344,51822,1,0,0:0:0:0:
440,172,52062,1,10,0:0:0:0:
396,384,52302,1,0,1:0:0:0:
232,200,52542,6,0,P|300:212|356:88,1,200,2|8,1:0|0:0,0:0:0:0:
172,8,53262,1,0,1:0:0:0:
126,224,53502,1,0,1:0:0:0:
280,128,53742,1,0,0:0:0:0:
76,128,53982,2,0,P|125:119|174:127,1,100,10|0,0:0|0:0,0:0:0:0:
265,281,54462,22,0,B|276:248|264:224|264:224|192:196|128:224,1,200,2|10,1:0|0:0,0:0:0:0:
284,384,55182,1,0,1:0:0:0:
364,316,55422,2,0,P|372:256|368:200,1,100,2|0,1:2|0:0,0:0:0:0:
332,36,55902,1,10,0:0:0:0:
472,188,56142,1,0,1:0:0:0:
256,176,56382,6,0,B|184:200|104:168|104:168|148:132,1,200,6|8,1:2|0:0,0:0:0:0:
228,84,57102,1,0,1:0:0:0:
32,116,57342,2,0,P|15:173|32:220,1,100,2|0,1:2|0:0,0:0:0:0:
184,220,57822,2,0,P|142:177|93:168,1,100,8|0,0:0|0:0,0:0:0:0:
24,348,58302,22,0,P|116:380|208:346,1,200,2|8,1:0|0:0,0:0:0:0:
352,200,59022,1,0,1:0:0:0:
379,300,59262,2,0,P|285:280|248:188,1,200,2|8,1:2|0:0,0:0:0:0:
452,60,59982,1,0,1:0:0:0:
356,5,60222,6,0,B|312:119|402:95|340:225,1,200,2|10,1:0|0:0,0:0:0:0:
191,51,60942,1,2,1:2:0:0:
351,199,61182,1,0,1:0:0:0:
284,0,61422,1,2,0:0:0:0:
212,224,61662,1,8,0:0:0:0:
448,60,61902,1,6,0:0:0:0:
448,60,62382,21,8,0:0:0:0:
336,280,62622,1,8,0:0:0:0:
356,116,62862,1,0,1:0:0:0:
432,360,63102,1,0,1:0:0:0:
512,116,63342,1,0,1:0:0:0:
336,280,63582,1,8,0:0:0:0:
287,290,63702,1,0,1:0:0:0:
238,281,63822,1,0,1:0:0:0:
120,380,64062,6,0,L|108:260,1,119.999996337891,6|0,0:0|0:0,0:0:0:0:
35,132,64542,2,0,P|94:140|149:117,1,119.999996337891,10|0,0:0|0:0,0:0:0:0:
268,8,65022,1,10,0:0:0:0:
308,236,65262,1,0,1:0:0:0:
149,117,65502,1,10,0:0:0:0:
428,96,65742,1,0,1:0:0:0:
264,300,65982,22,0,L|251:180,1,119.999996337891,10|2,0:0|0:0,0:0:0:0:
428,96,66462,2,0,L|415:215,1,119.999996337891,10|2,0:0|0:0,0:0:0:0:
308,72,66942,1,10,0:0:0:0:
404,300,67182,1,0,1:0:0:0:
428,96,67422,1,10,0:0:0:0:
264,300,67662,1,0,1:0:0:0:
88,120,67902,6,0,P|145:136|202:120,1,119.999996337891,14|0,1:2|0:0,0:0:0:0:
144,32,68382,1,10,0:0:0:0:
0,174,68622,2,0,P|-16:117|0:60,1,119.999996337891,2|8,0:0|0:0,0:0:0:0:
202,120,69102,2,0,P|144:135|87:119,1,119.999996337891,2|8,1:2|0:2,0:0:0:0:
291,61,69582,1,2,1:2:0:0:
256,268,69822,22,0,P|144:230|32:268,1,239.999992675781,4|10,0:0|0:0,0:0:0:0:
256,360,70542,1,4,0:0:0:0:
152,100,70782,1,10,0:0:0:0:
96,324,71022,1,0,1:0:0:0:
96,324,71142,1,0,1:0:0:0:
96,324,71262,1,2,1:2:0:0:
360,100,71502,1,0,1:0:0:0:
416,324,71742,6,0,B|312:320|312:320|292:276,1,139.999995727539,6|0,0:0|0:0,0:0:0:0:
256,192,72462,1,0,0:0:0:0:
96,324,72702,2,0,B|200:320|200:320|214:287,1,139.999995727539,0|2,0:0|0:0,0:0:0:0:
256,192,73422,1,0,0:0:0:0:
297,96,73662,22,0,B|312:64|312:64|416:60,1,139.999995727539
256,192,74382,1,0,0:0:0:0:
214,96,74622,2,0,B|200:64|200:64|96:60,1,139.999995727539,0|2,0:0|0:0,0:0:0:0:
256,192,75342,1,0,0:0:0:0:
132,160,75582,6,0,L|147:299,1,139.999995727539
256,192,76302,1,0,0:0:0:0:
364,299,76542,2,0,L|380:160,1,139.999995727539,0|2,0:0|0:0,0:0:0:0:
256,32,77262,5,4,0:0:0:0:
256,192,77502,1,0,1:0:0:0:
348,112,77742,1,0,1:0:0:0:
299,288,77982,2,0,P|256:296|211:289,1,89.9999972534181,8|0,0:0|0:0,0:0:0:0:
112,256,78462,1,0,1:0:0:0:
256,192,78702,1,0,1:0:0:0:
96,78,78942,38,0,L|104:168,1,89.9999972534181,10|0,0:0|1:0,0:0:0:0:
256,56,79422,1,0,1:0:0:0:
256,192,79662,1,0,1:0:0:0:
416,78,79902,2,0,L|408:168,1,89.9999972534181,8|0,0:0|1:0,0:0:0:0:
404,208,80262,1,0,1:0:0:0:
400,248,80382,1,0,1:0:0:0:
256,56,80622,37,10,0:0:0:0:
332,336,80862,1,10,0:0:0:0:
408,167,81102,1,0,1:0:0:0:
252,360,81342,22,0,B|172:376|172:376|95:360,1,160,4|8,0:0|0:0,0:0:0:0:
28,280,82062,1,0,1:0:0:0:
28,280,82302,2,0,P|40:228|36:180,1,80,0|0,1:0|0:0,0:0:0:0:
128,148,82782,2,0,P|128:187|139:226,1,80,8|0,0:0|1:0,0:0:0:0:
228,336,83262,2,0,B|284:308|344:336|344:336|328:292,1,160,0|8,1:0|0:0,0:0:0:0:
412,140,83982,2,0,L|400:220,1,80,0|0,1:0|1:0,0:0:0:0:
296,200,84462,1,0,0:0:0:0:
284,96,84702,1,8,0:0:0:0:
295,199,84942,1,0,1:0:0:0:
380,24,85182,38,0,B|332:24|332:24|316:16|308:8|284:8|268:8|256:12|240:20|216:36,1,160,0|8,1:0|0:0,0:0:0:0:
60,104,85902,1,0,1:0:0:0:
116,28,86142,2,0,P|144:72|120:196,1,160,0|8,1:0|0:0,0:0:0:0:
56,340,86862,1,0,0:0:0:0:
16,260,87102,2,0,B|96:232|88:292|184:256,1,160,0|8,1:0|0:0,0:0:0:0:
324,208,87822,1,0,1:0:0:0:
360,328,88062,2,0,P|304:332|256:312,1,80,0|0,1:0|1:0,0:0:0:0:
172,260,88542,1,8,0:0:0:0:
196,384,88782,1,0,1:0:0:0:
268,224,89022,38,0,B|280:140|280:140|260:68,1,160,0|8,1:0|0:0,0:0:0:0:
176,8,89742,1,0,1:0:0:0:
176,8,89982,2,0,P|112:12|84:8,1,80,0|0,1:0|0:0,0:0:0:0:
12,100,90462,2,0,P|76:96|104:100,1,80,8|0,0:0|1:0,0:0:0:0:
211,216,90942,2,0,P|133:199|56:216,1,160,0|8,1:0|0:0,0:0:0:0:
176,340,91662,2,0,P|240:344|268:340,1,80,0|0,1:0|1:0,0:0:0:0:
304,256,92142,1,0,0:0:0:0:
356,344,92382,1,8,0:0:0:0:
255,342,92622,1,0,1:0:0:0:
356,164,92862,38,0,B|476:144|476:144|520:164,1,160,0|8,1:0|0:0,0:0:0:0:
304,256,93582,1,0,1:0:0:0:
252,164,93822,2,0,B|132:144|132:144|88:164,1,160,0|8,1:0|0:0,0:0:0:0:
12,332,94542,1,0,0:0:0:0:
140,252,94782,37,0,1:0:0:0:
0,160,95022,1,0,0:0:0:0:
116,352,95262,1,8,0:0:0:0:
0,160,95502,2,0,L|3:239,1,80,0|0,1:0|1:0,0:0:0:0:
116,352,95982,1,8,0:0:0:0:
97,159,96222,1,8,0:0:0:0:
12,332,96462,1,0,1:0:0:0:
184,248,96702,21,6,1:2:0:0:
99,74,96942,2,0,L|97:159,1,85.0000016212464,0|8,0:0|0:0,0:0:0:0:
184,248,97422,1,0,1:0:0:0:
190,78,97662,2,0,L|183:247,1,170.000003242493,0|8,1:0|0:0,0:0:0:0:
412,309,98382,2,0,L|415:225,1,85.0000016212464,0|0,0:0|1:0,0:0:0:0:
420,140,98862,1,0,0:0:0:0:
324,221,99102,2,0,L|322:306,2,85.0000016212464,8|0|0,0:0|1:0|1:0,0:0:0:0:
319,133,99822,2,0,L|321:48,1,85.0000016212464,0|10,0:0|0:0,0:0:0:0:
448,48,100302,1,0,1:0:0:0:
440,204,100542,38,0,B|420:176|420:140|420:140|360:148|316:132,1,170.000003242493,0|8,1:0|0:0,0:0:0:0:
180,148,101262,1,0,1:0:0:0:
264,208,101502,2,0,P|284:132|272:100,1,85.0000016212464,0|0,1:0|0:0,0:0:0:0:
212,36,101982,1,8,0:0:0:0:
64,148,102222,2,0,B|120:168|180:148|180:148|145:186,1,170.000003242493,0|0,1:0|1:0,0:0:0:0:
52,320,102942,1,8,0:0:0:0:
0,228,103182,1,0,1:0:0:0:
164,368,103422,1,0,1:0:0:0:
228,212,103662,1,0,0:0:0:0:
164,384,103902,1,10,0:0:0:0:
112,180,104142,1,0,1:0:0:0:
272,328,104382,6,0,B|340:352|400:324|400:324|360:296,1,170.000003242493,4|8,0:0|0:0,0:0:0:0:
300,248,105102,1,0,1:0:0:0:
464,384,105342,2,0,P|488:336|420:236,1,170.000003242493,0|8,1:0|0:0,0:0:0:0:
240,160,106062,1,0,1:0:0:0:
300,248,106302,2,0,P|332:208|344:160,1,85.0000016212464,0|0,0:0|1:0,0:0:0:0:
199,87,106782,2,0,P|217:134|253:169,1,85.0000016212464,8|0,0:0|1:0,0:0:0:0:
461,78,107262,2,0,P|382:104|304:76,1,170.000003242493,0|10,1:0|0:0,0:0:0:0:
384,0,107982,1,0,1:0:0:0:
464,204,108222,22,0,P|420:188|356:192,1,85.0000016212464,0|0,1:0|0:0,0:0:0:0:
220,244,108702,1,8,0:0:0:0:
404,288,108942,1,0,1:0:0:0:
160,328,109182,1,0,1:0:0:0:
382,186,109422,1,0,1:0:0:0:
136,184,109662,1,8,0:0:0:0:
424,384,109902,1,4,0:0:0:0:
424,384,110382,5,0,1:0:0:0:
382,186,110622,1,0,1:0:0:0:
256,316,110862,1,0,1:0:0:0:
296,56,111102,1,8,0:0:0:0:
156,316,111342,1,8,0:0:0:0:
80,20,111582,1,10,0:0:0:0:
356,316,111822,1,10,0:0:0:0:
356,316,113022,38,0,L|376:212,1,100
460,276,113742,1,0,0:0:0:0:
468,172,113982,22,0,P|400:116|288:156,1,200,6|8,1:2|0:0,0:0:0:0:
164,292,114702,1,0,1:0:0:0:
116,200,114942,2,0,P|164:188|220:204,1,100,0|0,1:0|0:0,0:0:0:0:
348,328,115422,1,8,0:0:0:0:
164,292,115662,1,0,1:0:0:0:
308,120,115902,6,0,B|340:80|340:80|343:228,1,200,2|8,1:0|0:0,0:0:0:0:
256,384,116622,1,0,1:0:0:0:
212,199,116862,1,0,1:0:0:0:
56,336,117102,1,0,0:0:0:0:
100,151,117342,1,10,0:0:0:0:
172,296,117582,1,0,1:0:0:0:
340,80,117822,22,0,B|264:64|192:84|192:84|224:88|244:112,1,200,2|8,1:0|0:0,0:0:0:0:
344,284,118542,1,0,1:0:0:0:
212,204,118782,1,0,1:0:0:0:
432,168,119022,1,0,0:0:0:0:
340,80,119262,2,0,L|348:188,1,100,10|0,0:0|0:0,0:0:0:0:
452,360,119742,6,0,B|408:348|392:304|392:304|328:272|252:308,1,200,2|10,1:0|0:0,0:0:0:0:
76,340,120462,1,0,1:0:0:0:
184,384,120702,2,0,L|173:284,1,100,2|0,1:2|1:0,0:0:0:0:
44,152,121182,1,10,0:0:0:0:
0,344,121422,1,0,1:0:0:0:
208,200,121662,22,0,B|236:208|256:240|256:240|308:180|384:200,1,200,6|8,2:0|0:0,0:0:0:0:
260,108,122382,1,0,1:0:0:0:
456,144,122622,2,0,P|472:204|456:252,1,100,2|0,1:2|0:0,0:0:0:0:
299,252,123102,2,0,P|331:214|377:198,1,100,8|0,0:0|0:0,0:0:0:0:
480,352,123582,6,0,P|388:384|296:350,1,200,2|8,1:0|0:0,0:0:0:0:
96,228,124302,1,0,1:0:0:0:
184,352,124542,2,0,L|222:155,1,200,2|8,1:2|0:0,0:0:0:0:
80,4,125262,1,0,1:0:0:0:
76,108,125502,22,0,B|124:112|164:68|164:68|216:36|272:64,1,200,2|10,1:0|0:0,0:0:0:0:
408,192,126222,1,2,1:2:0:0:
222,155,126462,1,0,1:0:0:0:
440,88,126702,1,2,0:0:0:0:
368,328,126942,1,8,0:0:0:0:
312,56,127182,1,6,0:0:0:0:
312,56,127662,5,8,0:0:0:0:
256,288,127902,1,8,0:0:0:0:
360,148,128142,1,0,1:0:0:0:
360,148,128262,1,0,1:0:0:0:
360,148,128382,1,0,1:0:0:0:
116,240,128622,1,0,1:0:0:0:
332,360,128862,1,8,0:0:0:0:
381,370,128982,1,0,1:0:0:0:
430,361,129102,1,0,1:0:0:0:
383,150,129342,22,0,P|372:209|383:267,1,119.999996337891,6|0,1:2|0:0,0:0:0:0:
440,56,129822,2,0,P|381:44|322:56,1,119.999996337891,10|0,0:0|0:0,0:0:0:0:
84,132,130302,1,10,0:0:0:0:
312,164,130542,1,0,1:0:0:0:
132,40,130782,1,10,0:0:0:0:
264,256,131022,1,0,1:0:0:0:
84,132,131262,6,0,B|68:192|68:192|80:268,1,119.999996337891,10|2,1:2|0:0,0:0:0:0:
200,360,131742,2,0,B|260:376|260:376|336:364,1,119.999996337891,10|2,0:0|0:0,0:0:0:0:
412,148,132222,1,10,0:0:0:0:
456,336,132462,1,0,1:0:0:0:
328,72,132702,1,10,0:0:0:0:
264,256,132942,1,0,1:0:0:0:
496,196,133182,22,0,L|356:184,1,119.999996337891,10|0,1:2|0:0,0:0:0:0:
252,12,133662,1,10,0:0:0:0:
200,104,133902,2,0,L|340:92,1,119.999996337891,0|10,0:0|0:0,0:0:0:0:
168,204,134382,2,0,L|28:192,1,119.999996337891,0|10,1:2|0:2,0:0:0:0:
200,104,134862,1,0,1:2:0:0:
240,304,135102,6,0,L|0:283,1,239.999992675781,2|10,1:2|0:0,0:0:0:0:
168,204,135822,1,0,0:0:0:0:
0,384,136062,1,10,0:0:0:0:
88,132,136302,1,0,1:0:0:0:
176,384,136542,1,10,0:0:0:0:
256,204,136782,1,0,1:0:0:0:
424,300,137022,22,0,B|452:328|452:376|452:376|496:284|460:216,1,239.999992675781,6|10,1:2|0:0,0:0:0:0:
256,204,137742,1,0,0:0:0:0:
348,372,137982,1,10,0:0:0:0:
368,144,138222,1,0,1:0:0:0:
168,252,138462,1,10,0:0:0:0:
424,300,138702,1,0,1:0:0:0:
276,100,138942,6,0,P|156:68|56:136,1,239.999992675781,10|10,1:2|0:0,0:0:0:0:
124,348,139662,1,0,0:0:0:0:
276,172,139902,1,10,0:0:0:0:
92,236,140142,1,0,1:0:0:0:
364,284,140382,1,10,0:0:0:0:
184,204,140622,1,0,1:0:0:0:
400,348,140862,22,0,L|420:188,1,119.999996337891,10|0,1:2|0:0,0:0:0:0:
408,52,141342,1,10,0:0:0:0:
504,168,141582,1,2,0:0:0:0:
256,176,141822,1,8,0:0:0:0:
504,40,142062,1,2,1:2:0:0:
256,28,142302,1,8,0:0:0:0:
504,272,142542,1,6,0:2:0:0:
504,272,143022,5,0,1:0:0:0:
504,40,143262,1,8,0:0:0:0:
414,228,143502,1,0,1:0:0:0:
414,228,143622,1,0,1:0:0:0:
414,228,143742,2,0,P|328:232|288:212,1,119.999996337891,2|0,1:2|1:0,0:0:0:0:
366,36,144222,1,8,0:0:0:0:
365,84,144342,1,0,1:0:0:0:
364,132,144462,1,0,1:0:0:0:
146,36,144702,21,6,0:0:0:0:
184,264,144942,1,0,1:0:0:0:
366,36,145182,1,4,0:0:0:0:
328,264,145422,1,0,1:0:0:0:
72,176,145662,1,4,0:0:0:0:
292,132,145902,1,0,1:0:0:0:
24,84,146142,1,4,0:0:0:0:
288,28,146382,1,0,1:0:0:0:
72,276,146622,5,6,0:0:0:0:
156,56,146862,1,2,1:2:0:0:
220,340,147102,1,6,0:0:0:0:
236,104,147342,1,2,1:2:0:0:
356,380,147582,1,6,0:2:0:0:
316,152,147822,1,0,1:0:0:0:
124,364,148062,1,4,0:0:0:0:
336,264,148302,1,0,1:0:0:0:
48,176,148542,21,6,0:0:0:0:
228,316,148782,1,0,1:0:0:0:
248,56,149022,1,6,0:0:0:0:
136,248,149262,1,6,0:0:0:0:
48,56,149502,1,8,0:0:0:0:
296,208,149742,1,6,0:0:0:0:
48,300,149982,1,0,1:0:0:0:
172,132,150222,1,0,1:0:0:0:
400,368,150462,21,4,0:0:0:0:
104,200,150702,1,0,1:0:0:0:
408,200,150942,1,2,1:2:0:0:
112,368,151182,1,4,0:0:0:0:
256,76,151422,1,14,0:0:0:0:
400,368,151662,1,0,1:0:0:0:
403,316,151782,1,0,1:0:0:0:
406,264,151902,1,10,0:0:0:0:
409,212,152022,1,0,1:0:0:0:
412,160,152142,1,0,1:0:0:0:
256,40,152382,5,6,0:0:0:0:
256,40,152862,2,0,L|328:36,1,59.9999981689454,0|0,0:0|0:0,0:0:0:0:
412,0,153342,2,0,L|404:140,1,119.999996337891,0|2,0:0|0:0,0:0:0:0:
372,200,154062,1,2,0:0:0:0:
372,200,154302,2,0,P|416:204|448:196,2,59.9999981689454,0|0|0,0:0|0:0|0:0,0:0:0:0:
280,156,155022,1,2,0:0:0:0:
280,156,155502,2,0,P|284:200|276:232,2,59.9999981689454,2|2|2,0:0|0:0|0:0,0:0:0:0:
224,80,156222,6,0,P|168:96|88:80,1,119.999996337891,2|2,0:1|0:0,0:0:0:0:
48,28,156942,2,0,P|28:52|20:88,1,59.9999981689454,2|0,0:0|0:0,0:0:0:0:
138,138,157422,2,0,P|127:108|100:83,1,59.9999981689454,2|2,0:1|0:0,0:0:0:0:
56,156,157902,1,2,0:1:0:0:
256,192,158142,12,0,163422,0:0:0:0:
