osu file format v14

[General]
AudioFilename: audio.mp3
AudioLeadIn: 0
PreviewTime: 47622
Countdown: 0
SampleSet: Soft
StackLeniency: 0.5
Mode: 0
LetterboxInBreaks: 0
WidescreenStoryboard: 1

[Editor]
Bookmarks: 16060,142060
DistanceSpacing: 1.8
BeatDivisor: 4
GridSize: 16
TimelineZoom: 1

[Metadata]
Title:and I'm home
TitleUnicode:and I'm home
Artist:Miki Sayaka (CV: Kitamura Eri), Sakura Kyoko (CV: Nonaka Ai)
ArtistUnicode:美樹さやか(CV:喜多村英梨)、佐倉杏子(CV:野中藍)
Creator:Fisky
Version:gary00737's Hard
Source:魔法少女まどか☆マギカ
Tags:StunterLetsPlay Nyantiaz gary00737 puella magi madoka magica magical girl mahou shoujou shoujo full version ver sayaka miki kyouko sakura character song wowaka toku eveless anime japanese ending ED
BeatmapID:1978290
BeatmapSetID:942332

[Difficulty]
HPDrainRate:4.3
CircleSize:3
OverallDifficulty:6.4
ApproachRate:7.2
SliderMultiplier:1.26
SliderTickRate:1

[Events]
//Background and Video events
0,0,"bg and i'm home.jpg",0,0
//Break Periods
//Storyboard Layer 0 (Background)
//Storyboard Layer 1 (Fail)
//Storyboard Layer 2 (Pass)
//Storyboard Layer 3 (Foreground)
//Storyboard Sound Samples

[TimingPoints]
700,480,4,2,1,30,1,0
2140,-100,4,2,1,25,0,0
2380,-100,4,2,1,30,0,0
8380,-100,4,2,1,45,0,0
8860,-100,4,2,1,25,0,0
9100,-100,4,2,1,27,0,0
9340,-100,4,2,1,29,0,0
9580,-100,4,2,1,31,0,0
9820,-100,4,2,1,33,0,0
10060,-100,4,2,1,35,0,0
10300,-100,4,2,1,37,0,0
10540,-100,4,2,1,39,0,0
10780,-100,4,2,1,41,0,0
11020,-100,4,2,1,43,0,0
11260,-100,4,2,1,45,0,0
11500,-100,4,2,1,47,0,0
11740,-100,4,2,1,49,0,0
11980,-100,4,2,1,51,0,0
12220,-100,4,2,1,60,0,0
14140,-100,4,2,1,40,0,0
15340,-100,4,2,1,35,0,0
16060,-100,4,2,1,40,0,0
31420,-100,4,2,1,45,0,0
31660,-100,4,2,1,40,0,0
44620,-100,4,2,1,50,0,0
45100,-100,4,2,1,41,0,0
45340,-100,4,2,1,43,0,0
45580,-100,4,2,1,45,0,0
45820,-100,4,2,1,47,0,0
46060,-100,4,2,1,49,0,0
46300,-100,4,2,1,60,0,0
46540,-100,4,2,1,65,0,0
48700,-83.3333333333333,4,2,1,60,0,1
61900,-83.3333333333333,4,2,1,65,0,0
62380,-83.3333333333333,4,2,1,50,0,0
64060,-83.3333333333333,4,2,1,60,0,1
67900,-83.3333333333333,4,2,1,65,0,1
69820,-83.3333333333333,4,2,1,70,0,1
71260,-83.3333333333333,4,2,1,60,0,1
71740,-100,4,2,1,50,0,0
77260,-100,4,2,1,45,0,0
81340,-100,4,2,1,40,0,0
81820,-100,4,2,1,35,0,0
96700,-100,4,2,1,45,0,0
96940,-100,4,2,1,35,0,0
110380,-100,4,2,1,41,0,0
110620,-100,4,2,1,43,0,0
110860,-100,4,2,1,45,0,0
111100,-100,4,2,1,47,0,0
111340,-100,4,2,1,49,0,0
111580,-100,4,2,1,60,0,0
111820,-100,4,2,1,65,0,0
113980,-83.3333333333333,4,2,1,60,0,1
127180,-83.3333333333333,4,2,1,50,0,0
128860,-83.3333333333333,4,2,1,30,0,0
129100,-83.3333333333333,4,2,1,50,0,0
129340,-83.3333333333333,4,2,1,60,0,1
142540,-83.3333333333333,4,2,1,50,0,0
143980,-83.3333333333333,4,2,1,40,0,0
144220,-83.3333333333333,4,2,1,50,0,0
144340,-83.3333333333333,4,2,1,40,0,0
144460,-83.3333333333333,4,2,1,50,0,0
144700,-83.3333333333333,4,2,1,70,0,1
148540,-83.3333333333333,4,2,1,75,0,1
150460,-83.3333333333333,4,2,1,80,0,1
151900,-83.3333333333333,4,2,1,70,0,1
152020,-83.3333333333333,4,2,1,50,0,1
152380,-83.3333333333333,4,2,1,65,0,0
152500,-133.333333333333,4,2,1,40,0,0

[Colours]
Combo1 : 255,128,255
Combo2 : 0,128,255
Combo3 : 255,128,192
Combo4 : 0,128,192

[HitObjects]
495,131,700,6,0,P|455:88|373:98,1,126,0|0,1:0|0:0,0:0:0:0:
299,111,1420,1,2,0:0:0:0:
299,111,1660,2,0,L|309:40,1,63,2|2,0:0|0:0,0:0:0:0:
214,33,2140,2,0,L|205:95,1,63,10|2,0:0|1:0,0:0:0:0:
134,157,2620,6,0,P|72:157|30:113,1,126,2|2,1:0|0:0,0:0:0:0:
111,63,3340,2,0,L|84:253,1,189,2|2,0:0|0:0,0:0:0:0:
68,343,4300,1,0,1:0:0:0:
68,343,4540,6,0,P|110:298|171:299,1,126,2|0,1:0|0:0,0:0:0:0:
245,240,5260,1,2,0:0:0:0:
245,240,5500,2,0,P|287:284|348:283,1,126,2|8,0:0|0:0,0:0:0:0:
416,105,6460,6,0,P|374:61|313:62,1,126,2|0,1:0|0:0,0:0:0:0:
240,124,7180,1,2,0:0:0:0:
240,124,7420,2,0,P|178:124|136:80,1,126,2|0,0:0|0:0,0:0:0:0:
217,30,8140,1,0,1:0:0:0:
217,30,8380,6,0,L|197:163,1,126,0|8,1:0|0:0,0:0:0:0:
184,248,9100,1,8,0:0:0:0:
273,215,9340,1,8,0:0:0:0:
199,154,9580,1,8,0:0:0:0:
110,187,9820,1,10,0:0:0:0:
95,281,10060,1,8,0:0:0:0:
169,342,10300,1,10,0:0:0:0:
258,309,10540,1,8,0:0:0:0:
273,215,10780,5,8,0:0:0:0:
95,281,11020,1,10,0:0:0:0:
258,309,11260,1,8,0:0:0:0:
110,187,11500,1,8,0:0:0:0:
169,342,11740,1,10,0:0:0:0:
199,154,11980,1,8,0:0:0:0:
184,248,12220,5,14,0:0:0:0:
256,192,12340,12,2,14140,0:0:0:0:
256,192,14260,12,0,15340,1:0:0:0:
194,195,15580,6,0,P|156:182|123:180,1,63,8|0,0:0|1:0,0:0:0:0:
61,346,16060,2,0,P|117:321|141:264,1,126,4|8,1:0|0:0,0:0:0:0:
133,179,16780,1,0,1:0:0:0:
43,197,17020,2,0,L|55:258,1,63,0|0,1:0|0:0,0:0:0:0:
133,179,17500,2,0,L|120:117,1,63,8|0,0:0|0:0,0:0:0:0:
75,40,17980,6,0,B|116:68|116:68|218:50,1,126,0|8,1:0|0:0,0:0:0:0:
280,83,18700,1,0,1:0:0:0:
280,83,18940,2,0,B|321:55|321:55|423:73,1,126,0|8,1:0|0:0,0:0:0:0:
505,68,19660,1,0,0:0:0:0:
505,68,19900,6,0,P|488:147|480:200,1,126,0|8,1:0|0:0,0:0:0:0:
483,288,20620,1,0,1:0:0:0:
483,288,20860,2,0,P|404:271|351:263,1,126,0|8,1:0|0:0,0:0:0:0:
263,266,21580,1,0,0:0:0:0:
263,266,21820,6,0,P|271:226|275:200,1,63,0|0,1:0|0:0,0:0:0:0:
273,107,22300,1,8,0:0:0:0:
273,107,22540,2,0,P|312:115|339:119,1,63,0|0,1:0|1:0,0:0:0:0:
423,91,23020,1,0,0:0:0:0:
356,26,23260,2,0,P|316:17|290:13,1,63,8|0,0:0|0:0,0:0:0:0:
206,42,23740,5,0,1:0:0:0:
30,20,24220,1,8,0:0:0:0:
99,79,24460,1,0,1:0:0:0:
99,79,24700,2,0,P|89:124|86:155,1,63,0|0,1:0|0:0,0:0:0:0:
21,202,25180,2,0,P|31:247|34:278,1,63,8|0,0:0|0:0,0:0:0:0:
27,355,25660,6,0,P|70:308|151:306,1,126,0|8,1:0|0:0,0:0:0:0:
207,250,26380,1,0,1:0:0:0:
207,250,26620,2,0,P|248:296|309:305,1,126,0|8,1:0|0:0,0:0:0:0:
358,232,27340,1,0,0:0:0:0:
358,232,27580,6,0,P|425:219|491:218,1,126,0|8,1:0|0:0,0:0:0:0:
441,131,28300,1,0,1:0:0:0:
441,131,28540,2,0,P|409:132|378:139,1,63,0|0,1:0|0:0,0:0:0:0:
307,78,29020,2,0,P|268:98|226:93,1,63,8|0,0:0|0:0,0:0:0:0:
161,121,29500,6,0,P|181:160|176:202,1,63,0|0,1:0|0:0,0:0:0:0:
204,267,29980,1,8,0:0:0:0:
204,267,30220,2,0,P|243:247|285:252,1,63,0|0,0:0|1:0,0:0:0:0:
324,311,30700,1,8,0:0:0:0:
350,224,30940,1,8,0:0:0:0:
375,137,31180,1,0,1:0:0:0:
400,50,31420,5,4,1:0:0:0:
462,115,31660,2,0,L|529:110,2,63,0|8|0,0:0|0:0|1:0,0:0:0:0:
375,137,32380,2,0,B|306:120|328:166|247:143,1,126,0|8,1:0|0:0,0:0:0:0:
173,98,33100,1,0,0:0:0:0:
173,98,33340,6,0,L|192:29,1,63,0|0,1:0|0:0,0:0:0:0:
252,144,33820,2,0,L|235:204,1,63,8|0,0:0|1:0,0:0:0:0:
265,291,34300,2,0,P|213:250|137:268,1,126,0|8,1:0|0:0,0:0:0:0:
83,310,35020,1,0,0:0:0:0:
83,310,35260,6,0,P|73:255|56:181,1,126,0|8,1:0|0:0,0:0:0:0:
7,110,35980,1,0,1:0:0:0:
7,110,36220,2,0,P|62:100|136:83,1,126,0|8,1:0|0:0,0:0:0:0:
207,34,36940,6,0,P|217:89|234:163,1,126,0|0,1:0|1:0,0:0:0:0:
283,234,37660,2,0,P|255:239|218:247,1,63,8|0,0:0|1:0,0:0:0:0:
144,297,38140,2,0,P|139:269|130:232,1,63,0|0,1:0|0:0,0:0:0:0:
81,158,38620,2,0,P|108:153|145:144,1,63,8|0,0:0|0:0,0:0:0:0:
201,74,39100,6,0,P|252:37|325:58,1,126,4|8,1:0|0:0,0:0:0:0:
375,111,39820,1,0,1:0:0:0:
375,111,40060,2,0,L|362:246,1,126,0|8,1:0|0:0,0:0:0:0:
354,327,40780,1,0,1:0:0:0:
437,290,41020,6,0,P|470:283|511:282,1,63,0|0,0:0|1:0,0:0:0:0:
362,236,41500,2,0,P|329:229|288:228,1,63,8|0,0:0|1:0,0:0:0:0:
222,276,41980,2,0,P|161:285|112:248,1,126,0|8,1:0|0:0,0:0:0:0:
97,158,42700,1,0,0:0:0:0:
97,158,42940,5,0,1:0:0:0:
247,55,43420,2,0,L|326:47,1,63,8|0,0:0|0:0,0:0:0:0:
395,17,43900,2,0,L|403:96,1,63,0|0,1:0|1:0,0:0:0:0:
433,165,44380,1,8,0:0:0:0:
433,165,44620,6,0,L|296:178,1,126,4|8,1:0|0:0,0:0:0:0:
217,189,45340,1,8,0:0:0:0:
272,260,45580,1,8,0:0:0:0:
252,106,45820,1,8,0:0:0:0:
99,77,46060,1,8,0:0:0:0:
24,213,46300,1,10,0:0:0:0:
130,326,46540,1,10,0:0:0:0:
321,142,48700,6,0,B|271:133|271:133|226:157|226:157|176:148,1,151.199995385742,14|8,1:0|0:0,0:0:0:0:
65,124,49420,1,0,1:0:0:0:
65,124,49660,2,0,L|51:29,1,75.5999976928712,0|0,1:0|0:0,0:0:0:0:
176,148,50140,2,0,L|187:222,1,75.5999976928712,8|0,0:0|0:0,0:0:0:0:
11,314,50620,6,0,P|24:249|101:212,1,151.199995385742,2|8,1:0|0:0,0:0:0:0:
195,263,51340,1,0,1:0:0:0:
195,263,51580,2,0,L|269:251,1,75.5999976928712,0|0,1:0|0:0,0:0:0:0:
354,346,52060,2,0,L|279:334,1,75.5999976928712,8|0,0:0|0:0,0:0:0:0:
260,168,52540,6,0,L|409:190,1,151.199995385742,2|8,1:0|0:0,0:0:0:0:
392,78,53260,1,0,1:0:0:0:
392,78,53500,2,0,L|317:66,1,75.5999976928712,0|0,1:0|0:0,0:0:0:0:
185,156,53980,2,0,L|260:168,1,75.5999976928712,10|0,0:0|0:0,0:0:0:0:
53,246,54460,6,0,L|128:258,1,75.5999976928712,2|0,1:0|0:0,0:0:0:0:
184,356,54940,1,10,0:0:0:0:
184,356,55180,1,0,1:0:0:0:
270,282,55420,2,0,B|358:256|327:330|440:294,1,151.199995385742,2|10,1:0|0:0,0:0:0:0:
478,194,56140,1,0,1:0:0:0:
478,194,56380,6,0,P|416:160|391:222,1,151.199995385742,6|8,1:0|0:0,0:0:0:0:
474,371,57100,1,0,1:0:0:0:
474,371,57340,2,0,P|484:283|498:205,1,151.199995385742,2|8,1:0|0:0,0:0:0:0:
512,77,58060,1,0,1:0:0:0:
512,77,58300,6,0,P|452:125|366:110,1,151.199995385742,2|8,1:0|0:0,0:0:0:0:
287,54,59020,1,0,1:0:0:0:
287,54,59260,2,0,P|213:49|156:96,1,151.199995385742,2|8,1:0|0:0,0:0:0:0:
97,192,59980,1,0,0:0:0:0:
97,192,60220,6,0,L|108:279,1,75.5999976928712,2|0,1:0|0:0,0:0:0:0:
262,361,60700,1,10,0:0:0:0:
262,361,60940,2,0,L|251:274,1,75.5999976928712,2|0,1:0|1:0,0:0:0:0:
95,359,61420,2,0,L|182:348,1,75.5999976928712,2|8,0:0|0:0,0:0:0:0:
337,180,61900,6,0,L|186:199,1,151.199995385742,6|8,1:0|0:0,0:0:0:0:
76,217,62620,1,8,0:0:0:0:
144,306,62860,1,0,1:0:0:0:
187,199,63100,1,0,1:0:0:0:
120,113,63340,1,0,1:0:0:0:
8,128,63580,1,0,1:0:0:0:
8,128,63700,1,0,1:0:0:0:
8,128,63820,1,0,1:0:0:0:
76,217,64060,6,0,P|145:203|211:199,1,113.399996539307,14|0,0:0|0:0,0:0:0:0:
187,199,64540,2,0,B|214:227|214:227|278:229,1,75.5999976928712,8|0,0:0|0:0,0:0:0:0:
232,71,65020,2,0,B|194:79|194:79|161:134,1,75.5999976928712,8|0,0:0|1:0,0:0:0:0:
321,173,65500,2,0,B|331:136|331:136|301:80,1,75.5999976928712,8|0,0:0|1:0,0:0:0:0:
251,228,65980,6,0,P|369:214|434:213,1,151.199995385742,10|8,0:0|0:0,0:0:0:0:
510,245,66700,1,0,0:0:0:0:
484,135,66940,2,0,P|494:82|504:41,1,75.5999976928712,8|0,0:0|1:0,0:0:0:0:
381,120,67420,2,0,P|371:67|361:26,1,75.5999976928712,8|0,0:0|1:0,0:0:0:0:
243,158,67900,6,0,P|259:72|275:5,1,151.199995385742,14|10,0:0|0:0,0:0:0:0:
166,77,68620,2,0,P|108:87|63:87,1,75.5999976928712,2|8,0:0|0:0,0:0:0:0:
10,182,69100,2,0,P|47:185|84:192,1,75.5999976928712,2|8,1:0|0:0,0:0:0:0:
180,252,69580,1,2,1:0:0:0:
241,347,69820,6,0,B|273:297|324:292|324:292|371:330,1,151.199995385742,14|10,0:0|0:0,0:0:0:0:
512,211,70540,2,0,B|480:261|429:266|429:266|382:228,1,151.199995385742,12|0,0:0|1:0,0:0:0:0:
326,142,71260,2,0,P|295:191|254:204,1,75.5999976928712,10|0,0:0|1:0,0:0:0:0:
186,197,71740,5,6,1:0:0:0:
186,197,75100,1,2,0:0:0:0:
186,197,75580,2,0,P|241:160|314:167,1,126,0|0,0:0|0:0,0:0:0:0:
374,217,76300,1,0,0:0:0:0:
374,217,76540,2,0,P|360:275|356:306,1,63,0|0,0:0|0:0,0:0:0:0:
359,373,77020,1,2,0:0:0:0:
276,324,77260,6,0,B|213:308|232:352|149:330,1,126,4|0,1:0|1:0,0:0:0:0:
85,264,77980,2,0,L|92:341,1,63,8|0,0:0|0:0,0:0:0:0:
182,252,78460,2,0,L|176:189,1,63,0|0,0:0|1:0,0:0:0:0:
142,100,78940,1,10,0:0:0:0:
142,100,79180,6,0,P|188:134|272:126,1,126,0|0,1:0|1:0,0:0:0:0:
332,79,79900,1,8,0:0:0:0:
388,157,80140,1,0,0:0:0:0:
388,157,80260,1,0,0:0:0:0:
388,157,80380,2,0,P|374:203|367:242,1,63,0|8,1:0|0:0,0:0:0:0:
289,288,80860,2,0,P|281:257|271:227,1,63,8|0,0:0|1:0,0:0:0:0:
88,251,81340,6,0,P|135:290|196:286,1,126,4|8,1:0|0:0,0:0:0:0:
271,227,82060,1,0,1:0:0:0:
149,150,82300,2,0,L|161:211,1,63,0|0,1:0|0:0,0:0:0:0:
60,160,82780,2,0,L|73:98,1,63,8|0,0:0|0:0,0:0:0:0:
226,41,83260,6,0,B|254:82|254:82|236:184,1,126,0|8,1:0|0:0,0:0:0:0:
346,254,83980,1,0,1:0:0:0:
346,254,84220,2,0,B|318:213|318:213|336:111,1,126,0|8,1:0|0:0,0:0:0:0:
329,20,84940,1,0,0:0:0:0:
329,20,85180,6,0,P|386:65|455:53,1,126,0|8,1:0|0:0,0:0:0:0:
491,139,85900,1,0,1:0:0:0:
491,139,86140,2,0,P|446:196|458:265,1,126,0|8,1:0|0:0,0:0:0:0:
490,338,86860,1,0,0:0:0:0:
490,338,87100,6,0,P|450:330|424:326,1,63,0|0,1:0|0:0,0:0:0:0:
350,271,87580,1,8,0:0:0:0:
350,271,87820,2,0,P|311:279|284:283,1,63,0|0,1:0|0:0,0:0:0:0:
198,252,88300,1,0,1:0:0:0:
119,305,88540,2,0,P|110:345|106:371,1,63,8|0,0:0|1:0,0:0:0:0:
112,210,89020,5,0,1:0:0:0:
311,28,89500,1,8,0:0:0:0:
392,76,89740,1,0,1:0:0:0:
392,76,89980,2,0,P|437:66|468:63,1,63,0|0,1:0|0:0,0:0:0:0:
339,158,90460,2,0,P|294:148|263:145,1,63,8|0,0:0|0:0,0:0:0:0:
225,327,90940,6,0,P|277:294|291:234,1,126,0|8,1:0|0:0,0:0:0:0:
154,144,91660,1,0,1:0:0:0:
154,144,91900,2,0,P|102:177|88:237,1,126,0|8,1:0|0:0,0:0:0:0:
141,330,92620,1,0,0:0:0:0:
142,330,92860,6,0,P|111:322|80:319,1,63,0|0,1:0|0:0,0:0:0:0:
4,376,93340,1,8,0:0:0:0:
5,245,93580,1,0,1:0:0:0:
5,245,93820,2,0,L|-2:164,1,63,0|0,1:0|0:0,0:0:0:0:
90,93,94300,2,0,L|95:155,1,63,8|0,0:0|0:0,0:0:0:0:
98,250,94780,6,0,P|137:230|179:235,1,63,0|0,1:0|0:0,0:0:0:0:
233,175,95260,1,8,0:0:0:0:
233,175,95500,2,0,P|272:195|314:190,1,63,0|0,1:0|0:0,0:0:0:0:
370,145,95980,1,8,0:0:0:0:
443,206,96220,1,8,0:0:0:0:
407,294,96460,1,0,1:0:0:0:
312,286,96700,5,4,1:0:0:0:
290,195,96940,2,0,L|272:125,2,63,0|8|0,0:0|0:0|1:0,0:0:0:0:
211,245,97660,2,0,B|142:228|164:274|83:251,1,126,0|8,1:0|0:0,0:0:0:0:
9,206,98380,1,0,0:0:0:0:
9,206,98620,6,0,L|28:137,1,63,0|0,1:0|0:0,0:0:0:0:
88,252,99100,2,0,L|71:312,1,63,8|0,0:0|1:0,0:0:0:0:
181,384,99580,2,0,L|215:262,1,126,0|8,1:0|0:0,0:0:0:0:
212,167,100300,1,0,0:0:0:0:
212,167,100540,6,0,P|246:223|315:235,1,126,0|8,1:0|0:0,0:0:0:0:
393,217,101260,1,0,1:0:0:0:
393,217,101500,2,0,L|358:338,1,126,0|8,1:0|0:0,0:0:0:0:
449,364,102220,2,0,L|483:242,1,126,0|0,1:0|1:0,0:0:0:0:
510,151,102940,2,0,P|482:156|445:164,1,63,8|0,0:0|1:0,0:0:0:0:
371,214,103420,2,0,P|366:186|357:149,1,63,0|0,1:0|0:0,0:0:0:0:
308,75,103900,2,0,P|335:70|372:61,1,63,10|0,0:0|0:0,0:0:0:0:
267,154,104380,6,0,P|205:139|143:127,1,126,4|8,1:0|0:0,0:0:0:0:
90,205,105100,1,0,1:0:0:0:
90,205,105340,2,0,P|75:266|63:328,1,126,0|8,1:0|0:0,0:0:0:0:
146,365,106060,1,0,1:0:0:0:
63,328,106300,6,0,P|30:321|-11:320,1,63,0|0,0:0|1:0,0:0:0:0:
138,274,106780,2,0,P|171:267|212:266,1,63,8|0,0:0|1:0,0:0:0:0:
278,326,107260,2,0,P|339:335|388:298,1,126,0|10,1:0|0:0,0:0:0:0:
403,208,107980,1,0,0:0:0:0:
403,208,108220,5,0,1:0:0:0:
202,78,108700,2,0,L|123:70,1,63,8|0,0:0|0:0,0:0:0:0:
54,40,109180,2,0,L|46:119,1,63,0|0,1:0|1:0,0:0:0:0:
16,188,109660,1,8,0:0:0:0:
16,188,109900,6,0,L|153:201,1,126,4|8,1:0|0:0,0:0:0:0:
232,212,110620,1,8,0:0:0:0:
177,283,110860,1,8,0:0:0:0:
197,129,111100,1,8,0:0:0:0:
350,100,111340,1,8,0:0:0:0:
425,236,111580,1,10,0:0:0:0:
319,349,111820,1,10,0:0:0:0:
378,166,113980,6,0,B|338:147|321:116|321:116|282:138|230:125,1,151.199995385742,14|8,1:0|0:0,0:0:0:0:
140,96,114700,1,0,1:0:0:0:
140,96,114940,2,0,L|154:191,1,75.5999976928712,0|0,1:0|0:0,0:0:0:0:
220,292,115420,2,0,L|231:218,1,75.5999976928712,8|0,0:0|0:0,0:0:0:0:
378,166,115900,6,0,L|355:315,1,151.199995385742,2|8,1:0|0:0,0:0:0:0:
231,217,116620,1,0,1:0:0:0:
231,217,116860,2,0,L|157:205,1,75.5999976928712,0|0,1:0|0:0,0:0:0:0:
74,309,117340,2,0,L|149:297,1,75.5999976928712,8|0,0:0|0:0,0:0:0:0:
163,115,117820,6,0,L|14:137,1,151.199995385742,2|8,1:0|0:0,0:0:0:0:
151,26,118540,1,0,1:0:0:0:
151,26,118780,2,0,P|187:27|229:48,1,75.5999976928712,0|0,1:0|0:0,0:0:0:0:
265,148,119260,2,0,L|253:223,1,75.5999976928712,10|0,0:0|0:0,0:0:0:0:
366,331,119740,6,0,L|378:256,1,75.5999976928712,2|0,1:0|0:0,0:0:0:0:
398,144,120220,1,10,0:0:0:0:
398,144,120460,1,0,1:0:0:0:
252,120,120700,2,0,L|236:214,1,75.5999976928712,2|0,0:0|1:0,0:0:0:0:
259,317,121180,1,10,0:0:0:0:
259,317,121660,6,0,B|171:291|202:365|89:329,1,151.199995385742,6|8,1:0|0:0,0:0:0:0:
17,276,122380,1,0,1:0:0:0:
17,276,122620,2,0,P|27:188|41:110,1,151.199995385742,2|8,1:0|0:0,0:0:0:0:
1,18,123340,1,0,0:0:0:0:
1,18,123580,6,0,P|61:66|147:51,1,151.199995385742,2|8,1:0|0:0,0:0:0:0:
213,138,124300,1,0,1:0:0:0:
213,138,124540,2,0,P|270:91|343:96,1,151.199995385742,2|8,1:0|0:0,0:0:0:0:
415,192,125260,1,0,0:0:0:0:
415,192,125500,6,0,L|404:279,1,75.5999976928712,2|0,1:0|0:0,0:0:0:0:
250,361,125980,1,10,0:0:0:0:
250,361,126220,2,0,L|261:274,1,75.5999976928712,2|0,1:0|1:0,0:0:0:0:
417,359,126700,2,0,L|330:348,1,75.5999976928712,2|8,0:0|0:0,0:0:0:0:
173,180,127180,6,0,L|324:199,1,151.199995385742,6|8,1:0|0:0,0:0:0:0:
436,217,127900,1,8,0:0:0:0:
368,306,128140,1,0,1:0:0:0:
368,306,128260,1,0,1:0:0:0:
368,306,128380,1,0,1:0:0:0:
324,199,128620,1,0,1:0:0:0:
392,113,128860,1,8,0:0:0:0:
392,113,128980,1,8,0:0:0:0:
392,113,129100,1,0,1:0:0:0:
436,217,129340,6,0,P|367:203|301:199,1,113.399996539307,6|0,1:0|0:0,0:0:0:0:
325,199,129820,2,0,B|298:227|298:227|234:229,1,75.5999976928712,8|0,0:0|0:0,0:0:0:0:
280,71,130300,2,0,B|318:79|318:79|351:134,1,75.5999976928712,8|0,0:0|1:0,0:0:0:0:
191,173,130780,2,0,B|181:136|181:136|211:80,1,75.5999976928712,8|0,0:0|1:0,0:0:0:0:
261,228,131260,6,0,P|143:214|78:213,1,151.199995385742,10|8,0:0|0:0,0:0:0:0:
2,245,131980,1,0,0:0:0:0:
28,135,132220,2,0,P|18:82|8:41,1,75.5999976928712,8|0,0:0|1:0,0:0:0:0:
131,120,132700,2,0,P|141:67|151:26,1,75.5999976928712,8|0,0:0|1:0,0:0:0:0:
269,158,133180,6,0,P|253:72|237:5,1,151.199995385742,10|8,0:0|0:0,0:0:0:0:
346,77,133900,2,0,P|404:87|449:87,1,75.5999976928712,0|8,0:0|0:0,0:0:0:0:
502,182,134380,2,0,P|465:185|428:192,1,75.5999976928712,0|8,1:0|0:0,0:0:0:0:
332,252,134860,1,0,1:0:0:0:
286,356,135100,1,10,0:0:0:0:
286,356,135580,6,0,P|272:268|246:189,1,151.199995385742,10|10,0:0|0:0,0:0:0:0:
185,55,136300,1,0,1:0:0:0:
149,162,136540,2,0,P|61:176|-18:202,2,151.199995385742,10|14|8,0:0|0:0|0:0,0:0:0:0:
256,198,137740,1,0,0:0:0:0:
256,198,137980,2,0,P|293:192|329:181,1,75.5999976928712,10|0,0:0|1:0,0:0:0:0:
428,125,138460,2,0,P|433:162|444:198,1,75.5999976928712,8|0,0:0|1:0,0:0:0:0:
501,297,138940,6,0,P|418:309|339:332,1,151.199995385742,10|8,0:0|0:0,0:0:0:0:
254,384,139660,1,0,0:0:0:0:
254,384,139900,2,0,P|248:346|237:310,1,75.5999976928712,10|0,0:0|1:0,0:0:0:0:
181,212,140380,2,0,P|218:206|254:195,1,75.5999976928712,8|0,0:0|1:0,0:0:0:0:
270,83,140860,6,0,P|188:94|109:118,1,151.199995385742,10|10,0:0|0:0,0:0:0:0:
23,170,141580,2,0,L|29:76,1,75.5999976928712,2|8,0:0|0:0,0:0:0:0:
122,221,142060,2,0,L|117:296,1,75.5999976928712,2|8,1:0|0:0,0:0:0:0:
300,359,142540,6,0,L|309:208,1,151.199995385742,4|8,1:0|0:0,0:0:0:0:
319,95,143260,1,8,0:0:0:0:
412,161,143500,1,0,1:0:0:0:
412,161,143620,1,0,1:0:0:0:
412,161,143740,1,0,1:0:0:0:
402,274,143980,1,8,0:0:0:0:
299,321,144220,1,0,1:0:0:0:
299,321,144340,1,8,0:0:0:0:
299,321,144460,1,0,1:0:0:0:
206,255,144700,6,0,L|213:134,1,113.399996539307,6|0,1:0|0:0,0:0:0:0:
213,141,145180,2,0,P|168:170|123:161,1,75.5999976928712,12|0,0:0|0:0,0:0:0:0:
90,41,145660,2,0,P|137:66|151:109,1,75.5999976928712,12|0,0:0|1:0,0:0:0:0:
65,198,146140,2,0,P|63:144|93:110,1,75.5999976928712,12|0,0:0|1:0,0:0:0:0:
228,55,146620,6,0,P|302:47|370:39,1,113.399996539307,14|0,0:0|0:0,0:0:0:0:
340,42,147100,2,0,L|335:117,1,75.5999976928712,12|0,0:0|0:0,0:0:0:0:
235,227,147580,2,0,L|239:151,1,75.5999976928712,12|0,0:0|1:0,0:0:0:0:
431,109,148060,2,0,L|426:184,1,75.5999976928712,12|0,0:0|0:0,0:0:0:0:
362,337,148540,6,0,B|312:328|312:328|267:352|267:352|217:343,1,151.199995385742,14|14,0:0|0:0,0:0:0:0:
171,190,149260,2,0,P|206:201|234:226,1,75.5999976928712,6|8,1:0|0:0,0:0:0:0:
89,225,149740,2,0,P|81:188|89:151,1,75.5999976928712,6|8,0:0|0:0,0:0:0:0:
161,279,150220,1,2,1:0:0:0:
161,279,150460,6,0,P|133:304|97:315,1,75.5999976928712,14|0,0:0|1:0,0:0:0:0:
1,253,150940,1,8,0:0:0:0:
93,149,151180,2,0,L|88:224,2,75.5999976928712,4|14|0,1:0|0:0|1:0,0:0:0:0:
157,54,151900,1,10,0:0:0:0:
157,54,152020,1,8,0:0:0:0:
157,54,152140,1,0,1:0:0:0:
252,118,152380,5,6,1:0:0:0:
417,53,152860,2,0,L|412:110,1,47.2500018024445
476,157,153340,2,0,P|494:205|481:249,1,94.500003604889
414,295,154060,1,0,0:0:0:0:
414,295,154300,6,0,L|350:283,1,47.2500018024445
288,318,154780,1,0,0:0:0:0:
288,318,155020,2,0,L|195:300,1,94.500003604889
111,284,155740,2,0,L|116:341,1,47.2500018024445
35,362,156220,6,0,L|25:254,1,94.500003604889
18,183,156940,1,0,0:0:0:0:
135,60,157420,1,0,0:0:0:0:
288,133,157900,1,0,0:0:0:0:
256,192,158020,12,0,163420,0:0:0:0:
