osu file format v14

[General]
AudioFilename: audio.mp3
AudioLeadIn: 0
PreviewTime: 47622
Countdown: 0
SampleSet: Soft
StackLeniency: 0.5
Mode: 0
LetterboxInBreaks: 0
WidescreenStoryboard: 1

[Editor]
Bookmarks: 702,8382,12222,16062,31422,39102,44622,46542,48702,61902,64062,71742,77262,81342,96702,104382,109902,111822,113982,127182,129342,142542,144702,152382,157902,163422
DistanceSpacing: 1
BeatDivisor: 4
GridSize: 4
TimelineZoom: 1

[Metadata]
Title:and I'm home
TitleUnicode:and I'm home
Artist:Miki Sayaka (CV: Kitamura Eri), Sakura Kyoko (CV: Nonaka Ai)
ArtistUnicode:美樹さやか(CV:喜多村英梨)、佐倉杏子(CV:野中藍)
Creator:Fisky
Version:StunterLetsPlay's Insane
Source:魔法少女まどか☆マギカ
Tags:StunterLetsPlay Nyantiaz gary00737 puella magi madoka magica magical girl mahou shoujou shoujo full version ver sayaka miki kyouko sakura character song wowaka toku eveless anime japanese ending ED
BeatmapID:2020327
BeatmapSetID:942332

[Difficulty]
HPDrainRate:5
CircleSize:4
OverallDifficulty:8
ApproachRate:8.2
SliderMultiplier:1.6
SliderTickRate:1

[Events]
//Background and Video events
0,0,"bg and i'm home.jpg",0,0
//Break Periods
//Storyboard Layer 0 (Background)
//Storyboard Layer 1 (Fail)
//Storyboard Layer 2 (Pass)
//Storyboard Layer 3 (Foreground)
//Storyboard Sound Samples

[TimingPoints]
700,480,4,2,1,30,1,0
700,-200,4,2,1,30,0,0
2140,-200,4,2,1,25,0,0
2380,-200,4,2,1,30,0,0
8380,-200,4,2,1,30,0,0
8382,-200,4,2,1,45,0,0
8860,-200,4,2,1,25,0,0
9100,-200,4,2,1,27,0,0
9340,-200,4,2,1,29,0,0
9580,-200,4,2,1,31,0,0
9820,-200,4,2,1,33,0,0
10060,-200,4,2,1,35,0,0
10300,-200,4,2,1,35,0,0
10302,-200,4,2,1,37,0,0
10540,-200,4,2,1,39,0,0
10780,-200,4,2,1,41,0,0
11020,-200,4,2,1,43,0,0
11260,-200,4,2,1,45,0,0
11500,-200,4,2,1,47,0,0
11740,-200,4,2,1,47,0,0
11742,-200,4,2,1,49,0,0
11980,-200,4,2,1,51,0,0
12220,-200,4,2,1,51,0,0
12222,-200,4,2,1,60,0,0
14140,-100,4,2,1,60,0,0
14142,-100,4,2,1,40,0,0
15340,-100,4,2,1,35,0,0
16060,-133.333333333333,4,2,1,35,0,0
16062,-133.333333333333,4,2,1,40,0,0
31420,-133.333333333333,4,2,1,40,0,0
31422,-133.333333333333,4,2,1,45,0,0
31660,-133.333333333333,4,2,1,40,0,0
44620,-133.333333333333,4,2,1,40,0,0
44622,-133.333333333333,4,2,1,50,0,0
45100,-133.333333333333,4,2,1,41,0,0
45340,-133.333333333333,4,2,1,43,0,0
45580,-133.333333333333,4,2,1,45,0,0
45820,-133.333333333333,4,2,1,47,0,0
46060,-133.333333333333,4,2,1,47,0,0
46062,-133.333333333333,4,2,1,49,0,0
46300,-133.333333333333,4,2,1,60,0,0
46540,-200,4,2,1,60,0,0
46542,-200,4,2,1,65,0,0
47740,-200,4,2,1,40,0,0
48700,-100,4,2,1,60,0,1
61900,-100,4,2,1,65,0,0
62380,-100,4,2,1,50,0,0
64060,-100,4,2,1,60,0,1
67900,-100,4,2,1,65,0,1
69820,-100,4,2,1,70,0,1
71140,-100,4,2,1,40,0,1
71260,-100,4,2,1,60,0,1
71740,-200,4,2,1,50,0,0
81340,-133.333333333333,4,2,1,40,0,0
81820,-133.333333333333,4,2,1,35,0,0
96700,-133.333333333333,4,2,1,45,0,0
96940,-133.333333333333,4,2,1,35,0,0
110380,-133.333333333333,4,2,1,41,0,0
110620,-133.333333333333,4,2,1,43,0,0
110860,-133.333333333333,4,2,1,45,0,0
111100,-133.333333333333,4,2,1,47,0,0
111340,-133.333333333333,4,2,1,47,0,0
111342,-133.333333333333,4,2,1,49,0,0
111580,-133.333333333333,4,2,1,60,0,0
111820,-133.333333333333,4,2,1,60,0,0
111822,-133.333333333333,4,2,1,65,0,0
113980,-100,4,2,1,60,0,1
127180,-100,4,2,1,50,0,0
128860,-100,4,2,1,30,0,0
129100,-100,4,2,1,50,0,0
129340,-100,4,2,1,60,0,1
142540,-100,4,2,1,50,0,0
143980,-100,4,2,1,40,0,0
144220,-100,4,2,1,50,0,0
144340,-100,4,2,1,40,0,0
144460,-100,4,2,1,50,0,0
144700,-100,4,2,1,70,0,1
148540,-100,4,2,1,75,0,1
150460,-100,4,2,1,80,0,1
151780,-100,4,2,1,50,0,1
151900,-100,4,2,1,70,0,1
152020,-100,4,2,1,50,0,1
152380,-200,4,2,1,65,0,0
158020,-200,4,2,1,65,0,0

[Colours]
Combo1 : 255,128,255
Combo2 : 0,128,255
Combo3 : 255,128,192
Combo4 : 0,128,192

[HitObjects]
125,121,700,6,0,P|167:111|206:112,1,80,0|0,0:0|0:0,0:0:0:0:
294,147,1420,1,0,0:0:0:0:
384,182,1660,2,0,P|404:182|423:177,1,40,0|0,0:0|0:0,0:0:0:0:
298,65,2140,2,0,P|278:65|259:70,1,40,0|0,0:0|0:0,0:0:0:0:
214,219,2620,6,0,P|173:225|133:222,1,80,0|0,0:0|0:0,0:0:0:0:
245,141,3340,2,0,P|283:172|292:248,1,120,0|0,0:0|0:0,0:0:0:0:
231,297,4300,1,0,0:0:0:0:
384,182,4540,6,0,P|438:175|479:178,1,80,0|0,0:0|0:0,0:0:0:0:
429,341,5260,1,0,0:0:0:0:
429,341,5500,2,0,P|375:348|334:345,1,80,0|0,0:0|0:0,0:0:0:0:
265,304,6220,1,0,0:0:0:0:
184,253,6460,6,0,P|150:246|103:243,1,80,0|0,0:0|0:0,0:0:0:0:
124,371,7180,1,0,0:0:0:0:
124,371,7420,2,0,P|158:378|205:381,1,80,0|0,0:0|0:0,0:0:0:0:
271,324,8140,1,0,0:0:0:0:
177,192,8380,6,0,P|169:159|171:105,1,80,0|0,0:0|0:0,0:0:0:0:
174,101,9100,1,0,0:0:0:0:
298,87,9340,1,0,0:0:0:0:
275,215,9580,1,0,0:0:0:0:
301,77,9820,1,0,0:0:0:0:
367,212,10060,1,0,0:0:0:0:
304,65,10300,5,0,0:0:0:0:
136,93,10540,1,0,0:0:0:0:
306,155,10780,1,0,0:0:0:0:
196,0,11020,1,0,0:0:0:0:
194,200,11260,1,0,0:0:0:0:
380,103,11500,1,0,0:0:0:0:
324,287,11740,1,0,0:0:0:0:
384,93,11980,1,0,0:0:0:0:
218,306,12220,6,0,P|189:316|241:275,1,320,0|0,0:0|0:0,0:0:0:0:
122,285,15340,1,0,0:0:0:0:
246,350,15580,1,0,0:0:0:0:
160,364,15820,1,0,0:0:0:0:
211,165,16060,6,0,B|211:89|188:122|188:49,1,120.000004577637,0|0,0:0|0:0,0:0:0:0:
189,21,16780,1,0,0:0:0:0:
70,32,17020,2,0,P|41:42|15:56,1,60.0000022888184,0|0,0:0|0:0,0:0:0:0:
15,163,17500,1,0,0:0:0:0:
73,235,17740,1,0,0:0:0:0:
161,109,17980,6,0,P|200:106|226:108,1,60.0000022888184,0|0,0:0|0:0,0:0:0:0:
307,159,18460,1,0,0:0:0:0:
407,192,18700,2,0,P|438:196|469:191,1,60.0000022888184,0|0,0:0|0:0,0:0:0:0:
452,91,19180,2,0,P|419:85|389:91,1,60.0000022888184,0|0,0:0|0:0,0:0:0:0:
317,142,19660,1,0,0:0:0:0:
127,19,19900,6,0,P|90:18|25:69,1,120.000004577637,0|0,0:0|0:0,0:0:0:0:
94,155,20620,1,0,0:0:0:0:
178,99,20860,2,0,P|230:72|288:84,1,120.000004577637,0|0,0:0|0:0,0:0:0:0:
308,186,21580,1,0,0:0:0:0:
100,277,21820,6,0,P|49:267|13:211,1,120.000004577637,0|0,0:0|0:0,0:0:0:0:
57,116,22540,2,0,P|89:116|121:124,1,60.0000022888184,0|0,0:0|0:0,0:0:0:0:
175,206,23020,1,0,0:0:0:0:
277,211,23260,1,0,0:0:0:0:
369,263,23500,1,0,0:0:0:0:
293,85,23740,6,0,P|264:67|172:46,1,120.000004577637,0|0,0:0|0:0,0:0:0:0:
113,126,24460,1,0,0:0:0:0:
212,159,24700,2,0,P|247:170|274:185,1,60.0000022888184,0|0,0:0|0:0,0:0:0:0:
240,274,25180,2,0,P|205:263|178:248,1,60.0000022888184,0|0,0:0|0:0,0:0:0:0:
381,148,25660,6,0,P|404:202|395:261,1,120.000004577637,0|0,0:0|0:0,0:0:0:0:
293,218,26380,2,0,P|263:204|231:199,2,60.0000022888184,0|0|0,0:0|0:0|0:0,0:0:0:0:
297,318,27100,1,0,0:0:0:0:
201,361,27340,1,0,0:0:0:0:
108,187,27580,6,0,P|70:159|-2:139,1,120.000004577637,0|0,0:0|0:0,0:0:0:0:
40,252,28300,1,0,0:0:0:0:
148,240,28540,2,0,P|192:236|282:244,1,120.000004577637,0|0,0:0|0:0,0:0:0:0:
371,278,29260,1,0,0:0:0:0:
466,122,29500,5,0,0:0:0:0:
373,75,29740,1,0,0:0:0:0:
290,168,29980,1,0,0:0:0:0:
215,9,30220,2,0,P|176:3|145:11,1,60.0000022888184,0|0,0:0|0:0,0:0:0:0:
171,204,30700,1,0,0:0:0:0:
351,124,30940,1,0,0:0:0:0:
261,100,31180,1,0,0:0:0:0:
227,300,31420,1,0,0:0:0:0:
338,235,31660,5,0,0:0:0:0:
348,357,31900,1,0,0:0:0:0:
260,228,32140,1,0,0:0:0:0:
172,357,32380,2,0,P|136:370|109:370,2,60.0000022888184,0|0|0,0:0|0:0|0:0,0:0:0:0:
187,233,33100,1,0,0:0:0:0:
12,210,33340,5,0,0:0:0:0:
117,135,33580,1,0,0:0:0:0:
90,265,33820,2,0,P|93:299|106:326,2,60.0000022888184,0|0|0,0:0|0:0|0:0,0:0:0:0:
210,232,34540,1,0,0:0:0:0:
213,106,34780,2,0,P|192:73|176:56,1,60.0000022888184,0|0,0:0|0:0,0:0:0:0:
0,142,35260,6,0,P|38:169|123:175,1,120.000004577637,0|0,0:0|0:0,0:0:0:0:
219,130,35980,1,0,0:0:0:0:
339,123,36220,2,0,P|403:117|465:126,1,120.000004577637,0|0,0:0|0:0,0:0:0:0:
386,287,36940,6,0,P|327:298|269:287,1,120.000004577637,0|0,0:0|0:0,0:0:0:0:
156,173,37660,1,0,0:0:0:0:
131,335,37900,1,0,0:0:0:0:
240,204,38140,1,0,0:0:0:0:
121,251,38380,1,0,0:0:0:0:
209,369,38620,2,0,P|256:374|282:373,1,60.0000022888184,0|0,0:0|0:0,0:0:0:0:
156,173,39100,6,0,P|122:157|36:156,1,120.000004577637,0|0,0:0|0:0,0:0:0:0:
84,270,39820,1,0,0:0:0:0:
209,241,40060,2,0,P|247:230|329:226,1,120.000004577637,0|0,0:0|0:0,0:0:0:0:
439,270,40780,1,0,0:0:0:0:
489,163,41020,2,0,P|459:160|429:165,1,60.0000022888184,0|0,0:0|0:0,0:0:0:0:
349,239,41500,1,0,0:0:0:0:
267,153,41740,1,0,0:0:0:0:
222,269,41980,2,0,P|207:277|162:284,1,60.0000022888184,0|0,0:0|0:0,0:0:0:0:
8,206,42460,1,0,0:0:0:0:
34,285,42700,1,0,0:0:0:0:
164,84,42940,6,0,P|205:77|286:73,1,120.000004577637,0|0,0:0|0:0,0:0:0:0:
398,97,43660,1,0,0:0:0:0:
305,263,43900,1,0,0:0:0:0:
224,174,44140,1,0,0:0:0:0:
409,212,44380,1,0,0:0:0:0:
227,285,44620,6,0,P|187:296|97:292,1,120.000004577637,0|0,0:0|0:0,0:0:0:0:
58,150,45340,1,0,0:0:0:0:
246,280,45580,1,0,0:0:0:0:
213,101,45820,1,0,0:0:0:0:
92,287,46060,1,0,0:0:0:0:
113,52,46300,5,0,0:0:0:0:
264,274,46540,1,0,0:0:0:0:
425,106,47740,6,0,P|436:133|446:196,1,80,0|0,0:0|0:0,0:0:0:0:
442,201,48460,1,0,0:0:0:0:
254,90,48700,6,0,L|91:75,1,160,0|0,0:0|0:0,0:0:0:0:
22,191,49420,1,0,0:0:0:0:
142,315,49660,2,0,P|190:328|225:328,1,80,0|0,0:0|0:0,0:0:0:0:
120,177,50140,2,0,P|70:176|36:185,1,80,0|0,0:0|0:0,0:0:0:0:
254,195,50620,6,0,L|415:180,1,160,0|0,0:0|0:0,0:0:0:0:
491,287,51340,1,0,0:0:0:0:
319,358,51580,2,0,P|310:314|310:273,1,80,0|0,0:0|0:0,0:0:0:0:
484,184,52060,2,0,P|493:228|493:269,1,80,0|0,0:0|0:0,0:0:0:0:
316,77,52540,6,0,L|155:62,1,160,0|0,0:0|0:0,0:0:0:0:
57,155,53260,1,0,0:0:0:0:
193,250,53500,2,0,P|195:201|188:169,1,80,0|0,0:0|0:0,0:0:0:0:
37,286,53980,2,0,P|34:334|41:366,1,80,0|0,0:0|0:0,0:0:0:0:
281,366,54460,6,0,L|360:359,1,80,0|0,0:0|0:0,0:0:0:0:
214,164,54940,2,0,P|237:219|277:257,1,80,0|0,0:0|0:0,0:0:0:0:
456,133,55420,2,0,P|400:124|347:137,1,80,0|0,0:0|0:0,0:0:0:0:
361,359,55900,2,0,P|394:314|409:262,1,80,0|0,0:0|0:0,0:0:0:0:
194,162,56380,6,0,L|32:147,1,160,0|0,0:0|0:0,0:0:0:0:
114,58,57100,1,0,0:0:0:0:
212,164,57340,2,0,P|300:143|338:81,1,160,0|0,0:0|0:0,0:0:0:0:
238,63,58060,1,0,0:0:0:0:
35,148,58300,6,0,L|20:309,1,160,0|0,0:0|0:0,0:0:0:0:
136,368,59020,1,0,0:0:0:0:
236,277,59260,2,0,P|279:263|318:258,1,80,0|0,0:0|0:0,0:0:0:0:
351,376,59740,1,0,0:0:0:0:
212,293,59980,1,0,0:0:0:0:
301,63,60220,6,0,L|467:48,1,160,0|0,0:0|0:0,0:0:0:0:
449,182,60940,2,0,P|409:205|372:210,1,80,0|0,0:0|0:0,0:0:0:0:
209,94,61420,2,0,P|249:71|286:66,1,80,0|0,0:0|0:0,0:0:0:0:
219,297,61900,6,0,B|164:297|164:297|116:312|116:312|49:311,1,160,0|0,0:0|0:0,0:0:0:0:
66,180,62620,1,0,0:0:0:0:
219,297,62860,2,0,P|267:262|275:233,1,80,0|0,0:0|0:0,0:0:0:0:
217,75,63340,1,0,0:0:0:0:
329,161,63580,1,0,0:0:0:0:
329,161,63700,1,0,0:0:0:0:
329,161,63820,1,0,0:0:0:0:
172,242,64060,6,0,P|158:197|163:156,1,80,0|0,0:0|0:0,0:0:0:0:
324,60,64540,2,0,P|338:105|333:146,1,80,0|0,0:0|0:0,0:0:0:0:
195,259,65020,5,0,0:0:0:0:
206,55,65260,1,0,0:0:0:0:
313,254,65500,5,0,0:0:0:0:
199,31,65740,1,0,0:0:0:0:
49,237,65980,6,0,P|92:250|130:248,1,80,0|0,0:0|0:0,0:0:0:0:
213,79,66460,2,0,P|170:66|132:68,1,80,0|0,0:0|0:0,0:0:0:0:
249,198,66940,5,0,0:0:0:0:
482,149,67180,1,0,0:0:0:0:
231,92,67420,5,0,0:0:0:0:
507,150,67660,1,0,0:0:0:0:
314,341,67900,6,0,P|267:354|230:349,1,80,0|0,0:0|0:0,0:0:0:0:
111,215,68380,2,0,P|158:202|195:207,1,80,0|0,0:0|0:0,0:0:0:0:
334,330,68860,5,0,0:0:0:0:
266,108,69100,1,0,0:0:0:0:
214,344,69340,5,0,0:0:0:0:
266,77,69580,1,0,0:0:0:0:
471,298,69820,6,0,P|428:276|312:266,1,160,0|0,0:0|0:0,0:0:0:0:
190,359,70540,2,0,P|110:356|37:325,1,160,0|0,0:0|0:0,0:0:0:0:
37,325,71140,1,0,0:0:0:0:
37,325,71260,1,0,0:0:0:0:
108,188,71500,1,0,0:0:0:0:
207,356,71740,6,0,P|261:366|298:356,1,80,0|0,0:0|0:0,0:0:0:0:
367,289,72460,1,0,0:0:0:0:
367,289,72700,2,0,P|313:279|276:289,1,80,0|0,0:0|0:0,0:0:0:0:
186,339,73420,1,0,0:0:0:0:
186,339,73660,6,0,P|181:299|191:261,1,80,0|0,0:0|0:0,0:0:0:0:
259,199,74380,1,0,0:0:0:0:
259,199,74620,2,0,P|298:203|336:193,1,80,0|0,0:0|0:0,0:0:0:0:
413,132,75340,1,0,0:0:0:0:
413,132,75580,6,0,P|417:92|407:54,1,80,0|0,0:0|0:0,0:0:0:0:
318,19,76300,1,0,0:0:0:0:
318,19,76541,2,0,P|279:30|240:25,1,80,0|0,0:0|0:0,0:0:0:0:
166,158,77260,6,0,P|157:188|152:211,1,40,0|0,0:0|0:0,0:0:0:0:
153,217,77740,1,0,0:0:0:0:
302,175,77980,2,0,P|332:168|387:164,1,80,0|0,0:0|0:0,0:0:0:0:
408,165,78700,1,0,0:0:0:0:
333,299,78940,1,0,0:0:0:0:
275,181,79180,2,0,P|246:192|199:220,1,80,0|0,0:0|0:0,0:0:0:0:
96,328,79900,2,0,P|68:333|48:333,1,40,0|0,0:0|0:0,0:0:0:0:
56,333,80260,1,0,0:0:0:0:
56,333,80380,1,0,0:0:0:0:
82,119,80620,5,0,0:0:0:0:
185,308,80860,1,0,0:0:0:0:
83,228,81100,1,0,0:0:0:0:
281,124,81340,6,0,B|347:124|327:97|397:97,1,120.000004577637,0|0,0:0|0:0,0:0:0:0:
426,101,82060,1,0,0:0:0:0:
396,233,82300,2,0,P|383:265|377:298,1,60.0000022888184,0|0,0:0|0:0,0:0:0:0:
470,384,82780,2,0,P|483:352|489:319,1,60.0000022888184,0|0,0:0|0:0,0:0:0:0:
309,359,83260,6,0,P|267:370|180:363,1,120.000004577637,0|0,0:0|0:0,0:0:0:0:
102,276,83980,2,0,P|69:269|35:265,1,60.0000022888184,0|0,0:0|0:0,0:0:0:0:
97,371,84460,1,0,0:0:0:0:
188,280,84700,1,0,0:0:0:0:
85,195,84940,1,0,0:0:0:0:
233,60,85180,6,0,P|283:47|363:41,1,120.000004577637,0|0,0:0|0:0,0:0:0:0:
478,86,85900,1,0,0:0:0:0:
367,154,86140,2,0,P|356:192|354:277,1,120.000004577637,0|0,0:0|0:0,0:0:0:0:
363,291,86860,1,0,0:0:0:0:
194,175,87100,6,0,P|148:161|71:153,1,120.000004577637,0|0,0:0|0:0,0:0:0:0:
86,284,87820,2,0,P|126:294|149:293,1,60.0000022888184,0|0,0:0|0:0,0:0:0:0:
221,191,88300,1,0,0:0:0:0:
160,74,88540,1,0,0:0:0:0:
55,158,88780,1,0,0:0:0:0:
240,106,89020,6,0,P|293:101|361:105,1,120.000004577637,0|0,0:0|0:0,0:0:0:0:
474,160,89740,1,0,0:0:0:0:
392,257,89980,2,0,P|355:264|325:262,1,60.0000022888184,0|0,0:0|0:0,0:0:0:0:
213,184,90460,2,0,P|249:176|279:178,1,60.0000022888184,0|0,0:0|0:0,0:0:0:0:
174,360,90940,6,0,P|126:359|57:338,1,120.000004577637,0|0,0:0|0:0,0:0:0:0:
28,209,91660,2,0,P|40:170|57:149,1,60.0000022888184,0|0,0:0|0:0,0:0:0:0:
175,217,92140,2,0,P|163:256|146:277,1,60.0000022888184,0|0,0:0|0:0,0:0:0:0:
133,282,92620,1,0,0:0:0:0:
157,99,92860,6,0,P|192:69|263:32,1,120.000004577637,0|0,0:0|0:0,0:0:0:0:
390,22,93580,1,0,0:0:0:0:
333,132,93820,2,0,P|336:172|368:244,1,120.000004577637,0|0,0:0|0:0,0:0:0:0:
386,256,94540,1,0,0:0:0:0:
196,207,94780,6,0,P|152:203|121:205,1,60.0000022888184,0|0,0:0|0:0,0:0:0:0:
199,309,95260,1,0,0:0:0:0:
256,126,95500,2,0,P|216:109|196:106,1,60.0000022888184,0|0,0:0|0:0,0:0:0:0:
9,155,95980,5,0,0:0:0:0:
200,341,96220,1,0,0:0:0:0:
247,223,96460,1,0,0:0:0:0:
26,278,96700,5,0,0:0:0:0:
92,382,96940,1,0,0:0:0:0:
173,262,97180,1,0,0:0:0:0:
5,282,97420,1,0,0:0:0:0:
169,343,97660,2,0,P|203:352|229:352,2,60.0000022888184,0|0|0,0:0|0:0|0:0,0:0:0:0:
83,219,98380,1,0,0:0:0:0:
179,104,98620,5,0,0:0:0:0:
205,225,98860,1,0,0:0:0:0:
70,318,99100,2,0,P|50:346|40:373,2,60.0000022888184,0|0|0,0:0|0:0|0:0,0:0:0:0:
190,236,99820,1,0,0:0:0:0:
299,355,100060,1,0,0:0:0:0:
182,355,100300,1,0,0:0:0:0:
325,220,100540,6,0,P|351:186|371:107,1,120.000004577637,0|0,0:0|0:0,0:0:0:0:
260,28,101260,2,0,P|218:25|181:27,1,60.0000022888184,0|0,0:0|0:0,0:0:0:0:
272,128,101740,1,0,0:0:0:0:
353,21,101980,1,0,0:0:0:0:
497,157,102220,6,0,P|457:162|387:205,1,120.000004577637,0|0,0:0|0:0,0:0:0:0:
411,341,102940,1,0,0:0:0:0:
363,223,103180,1,0,0:0:0:0:
264,353,103420,1,0,0:0:0:0:
388,346,103660,1,0,0:0:0:0:
257,244,103900,1,0,0:0:0:0:
265,368,104140,1,0,0:0:0:0:
127,230,104380,6,0,P|106:187|91:112,1,120.000004577637,0|0,0:0|0:0,0:0:0:0:
175,20,105100,1,0,0:0:0:0:
270,107,105340,2,0,P|313:125|388:119,1,120.000004577637,0|0,0:0|0:0,0:0:0:0:
341,11,106060,1,0,0:0:0:0:
184,131,106300,6,0,P|150:138|119:136,1,60.0000022888184,0|0,0:0|0:0,0:0:0:0:
21,60,106780,1,0,0:0:0:0:
139,45,107020,1,0,0:0:0:0:
42,140,107260,2,0,P|29:173|26:257,1,120.000004577637,0|0,0:0|0:0,0:0:0:0:
33,277,107980,1,0,0:0:0:0:
220,166,108220,6,0,P|274:149|341:139,1,120.000004577637,0|0,0:0|0:0,0:0:0:0:
454,192,108940,2,0,P|491:187|514:179,1,60.0000022888184,0|0,0:0|0:0,0:0:0:0:
445,56,109420,1,0,0:0:0:0:
379,200,109660,1,0,0:0:0:0:
227,55,109900,6,0,P|163:44|103:47,1,120.000004577637,0|0,0:0|0:0,0:0:0:0:
83,214,110620,1,0,0:0:0:0:
248,72,110860,1,0,0:0:0:0:
226,262,111100,1,0,0:0:0:0:
84,59,111340,1,0,0:0:0:0:
126,324,111580,5,0,0:0:0:0:
170,7,111820,1,0,0:0:0:0:
377,302,113020,6,0,P|387:256|391:172,1,120.000004577637,0|0,0:0|0:0,0:0:0:0:
385,163,113740,1,0,0:0:0:0:
197,288,113980,6,0,L|38:274,1,160,0|0,0:0|0:0,0:0:0:0:
128,170,114700,1,0,0:0:0:0:
219,291,114940,2,0,P|265:285|301:271,1,80,0|0,0:0|0:0,0:0:0:0:
230,143,115420,2,0,P|184:149|148:163,1,80,0|0,0:0|0:0,0:0:0:0:
347,165,115900,6,0,L|520:149,1,160,0|0,0:0|0:0,0:0:0:0:
436,258,116620,1,0,0:0:0:0:
317,170,116860,2,0,P|298:216|298:246,1,80,0|0,0:0|0:0,0:0:0:0:
426,157,117340,2,0,P|423:117|407:82,1,80,0|0,0:0|0:0,0:0:0:0:
182,70,117820,6,0,L|17:84,1,160,0|0,0:0|0:0,0:0:0:0:
83,208,118540,1,0,0:0:0:0:
216,141,118780,2,0,P|267:134|306:135,1,80,0|0,0:0|0:0,0:0:0:0:
234,275,119260,2,0,P|183:282|144:281,1,80,0|0,0:0|0:0,0:0:0:0:
404,223,119740,6,0,L|412:302,1,80,0|0,0:0|0:0,0:0:0:0:
460,54,120220,2,0,P|409:44|364:50,1,80,0|0,0:0|0:0,0:0:0:0:
290,258,120700,2,0,P|323:219|341:176,1,80,0|0,0:0|0:0,0:0:0:0:
197,8,121180,2,0,P|214:56|242:92,1,80,0|0,0:0|0:0,0:0:0:0:
486,143,121660,6,0,L|471:307,1,160,0|0,0:0|0:0,0:0:0:0:
356,362,122380,1,0,0:0:0:0:
239,305,122620,2,0,P|194:288|81:275,1,160,0|0,0:0|0:0,0:0:0:0:
145,381,123340,1,0,0:0:0:0:
176,211,123580,6,0,L|199:53,1,160,0|0,0:0|0:0,0:0:0:0:
321,68,124300,1,0,0:0:0:0:
472,27,124540,2,0,P|498:67|499:182,1,160,0|0,0:0|0:0,0:0:0:0:
489,190,125260,1,0,0:0:0:0:
282,134,125500,6,0,L|101:118,1,160,0|0,0:0|0:0,0:0:0:0:
28,216,126220,2,0,P|71:244|102:250,1,80,0|0,0:0|0:0,0:0:0:0:
191,59,126700,2,0,P|145:82|124:106,1,80,0|0,0:0|0:0,0:0:0:0:
309,275,127180,6,0,B|313:219|313:219|344:183|344:183|349:126,1,160,0|0,0:0|0:0,0:0:0:0:
351,22,127900,1,0,0:0:0:0:
241,87,128140,2,0,P|216:89|192:87,2,40,0|0|0,0:0|0:0|0:0,0:0:0:0:
366,10,128620,1,0,0:0:0:0:
483,146,128860,5,0,0:0:0:0:
483,146,128980,1,0,0:0:0:0:
483,146,129100,1,0,0:0:0:0:
295,284,129340,6,0,P|246:297|209:296,1,80,0|0,0:0|0:0,0:0:0:0:
88,183,129820,2,0,P|137:170|174:171,1,80,0|0,0:0|0:0,0:0:0:0:
309,277,130300,5,0,0:0:0:0:
74,190,130540,1,0,0:0:0:0:
286,166,130780,5,0,0:0:0:0:
96,300,131020,1,0,0:0:0:0:
294,73,131260,6,0,P|333:54|374:49,1,80,0|0,0:0|0:0,0:0:0:0:
430,255,131740,2,0,P|391:274|350:279,1,80,0|0,0:0|0:0,0:0:0:0:
268,89,132220,5,0,0:0:0:0:
325,273,132460,1,0,0:0:0:0:
396,55,132700,5,0,0:0:0:0:
321,293,132940,1,0,0:0:0:0:
130,106,133180,6,0,P|89:94|43:91,1,80,0|0,0:0|0:0,0:0:0:0:
208,353,133660,2,0,P|249:365|295:368,1,80,0|0,0:0|0:0,0:0:0:0:
259,132,134140,5,0,0:0:0:0:
188,339,134380,1,0,0:0:0:0:
265,109,134620,5,0,0:0:0:0:
309,363,134860,1,0,0:0:0:0:
477,97,135100,6,0,P|440:68|405:56,1,80,0|0,0:0|0:0,0:0:0:0:
230,211,135580,2,0,P|267:240|302:252,1,80,0|0,0:0|0:0,0:0:0:0:
289,22,136060,5,0,0:0:0:0:
326,254,136300,1,0,0:0:0:0:
486,113,136540,5,0,0:0:0:0:
215,190,136780,1,0,0:0:0:0:
512,275,137020,6,0,P|469:255|432:248,1,80,0|0,0:0|0:0,0:0:0:0:
203,271,137500,2,0,P|246:291|283:298,1,80,0|0,0:0|0:0,0:0:0:0:
376,130,137980,5,0,0:0:0:0:
188,250,138220,1,0,0:0:0:0:
179,58,138460,5,0,0:0:0:0:
313,273,138700,1,0,0:0:0:0:
310,35,138940,6,0,P|347:9|385:2,1,80,0|0,0:0|0:0,0:0:0:0:
442,225,139420,2,0,P|405:251|367:258,1,80,0|0,0:0|0:0,0:0:0:0:
170,35,139900,5,0,0:0:0:0:
190,275,140140,1,0,0:0:0:0:
376,130,140380,5,0,0:0:0:0:
124,123,140620,1,0,0:0:0:0:
260,373,140860,6,0,P|304:353|342:346,1,80,0|0,0:0|0:0,0:0:0:0:
470,368,141340,5,0,0:0:0:0:
427,182,141580,2,0,P|412:138|391:110,1,80,0|0,0:0|0:0,0:0:0:0:
301,238,142060,5,0,0:0:0:0:
195,5,142300,1,0,0:0:0:0:
1,253,142540,6,0,P|50:237|167:229,1,160,0|0,0:0|0:0,0:0:0:0:
271,337,143260,1,0,0:0:0:0:
110,329,143500,2,0,P|87:333|59:341,2,40,0|0|0,0:0|0:0|0:0,0:0:0:0:
296,347,143980,1,0,0:0:0:0:
382,142,144220,5,0,0:0:0:0:
383,122,144340,1,0,0:0:0:0:
385,102,144460,1,0,0:0:0:0:
321,357,144700,6,0,P|306:313|285:280,1,80,0|0,0:0|0:0,0:0:0:0:
53,204,145180,2,0,P|68:248|89:281,1,80,0|0,0:0|0:0,0:0:0:0:
276,45,145660,5,0,0:0:0:0:
185,324,145900,1,0,0:0:0:0:
94,28,146140,5,0,0:0:0:0:
185,346,146380,1,0,0:0:0:0:
373,82,146620,6,0,P|430:67|463:63,1,80,0|0,0:0|0:0,0:0:0:0:
262,350,147100,2,0,P|205:365|172:369,1,80,0|0,0:0|0:0,0:0:0:0:
82,133,147580,5,0,0:0:0:0:
367,243,147820,1,0,0:0:0:0:
50,309,148060,5,0,0:0:0:0:
406,170,148300,1,0,0:0:0:0:
122,17,148540,6,0,P|82:23|44:34,1,80,0|0,0:0|0:0,0:0:0:0:
181,383,149020,2,0,P|220:377|259:366,1,80,0|0,0:0|0:0,0:0:0:0:
308,28,149500,5,0,0:0:0:0:
145,313,149740,1,0,0:0:0:0:
139,22,149980,5,0,0:0:0:0:
260,287,150220,1,0,0:0:0:0:
18,88,150460,6,0,P|2:131|2:167,1,80,0|0,0:0|0:0,0:0:0:0:
112,275,150940,1,0,0:0:0:0:
287,90,151180,6,0,P|328:78|365:76,1,80,0|0,0:0|0:0,0:0:0:0:
450,243,151660,5,0,0:0:0:0:
415,223,151780,1,0,0:0:0:0:
375,220,151900,1,0,0:0:0:0:
338,234,152020,1,0,0:0:0:0:
300,247,152140,1,0,0:0:0:0:
261,244,152260,1,0,0:0:0:0:
226,225,152380,6,0,P|193:207|146:199,1,80,0|0,0:0|0:0,0:0:0:0:
80,267,153100,1,0,0:0:0:0:
126,355,153340,2,0,P|158:361|215:355,1,80,0|0,0:0|0:0,0:0:0:0:
274,298,154060,1,0,0:0:0:0:
386,369,154300,5,0,0:0:0:0:
362,269,154540,1,0,0:0:0:0:
258,306,154780,1,0,0:0:0:0:
275,196,155020,2,0,P|287:165|315:129,1,80,0|0,0:0|0:0,0:0:0:0:
386,63,155740,1,0,0:0:0:0:
413,155,155980,1,0,0:0:0:0:
294,45,156220,6,0,P|260:36|197:28,1,80,0|0,0:0|0:0,0:0:0:0:
114,112,156940,2,0,P|162:99|203:100,1,80,0|0,0:0|0:0,0:0:0:0:
221,177,157660,1,0,0:0:0:0:
93,125,157900,1,0,0:0:0:0:
256,192,158020,12,0,163420,0:0:0:0:
