osu file format v14

[General]
AudioFilename: audio.mp3
AudioLeadIn: 0
PreviewTime: 4978
Countdown: 0
SampleSet: Soft
StackLeniency: 0.7
Mode: 0
LetterboxInBreaks: 0
WidescreenStoryboard: 1

[Editor]
DistanceSpacing: 1.3
BeatDivisor: 4
GridSize: 4
TimelineZoom: 2.599999

[Metadata]
Title:Insane Game
TitleUnicode:インセインゲーム
Artist:Miki Hoshii, Hibiki Ganaha, Takane Shijou
ArtistUnicode:星井美希、我那覇響、四条貴音
Creator:Lily Bread
Version:Adv@nced
Source:アイドルマスター プラチナスターズ
Tags:Bokutachi no Resistance The Idolm@ster Platinum Stars idolmaster im@s imas
BeatmapID:1525706
BeatmapSetID:720689

[Difficulty]
HPDrainRate:4
CircleSize:4
OverallDifficulty:5
ApproachRate:6.5
SliderMultiplier:1.1
SliderTickRate:1

[Events]
//Background and Video events
0,0,"BG.jpg",0,0
//Break Periods
//Storyboard Layer 0 (Background)
//Storyboard Layer 1 (Fail)
//Storyboard Layer 2 (Pass)
//Storyboard Layer 3 (Foreground)
//Storyboard Sound Samples

[TimingPoints]
259,337.078651685393,4,2,1,40,1,0
5483,-90.9090909090909,4,2,1,60,0,1
16185,-90.9090909090909,4,2,1,10,0,1
16270,-90.9090909090909,4,2,1,60,0,1
25961,-90.9090909090909,4,3,1,60,0,1
26382,-90.9090909090909,4,2,1,60,0,0
28573,-100,4,2,1,25,0,0
31270,-100,4,3,1,25,0,0
35315,-100,4,2,1,25,0,0
35652,-100,4,2,1,25,0,0
36663,-100,4,3,1,50,0,0
37000,-100,4,2,1,50,0,0
37169,-100,4,3,1,50,0,0
37843,-100,4,2,1,50,0,0
47618,-100,4,3,1,50,0,0
47955,-100,4,2,1,50,0,0
48124,-100,4,3,1,50,0,0
48461,-100,4,2,1,50,0,0
49725,-100,4,2,1,10,0,0
49809,-100,4,2,1,50,0,0
50146,-100,4,2,1,50,0,0
66326,-100,4,2,1,50,0,0
69023,-100,4,3,1,50,0,0
69360,-100,4,2,1,50,0,0
72730,-100,4,3,1,50,0,0
73067,-90.9090909090909,4,2,1,60,0,1
83517,-90.9090909090909,4,2,1,60,0,1
83854,-90.9090909090909,4,2,1,60,0,1
95399,-90.9090909090909,4,3,1,60,0,1
95567,-90.9090909090909,4,2,1,60,0,1
97084,-90.9090909090909,4,2,1,60,0,0
97169,-90.9090909090909,4,2,1,60,0,1
112674,-90.9090909090909,4,3,1,60,0,1
113348,-90.9090909090909,4,2,1,60,0,1
117056,-90.9090909090909,4,3,1,60,0,1
117562,-90.9090909090909,4,3,1,60,0,1
118067,-90.9090909090909,4,2,1,60,0,1
119584,-90.9090909090909,4,3,1,60,0,1
120258,-90.9090909090909,4,2,1,60,0,1
121438,-90.9090909090909,4,2,1,40,0,0
121607,-90.9090909090909,4,2,1,30,0,0
121944,-90.9090909090909,4,2,1,10,0,0
122281,-90.9090909090909,4,2,1,5,0,0

[Colours]
Combo1 : 242,24,57
Combo2 : 0,202,0
Combo3 : 128,0,255

[HitObjects]
132,136,4978,6,0,L|132:60,2,55,2|2|2,0:0|0:0|0:0,0:0:0:0:
152,212,5483,6,0,P|203:252|259:246,1,121.000003692627,6|0,0:0|0:0,0:0:0:0:
316,196,5989,2,0,L|324:128,1,60.5000018463135,8|0,0:0|0:0,0:0:0:0:
264,84,6326,2,0,L|255:24,2,60.5000018463135,2|2|10,0:0|0:0|0:0,0:0:0:0:
404,152,7000,2,0,L|408:296,1,121.000003692627,2|8,0:0|0:0,0:0:0:0:
356,332,7506,2,0,P|284:344|236:328,1,121.000003692627,2|2,0:0|0:0,0:0:0:0:
84,352,8180,6,0,L|60:220,1,121.000003692627,2|0,0:0|0:0,0:0:0:0:
40,156,8685,2,0,L|24:84,1,60.5000018463135,8|0,0:0|0:0,0:0:0:0:
68,28,9023,2,0,P|112:24|152:32,2,60.5000018463135,2|2|10,0:0|0:0|0:0,0:0:0:0:
204,108,9697,2,0,L|344:108,1,121.000003692627,2|8,0:0|0:0,0:0:0:0:
404,92,10202,2,0,P|436:128|428:200,1,121.000003692627,2|2,0:0|0:0,0:0:0:0:
340,324,10876,6,0,P|272:304|208:320,1,121.000003692627,6|0,0:0|0:0,0:0:0:0:
156,352,11382,2,0,P|126:352|88:340,1,60.5000018463135,8|0,0:0|0:0,0:0:0:0:
44,284,11719,2,0,L|36:208,1,60.5000018463135,2|2,0:0|0:0,0:0:0:0:
92,168,12056,2,0,L|92:107,1,60.5000018463135,10|0,0:0|0:0,0:0:0:0:
148,52,12393,2,0,P|206:33|274:65,1,121.000003692627,2|8,0:0|0:0,0:0:0:0:
292,124,12899,1,2,0:0:0:0:
300,204,13067,2,0,P|363:162|371:114,1,121.000003692627,2|10,0:0|0:0,0:0:0:0:
400,48,13573,1,2,0:0:0:0:
448,112,13742,6,0,L|456:256,1,121.000003692627,2|8,0:0|0:0,0:0:0:0:
308,284,14416,2,0,L|248:284,1,60.5000018463135,2|0,0:0|0:0,0:0:0:0:
208,216,14753,2,0,L|132:216,1,60.5000018463135,10|0,0:0|0:0,0:0:0:0:
84,264,15090,2,0,P|69:237|69:207,1,60.5000018463135,8|2,0:0|0:0,0:0:0:0:
180,92,15596,2,0,L|312:92,1,121.000003692627,2|10,0:0|0:0,0:0:0:0:
448,36,16270,6,0,P|468:96|444:160,1,121.000003692627,6|0,0:0|0:0,0:0:0:0:
388,192,16775,2,0,L|388:260,1,60.5000018463135,8|0,0:0|0:0,0:0:0:0:
452,296,17112,2,0,L|456:360,2,60.5000018463135,2|2|10,0:0|0:0|0:0,0:0:0:0:
296,316,17787,2,0,P|244:345|184:349,1,121.000003692627,2|8,0:0|0:0,0:0:0:0:
104,348,18292,2,0,P|128:292|188:272,1,121.000003692627,2|2,0:0|0:0,0:0:0:0:
304,180,18966,6,0,P|320:116|288:60,1,121.000003692627,2|0,0:0|0:0,0:0:0:0:
224,40,19472,2,0,L|140:44,1,60.5000018463135,8|0,0:0|0:0,0:0:0:0:
100,88,19809,2,0,L|20:84,2,60.5000018463135,2|2|10,0:0|0:0|0:0,0:0:0:0:
184,216,20483,2,0,P|220:264|300:280,1,121.000003692627,2|8,0:0|0:0,0:0:0:0:
332,228,20989,2,0,P|368:224|448:260,1,121.000003692627,2|10,0:0|0:0,0:0:0:0:
448,100,21663,6,0,L|324:100,1,121.000003692627,6|0,0:0|0:0,0:0:0:0:
248,84,22169,2,0,L|168:84,1,60.5000018463135,8|0,0:0|0:0,0:0:0:0:
112,112,22506,2,0,P|80:144|76:172,1,60.5000018463135,2|2,0:0|0:0,0:0:0:0:
128,216,22843,2,0,L|128:300,1,60.5000018463135,10|0,0:0|0:0,0:0:0:0:
184,332,23180,2,0,P|232:344|312:324,1,121.000003692627,2|8,0:0|0:0,0:0:0:0:
312,252,23685,1,2,0:0:0:0:
344,180,23854,2,0,P|396:196|432:268,1,121.000003692627,2|10,0:0|0:0,0:0:0:0:
452,328,24360,1,2,0:0:0:0:
508,272,24528,6,0,L|508:144,1,121.000003692627,2|8,0:0|0:0,0:0:0:0:
456,92,25034,1,0,0:0:0:0:
376,100,25202,2,0,L|296:100,1,60.5000018463135,2|0,0:0|0:0,0:0:0:0:
260,156,25539,2,0,L|200:156,1,60.5000018463135,10|0,0:0|0:0,0:0:0:0:
148,96,25876,2,0,L|64:96,2,60.5000018463135,8|4|4,0:0|0:0|0:0,0:0:0:0:
224,76,26382,1,4,0:0:0:0:
136,84,28573,5,4,0:0:0:0:
136,300,31270,5,4,0:0:0:0:
376,84,33966,5,4,0:0:0:0:
376,300,35315,2,0,P|404:256|408:188,2,110,4|0|0,0:0|0:0|0:0,0:0:0:0:
256,224,36326,2,0,L|176:224,1,55,2|0,0:0|0:0,0:0:0:0:
160,284,36663,6,0,L|92:284,1,55,0|0,0:0|0:0,0:0:0:0:
40,252,37000,1,8,0:0:0:0:
100,212,37169,2,0,L|100:84,1,110,2|2,0:0|0:0,0:0:0:0:
228,40,37843,2,0,P|280:32|344:48,1,110,4|0,0:0|0:0,0:0:0:0:
368,108,38348,2,0,L|372:224,2,110,8|2|8,0:0|0:0|0:0,0:0:0:0:
480,204,39360,6,0,L|476:332,1,110,14|8,0:0|0:0,0:0:0:0:
420,356,39865,1,0,0:0:0:0:
371,217,40202,1,2,0:0:0:0:
232,216,40539,2,0,L|220:100,1,110,2|0,0:0|0:0,0:0:0:0:
168,56,41045,2,0,P|108:64|60:108,1,110,8|2,0:0|0:0,0:0:0:0:
32,232,41719,1,8,0:0:0:0:
136,332,42056,6,0,P|188:345|236:321,1,110,2|8,0:0|0:0,0:0:0:0:
300,284,42562,1,0,0:0:0:0:
368,156,42899,1,2,0:0:0:0:
272,52,43236,2,0,P|328:14|392:20,1,110,2|0,0:0|0:0,0:0:0:0:
428,52,43742,2,0,L|448:168,1,110,8|2,0:0|0:0,0:0:0:0:
488,296,44416,1,8,0:0:0:0:
348,312,44753,6,0,L|280:312,1,55,2|2,0:0|0:0,0:0:0:0:
224,288,45090,2,0,L|144:288,1,55,12|0,0:0|0:0,0:0:0:0:
104,320,45427,1,2,0:0:0:0:
20,208,45764,1,12,0:0:0:0:
112,100,46101,2,0,L|180:100,1,55,8|0,0:0|0:0,0:0:0:0:
240,100,46438,1,12,0:0:0:0:
256,244,46775,2,0,P|332:260|420:244,1,165,2|0,0:0|0:0,0:0:0:0:
424,172,47450,6,0,L|424:100,2,55,8|0|0,0:0|0:0|0:0,0:0:0:0:
488,228,47955,2,0,L|488:284,2,55,8|0|0,0:0|0:0|0:0,0:0:0:0:
500,156,48461,1,8,0:0:0:0:
500,156,48630,1,8,0:0:0:0:
316,76,49135,2,0,P|252:39|216:152,1,220,0|2,0:0|0:0,0:0:0:0:
308,248,50146,6,0,P|251:282|193:276,1,110,6|8,0:0|0:0,0:0:0:0:
136,276,50652,2,0,L|112:164,1,110,0|2,0:0|0:0,0:0:0:0:
60,120,51157,1,8,0:0:0:0:
52,264,51494,2,0,P|68:328|116:360,1,110,2|8,0:0|0:0,0:0:0:0:
172,356,52000,2,0,L|288:360,1,110,0|2,0:0|0:0,0:0:0:0:
352,360,52506,1,8,0:0:0:0:
472,280,52843,6,0,P|478:227|472:160,2,110,2|8|2,0:0|0:0|0:0,0:0:0:0:
328,268,53854,2,0,P|276:279|200:260,1,110,12|2,0:0|0:0,0:0:0:0:
76,264,54528,2,0,P|88:200|124:160,2,110,8|2|8,0:0|0:0|0:0,0:0:0:0:
184,356,55539,5,2,0:0:0:0:
328,352,55876,2,0,P|384:352|440:312,1,110,8|2,0:0|0:0,0:0:0:0:
464,184,56551,2,0,L|460:60,1,110,8|0,0:0|0:0,0:0:0:0:
320,48,57225,2,0,P|266:39|196:44,1,110,8|2,0:0|0:0,0:0:0:0:
84,108,57899,2,0,P|80:164|80:232,1,110,8|2,0:0|0:0,0:0:0:0:
168,332,58573,6,0,L|244:336,1,55,8|0,0:0|0:0,0:0:0:0:
296,336,58910,2,0,P|352:336|408:312,1,110,2|8,0:0|0:0,0:0:0:0:
480,192,59584,2,0,L|480:112,1,55,2|2,0:0|0:0,0:0:0:0:
408,132,59921,2,0,L|408:52,1,55,2|6,0:0|0:0,0:0:0:0:
192,80,60596,2,0,L|124:80,1,55,8|0,0:0|0:0,0:0:0:0:
80,124,60933,6,0,P|76:176|88:240,1,110,6|8,0:0|0:0,0:0:0:0:
156,220,61438,2,0,P|208:216|276:240,1,110,0|2,0:0|0:0,0:0:0:0:
324,272,61944,1,8,0:0:0:0:
440,356,62281,2,0,P|468:300|464:252,1,110,2|8,0:0|0:0,0:0:0:0:
456,184,62787,2,0,L|452:52,1,110,0|2,0:0|0:0,0:0:0:0:
396,32,63292,1,8,0:0:0:0:
344,164,63629,5,2,0:0:0:0:
204,180,63966,1,8,0:0:0:0:
72,120,64303,2,0,L|72:44,1,55,10|2,0:0|0:0,0:0:0:0:
136,32,64641,2,0,P|188:16|308:52,1,165,14|0,0:0|0:0,0:0:0:0:
352,80,65315,1,8,0:0:0:0:
380,220,65652,2,0,P|380:284|340:340,1,110,0|8,0:0|0:0,0:0:0:0:
220,356,66326,6,0,L|148:356,1,55,12|0,0:0|0:0,0:0:0:0:
152,284,66663,2,0,L|72:284,1,55,8|0,0:0|0:0,0:0:0:0:
88,212,67000,2,0,L|28:212,2,55,8|0|8,0:0|0:0|0:0,0:0:0:0:
100,72,67674,2,0,L|160:72,1,55,8|0,0:0|0:0,0:0:0:0:
220,104,68011,2,0,L|288:104,1,55,8|0,0:0|0:0,0:0:0:0:
324,52,68348,2,0,L|392:52,2,55,8|0|8,0:0|0:0|0:0,0:0:0:0:
448,128,69023,6,0,P|454:159|438:192,1,55,2|2,0:0|0:0,0:0:0:0:
408,240,69360,2,0,P|352:252|288:220,2,110,8|2|8,0:0|0:0|0:0,0:0:0:0:
480,252,70202,2,0,L|480:312,1,55,4|0,0:0|0:0,0:0:0:0:
420,348,70539,1,8,0:0:0:0:
348,336,70708,2,0,L|293:336,1,55,2|2,0:0|0:0,0:0:0:0:
236,292,71045,2,0,L|181:292,1,55,2|2,0:0|0:0,0:0:0:0:
124,340,71382,2,0,L|69:340,1,55,2|2,0:0|0:0,0:0:0:0:
28,280,71719,5,8,0:0:0:0:
28,280,71888,1,8,0:0:0:0:
28,280,72056,1,8,0:0:0:0:
108,156,72393,2,0,P|164:128|220:160,1,110,2|4,0:0|0:0,0:0:0:0:
316,256,73067,6,0,P|384:256|400:200,1,121.000003692627,6|8,0:0|0:0,0:0:0:0:
424,136,73574,1,2,0:0:0:0:
488,188,73742,2,0,L|496:260,2,60.5000018463135,0|2|8,0:0|0:0|0:0,0:0:0:0:
512,112,74247,1,0,0:0:0:0:
456,52,74416,2,0,P|384:36|324:48,1,121.000003692627,2|10,0:0|0:0,0:0:0:0:
288,184,75090,2,0,L|288:252,2,60.5000018463135,2|2|8,0:0|0:0|0:0,0:0:0:0:
244,120,75596,2,0,P|192:92|112:100,1,121.000003692627,2|0,0:0|0:0,0:0:0:0:
56,112,76101,5,8,0:0:0:0:
64,268,76438,2,0,P|92:320|164:336,1,121.000003692627,2|8,0:0|0:0,0:0:0:0:
212,292,76944,1,0,0:0:0:0:
272,344,77112,2,0,P|335:337|392:292,1,121.000003692627,2|10,0:0|0:0,0:0:0:0:
448,264,77618,1,0,0:0:0:0:
388,216,77787,2,0,L|384:84,1,121.000003692627,2|8,0:0|0:0,0:0:0:0:
232,52,78461,6,0,P|165:37|87:55,1,121.000003692627,4|8,0:0|0:0,0:0:0:0:
80,116,78966,2,0,L|72:240,1,121.000003692627,2|2,0:0|0:0,0:0:0:0:
88,316,79472,1,8,0:0:0:0:
152,268,79641,2,0,P|222:255|291:271,1,121.000003692627,2|0,0:0|0:0,0:0:0:0:
336,308,80146,2,0,L|420:308,1,60.5000018463135,8|0,0:0|0:0,0:0:0:0:
416,232,80483,2,0,L|332:232,1,60.5000018463135,2|2,0:0|0:0,0:0:0:0:
336,156,80820,2,0,L|420:156,1,60.5000018463135,10|0,0:0|0:0,0:0:0:0:
476,160,81157,6,0,P|448:96|396:76,1,121.000003692627,4|0,0:0|0:0,0:0:0:0:
324,68,81663,2,0,P|256:72|196:64,1,121.000003692627,4|0,0:0|0:0,0:0:0:0:
132,32,82169,1,8,0:0:0:0:
132,112,82337,2,0,L|140:248,2,121.000003692627,4|4|4,0:0|0:0|0:0,0:0:0:0:
212,120,83180,2,0,L|220:252,1,121.000003692627,0|8,0:0|0:0,0:0:0:0:
340,340,83854,6,0,P|404:332|448:272,2,121.000003692627,4|8|2,0:0|0:0|0:0,0:0:0:0:
260,340,84697,2,0,L|180:340,1,60.5000018463135,0|8,0:0|0:0,0:0:0:0:
124,364,85034,1,2,0:0:0:0:
60,320,85202,2,0,L|48:176,1,121.000003692627,0|8,0:0|0:0,0:0:0:0:
136,68,85876,1,2,0:0:0:0:
136,68,86045,2,0,L|208:68,1,60.5000018463135,2|8,0:0|0:0,0:0:0:0:
260,112,86382,6,0,P|312:92|384:128,1,121.000003692627,2|0,0:0|0:0,0:0:0:0:
420,176,86888,2,0,L|436:256,1,60.5000018463135,8|0,0:0|0:0,0:0:0:0:
352,248,87225,2,0,L|348:320,1,60.5000018463135,2|2,0:0|0:0,0:0:0:0:
272,296,87562,2,0,L|260:360,1,60.5000018463135,10|0,0:0|0:0,0:0:0:0:
184,364,87899,2,0,P|124:368|64:324,1,121.000003692627,2|8,0:0|0:0,0:0:0:0:
28,272,88405,1,0,0:0:0:0:
92,228,88573,2,0,P|112:176|112:92,1,121.000003692627,2|8,0:0|0:0,0:0:0:0:
68,48,89079,1,0,0:0:0:0:
144,36,89247,6,0,P|196:24|272:48,1,121.000003692627,4|8,0:0|0:0,0:0:0:0:
372,152,89921,1,0,0:0:0:0:
360,312,90258,1,8,0:0:0:0:
204,308,90596,2,0,L|116:304,2,60.5000018463135,0|0|8,0:0|0:0|0:0,0:0:0:0:
304,188,91270,2,0,P|280:124|228:112,1,121.000003692627,0|8,0:0|0:0,0:0:0:0:
204,184,91775,6,0,P|146:201|89:185,1,121.000003692627,2|2,0:0|0:0,0:0:0:0:
24,144,92281,2,0,L|16:20,2,121.000003692627,8|2|8,0:0|0:0|0:0,0:0:0:0:
48,300,93292,2,0,P|112:332|180:328,2,121.000003692627,2|8|0,0:0|0:0|0:0,0:0:0:0:
60,220,94135,1,8,0:0:0:0:
128,184,94303,1,8,0:0:0:0:
184,240,94472,1,8,0:0:0:0:
248,192,94641,6,0,P|296:176|364:188,1,121.000003692627,4|8,0:0|0:0,0:0:0:0:
500,108,95315,2,0,L|500:47,1,60.5000018463135,8|0,0:0|0:0,0:0:0:0:
424,20,95652,2,0,L|424:84,1,60.5000018463135,2|2,0:0|0:0,0:0:0:0:
344,88,95989,2,0,P|275:99|204:84,1,121.000003692627,8|12,0:0|0:0,0:0:0:0:
160,48,96494,2,0,P|74:65|40:104,1,121.000003692627,2|2,0:0|0:0,0:0:0:0:
100,148,97000,1,0,0:0:0:0:
44,204,97169,6,0,P|45:263|80:312,1,121.000003692627,6|0,0:0|0:0,0:0:0:0:
156,332,97674,2,0,L|232:332,1,60.5000018463135,8|0,0:0|0:0,0:0:0:0:
296,332,98011,2,0,L|356:332,2,60.5000018463135,2|2|10,0:0|0:0|0:0,0:0:0:0:
252,180,98685,2,0,P|312:164|384:196,1,121.000003692627,2|10,0:0|0:0,0:0:0:0:
432,224,99191,2,0,L|504:224,1,60.5000018463135,2|0,0:0|0:0,0:0:0:0:
496,144,99528,2,0,L|428:144,1,60.5000018463135,2|8,0:0|0:0,0:0:0:0:
380,88,99865,6,0,P|312:68|260:80,1,121.000003692627,2|0,0:0|0:0,0:0:0:0:
188,96,100371,2,0,L|108:96,1,60.5000018463135,8|0,0:0|0:0,0:0:0:0:
72,40,100708,2,0,L|11:40,2,60.5000018463135,2|2|10,0:0|0:0|0:0,0:0:0:0:
44,196,101382,2,0,P|32:256|56:316,1,121.000003692627,2|8,0:0|0:0,0:0:0:0:
128,336,101888,2,0,L|196:336,1,60.5000018463135,2|0,0:0|0:0,0:0:0:0:
236,272,102225,2,0,L|316:272,1,60.5000018463135,2|8,0:0|0:0,0:0:0:0:
328,344,102562,6,0,P|380:332|448:348,1,121.000003692627,6|0,0:0|0:0,0:0:0:0:
500,292,103067,2,0,L|500:208,1,60.5000018463135,8|0,0:0|0:0,0:0:0:0:
420,220,103405,2,0,L|420:140,1,60.5000018463135,2|0,0:0|0:0,0:0:0:0:
496,148,103742,2,0,L|496:72,1,60.5000018463135,10|0,0:0|0:0,0:0:0:0:
428,48,104079,2,0,P|356:32|296:60,1,121.000003692627,2|8,0:0|0:0,0:0:0:0:
248,88,104584,1,2,0:0:0:0:
284,156,104753,2,0,P|272:224|224:260,1,121.000003692627,2|10,0:0|0:0,0:0:0:0:
160,232,105258,1,2,0:0:0:0:
168,312,105427,6,0,P|100:336|40:324,1,121.000003692627,2|8,0:0|0:0,0:0:0:0:
4,268,105933,1,2,0:0:0:0:
68,220,106101,2,0,L|76:132,1,60.5000018463135,2|0,0:0|0:0,0:0:0:0:
32,92,106438,2,0,P|76:80|112:88,1,60.5000018463135,10|0,0:0|0:0,0:0:0:0:
160,120,106775,2,0,P|220:144|292:116,1,121.000003692627,2|8,0:0|0:0,0:0:0:0:
308,60,107281,1,2,0:0:0:0:
360,120,107450,2,0,L|428:120,1,60.5000018463135,10|0,0:0|0:0,0:0:0:0:
472,60,107787,1,8,0:0:0:0:
500,132,107955,6,0,L|500:272,1,121.000003692627,6|0,0:0|0:0,0:0:0:0:
460,320,108461,2,0,P|427:328|396:320,1,60.5000018463135,8|0,0:0|0:0,0:0:0:0:
324,304,108798,2,0,L|260:304,2,60.5000018463135,2|2|10,0:0|0:0|0:0,0:0:0:0:
176,356,109472,2,0,P|156:300|184:240,1,121.000003692627,2|8,0:0|0:0,0:0:0:0:
240,196,109978,2,0,L|316:196,1,60.5000018463135,2|0,0:0|0:0,0:0:0:0:
300,116,110315,2,0,L|224:116,1,60.5000018463135,2|8,0:0|0:0,0:0:0:0:
164,144,110652,6,0,P|104:160|48:128,1,121.000003692627,2|0,0:0|0:0,0:0:0:0:
32,60,111157,2,0,P|51:30|81:11,1,60.5000018463135,8|0,0:0|0:0,0:0:0:0:
148,32,111494,2,0,L|216:32,2,60.5000018463135,2|2|10,0:0|0:0|0:0,0:0:0:0:
304,32,112169,2,0,P|364:48|432:32,1,121.000003692627,2|10,0:0|0:0,0:0:0:0:
480,88,112674,2,0,L|488:160,1,60.5000018463135,4|0,0:0|0:0,0:0:0:0:
416,180,113011,2,0,L|408:264,1,60.5000018463135,4|0,0:0|0:0,0:0:0:0:
368,308,113348,6,0,P|296:324|240:300,1,121.000003692627,6|0,0:0|0:0,0:0:0:0:
180,280,113854,2,0,L|104:280,1,60.5000018463135,8|0,0:0|0:0,0:0:0:0:
40,268,114191,2,0,P|56:228|68:216,1,60.5000018463135,2|2,0:0|0:0,0:0:0:0:
144,204,114528,2,0,L|144:120,1,60.5000018463135,10|0,0:0|0:0,0:0:0:0:
112,72,114865,2,0,P|171:71|215:110,1,121.000003692627,2|8,0:0|0:0,0:0:0:0:
256,180,115371,1,2,0:0:0:0:
296,248,115539,2,0,P|332:200|320:132,1,121.000003692627,2|10,0:0|0:0,0:0:0:0:
296,68,116045,1,2,0:0:0:0:
372,48,116214,6,0,P|428:28|504:48,1,121.000003692627,2|8,0:0|0:0,0:0:0:0:
452,188,116888,2,0,L|460:272,1,60.5000018463135,8|4,0:0|0:0,0:0:0:0:
408,308,117225,2,0,P|400:341|388:372,1,60.5000018463135,0|0,0:0|0:0,0:0:0:0:
308,368,117562,2,0,P|232:372|180:344,1,121.000003692627,2|2,0:0|0:0,0:0:0:0:
168,280,118067,2,0,P|139:233|91:260,1,121.000003692627,6|0,0:0|0:0,0:0:0:0:
12,276,118573,2,0,P|36:200|92:164,1,121.000003692627,4|0,0:0|0:0,0:0:0:0:
140,152,119079,6,0,P|195:147|194:92,1,121.000003692627,2|0,0:0|0:0,0:0:0:0:
168,16,119584,2,0,L|228:12,1,60.5000018463135,2|0,0:0|0:0,0:0:0:0:
280,72,119921,2,0,L|348:76,1,60.5000018463135,2|0,0:0|0:0,0:0:0:0:
392,16,120258,2,0,P|416:72|388:136,1,121.000003692627,4|8,0:0|0:0,0:0:0:0:
340,180,120764,2,0,B|332:208|332:208|340:260,1,60.5000018463135,6|0,0:0|0:0,0:0:0:0:
400,284,121101,2,0,B|408:312|408:312|400:364,1,60.5000018463135,6|0,0:0|0:0,0:0:0:0:
328,368,121438,1,6,0:0:0:0:
256,192,121607,12,0,124303,0:0:0:0:
