osu file format v14

[General]
AudioFilename: audio.mp3
AudioLeadIn: 0
PreviewTime: 4978
Countdown: 0
SampleSet: Soft
StackLeniency: 0.7
Mode: 0
LetterboxInBreaks: 0
WidescreenStoryboard: 0

[Editor]
Bookmarks: 73067,73405,73910
DistanceSpacing: 1.1
BeatDivisor: 2
GridSize: 4
TimelineZoom: 2.599999

[Metadata]
Title:Insane Game
TitleUnicode:インセインゲーム
Artist:Miki Hoshii, Hibiki Ganaha, Takane Shijou
ArtistUnicode:星井美希、我那覇響、四条貴音
Creator:Lily Bread
Version:Norm@l
Source:アイドルマスター プラチナスターズ
Tags:Bokutachi no Resistance The Idolm@ster Platinum Stars idolmaster im@s imas
BeatmapID:1524960
BeatmapSetID:720689

[Difficulty]
HPDrainRate:3
CircleSize:3
OverallDifficulty:3
ApproachRate:5
SliderMultiplier:1
SliderTickRate:1

[Events]
//Background and Video events
0,0,"BG.jpg",0,0
//Break Periods
//Storyboard Layer 0 (Background)
//Storyboard Layer 1 (Fail)
//Storyboard Layer 2 (Pass)
//Storyboard Layer 3 (Foreground)
//Storyboard Sound Samples

[TimingPoints]
259,337.078651685393,4,2,1,40,1,0
5483,-100,4,2,1,60,0,1
16185,-100,4,2,1,10,0,1
16270,-100,4,2,1,60,0,1
25961,-100,4,3,1,60,0,1
26382,-100,4,2,1,60,0,0
28573,-100,4,2,1,25,0,0
31270,-100,4,3,1,25,0,0
35315,-100,4,2,1,25,0,0
35652,-100,4,2,1,25,0,0
36663,-100,4,3,1,50,0,0
37000,-100,4,2,1,50,0,0
37169,-100,4,3,1,50,0,0
37843,-100,4,2,1,50,0,0
47618,-100,4,3,1,50,0,0
47955,-100,4,2,1,50,0,0
48124,-100,4,3,1,50,0,0
48461,-100,4,2,1,50,0,0
49725,-100,4,2,1,10,0,0
49809,-100,4,2,1,50,0,0
50146,-100,4,2,1,50,0,0
66326,-100,4,2,1,50,0,0
69023,-100,4,3,1,50,0,0
69360,-100,4,2,1,50,0,0
72730,-100,4,3,1,50,0,0
73067,-100,4,2,1,60,0,1
83517,-100,4,2,1,60,0,1
83854,-100,4,2,1,60,0,1
95399,-100,4,3,1,60,0,1
95567,-100,4,2,1,60,0,1
97084,-100,4,2,1,60,0,0
97169,-100,4,2,1,60,0,1
112674,-100,4,3,1,60,0,1
113348,-100,4,2,1,60,0,1
117056,-100,4,3,1,60,0,1
117562,-100,4,3,1,60,0,1
118067,-100,4,2,1,60,0,1
119584,-100,4,3,1,60,0,1
120258,-100,4,2,1,60,0,1
121438,-100,4,2,1,40,0,0
121607,-100,4,2,1,30,0,0
121944,-100,4,2,1,10,0,0
122281,-100,4,2,1,5,0,0

[Colours]
Combo1 : 242,24,57
Combo2 : 0,202,0
Combo3 : 128,0,255

[HitObjects]
56,112,5483,6,0,P|120:104|184:128,1,100,6|0,0:0|0:0,0:0:0:0:
196,148,5989,1,8,0:0:0:0:
160,252,6326,2,0,P|204:260|272:220,1,100,2|10,0:0|0:0,0:0:0:0:
328,160,7000,2,0,P|396:156|432:176,1,100,2|8,0:0|0:0,0:0:0:0:
440,220,7506,2,0,L|448:336,1,100,2|2,0:0|0:0,0:0:0:0:
340,352,8180,6,0,P|268:344|216:352,1,100,2|0,0:0|0:0,0:0:0:0:
188,360,8685,1,8,0:0:0:0:
76,368,9023,2,0,P|56:328|64:252,1,100,2|10,0:0|0:0,0:0:0:0:
128,188,9697,2,0,L|128:80,1,100,2|8,0:0|0:0,0:0:0:0:
168,52,10202,2,0,P|228:44|284:68,1,100,2|2,0:0|0:0,0:0:0:0:
308,156,10876,6,0,L|316:268,1,100,6|0,0:0|0:0,0:0:0:0:
336,308,11382,1,8,0:0:0:0:
444,336,11719,2,0,P|484:308|476:220,1,100,2|10,0:0|0:0,0:0:0:0:
464,152,12393,2,0,P|448:100|360:44,1,150,2|2,0:0|0:0,0:0:0:0:
328,80,13067,2,0,P|252:96|180:60,1,150,2|2,0:0|0:0,0:0:0:0:
136,48,13742,6,0,P|68:68|52:116,1,100,2|8,0:0|0:0,0:0:0:0:
0,184,14416,1,2,0:0:0:0:
76,264,14753,2,0,P|120:274|180:272,1,100,10|8,0:0|0:0,0:0:0:0:
216,240,15258,2,0,P|308:240|336:248,2,100,2|2|10,0:0|0:0|0:0,0:0:0:0:
264,340,16270,6,0,P|332:348|376:332,1,100,6|0,0:0|0:0,0:0:0:0:
408,312,16775,1,8,0:0:0:0:
484,236,17112,2,0,L|484:116,1,100,2|10,0:0|0:0,0:0:0:0:
416,48,17787,2,0,P|332:24|300:44,1,100,2|8,0:0|0:0,0:0:0:0:
288,68,18292,2,0,P|200:88|176:80,1,100,2|2,0:0|0:0,0:0:0:0:
92,40,18966,6,0,P|52:96|60:144,1,100,2|0,0:0|0:0,0:0:0:0:
48,180,19472,1,8,0:0:0:0:
88,284,19809,2,0,P|148:312|196:300,1,100,2|10,0:0|0:0,0:0:0:0:
228,208,20483,2,0,P|296:200|336:220,1,100,2|8,0:0|0:0,0:0:0:0:
348,260,20989,2,0,P|412:280|464:264,1,100,2|10,0:0|0:0,0:0:0:0:
500,180,21663,6,0,L|500:60,1,100,6|0,0:0|0:0,0:0:0:0:
464,40,22169,1,8,0:0:0:0:
372,100,22506,2,0,P|284:108|244:96,1,100,2|10,0:0|0:0,0:0:0:0:
180,48,23180,2,0,P|118:41|79:120,1,150,2|2,0:0|0:0,0:0:0:0:
88,164,23854,2,0,L|108:320,1,150,2|2,0:0|0:0,0:0:0:0:
148,348,24528,6,0,P|216:352|256:336,1,100,2|8,0:0|0:0,0:0:0:0:
284,240,25202,2,0,P|348:236|384:260,1,100,2|10,0:0|0:0,0:0:0:0:
468,316,25876,2,0,P|488:236|460:188,1,100,8|4,0:0|0:0,0:0:0:0:
456,176,26382,1,4,0:0:0:0:
104,88,28573,5,4,0:0:0:0:
408,88,31270,5,4,0:0:0:0:
408,296,33966,5,4,0:0:0:0:
128,296,35315,2,0,P|56:184|184:120,1,300,4|2,0:0|0:0,0:0:0:0:
280,92,36663,6,0,P|336:88|384:92,1,100,0|8,0:0|0:0,0:0:0:0:
412,136,37169,2,0,L|424:252,1,100,2|2,0:0|0:0,0:0:0:0:
360,324,37843,2,0,P|288:340|204:312,1,150,4|8,0:0|0:0,0:0:0:0:
220,208,38685,2,0,L|212:100,1,100,2|8,0:0|0:0,0:0:0:0:
136,28,39360,6,0,P|64:44|36:64,1,100,14|8,0:0|0:0,0:0:0:0:
24,108,39865,2,0,L|24:228,1,100,0|2,0:0|0:0,0:0:0:0:
74,306,40539,2,0,P|150:334|230:310,1,150,2|8,0:0|0:0,0:0:0:0:
284,232,41382,1,2,0:0:0:0:
324,336,41719,1,8,0:0:0:0:
408,264,42056,6,0,P|452:208|452:168,1,100,2|8,0:0|0:0,0:0:0:0:
428,132,42562,2,0,L|408:24,1,100,0|2,0:0|0:0,0:0:0:0:
300,28,43236,2,0,P|226:27|160:72,1,150,2|8,0:0|0:0,0:0:0:0:
72,128,44079,1,2,0:0:0:0:
120,228,44416,1,8,0:0:0:0:
80,332,44753,6,0,P|159:337|179:324,1,100,2|12,0:0|0:0,0:0:0:0:
212,224,45427,2,0,P|308:212|340:240,1,100,2|12,0:0|0:0,0:0:0:0:
408,252,46101,1,8,0:0:0:0:
464,160,46438,1,12,0:0:0:0:
428,56,46775,2,0,P|379:45|256:68,1,150,2|0,0:0|0:0,0:0:0:0:
240,92,47450,6,0,L|232:200,1,100,8|0,0:0|0:0,0:0:0:0:
228,248,47955,2,0,P|160:284|112:272,1,100,8|0,0:0|0:0,0:0:0:0:
92,252,48461,2,0,L|24:252,1,50,8|8,0:0|0:0,0:0:0:0:
64,96,50146,6,0,P|140:72|240:96,1,150,6|0,0:0|0:0,0:0:0:0:
280,232,51157,1,8,0:0:0:0:
276,340,51494,2,0,P|364:308|388:240,1,150,2|0,0:0|0:0,0:0:0:0:
396,96,52506,1,8,0:0:0:0:
304,152,52843,6,0,P|236:180|208:172,1,100,2|8,0:0|0:0,0:0:0:0:
132,100,53517,2,0,P|104:164|112:204,1,100,2|12,0:0|0:0,0:0:0:0:
268,344,54528,2,0,L|412:344,2,100,8|2|8,0:0|0:0|0:0,0:0:0:0:
188,268,55539,5,2,0:0:0:0:
256,180,55876,2,0,P|320:168|376:184,1,100,8|2,0:0|0:0,0:0:0:0:
420,260,56551,2,0,P|460:208|464:168,1,100,8|0,0:0|0:0,0:0:0:0:
400,84,57225,2,0,P|332:64|280:68,1,100,8|2,0:0|0:0,0:0:0:0:
196,76,57899,2,0,P|144:92|68:104,1,100,8|2,0:0|0:0,0:0:0:0:
32,188,58573,6,0,P|32:240|24:292,2,100,8|2|8,0:0|0:0|0:0,0:0:0:0:
140,200,59584,2,0,P|176:248|272:236,1,150,2|6,0:0|0:0,0:0:0:0:
324,92,60596,1,8,0:0:0:0:
404,164,60933,6,0,P|436:224|428:308,1,150,6|0,0:0|0:0,0:0:0:0:
272,356,61944,1,8,0:0:0:0:
164,352,62281,2,0,P|72:332|48:272,1,150,2|0,0:0|0:0,0:0:0:0:
24,124,63292,1,8,0:0:0:0:
120,72,63629,6,0,P|192:64|248:80,1,100,2|8,0:0|0:0,0:0:0:0:
292,148,64303,1,10,0:0:0:0:
318,254,64641,2,0,P|392:192|384:88,2,200,14|8|8,0:0|0:0|0:0,0:0:0:0:
220,204,66326,6,0,P|132:184|88:192,2,100,12|8|8,0:0|0:0|0:0,0:0:0:0:
224,312,67337,1,8,0:0:0:0:
324,360,67674,2,0,P|392:336|416:300,2,100,8|8|8,0:0|0:0|0:0,0:0:0:0:
320,252,68685,1,8,0:0:0:0:
408,188,69023,6,0,L|408:80,1,100,2|8,0:0|0:0,0:0:0:0:
308,44,69697,2,0,P|220:36|184:56,1,100,2|8,0:0|0:0,0:0:0:0:
164,64,70202,2,0,B|124:104|124:104|128:240,1,150,4|2,0:0|0:0,0:0:0:0:
160,304,71045,2,0,P|208:328|272:328,1,100,2|2,0:0|0:0,0:0:0:0:
352,284,71719,6,0,L|412:284,2,50,8|8|8,0:0|0:0|0:0,0:0:0:0:
260,224,72393,2,0,P|272:152|296:140,1,100,2|4,0:0|0:0,0:0:0:0:
396,116,73067,6,0,P|392:76|344:44,1,100,6|8,0:0|0:0,0:0:0:0:
292,52,73573,2,0,P|236:60|180:48,1,100,2|2,0:0|0:0,0:0:0:0:
140,36,74079,2,0,P|84:44|56:104,1,100,8|2,0:0|0:0,0:0:0:0:
32,184,74753,1,10,0:0:0:0:
64,288,75090,2,0,P|124:308|188:300,1,100,2|8,0:0|0:0,0:0:0:0:
196,264,75596,6,0,P|244:254|293:264,1,100,2|0,0:0|0:0,0:0:0:0:
340,292,76101,1,8,0:0:0:0:
436,344,76438,2,0,P|464:296|452:224,1,100,2|8,0:0|0:0,0:0:0:0:
472,144,77112,2,0,L|476:28,2,100,2|10|2,0:0|0:0|0:0,0:0:0:0:
368,104,78124,1,8,0:0:0:0:
292,188,78461,6,0,P|240:200|188:188,1,100,4|8,0:0|0:0,0:0:0:0:
156,152,78966,2,0,L|136:40,1,100,2|2,0:0|0:0,0:0:0:0:
88,28,79472,1,8,0:0:0:0:
56,72,79641,2,0,L|76:196,1,100,2|0,0:0|0:0,0:0:0:0:
80,224,80146,2,0,P|132:264|180:264,1,100,8|2,0:0|0:0,0:0:0:0:
272,280,80820,1,10,0:0:0:0:
352,356,81157,6,0,P|428:364|468:344,1,100,4|0,0:0|0:0,0:0:0:0:
476,308,81663,2,0,L|484:136,1,150,4|8,0:0|0:0,0:0:0:0:
480,104,82337,2,0,P|428:52|380:60,2,100,4|4|4,0:0|0:0|0:0,0:0:0:0:
456,152,83180,2,0,P|406:156|344:152,1,100,0|8,0:0|0:0,0:0:0:0:
260,100,83854,6,0,P|204:96|132:104,1,100,4|8,0:0|0:0,0:0:0:0:
104,196,84528,2,0,L|100:308,2,100,2|8|0,0:0|0:0|0:0,0:0:0:0:
52,100,85539,1,8,0:0:0:0:
120,16,85876,2,0,P|172:8|248:24,1,100,2|8,0:0|0:0,0:0:0:0:
260,52,86382,6,0,P|309:56|358:49,1,100,2|0,0:0|0:0,0:0:0:0:
412,36,86888,1,8,0:0:0:0:
472,128,87225,2,0,L|472:240,1,100,2|10,0:0|0:0,0:0:0:0:
408,316,87899,2,0,P|352:332|296:312,2,100,2|8|2,0:0|0:0|0:0,0:0:0:0:
356,220,88910,1,8,0:0:0:0:
264,156,89247,6,0,P|212:144|156:164,1,100,4|8,0:0|0:0,0:0:0:0:
216,256,89921,1,0,0:0:0:0:
148,344,90258,1,8,0:0:0:0:
40,320,90596,2,0,P|20:276|20:208,1,100,0|8,0:0|0:0,0:0:0:0:
8,116,91270,2,0,P|92:92|136:104,1,100,0|8,0:0|0:0,0:0:0:0:
156,88,91775,6,0,L|280:88,1,100,2|2,0:0|0:0,0:0:0:0:
312,80,92281,1,8,0:0:0:0:
416,40,92618,2,0,P|420:104|400:144,1,100,2|8,0:0|0:0,0:0:0:0:
336,220,93292,2,0,L|336:340,2,100,2|8|0,0:0|0:0|0:0,0:0:0:0:
304,172,94135,2,0,P|236:152|140:184,1,150,8|4,0:0|0:0,0:0:0:0:
188,276,94978,5,8,0:0:0:0:
104,348,95315,2,0,P|28:332|8:300,1,100,8|2,0:0|0:0,0:0:0:0:
20,208,95989,2,0,L|24:92,1,100,8|12,0:0|0:0,0:0:0:0:
44,56,96494,2,0,P|116:32|164:48,1,100,2|2,0:0|0:0,0:0:0:0:
224,108,97169,6,0,P|312:112|348:104,1,100,6|0,0:0|0:0,0:0:0:0:
368,80,97674,1,8,0:0:0:0:
460,20,98011,2,0,P|472:100|448:140,1,100,2|10,0:0|0:0,0:0:0:0:
408,208,98685,2,0,L|408:316,1,100,2|10,0:0|0:0,0:0:0:0:
368,348,99191,2,0,P|304:360|252:344,1,100,2|2,0:0|0:0,0:0:0:0:
168,308,99865,6,0,L|156:200,1,100,2|0,0:0|0:0,0:0:0:0:
144,156,100371,2,0,P|88:135|50:155,2,100,8|2|10,0:0|0:0|0:0,0:0:0:0:
248,192,101382,2,0,P|303:196|348:180,1,100,2|8,0:0|0:0,0:0:0:0:
364,132,101888,2,0,P|416:100|476:120,1,100,2|2,0:0|0:0,0:0:0:0:
492,208,102562,6,0,P|496:259|488:312,1,100,6|0,0:0|0:0,0:0:0:0:
448,344,103067,1,8,0:0:0:0:
344,308,103405,2,0,P|256:304|204:312,1,100,2|10,0:0|0:0,0:0:0:0:
152,368,104079,2,0,P|80:356|52:272,1,150,2|2,0:0|0:0,0:0:0:0:
72,244,104753,2,0,P|96:184|80:84,1,150,2|2,0:0|0:0,0:0:0:0:
92,44,105427,6,0,P|164:32|216:56,1,100,2|8,0:0|0:0,0:0:0:0:
236,140,106101,1,2,0:0:0:0:
340,100,106438,1,10,0:0:0:0:
432,160,106775,2,0,P|440:224|404:312,1,150,2|2,0:0|0:0,0:0:0:0:
360,328,107450,2,0,L|248:328,1,100,10|8,0:0|0:0,0:0:0:0:
208,316,107955,6,0,P|124:272|120:228,1,100,6|0,0:0|0:0,0:0:0:0:
96,228,108461,1,8,0:0:0:0:
72,120,108798,2,0,P|136:128|168:148,1,100,2|10,0:0|0:0,0:0:0:0:
252,216,109472,2,0,P|340:224|360:208,1,100,2|8,0:0|0:0,0:0:0:0:
388,184,109978,2,0,L|408:72,1,100,2|2,0:0|0:0,0:0:0:0:
308,32,110652,6,0,P|260:20|192:32,1,100,2|0,0:0|0:0,0:0:0:0:
180,68,111157,2,0,L|164:184,1,100,8|2,0:0|0:0,0:0:0:0:
100,252,111832,1,10,0:0:0:0:
176,332,112169,2,0,P|252:348|292:332,1,100,2|10,0:0|0:0,0:0:0:0:
312,304,112674,2,0,P|360:288|416:312,1,100,4|4,0:0|0:0,0:0:0:0:
504,352,113348,6,0,P|512:288|500:248,1,100,6|0,0:0|0:0,0:0:0:0:
476,208,113854,1,8,0:0:0:0:
392,136,114191,2,0,L|268:136,1,100,2|10,0:0|0:0,0:0:0:0:
204,204,114865,2,0,P|176:148|204:56,1,150,2|2,0:0|0:0,0:0:0:0:
200,12,115539,2,0,P|120:16|68:72,1,150,2|2,0:0|0:0,0:0:0:0:
72,116,116214,6,0,L|64:232,1,100,2|8,0:0|0:0,0:0:0:0:
64,324,116888,2,0,P|128:308|164:268,1,100,8|0,0:0|0:0,0:0:0:0:
216,196,117562,2,0,P|267:197|293:296,1,150,2|6,0:0|0:0,0:0:0:0:
436,180,118573,2,0,P|460:108|444:20,2,150,4|2|2,0:0|0:0|0:0,0:0:0:0:
500,268,119921,5,2,0:0:0:0:
408,324,120258,2,0,P|336:344|308:336,1,100,4|8,0:0|0:0,0:0:0:0:
264,316,120764,2,0,P|196:308|152:324,2,100,6|6|6,0:0|0:0|0:0,0:0:0:0:
256,192,121775,12,0,124303,0:0:0:0:
