osu file format v14

[General]
AudioFilename: audio.mp3
AudioLeadIn: 0
PreviewTime: 4978
Countdown: 0
SampleSet: Soft
StackLeniency: 0.5
Mode: 0
LetterboxInBreaks: 0
WidescreenStoryboard: 0

[Editor]
DistanceSpacing: 1.1
BeatDivisor: 4
GridSize: 4
TimelineZoom: 2.599999

[Metadata]
Title:Insane Game
TitleUnicode:インセインゲーム
Artist:Miki Hoshii, Hibiki Ganaha, Takane Shijou
ArtistUnicode:星井美希、我那覇響、四条貴音
Creator:Lily Bread
Version:Ins@ne
Source:アイドルマスター プラチナスターズ
Tags:Bokutachi no Resistance The Idolm@ster Platinum Stars idolmaster im@s imas
BeatmapID:1521593
BeatmapSetID:720689

[Difficulty]
HPDrainRate:6
CircleSize:4
OverallDifficulty:8
ApproachRate:9
SliderMultiplier:1.4
SliderTickRate:1

[Events]
//Background and Video events
0,0,"BG.jpg",0,0
//Break Periods
//Storyboard Layer 0 (Background)
//Storyboard Layer 1 (Fail)
//Storyboard Layer 2 (Pass)
//Storyboard Layer 3 (Foreground)
//Storyboard Sound Samples

[TimingPoints]
259,337.078651685393,4,2,1,40,1,0
5483,-83.3333333333333,4,2,1,60,0,1
16185,-83.3333333333333,4,2,1,10,0,1
16270,-83.3333333333333,4,2,1,60,0,1
25961,-83.3333333333333,4,3,1,60,0,1
26382,-83.3333333333333,4,2,1,60,0,0
28573,-133.333333333333,4,2,1,25,0,0
31270,-133.333333333333,4,3,1,25,0,0
35652,-133.333333333333,4,2,1,25,0,0
36663,-100,4,3,1,50,0,0
37000,-100,4,2,1,50,0,0
37169,-100,4,3,1,50,0,0
37843,-100,4,2,1,50,0,0
47618,-100,4,3,1,50,0,0
47955,-100,4,2,1,50,0,0
48124,-100,4,3,1,50,0,0
48461,-100,4,2,1,50,0,0
49725,-100,4,2,1,10,0,0
49809,-100,4,2,1,50,0,0
50146,-100,4,2,1,50,0,0
66326,-100,4,2,1,50,0,0
69360,-100,4,2,1,50,0,0
72730,-100,4,3,1,50,0,0
73067,-76.9230769230769,4,2,1,60,0,1
83517,-76.9230769230769,4,2,1,60,0,1
83854,-76.9230769230769,4,2,1,60,0,1
95399,-76.9230769230769,4,3,1,60,0,1
95567,-76.9230769230769,4,2,1,60,0,1
97084,-76.9230769230769,4,2,1,60,0,0
97169,-76.9230769230769,4,2,1,60,0,1
112674,-76.9230769230769,4,3,1,60,0,1
113348,-76.9230769230769,4,2,1,60,0,1
117056,-76.9230769230769,4,3,1,60,0,1
117562,-76.9230769230769,4,3,1,60,0,1
118067,-76.9230769230769,4,2,1,60,0,1
119584,-76.9230769230769,4,3,1,60,0,1
120258,-76.9230769230769,4,2,1,60,0,1
121438,-76.9230769230769,4,2,1,40,0,0
121607,-76.9230769230769,4,2,1,30,0,0
121944,-76.9230769230769,4,2,1,10,0,0
122281,-76.9230769230769,4,2,1,5,0,0

[Colours]
Combo1 : 242,24,57
Combo2 : 0,202,0
Combo3 : 128,0,255

[HitObjects]
96,172,4978,5,2,0:0:0:0:
96,172,5146,1,2,0:0:0:0:
96,172,5315,1,2,0:0:0:0:
339,235,5483,6,0,P|260:260|180:240,1,167.999994873047,6|0,0:0|0:0,0:0:0:0:
380,72,5989,2,0,L|380:188,1,83.9999974365235,8|0,0:0|0:0,0:0:0:0:
440,288,6326,1,2,0:0:0:0:
256,164,6494,1,2,0:0:0:0:
344,352,6663,1,10,0:0:0:0:
344,352,7000,6,0,L|160:352,1,167.999994873047,2|8,0:0|0:0,0:0:0:0:
32,316,7506,2,0,L|128:304,1,83.9999974365235,2|0,0:0|0:0,0:0:0:0:
28,216,7843,2,0,L|128:220,1,83.9999974365235,2|8,0:0|0:0,0:0:0:0:
352,176,8180,6,0,L|168:168,1,167.999994873047,2|0,0:0|0:0,0:0:0:0:
173,73,8685,2,0,P|133:86|104:116,1,83.9999974365235,8|0,0:0|0:0,0:0:0:0:
256,264,9023,1,2,0:0:0:0:
320,64,9191,1,2,0:0:0:0:
396,260,9360,1,10,0:0:0:0:
396,260,9697,6,0,P|440:200|416:96,1,167.999994873047,2|8,0:0|0:0,0:0:0:0:
237,79,10202,2,0,L|325:63,1,83.9999974365235,2|0,0:0|0:0,0:0:0:0:
248,160,10539,2,0,L|332:168,1,83.9999974365235,2|8,0:0|0:0,0:0:0:0:
25,278,10876,6,0,L|192:260,1,167.999994873047,6|0,0:0|0:0,0:0:0:0:
220,340,11382,2,0,P|268:304|276:272,1,83.9999974365235,8|0,0:0|0:0,0:0:0:0:
112,152,11719,1,2,0:0:0:0:
116,360,11888,1,2,0:0:0:0:
296,252,12056,2,0,L|388:244,1,83.9999974365235,10|0,0:0|0:0,0:0:0:0:
32,148,12393,6,0,L|200:156,1,167.999994873047,2|8,0:0|0:0,0:0:0:0:
76,228,12899,1,2,0:0:0:0:
248,52,13067,1,2,0:0:0:0:
240,252,13236,1,2,0:0:0:0:
100,60,13405,1,10,0:0:0:0:
152,288,13573,1,2,0:0:0:0:
152,288,13742,6,0,P|212:340|320:308,1,167.999994873047,2|8,0:0|0:0,0:0:0:0:
392,336,14247,1,0,0:0:0:0:
360,248,14416,2,0,L|348:152,1,83.9999974365235,2|0,0:0|0:0,0:0:0:0:
448,200,14753,2,0,L|456:104,1,83.9999974365235,10|0,0:0|0:0,0:0:0:0:
236,232,15090,5,8,0:0:0:0:
236,232,15258,1,2,0:0:0:0:
216,208,15596,2,0,L|112:208,1,83.9999974365235,2|0,0:0|0:0,0:0:0:0:
48,82,15933,2,0,P|47:139|104:140,1,125.999996154785,10|0,0:0|0:0,0:0:0:0:
172,80,16270,6,0,L|340:80,1,167.999994873047,6|0,0:0|0:0,0:0:0:0:
288,160,16775,2,0,L|372:172,1,83.9999974365235,8|0,0:0|0:0,0:0:0:0:
224,320,17112,1,2,0:0:0:0:
384,256,17281,1,2,0:0:0:0:
184,160,17450,1,10,0:0:0:0:
184,160,17787,6,0,P|100:196|60:272,1,167.999994873047,2|8,0:0|0:0,0:0:0:0:
148,352,18292,2,0,L|164:264,1,83.9999974365235,2|0,0:0|0:0,0:0:0:0:
256,320,18629,2,0,L|264:232,1,83.9999974365235,2|8,0:0|0:0,0:0:0:0:
352,36,18966,6,0,L|368:216,1,167.999994873047,2|0,0:0|0:0,0:0:0:0:
444,264,19472,2,0,P|460:228|460:176,1,83.9999974365235,8|0,0:0|0:0,0:0:0:0:
256,124,19809,1,2,0:0:0:0:
352,296,19978,1,2,0:0:0:0:
456,80,20146,1,10,0:0:0:0:
456,80,20483,6,0,P|396:48|288:48,1,167.999994873047,2|8,0:0|0:0,0:0:0:0:
192,68,20989,2,0,L|96:72,1,83.9999974365235,2|0,0:0|0:0,0:0:0:0:
272,204,21326,2,0,L|384:220,1,83.9999974365235,10|0,0:0|0:0,0:0:0:0:
16,288,21663,6,0,L|196:284,1,167.999994873047,6|0,0:0|0:0,0:0:0:0:
187,380,22169,2,0,P|228:370|259:344,1,83.9999974365235,8|0,0:0|0:0,0:0:0:0:
144,180,22506,1,2,0:0:0:0:
100,360,22674,1,2,0:0:0:0:
304,228,22843,2,0,L|400:224,1,83.9999974365235,10|0,0:0|0:0,0:0:0:0:
56,168,23180,6,0,L|240:156,1,167.999994873047,2|8,0:0|0:0,0:0:0:0:
320,104,23685,1,2,0:0:0:0:
232,268,23854,1,2,0:0:0:0:
160,84,24023,1,2,0:0:0:0:
340,212,24191,1,10,0:0:0:0:
144,180,24360,1,2,0:0:0:0:
144,180,24528,6,0,P|72:232|64:312,1,167.999994873047,2|8,0:0|0:0,0:0:0:0:
164,356,25034,1,0,0:0:0:0:
232,268,25202,2,0,L|320:276,1,83.9999974365235,2|0,0:0|0:0,0:0:0:0:
328,150,25539,2,0,L|424:142,1,83.9999974365235,10|0,0:0|0:0,0:0:0:0:
468,268,25876,5,8,0:0:0:0:
244,152,26045,1,4,0:0:0:0:
274,344,26214,1,4,0:0:0:0:
412,144,26382,1,4,0:0:0:0:
136,84,28573,5,4,0:0:0:0:
136,300,31270,5,4,0:0:0:0:
376,84,33966,5,4,0:0:0:0:
376,300,35315,5,4,0:0:0:0:
376,300,35652,1,0,0:0:0:0:
376,300,35989,1,0,0:0:0:0:
268,260,36326,2,0,L|200:260,1,52.5000020027161,2|0,0:0|0:0,0:0:0:0:
132,316,36663,5,0,0:0:0:0:
106,318,36747,1,0,0:0:0:0:
81,310,36831,1,0,0:0:0:0:
61,293,36915,1,0,0:0:0:0:
48,270,37000,1,8,0:0:0:0:
180,160,37169,1,2,0:0:0:0:
200,136,37506,1,2,0:0:0:0:
224,112,37843,6,0,P|284:84|368:136,1,140,4|0,0:0|0:0,0:0:0:0:
460,272,38348,1,8,0:0:0:0:
296,212,38517,1,0,0:0:0:0:
320,312,38685,2,0,P|368:280|388:248,1,70,2|0,0:0|0:0,0:0:0:0:
420,184,38938,1,0,0:0:0:0:
420,184,39023,2,0,L|420:100,1,70,8|0,0:0|0:0,0:0:0:0:
496,40,39275,1,0,0:0:0:0:
496,40,39360,6,0,L|496:208,1,140,14|8,0:0|0:0,0:0:0:0:
473,340,39865,2,0,L|459:271,1,70
340,120,40202,1,2,0:0:0:0:
336,216,40371,1,8,0:0:0:0:
216,304,40539,6,0,P|136:292|68:332,1,140,2|0,0:0|0:0,0:0:0:0:
296,352,41045,2,0,P|312:320|308:268,1,70,8|0,0:0|0:0,0:0:0:0:
212,156,41382,2,0,P|212:191|240:235,1,70,2|0,0:0|0:0,0:0:0:0:
340,120,41719,2,0,P|330:85|292:49,1,70,8|0,0:0|0:0,0:0:0:0:
84,156,42056,6,0,P|156:180|220:148,1,140,2|8,0:0|0:0,0:0:0:0:
152,32,42562,2,0,L|148:112,1,70
289,177,42899,1,2,0:0:0:0:
306,274,43067,1,8,0:0:0:0:
504,312,43236,6,0,P|437:295|374:323,1,140,2|0,0:0|0:0,0:0:0:0:
232,328,43742,2,0,L|212:248,1,70,8|0,0:0|0:0,0:0:0:0:
112,288,44079,2,0,L|128:208,1,70,2|0,0:0|0:0,0:0:0:0:
32,188,44416,2,0,L|76:104,1,70,8|0,0:0|0:0,0:0:0:0:
256,192,44753,5,2,0:0:0:0:
228,28,44921,1,2,0:0:0:0:
156,140,45090,2,0,L|236:120,1,70,12|0,0:0|0:0,0:0:0:0:
404,172,45427,2,0,L|332:172,1,70,2|0,0:0|0:0,0:0:0:0:
332,316,45764,2,0,L|408:328,1,70,12|0,0:0|0:0,0:0:0:0:
112,288,46101,6,0,L|181:276,1,70,8|0,0:0|0:0,0:0:0:0:
396,248,46438,1,12,0:0:0:0:
396,248,46775,2,0,L|420:80,1,140,2|0,0:0|0:0,0:0:0:0:
348,40,47281,1,0,0:0:0:0:
219,251,47450,5,8,0:0:0:0:
163,102,47618,1,0,0:0:0:0:
320,127,47787,1,0,0:0:0:0:
85,232,47955,1,8,0:0:0:0:
210,331,48123,1,0,0:0:0:0:
231,173,48292,1,0,0:0:0:0:
111,329,48461,1,8,0:0:0:0:
330,281,48629,1,8,0:0:0:0:
364,312,49135,6,0,P|432:316|408:188,1,245
328,212,49809,2,0,L|248:208,1,70,2|0,0:0|0:0,0:0:0:0:
48,144,50146,6,0,L|144:140,1,70,6|0,0:0|0:0,0:0:0:0:
224,288,50483,2,0,L|128:288,1,70,8|0,0:0|0:0,0:0:0:0:
184,204,50820,2,0,L|192:132,1,70,2|2,0:0|0:0,0:0:0:0:
360,36,51157,1,8,0:0:0:0:
360,36,51494,6,0,L|364:120,1,70,2|0,0:0|0:0,0:0:0:0:
380,260,51832,2,0,L|460:264,1,70,8|0,0:0|0:0,0:0:0:0:
368,180,52169,2,0,L|280:188,1,70,2|2,0:0|0:0,0:0:0:0:
156,64,52506,1,8,0:0:0:0:
156,64,52843,6,0,L|148:152,1,70,2|0,0:0|0:0,0:0:0:0:
216,288,53180,2,0,L|208:200,1,70,8|0,0:0|0:0,0:0:0:0:
156,344,53517,1,2,0:0:0:0:
296,260,53685,1,2,0:0:0:0:
80,212,53854,1,12,0:0:0:0:
80,212,54191,6,0,L|68:140,1,70,2|2,0:0|0:0,0:0:0:0:
184,168,54528,2,0,L|188:88,1,70,8|0,0:0|0:0,0:0:0:0:
300,164,54865,2,0,L|316:84,1,70,2|2,0:0|0:0,0:0:0:0:
376,224,55202,2,0,P|344:252|312:264,1,70,8|0,0:0|0:0,0:0:0:0:
164,256,55539,6,0,P|204:243|238:245,1,70,2|0,0:0|0:0,0:0:0:0:
304,352,55876,2,0,L|373:348,1,70,8|0,0:0|0:0,0:0:0:0:
504,284,56214,2,0,L|434:284,1,70,2|2,0:0|0:0,0:0:0:0:
376,148,56551,2,0,P|452:120|492:56,1,140,8|0,0:0|0:0,0:0:0:0:
272,80,57225,6,0,L|132:67,1,140,8|2,0:0|0:0,0:0:0:0:
32,52,57730,1,2,0:0:0:0:
64,144,57899,2,0,L|64:216,1,70,8|0,0:0|0:0,0:0:0:0:
160,286,58236,6,0,L|160:216,1,70,2|0,0:0|0:0,0:0:0:0:
112,368,58573,1,8,0:0:0:0:
224,344,58742,1,0,0:0:0:0:
248,232,58910,2,0,L|248:136,1,70,2|2,0:0|0:0,0:0:0:0:
372,80,59247,1,8,0:0:0:0:
372,80,59584,5,2,0:0:0:0:
432,148,59753,1,2,0:0:0:0:
432,236,59921,1,2,0:0:0:0:
368,304,60090,1,6,0:0:0:0:
344,328,60596,2,0,L|272:336,1,70,8|0,0:0|0:0,0:0:0:0:
120,356,60933,6,0,L|120:276,1,70,6|0,0:0|0:0,0:0:0:0:
284,172,61270,2,0,L|284:256,1,70,8|0,0:0|0:0,0:0:0:0:
204,284,61607,2,0,L|204:364,1,70,2|2,0:0|0:0,0:0:0:0:
124,148,61944,1,8,0:0:0:0:
124,148,62281,6,0,L|196:128,1,70,2|0,0:0|0:0,0:0:0:0:
48,64,62618,2,0,L|124:64,1,70,8|0,0:0|0:0,0:0:0:0:
212,40,62955,2,0,L|292:44,1,70,2|2,0:0|0:0,0:0:0:0:
448,124,63292,1,8,0:0:0:0:
448,124,63629,6,0,L|468:204,1,70,2|0,0:0|0:0,0:0:0:0:
324,316,63966,2,0,L|332:220,1,70,8|0,0:0|0:0,0:0:0:0:
320,80,64303,1,10,0:0:0:0:
400,224,64472,1,2,0:0:0:0:
196,172,64641,1,14,0:0:0:0:
176,204,65146,5,0,0:0:0:0:
304,288,65315,2,0,L|308:360,1,70,8|0,0:0|0:0,0:0:0:0:
264,208,65652,2,0,L|272:124,1,70
168,280,65989,2,0,L|164:360,1,70,8|0,0:0|0:0,0:0:0:0:
368,152,66326,6,0,P|400:160|456:148,1,70,12|0,0:0|0:0,0:0:0:0:
160,136,66663,2,0,P|128:128|72:140,1,70,8|0,0:0|0:0,0:0:0:0:
320,88,67000,1,8,0:0:0:0:
244,272,67169,1,0,0:0:0:0:
232,84,67337,1,8,0:0:0:0:
232,84,67506,1,0,0:0:0:0:
99,284,67674,6,0,P|133:287|167:279,1,70,8|0,0:0|0:0,0:0:0:0:
368,152,68011,2,0,P|334:162|299:160,1,70,8|0,0:0|0:0,0:0:0:0:
128,208,68348,1,8,0:0:0:0:
224,364,68517,1,0,0:0:0:0:
224,164,68685,1,8,0:0:0:0:
224,164,68854,1,0,0:0:0:0:
124,360,69023,5,2,0:0:0:0:
232,240,69191,1,2,0:0:0:0:
344,352,69360,2,0,L|432:348,1,70,8|0,0:0|0:0,0:0:0:0:
476,256,69697,2,0,L|384:248,1,70,2|0,0:0|0:0,0:0:0:0:
240,304,70034,1,8,0:0:0:0:
304,156,70202,2,0,L|328:84,1,70,4|0,0:0|0:0,0:0:0:0:
287,238,70539,5,8,0:0:0:0:
162,82,70708,1,2,0:0:0:0:
376,164,70876,1,2,0:0:0:0:
251,10,71045,1,2,0:0:0:0:
180,196,71214,1,2,0:0:0:0:
268,120,71382,1,2,0:0:0:0:
316,312,71551,1,2,0:0:0:0:
80,276,71719,5,8,0:0:0:0:
128,72,71888,1,8,0:0:0:0:
292,284,72056,1,8,0:0:0:0:
384,304,72393,1,2,0:0:0:0:
384,304,72730,1,4,0:0:0:0:
384,304,73067,6,0,P|384:208|424:116,1,181.999991668702,6|8,0:0|0:0,0:0:0:0:
292,40,73574,1,2,0:0:0:0:
232,120,73742,1,0,0:0:0:0:
52,72,73910,2,0,L|168:52,1,90.9999958343508,2|8,0:0|0:0,0:0:0:0:
288,192,74247,1,0,0:0:0:0:
176,264,74416,6,0,L|80:272,1,90.9999958343508,2|0,0:0|0:0,0:0:0:0:
124,176,74753,2,0,L|32:164,1,90.9999958343508,10|0,0:0|0:0,0:0:0:0:
200,192,75090,1,2,0:0:0:0:
268,268,75258,1,2,0:0:0:0:
228,352,75427,1,8,0:0:0:0:
436,208,75596,1,2,0:0:0:0:
328,132,75764,6,0,L|230:118,1,90.9999958343508
80,288,76101,2,0,L|169:273,1,90.9999958343508,8|0,0:0|0:0,0:0:0:0:
32,88,76438,1,2,0:0:0:0:
160,188,76607,1,2,0:0:0:0:
168,24,76775,1,8,0:0:0:0:
64,172,76944,1,0,0:0:0:0:
260,52,77112,6,0,L|368:36,1,90.9999958343508,2|0,0:0|0:0,0:0:0:0:
376,124,77450,2,0,L|476:132,1,90.9999958343508,10|0,0:0|0:0,0:0:0:0:
276,248,77787,1,2,0:0:0:0:
284,140,77955,1,2,0:0:0:0:
420,212,78124,2,0,L|424:312,1,90.9999958343508,8|0,0:0|0:0,0:0:0:0:
144,348,78461,6,0,P|228:328|324:352,1,181.999991668702,4|8,0:0|0:0,0:0:0:0:
40,344,78966,2,0,P|12:312|4:256,1,90.9999958343508,2|0,0:0|0:0,0:0:0:0:
144,160,79303,1,2,0:0:0:0:
140,256,79472,1,8,0:0:0:0:
392,116,79641,6,0,P|328:100|208:136,1,181.999991668702,2|0,0:0|0:0,0:0:0:0:
484,240,80146,2,0,P|492:200|484:144,1,90.9999958343508,8|0,0:0|0:0,0:0:0:0:
308,100,80483,1,2,0:0:0:0:
304,220,80652,1,2,0:0:0:0:
144,160,80820,2,0,L|48:168,1,90.9999958343508,10|0,0:0|0:0,0:0:0:0:
208,284,81157,6,0,L|320:292,1,90.9999958343508,4|0,0:0|0:0,0:0:0:0:
320,296,81410,1,0,0:0:0:0:
340,300,81495,1,0,0:0:0:0:
464,92,81663,2,0,P|456:168|360:232,1,181.999991668702,4|0,0:0|0:0,0:0:0:0:
256,160,82169,1,8,0:0:0:0:
208,284,82337,1,4,0:0:0:0:
208,284,82674,5,4,0:0:0:0:
208,284,83011,1,4,0:0:0:0:
100,200,83180,2,0,P|64:148|64:100,1,90.9999958343508,0|8,0:0|0:0,0:0:0:0:
196,136,83517,1,8,0:0:0:0:
218,136,83601,1,2,0:0:0:0:
241,136,83685,1,2,0:0:0:0:
264,136,83769,1,2,0:0:0:0:
308,148,83854,6,0,P|324:248|264:248,1,181.999991668702,4|8,0:0|0:0,0:0:0:0:
184,208,84360,1,0,0:0:0:0:
296,340,84528,1,2,0:0:0:0:
132,312,84697,2,0,L|28:300,1,90.9999958343508,0|8,0:0|0:0,0:0:0:0:
12,112,85034,1,2,0:0:0:0:
94,193,85202,6,0,L|194:209,1,90.9999958343508
263,135,85539,2,0,L|354:132,1,90.9999958343508,8|0,0:0|0:0,0:0:0:0:
168,112,85876,1,2,0:0:0:0:
240,40,86045,1,2,0:0:0:0:
336,48,86214,1,8,0:0:0:0:
474,239,86382,6,0,P|374:195|358:99,1,181.999991668702,2|0,0:0|0:0,0:0:0:0:
496,88,86888,1,8,0:0:0:0:
488,316,87056,1,0,0:0:0:0:
340,268,87225,1,2,0:0:0:0:
448,144,87393,1,2,0:0:0:0:
396,344,87562,2,0,P|336:360|296:352,1,90.9999958343508,10|0,0:0|0:0,0:0:0:0:
264,184,87899,5,2,0:0:0:0:
228,348,88067,1,2,0:0:0:0:
96,328,88236,2,0,P|116:272|152:248,1,90.9999958343508,8|0,0:0|0:0,0:0:0:0:
160,88,88573,2,0,L|176:188,1,90.9999958343508,2|2,0:0|0:0,0:0:0:0:
340,208,88910,1,8,0:0:0:0:
336,104,89079,1,0,0:0:0:0:
480,232,89247,6,0,P|436:308|356:352,1,181.999991668702,4|8,0:0|0:0,0:0:0:0:
248,260,89753,1,2,0:0:0:0:
156,352,89921,2,0,P|104:356|56:344,1,90.9999958343508,0|2,0:0|0:0,0:0:0:0:
204,144,90258,2,0,P|256:140|304:152,1,90.9999958343508,8|0,0:0|0:0,0:0:0:0:
76,208,90596,6,0,L|64:108,2,90.9999958343508,0|0|8,0:0|0:0|0:0,0:0:0:0:
76,208,91270,2,0,P|132:232|188:220,1,90.9999958343508
208,116,91607,1,8,0:0:0:0:
308,292,91775,6,0,P|284:196|320:112,1,181.999991668702,2|2,0:0|0:0,0:0:0:0:
376,48,92281,2,0,P|320:28|260:36,1,90.9999958343508,8|0,0:0|0:0,0:0:0:0:
396,140,92618,2,0,P|446:108|476:55,1,90.9999958343508,2|2,0:0|0:0,0:0:0:0:
464,200,92955,2,0,L|464:296,1,90.9999958343508,8|0,0:0|0:0,0:0:0:0:
376,328,93292,6,0,L|376:228,1,90.9999958343508,2|0,0:0|0:0,0:0:0:0:
296,352,93629,2,0,P|236:364|188:352,2,90.9999958343508,8|0|0,0:0|0:0|0:0,0:0:0:0:
116,340,94135,1,8,0:0:0:0:
276,172,94303,1,8,0:0:0:0:
248,288,94472,1,8,0:0:0:0:
136,152,94641,6,0,P|160:80|268:44,1,181.999991668702,4|8,0:0|0:0,0:0:0:0:
416,148,95146,1,2,0:0:0:0:
272,200,95315,1,8,0:0:0:0:
388,32,95483,1,0,0:0:0:0:
380,256,95652,1,2,0:0:0:0:
228,136,95820,1,2,0:0:0:0:
460,168,95989,6,0,L|360:164,1,90.9999958343508,8|0,0:0|0:0,0:0:0:0:
120,260,96326,1,12,0:0:0:0:
106,38,96494,2,0,P|154:126|242:130,1,181.999991668702,2|2,0:0|0:0,0:0:0:0:
352,88,97000,1,0,0:0:0:0:
450,349,97169,6,0,L|459:167,1,181.999991668702,6|0,0:0|0:0,0:0:0:0:
312,204,97674,2,0,P|326:228|384:260,1,90.9999958343508,8|0,0:0|0:0,0:0:0:0:
392,84,98011,1,2,0:0:0:0:
488,272,98180,1,2,0:0:0:0:
296,272,98348,1,10,0:0:0:0:
296,272,98685,6,0,L|104:276,1,181.999991668702,2|10,0:0|0:0,0:0:0:0:
24,224,99191,2,0,P|80:180|116:180,1,90.9999958343508,2|0,0:0|0:0,0:0:0:0:
148,348,99528,2,0,L|264:344,1,90.9999958343508,2|8,0:0|0:0,0:0:0:0:
328,108,99865,6,0,P|352:220|404:268,1,181.999991668702,2|0,0:0|0:0,0:0:0:0:
412,68,100371,2,0,P|356:24|304:16,1,90.9999958343508,8|0,0:0|0:0,0:0:0:0:
216,180,100708,1,2,0:0:0:0:
448,152,100876,1,2,0:0:0:0:
264,36,101045,1,10,0:0:0:0:
264,36,101382,6,0,P|216:72|88:68,1,181.999991668702,2|8,0:0|0:0,0:0:0:0:
16,148,101888,2,0,L|8:248,1,90.9999958343508,2|0,0:0|0:0,0:0:0:0:
112,172,102225,2,0,L|116:268,1,90.9999958343508,2|8,0:0|0:0,0:0:0:0:
400,304,102562,6,0,P|324:268|228:296,1,181.999991668702,6|0,0:0|0:0,0:0:0:0:
272,184,103067,2,0,L|280:88,1,90.9999958343508,8|0,0:0|0:0,0:0:0:0:
380,120,103405,2,0,L|380:28,1,90.9999958343508,2|0,0:0|0:0,0:0:0:0:
400,304,103742,2,0,L|400:213,1,90.9999958343508,10|0,0:0|0:0,0:0:0:0:
476,24,104079,6,0,L|484:216,1,181.999991668702,2|8,0:0|0:0,0:0:0:0:
476,364,104584,1,2,0:0:0:0:
264,300,104753,1,2,0:0:0:0:
400,304,104921,1,2,0:0:0:0:
352,172,105090,1,10,0:0:0:0:
344,368,105258,1,2,0:0:0:0:
344,368,105427,6,0,P|256:332|156:392,1,181.999991668702,2|8,0:0|0:0,0:0:0:0:
20,360,105933,1,2,0:0:0:0:
116,276,106101,2,0,P|136:208|120:168,1,90.9999958343508,2|0,0:0|0:0,0:0:0:0:
40,128,106438,2,0,P|20:168|24:213,1,90.9999958343508,10|0,0:0|0:0,0:0:0:0:
313,190,106775,6,0,L|121:190,1,181.999991668702,2|8,0:0|0:0,0:0:0:0:
23,212,107281,1,2,0:0:0:0:
148,88,107450,1,10,0:0:0:0:
224,288,107618,1,0,0:0:0:0:
316,100,107787,1,8,0:0:0:0:
408,330,107955,6,0,P|348:290|316:162,1,181.999991668702,6|0,0:0|0:0,0:0:0:0:
472,264,108461,2,0,P|504:320|496:356,1,90.9999958343508,8|0,0:0|0:0,0:0:0:0:
284,332,108798,1,2,0:0:0:0:
316,100,108966,1,2,0:0:0:0:
472,264,109135,1,10,0:0:0:0:
472,264,109472,6,0,P|488:168|480:72,1,181.999991668702,2|8,0:0|0:0,0:0:0:0:
404,16,109978,2,0,L|308:12,1,90.9999958343508,2|0,0:0|0:0,0:0:0:0:
406,93,110315,2,0,L|286:101,1,90.9999958343508,2|8,0:0|0:0,0:0:0:0:
56,188,110652,6,0,L|240:180,1,181.999991668702,2|0,0:0|0:0,0:0:0:0:
332,200,111157,2,0,P|308:252|268:272,1,90.9999958343508,8|0,0:0|0:0,0:0:0:0:
176,80,111494,1,2,0:0:0:0:
160,280,111663,1,2,0:0:0:0:
44,100,111832,1,10,0:0:0:0:
44,100,112169,6,0,P|16:164|40:272,1,181.999991668702,2|10,0:0|0:0,0:0:0:0:
212,344,112674,1,4,0:0:0:0:
234,342,112758,1,0,0:0:0:0:
257,340,112842,1,0,0:0:0:0:
304,241,113011,1,4,0:0:0:0:
325,245,113095,1,0,0:0:0:0:
348,250,113179,1,0,0:0:0:0:
144,120,113348,6,0,P|234:145|336:132,1,181.999991668702,6|0,0:0|0:0,0:0:0:0:
444,72,113854,2,0,P|464:112|464:164,1,90.9999958343508,8|0,0:0|0:0,0:0:0:0:
424,292,114191,1,2,0:0:0:0:
320,136,114360,1,2,0:0:0:0:
264,312,114528,2,0,L|168:304,1,90.9999958343508,10|0,0:0|0:0,0:0:0:0:
56,248,114781,1,0,0:0:0:0:
56,248,114865,6,0,P|100:200|236:200,1,181.999991668702,2|8,0:0|0:0,0:0:0:0:
360,280,115371,1,2,0:0:0:0:
368,76,115539,1,2,0:0:0:0:
308,196,115708,1,2,0:0:0:0:
476,192,115876,1,10,0:0:0:0:
260,96,116045,1,2,0:0:0:0:
304,340,116214,6,0,P|332:272|444:260,1,181.999991668702,2|8,0:0|0:0,0:0:0:0:
492,340,116719,1,0,0:0:0:0:
244,256,116888,1,8,0:0:0:0:
376,104,117056,1,4,0:0:0:0:
360,296,117225,1,0,0:0:0:0:
240,96,117393,1,0,0:0:0:0:
132,256,117562,5,2,0:0:0:0:
109,258,117646,1,0,0:0:0:0:
87,254,117730,1,0,0:0:0:0:
66,244,117814,1,0,0:0:0:0:
49,229,117899,1,2,0:0:0:0:
240,96,118067,2,0,P|216:28|152:80,1,181.999991668702,6|0,0:0|0:0,0:0:0:0:
256,336,118573,2,0,P|220:264|264:164,1,181.999991668702,4|0,0:0|0:0,0:0:0:0:
472,272,119079,6,0,P|416:217|384:287,1,181.999991668702,2|0,0:0|0:0,0:0:0:0:
253,173,119584,1,2,0:0:0:0:
275,166,119668,1,0,0:0:0:0:
297,160,119752,1,0,0:0:0:0:
319,154,119836,1,0,0:0:0:0:
353,165,119921,1,2,0:0:0:0:
375,159,120005,1,0,0:0:0:0:
397,152,120089,1,0,0:0:0:0:
420,146,120173,1,0,0:0:0:0:
460,120,120258,6,0,P|480:72|392:36,1,136.499993751526,4|8,0:0|0:0,0:0:0:0:
348,40,120596,1,8,0:0:0:0:
253,173,120764,2,0,B|215:196|215:196|182:119,1,90.9999958343508,6|0,0:0|0:0,0:0:0:0:
384,287,121101,2,0,B|402:328|402:328|476:283,1,90.9999958343508,6|0,0:0|0:0,0:0:0:0:
240,320,121438,1,6,0:0:0:0:
256,192,121523,12,0,124303,0:0:0:0:
