osu file format v14

[General]
AudioFilename: audio.mp3
AudioLeadIn: 0
PreviewTime: 4978
Countdown: 0
SampleSet: Soft
StackLeniency: 0.7
Mode: 0
LetterboxInBreaks: 0
WidescreenStoryboard: 0

[Editor]
DistanceSpacing: 1.4
BeatDivisor: 4
GridSize: 4
TimelineZoom: 2.599999

[Metadata]
Title:Insane Game
TitleUnicode:インセインゲーム
Artist:Miki Hoshii, Hibiki Ganaha, Takane Shijou
ArtistUnicode:星井美希、我那覇響、四条貴音
Creator:Lily Bread
Version:H@rd
Source:アイドルマスター プラチナスターズ
Tags:Bokutachi no Resistance The Idolm@ster Platinum Stars idolmaster im@s imas
BeatmapID:1524925
BeatmapSetID:720689

[Difficulty]
HPDrainRate:5
CircleSize:4
OverallDifficulty:6
ApproachRate:8
SliderMultiplier:1.2
SliderTickRate:1

[Events]
//Background and Video events
0,0,"BG.jpg",0,0
//Break Periods
//Storyboard Layer 0 (Background)
//Storyboard Layer 1 (Fail)
//Storyboard Layer 2 (Pass)
//Storyboard Layer 3 (Foreground)
//Storyboard Sound Samples

[TimingPoints]
259,337.078651685393,4,2,1,40,1,0
5483,-90.9090909090909,4,2,1,60,0,1
16185,-90.9090909090909,4,2,1,10,0,1
16270,-90.9090909090909,4,2,1,60,0,1
25961,-90.9090909090909,4,3,1,60,0,1
26382,-90.9090909090909,4,2,1,60,0,0
28573,-133.333333333333,4,2,1,25,0,0
31270,-133.333333333333,4,3,1,25,0,0
35315,-133.333333333333,4,2,1,25,0,0
35652,-100,4,2,1,25,0,0
36663,-100,4,3,1,50,0,0
37000,-100,4,2,1,50,0,0
37169,-100,4,3,1,50,0,0
37843,-100,4,2,1,50,0,0
47618,-100,4,3,1,50,0,0
47955,-100,4,2,1,50,0,0
48124,-100,4,3,1,50,0,0
48461,-100,4,2,1,50,0,0
49725,-100,4,2,1,10,0,0
49809,-100,4,2,1,50,0,0
50146,-100,4,2,1,50,0,0
66326,-100,4,2,1,50,0,0
69023,-100,4,3,1,50,0,0
69360,-100,4,2,1,50,0,0
72730,-100,4,3,1,50,0,0
73067,-83.3333333333333,4,2,1,60,0,1
83517,-83.3333333333333,4,2,1,60,0,1
83854,-83.3333333333333,4,2,1,60,0,1
95399,-83.3333333333333,4,3,1,60,0,1
95567,-83.3333333333333,4,2,1,60,0,1
97084,-83.3333333333333,4,2,1,60,0,0
97169,-83.3333333333333,4,2,1,60,0,1
112674,-83.3333333333333,4,3,1,60,0,1
113348,-83.3333333333333,4,2,1,60,0,1
117056,-83.3333333333333,4,3,1,60,0,1
117562,-83.3333333333333,4,3,1,60,0,1
118067,-83.3333333333333,4,2,1,60,0,1
119584,-83.3333333333333,4,3,1,60,0,1
120258,-83.3333333333333,4,2,1,60,0,1
121438,-83.3333333333333,4,2,1,40,0,0
121607,-83.3333333333333,4,2,1,30,0,0
121944,-83.3333333333333,4,2,1,10,0,0
122281,-83.3333333333333,4,2,1,5,0,0

[Colours]
Combo1 : 242,24,57
Combo2 : 0,202,0
Combo3 : 128,0,255

[HitObjects]
84,132,4978,6,0,L|84:56,2,60,2|2|2,0:0|0:0|0:0,0:0:0:0:
104,260,5483,6,0,P|184:256|248:216,1,132.00000402832,6|0,0:0|0:0,0:0:0:0:
264,144,5989,2,0,L|340:140,1,66.0000020141602,8|0,0:0|0:0,0:0:0:0:
408,80,6326,2,0,P|424:132|420:160,1,66.0000020141602,2|2,0:0|0:0,0:0:0:0:
372,228,6663,1,10,0:0:0:0:
372,228,7000,6,0,P|336:300|268:332,1,132.00000402832,2|8,0:0|0:0,0:0:0:0:
196,324,7506,2,0,L|124:324,1,66.0000020141602,2|0,0:0|0:0,0:0:0:0:
64,248,7843,2,0,L|156:248,1,66.0000020141602,2|8,0:0|0:0,0:0:0:0:
248,200,8180,6,0,P|193:140|132:132,1,132.00000402832,2|0,0:0|0:0,0:0:0:0:
60,160,8685,2,0,L|40:80,1,66.0000020141602,8|0,0:0|0:0,0:0:0:0:
120,40,9023,2,0,P|164:36|204:44,2,66.0000020141602,2|2|10,0:0|0:0|0:0,0:0:0:0:
260,132,9697,6,0,L|400:132,1,132.00000402832,2|8,0:0|0:0,0:0:0:0:
480,108,10202,2,0,P|484:140|472:172,1,66.0000020141602,2|0,0:0|0:0,0:0:0:0:
400,228,10539,2,0,L|400:308,1,66.0000020141602,2|8,0:0|0:0,0:0:0:0:
268,344,10876,6,0,P|200:360|136:340,1,132.00000402832,6|0,0:0|0:0,0:0:0:0:
104,260,11382,2,0,L|104:172,1,66.0000020141602,8|0,0:0|0:0,0:0:0:0:
188,152,11719,1,2,0:0:0:0:
276,180,11888,1,2,0:0:0:0:
208,244,12056,2,0,L|208:320,1,66.0000020141602,10|0,0:0|0:0,0:0:0:0:
80,328,12393,6,0,P|20:292|8:228,1,132.00000402832,2|8,0:0|0:0,0:0:0:0:
20,144,12899,1,2,0:0:0:0:
104,184,13067,2,0,L|188:184,1,66.0000020141602,2|2,0:0|0:0,0:0:0:0:
264,184,13405,1,10,0:0:0:0:
216,104,13573,1,2,0:0:0:0:
220,264,13742,6,0,P|280:316|352:308,1,132.00000402832,2|8,0:0|0:0,0:0:0:0:
420,300,14247,1,0,0:0:0:0:
356,232,14416,2,0,L|356:156,1,66.0000020141602,2|0,0:0|0:0,0:0:0:0:
448,152,14753,2,0,L|448:72,1,66.0000020141602,10|0,0:0|0:0,0:0:0:0:
356,76,15090,5,8,0:0:0:0:
280,132,15258,1,2,0:0:0:0:
280,132,15596,1,2,0:0:0:0:
280,132,15933,2,0,L|280:200,1,66.0000020141602,10|0,0:0|0:0,0:0:0:0:
180,268,16270,6,0,P|96:268|48:220,1,132.00000402832,6|0,0:0|0:0,0:0:0:0:
136,184,16775,2,0,L|216:184,1,66.0000020141602,8|0,0:0|0:0,0:0:0:0:
280,132,17112,2,0,L|372:132,1,66.0000020141602,2|2,0:0|0:0,0:0:0:0:
392,212,17450,1,10,0:0:0:0:
392,212,17787,6,0,P|344:272|352:344,1,132.00000402832,2|8,0:0|0:0,0:0:0:0:
436,300,18292,2,0,P|468:296|516:260,1,66.0000020141602,2|0,0:0|0:0,0:0:0:0:
484,192,18629,2,0,L|484:116,1,66.0000020141602,2|8,0:0|0:0,0:0:0:0:
368,44,18966,6,0,P|296:32|212:48,1,132.00000402832,2|0,0:0|0:0,0:0:0:0:
172,108,19472,2,0,L|168:188,1,66.0000020141602,8|0,0:0|0:0,0:0:0:0:
220,252,19809,2,0,L|228:336,2,66.0000020141602,2|2|10,0:0|0:0|0:0,0:0:0:0:
76,136,20483,6,0,L|68:267,1,132.00000402832,2|8,0:0|0:0,0:0:0:0:
84,360,20989,2,0,P|120:368|164:360,1,66.0000020141602,2|0,0:0|0:0,0:0:0:0:
226,317,21326,2,0,P|258:314|290:322,1,66.0000020141602,10|0,0:0|0:0,0:0:0:0:
432,360,21663,6,0,P|468:300|464:216,1,132.00000402832,6|0,0:0|0:0,0:0:0:0:
404,176,22169,2,0,L|404:104,1,66.0000020141602,8|0,0:0|0:0,0:0:0:0:
352,36,22506,1,2,0:0:0:0:
304,116,22674,1,2,0:0:0:0:
332,204,22843,2,0,L|332:288,1,66.0000020141602,10|0,0:0|0:0,0:0:0:0:
224,352,23180,6,0,L|224:200,1,132.00000402832,2|8,0:0|0:0,0:0:0:0:
232,128,23685,1,2,0:0:0:0:
144,180,23854,2,0,B|148:180|139:183|104:181|56:168,1,66.0000020141602,2|2,0:0|0:0,0:0:0:0:
36,92,24191,1,10,0:0:0:0:
116,44,24360,1,2,0:0:0:0:
232,128,24528,6,0,L|372:124,1,132.00000402832,2|8,0:0|0:0,0:0:0:0:
448,84,25034,1,0,0:0:0:0:
444,176,25202,2,0,L|448:256,1,66.0000020141602,2|0,0:0|0:0,0:0:0:0:
356,256,25539,2,0,L|352:332,1,66.0000020141602,10|0,0:0|0:0,0:0:0:0:
276,228,25876,5,8,0:0:0:0:
212,296,26045,1,4,0:0:0:0:
272,368,26214,1,4,0:0:0:0:
152,364,26382,1,4,0:0:0:0:
136,84,28573,5,4,0:0:0:0:
136,300,31270,5,4,0:0:0:0:
376,84,33966,5,4,0:0:0:0:
376,300,35315,6,0,P|404:256|408:200,2,90.0000034332277,4|0|0,0:0|0:0|0:0,0:0:0:0:
288,252,36326,2,0,L|228:252,1,60,2|0,0:0|0:0,0:0:0:0:
144,296,36663,5,0,0:0:0:0:
144,296,36747,1,0,0:0:0:0:
144,296,36832,2,0,L|92:296,2,30,0|0|8,0:0|0:0|0:0,0:0:0:0:
120,212,37169,2,0,L|120:72,1,120,2|2,0:0|0:0,0:0:0:0:
120,92,37843,6,0,P|188:72|252:96,1,120,4|0,0:0|0:0,0:0:0:0:
287,151,38348,2,0,L|255:227,1,60,8|0,0:0|0:0,0:0:0:0:
344,232,38685,2,0,L|340:296,1,60,2|0,0:0|0:0,0:0:0:0:
428,352,39023,2,0,L|428:280,1,60,8|0,0:0|0:0,0:0:0:0:
403,154,39360,6,0,P|344:138|266:166,1,120,14|8,0:0|0:0,0:0:0:0:
212,184,39865,2,0,L|140:184,1,60,0|0,0:0|0:0,0:0:0:0:
68,196,40202,2,0,P|84:240|108:256,1,60,2|8,0:0|0:0,0:0:0:0:
176,336,40539,6,0,P|232:320|288:340,1,120,2|0,0:0|0:0,0:0:0:0:
372,340,41045,2,0,L|456:336,1,60,8|0,0:0|0:0,0:0:0:0:
500,284,41382,2,0,P|505:254|504:224,1,60,2|0,0:0|0:0,0:0:0:0:
424,200,41719,2,0,P|418:170|419:140,1,60,8|0,0:0|0:0,0:0:0:0:
332,48,42056,6,0,P|267:72|223:52,1,120,2|8,0:0|0:0,0:0:0:0:
140,52,42562,2,0,L|56:52,2,60,0|0|2,0:0|0:0|0:0,0:0:0:0:
184,124,43067,1,8,0:0:0:0:
96,208,43236,6,0,P|100:280|136:332,1,120,2|0,0:0|0:0,0:0:0:0:
208,332,43742,2,0,L|280:328,1,60,8|0,0:0|0:0,0:0:0:0:
352,332,44079,2,0,L|420:340,2,60,2|0|8,0:0|0:0|0:0,0:0:0:0:
440,188,44753,5,2,0:0:0:0:
408,112,44921,1,2,0:0:0:0:
352,176,45090,2,0,L|272:176,1,60,12|0,0:0|0:0,0:0:0:0:
228,232,45427,2,0,L|156:232,1,60,2|0,0:0|0:0,0:0:0:0:
84,244,45764,2,0,P|52:292|64:312,1,60,12|0,0:0|0:0,0:0:0:0:
144,336,46101,6,0,L|208:336,1,60,8|0,0:0|0:0,0:0:0:0:
288,340,46438,1,12,0:0:0:0:
288,340,46775,2,0,P|348:324|372:252,1,120,2|0,0:0|0:0,0:0:0:0:
396,192,47281,1,0,0:0:0:0:
340,128,47450,6,0,L|256:128,1,60,8|0,0:0|0:0,0:0:0:0:
224,68,47787,1,0,0:0:0:0:
192,144,47955,2,0,L|192:228,1,60,8|0,0:0|0:0,0:0:0:0:
208,288,48292,1,0,0:0:0:0:
128,264,48461,1,8,0:0:0:0:
140,344,48629,1,8,0:0:0:0:
32,116,49135,6,0,P|28:48|116:72,1,180,0|0,0:0|0:0,0:0:0:0:
132,144,49809,2,0,L|132:212,1,60,2|0,0:0|0:0,0:0:0:0:
156,284,50146,6,0,P|216:296|280:260,1,120,6|8,0:0|0:0,0:0:0:0:
236,196,50652,2,0,P|212:148|236:72,1,120,0|2,0:0|0:0,0:0:0:0:
288,32,51157,1,8,0:0:0:0:
288,32,51494,6,0,P|344:52|416:28,1,120,2|8,0:0|0:0,0:0:0:0:
468,88,52000,2,0,L|480:232,1,120,0|2,0:0|0:0,0:0:0:0:
468,292,52506,1,8,0:0:0:0:
468,292,52843,6,0,L|388:296,1,60,2|0,0:0|0:0,0:0:0:0:
364,364,53180,2,0,L|284:356,1,60,8|0,0:0|0:0,0:0:0:0:
220,348,53517,1,2,0:0:0:0:
52,360,53854,2,0,P|41:308|60:232,1,120,12|2,0:0|0:0,0:0:0:0:
184,168,54528,6,0,L|192:104,1,60,8|0,0:0|0:0,0:0:0:0:
224,36,54865,2,0,L|304:36,1,60,2|2,0:0|0:0,0:0:0:0:
320,108,55202,2,0,L|328:168,2,60,8|0|2,0:0|0:0|0:0,0:0:0:0:
256,240,55876,6,0,L|256:308,1,60,8|0,0:0|0:0,0:0:0:0:
320,352,56214,2,0,P|347:350|388:336,1,60,2|2,0:0|0:0,0:0:0:0:
440,284,56551,2,0,P|448:230|444:160,1,120,8|0,0:0|0:0,0:0:0:0:
320,108,57225,6,0,P|266:99|196:104,1,120,8|2,0:0|0:0,0:0:0:0:
64,200,57899,2,0,P|55:253|60:324,1,120,8|2,0:0|0:0,0:0:0:0:
220,364,58573,5,8,0:0:0:0:
304,352,58742,1,0,0:0:0:0:
252,288,58910,2,0,L|252:208,2,60,2|2|8,0:0|0:0|0:0,0:0:0:0:
388,188,59584,5,2,0:0:0:0:
472,188,59753,1,2,0:0:0:0:
428,116,59921,2,0,L|428:36,1,60,2|6,0:0|0:0,0:0:0:0:
176,76,60596,2,0,L|112:80,1,60,8|0,0:0|0:0,0:0:0:0:
52,136,60933,6,0,P|88:160|176:148,1,120,6|8,0:0|0:0,0:0:0:0:
240,128,61438,2,0,P|292:132|344:180,1,120,0|2,0:0|0:0,0:0:0:0:
328,260,61944,1,8,0:0:0:0:
328,260,62281,6,0,P|304:312|248:276,1,120,2|8,0:0|0:0,0:0:0:0:
188,244,62787,2,0,P|136:240|76:288,1,120,0|2,0:0|0:0,0:0:0:0:
56,356,63292,1,8,0:0:0:0:
56,356,63629,6,0,L|128:364,1,60,2|0,0:0|0:0,0:0:0:0:
197,313,63966,2,0,P|233:304|268:285,1,60,8|0,0:0|0:0,0:0:0:0:
332,328,64303,2,0,P|360:324|412:328,1,60,10|2,0:0|0:0,0:0:0:0:
468,364,64641,1,14,0:0:0:0:
440,124,65146,5,0,0:0:0:0:
440,124,65315,2,0,L|372:124,1,60,8|0,0:0|0:0,0:0:0:0:
320,64,65652,2,0,L|248:64,1,60,0|0,0:0|0:0,0:0:0:0:
232,144,65989,2,0,L|168:144,1,60,8|0,0:0|0:0,0:0:0:0:
172,248,66326,6,0,P|204:256|256:244,1,60,12|0,0:0|0:0,0:0:0:0:
376,208,66663,2,0,P|344:200|292:212,1,60,8|0,0:0|0:0,0:0:0:0:
332,348,67000,2,0,L|336:268,1,60,8|0,0:0|0:0,0:0:0:0:
230,253,67337,1,8,0:0:0:0:
212,348,67506,1,0,0:0:0:0:
124,268,67674,6,0,P|89:270|60:260,1,60,8|0,0:0|0:0,0:0:0:0:
204,172,68011,2,0,P|238:169|267:179,1,60,8|0,0:0|0:0,0:0:0:0:
104,180,68348,2,0,L|104:92,1,60,8|0,0:0|0:0,0:0:0:0:
136,32,68685,1,8,0:0:0:0:
212,88,68854,1,0,0:0:0:0:
288,24,69023,6,0,L|364:24,1,60,2|2,0:0|0:0,0:0:0:0:
412,72,69360,2,0,P|396:124|412:208,1,120,8|2,0:0|0:0,0:0:0:0:
328,340,70034,1,8,0:0:0:0:
328,340,70202,2,0,P|294:344|260:340,1,60,4|0,0:0|0:0,0:0:0:0:
200,292,70539,5,8,0:0:0:0:
276,260,70708,1,2,0:0:0:0:
208,212,70876,1,2,0:0:0:0:
128,240,71045,2,0,P|99:243|48:236,1,60,2|2,0:0|0:0,0:0:0:0:
24,172,71382,2,0,L|24:96,1,60,2|2,0:0|0:0,0:0:0:0:
80,20,71719,5,8,0:0:0:0:
136,108,71888,1,8,0:0:0:0:
200,24,72056,1,8,0:0:0:0:
296,164,72393,2,0,P|352:136|420:176,1,120,2|4,0:0|0:0,0:0:0:0:
402,154,73067,6,0,P|406:232|428:308,1,143.999995605469,6|8,0:0|0:0,0:0:0:0:
500,364,73574,1,2,0:0:0:0:
400,376,73742,1,0,0:0:0:0:
256,308,73910,2,0,L|348:308,1,71.9999978027344,2|8,0:0|0:0,0:0:0:0:
423,295,74247,1,0,0:0:0:0:
332,232,74416,6,0,L|252:232,1,71.9999978027344,2|0,0:0|0:0,0:0:0:0:
216,140,74753,2,0,L|128:156,1,71.9999978027344,10|0,0:0|0:0,0:0:0:0:
64,212,75090,1,2,0:0:0:0:
72,312,75258,1,2,0:0:0:0:
156,252,75427,1,8,0:0:0:0:
56,116,75596,1,2,0:0:0:0:
56,116,75764,6,0,P|84:88|132:72,1,71.9999978027344,0|0,0:0|0:0,0:0:0:0:
216,68,76101,2,0,L|296:68,1,71.9999978027344,8|0,0:0|0:0,0:0:0:0:
420,136,76438,2,0,L|332:136,1,71.9999978027344,2|2,0:0|0:0,0:0:0:0:
248,156,76775,1,8,0:0:0:0:
320,228,76944,1,0,0:0:0:0:
228,272,77112,6,0,L|228:348,1,71.9999978027344,2|0,0:0|0:0,0:0:0:0:
328,364,77450,2,0,P|364:360|416:368,1,71.9999978027344,10|0,0:0|0:0,0:0:0:0:
500,348,77787,2,0,L|500:264,1,71.9999978027344,2|2,0:0|0:0,0:0:0:0:
420,208,78124,2,0,L|420:116,1,71.9999978027344,8|0,0:0|0:0,0:0:0:0:
320,228,78461,6,0,P|260:196|180:192,1,143.999995605469,4|8,0:0|0:0,0:0:0:0:
116,264,78966,2,0,L|112:360,1,71.9999978027344,2|0,0:0|0:0,0:0:0:0:
20,296,79303,2,0,L|16:220,1,71.9999978027344,2|8,0:0|0:0,0:0:0:0:
72,104,79641,6,0,P|142:117|211:101,1,143.999995605469,2|0,0:0|0:0,0:0:0:0:
284,32,80146,2,0,L|376:36,1,71.9999978027344,8|0,0:0|0:0,0:0:0:0:
448,120,80483,2,0,L|364:124,1,71.9999978027344,2|2,0:0|0:0,0:0:0:0:
284,164,80820,2,0,P|278:198|288:248,1,71.9999978027344,10|0,0:0|0:0,0:0:0:0:
372,284,81157,6,0,P|347:308|300:332,1,71.9999978027344,4|0,0:0|0:0,0:0:0:0:
300,336,81410,1,0,0:0:0:0:
284,340,81494,1,0,0:0:0:0:
196,296,81663,2,0,P|142:278|116:192,1,143.999995605469,4|0,0:0|0:0,0:0:0:0:
160,112,82169,1,8,0:0:0:0:
244,168,82337,6,0,P|300:160|368:96,2,143.999995605469,4|4|4,0:0|0:0|0:0,0:0:0:0:
268,72,83180,2,0,L|272:-8,1,71.9999978027344,0|8,0:0|0:0,0:0:0:0:
364,103,83517,2,0,L|364:27,1,71.9999978027344,8|2,0:0|0:0,0:0:0:0:
408,188,83854,6,0,L|408:352,1,143.999995605469,4|8,0:0|0:0,0:0:0:0:
316,376,84360,1,0,0:0:0:0:
296,276,84528,1,2,0:0:0:0:
160,336,84697,2,0,L|242:342,1,71.9999978027344,0|8,0:0|0:0,0:0:0:0:
80,280,85034,1,2,0:0:0:0:
168,244,85202,6,0,L|160:168,1,71.9999978027344,0|0,0:0|0:0,0:0:0:0:
68,184,85539,2,0,L|80:104,1,71.9999978027344,8|0,0:0|0:0,0:0:0:0:
176,80,85876,1,2,0:0:0:0:
176,80,86045,1,2,0:0:0:0:
176,80,86214,1,8,0:0:0:0:
280,160,86382,6,0,P|344:136|424:172,1,143.999995605469,2|0,0:0|0:0,0:0:0:0:
488,228,86888,1,8,0:0:0:0:
432,312,87056,1,0,0:0:0:0:
352,248,87225,2,0,L|264:252,1,71.9999978027344,2|2,0:0|0:0,0:0:0:0:
276,352,87562,2,0,L|176:348,1,71.9999978027344,10|0,0:0|0:0,0:0:0:0:
104,340,87899,5,2,0:0:0:0:
168,264,88067,1,2,0:0:0:0:
68,248,88236,2,0,L|72:148,1,71.9999978027344,8|0,0:0|0:0,0:0:0:0:
148,112,88573,2,0,L|156:204,1,71.9999978027344,2|2,0:0|0:0,0:0:0:0:
256,184,88910,1,8,0:0:0:0:
228,88,89079,1,0,0:0:0:0:
340,128,89247,6,0,P|396:124|448:44,1,143.999995605469,4|8,0:0|0:0,0:0:0:0:
472,220,89921,2,0,L|480:316,1,71.9999978027344,0|2,0:0|0:0,0:0:0:0:
360,352,90258,2,0,L|372:252,1,71.9999978027344,8|0,0:0|0:0,0:0:0:0:
268,276,90596,6,0,L|272:364,2,71.9999978027344,0|0|8,0:0|0:0|0:0,0:0:0:0:
68,288,91270,2,0,L|60:212,1,71.9999978027344,0|0,0:0|0:0,0:0:0:0:
56,108,91607,1,8,0:0:0:0:
168,172,91775,6,0,P|228:188|312:152,1,143.999995605469,2|2,0:0|0:0,0:0:0:0:
364,80,92281,2,0,P|308:60|276:72,1,71.9999978027344,8|0,0:0|0:0,0:0:0:0:
388,168,92618,2,0,L|388:252,1,71.9999978027344,2|2,0:0|0:0,0:0:0:0:
488,220,92955,2,0,L|488:304,1,71.9999978027344,8|0,0:0|0:0,0:0:0:0:
400,344,93292,6,0,P|364:328|308:344,1,71.9999978027344,2|0,0:0|0:0,0:0:0:0:
232,348,93629,2,0,P|196:350|164:334,2,71.9999978027344,8|0|0,0:0|0:0|0:0,0:0:0:0:
268,252,94135,1,8,0:0:0:0:
176,156,94303,1,8,0:0:0:0:
168,256,94472,1,8,0:0:0:0:
264,156,94641,6,0,P|236:96|156:72,1,143.999995605469,4|8,0:0|0:0,0:0:0:0:
84,112,95146,1,2,0:0:0:0:
88,248,95315,2,0,L|88:320,1,71.9999978027344,8|0,0:0|0:0,0:0:0:0:
232,348,95652,2,0,L|304:348,1,71.9999978027344,2|2,0:0|0:0,0:0:0:0:
424,264,95989,6,0,L|332:264,1,71.9999978027344,8|0,0:0|0:0,0:0:0:0:
348,164,96326,1,12,0:0:0:0:
372,68,96494,2,0,P|286:85|248:152,1,143.999995605469,2|2,0:0|0:0,0:0:0:0:
268,228,97000,1,0,0:0:0:0:
156,144,97169,6,0,P|128:80|148:4,1,143.999995605469,6|0,0:0|0:0,0:0:0:0:
48,32,97674,2,0,L|36:116,1,71.9999978027344,8|0,0:0|0:0,0:0:0:0:
72,200,98011,2,0,L|72:276,1,71.9999978027344,2|2,0:0|0:0,0:0:0:0:
136,348,98348,1,10,0:0:0:0:
136,348,98685,6,0,P|196:332|279:344,1,143.999995605469,2|10,0:0|0:0,0:0:0:0:
376,360,99191,2,0,L|468:360,1,71.9999978027344,2|0,0:0|0:0,0:0:0:0:
496,272,99528,2,0,P|480:232|484:184,1,71.9999978027344,2|8,0:0|0:0,0:0:0:0:
364,120,99865,6,0,P|272:172|204:160,1,143.999995605469,2|0,0:0|0:0,0:0:0:0:
288,84,100371,2,0,P|324:52|368:40,1,71.9999978027344,8|0,0:0|0:0,0:0:0:0:
436,56,100708,2,0,L|508:56,2,71.9999978027344,2|2|10,0:0|0:0|0:0,0:0:0:0:
236,32,101382,6,0,P|160:16|88:40,1,143.999995605469,2|8,0:0|0:0,0:0:0:0:
40,116,101888,2,0,L|32:204,1,71.9999978027344,2|0,0:0|0:0,0:0:0:0:
120,136,102225,2,0,L|128:224,1,71.9999978027344,2|8,0:0|0:0,0:0:0:0:
68,320,102562,6,0,P|153:295|231:323,1,143.999995605469,6|0,0:0|0:0,0:0:0:0:
292,356,103067,2,0,L|372:356,1,71.9999978027344,8|0,0:0|0:0,0:0:0:0:
464,344,103405,2,0,P|473:290|468:264,1,71.9999978027344,2|0,0:0|0:0,0:0:0:0:
368,268,103742,2,0,P|365:232|374:197,1,71.9999978027344,10|0,0:0|0:0,0:0:0:0:
444,76,104079,6,0,P|372:60|284:92,1,143.999995605469,2|8,0:0|0:0,0:0:0:0:
228,140,104584,1,2,0:0:0:0:
292,220,104753,2,0,L|296:304,2,71.9999978027344,2|2|10,0:0|0:0|0:0,0:0:0:0:
192,240,105258,1,2,0:0:0:0:
208,340,105427,6,0,P|112:364|60:328,1,143.999995605469,2|8,0:0|0:0,0:0:0:0:
8,272,105933,1,2,0:0:0:0:
104,240,106101,2,0,L|112:152,1,71.9999978027344,2|0,0:0|0:0,0:0:0:0:
64,80,106438,2,0,P|106:65|149:75,1,71.9999978027344,10|0,0:0|0:0,0:0:0:0:
248,144,106775,6,0,P|308:152|420:128,1,143.999995605469,2|8,0:0|0:0,0:0:0:0:
468,76,107281,1,2,0:0:0:0:
492,168,107450,1,10,0:0:0:0:
412,228,107618,1,0,0:0:0:0:
504,268,107787,1,8,0:0:0:0:
376,320,107955,6,0,P|282:330|224:312,1,143.999995605469,6|0,0:0|0:0,0:0:0:0:
140,352,108461,2,0,L|140:280,1,71.9999978027344,8|0,0:0|0:0,0:0:0:0:
40,284,108798,2,0,L|48:192,1,71.9999978027344,2|2,0:0|0:0,0:0:0:0:
144,180,109135,1,10,0:0:0:0:
144,180,109472,6,0,P|208:192|288:168,1,143.999995605469,2|8,0:0|0:0,0:0:0:0:
380,144,109978,2,0,L|456:144,1,71.9999978027344,2|0,0:0|0:0,0:0:0:0:
500,56,110315,2,0,L|396:56,1,71.9999978027344,2|8,0:0|0:0,0:0:0:0:
304,88,110652,6,0,L|142:87,1,143.999995605469,2|0,0:0|0:0,0:0:0:0:
104,4,111157,2,0,P|74:23|55:54,1,71.9999978027344,8|0,0:0|0:0,0:0:0:0:
88,136,111494,2,0,L|88:220,2,71.9999978027344,2|2|10,0:0|0:0|0:0,0:0:0:0:
148,328,112169,6,0,P|212:356|296:324,1,143.999995605469,2|10,0:0|0:0,0:0:0:0:
380,316,112674,2,0,L|424:316,2,35.9999989013672,4|0|0,0:0|0:0|0:0,0:0:0:0:
360,216,113011,2,0,L|416:216,2,35.9999989013672,4|0|0,0:0|0:0|0:0,0:0:0:0:
440,96,113348,6,0,P|352:80|280:104,1,143.999995605469,6|0,0:0|0:0,0:0:0:0:
240,172,113854,2,0,L|228:260,1,71.9999978027344,8|0,0:0|0:0,0:0:0:0:
156,312,114191,1,2,0:0:0:0:
88,236,114360,1,2,0:0:0:0:
164,168,114528,2,0,L|176:88,1,71.9999978027344,10|0,0:0|0:0,0:0:0:0:
48,164,114865,6,0,P|8:212|24:292,1,143.999995605469,2|8,0:0|0:0,0:0:0:0:
76,368,115371,1,2,0:0:0:0:
156,312,115539,2,0,L|236:312,1,71.9999978027344,2|2,0:0|0:0,0:0:0:0:
324,348,115876,1,10,0:0:0:0:
288,252,116045,1,2,0:0:0:0:
428,324,116214,6,0,P|460:264|416:176,1,143.999995605469,2|8,0:0|0:0,0:0:0:0:
372,260,116719,1,0,0:0:0:0:
324,172,116888,2,0,L|232:160,1,71.9999978027344,8|4,0:0|0:0,0:0:0:0:
176,100,117225,1,0,0:0:0:0:
168,200,117393,1,0,0:0:0:0:
88,140,117562,5,2,0:0:0:0:
88,140,117646,1,0,0:0:0:0:
88,140,117730,2,0,L|32:140,2,35.9999989013672,0|0|2,0:0|0:0|0:0,0:0:0:0:
64,248,118067,2,0,P|123:226|130:288,1,143.999995605469,6|0,0:0|0:0,0:0:0:0:
272,300,118573,2,0,P|276:220|243:150,1,143.999995605469,4|0,0:0|0:0,0:0:0:0:
381,95,119079,6,0,P|388:157|448:136,1,143.999995605469,2|0,0:0|0:0,0:0:0:0:
488,228,119584,2,0,L|488:276,3,35.9999989013672,2|0|0|0,0:0|0:0|0:0|0:0,0:0:0:0:
436,268,119921,2,0,L|436:336,3,35.9999989013672,2|0|0|0,0:0|0:0|0:0|0:0,0:0:0:0:
384,296,120258,6,0,P|328:288|248:296,1,107.999996704102,4|8,0:0|0:0,0:0:0:0:
240,316,120596,1,8,0:0:0:0:
192,228,120764,2,0,B|156:220|156:220|96:228,1,71.9999978027344,6|0,0:0|0:0,0:0:0:0:
56,340,121101,2,0,B|92:348|92:348|152:340,1,71.9999978027344,6|0,0:0|0:0,0:0:0:0:
240,316,121438,1,6,0:0:0:0:
256,192,121523,12,0,124303,0:0:0:0:
