osu file format v14

[General]
AudioFilename: audio.mp3
AudioLeadIn: 0
PreviewTime: 4978
Countdown: 0
SampleSet: Soft
StackLeniency: 0.7
Mode: 0
LetterboxInBreaks: 0
WidescreenStoryboard: 0

[Editor]
Bookmarks: 73067,73405,73910,74247,78461,78966,79303,79641,80146,80483,80820
DistanceSpacing: 1
BeatDivisor: 2
GridSize: 4
TimelineZoom: 2.599999

[Metadata]
Title:Insane Game
TitleUnicode:インセインゲーム
Artist:Miki Hoshii, Hibiki Ganaha, Takane Shijou
ArtistUnicode:星井美希、我那覇響、四条貴音
Creator:Lily Bread
Version:E@sy
Source:アイドルマスター プラチナスターズ
Tags:Bokutachi no Resistance The Idolm@ster Platinum Stars idolmaster im@s imas
BeatmapID:1525784
BeatmapSetID:720689

[Difficulty]
HPDrainRate:2
CircleSize:2
OverallDifficulty:1
ApproachRate:3
SliderMultiplier:0.9
SliderTickRate:1

[Events]
//Background and Video events
0,0,"BG.jpg",0,0
//Break Periods
//Storyboard Layer 0 (Background)
//Storyboard Layer 1 (Fail)
//Storyboard Layer 2 (Pass)
//Storyboard Layer 3 (Foreground)
//Storyboard Sound Samples

[TimingPoints]
259,337.078651685393,4,2,1,40,1,0
5483,-100,4,2,1,60,0,1
16185,-100,4,2,1,10,0,1
16270,-100,4,2,1,60,0,1
25961,-100,4,3,1,60,0,1
26382,-100,4,2,1,60,0,0
28573,-100,4,2,1,25,0,0
31270,-100,4,3,1,25,0,0
35315,-100,4,2,1,25,0,0
35652,-100,4,2,1,25,0,0
36663,-100,4,3,1,50,0,0
37000,-100,4,2,1,50,0,0
37169,-100,4,3,1,50,0,0
37843,-100,4,2,1,50,0,0
47618,-100,4,3,1,50,0,0
47955,-100,4,2,1,50,0,0
48124,-100,4,3,1,50,0,0
48461,-100,4,2,1,50,0,0
49725,-100,4,2,1,10,0,0
49809,-100,4,2,1,50,0,0
50146,-100,4,2,1,50,0,0
66326,-100,4,2,1,50,0,0
69023,-100,4,3,1,50,0,0
69360,-100,4,2,1,50,0,0
72730,-100,4,3,1,50,0,0
73067,-100,4,2,1,60,0,1
83517,-100,4,2,1,60,0,1
83854,-100,4,2,1,60,0,1
95399,-100,4,3,1,60,0,1
95567,-100,4,2,1,60,0,1
97084,-100,4,2,1,60,0,0
97169,-100,4,2,1,60,0,1
112674,-100,4,3,1,60,0,1
113348,-100,4,2,1,60,0,1
117056,-100,4,3,1,60,0,1
117562,-100,4,3,1,60,0,1
118067,-100,4,2,1,60,0,1
119584,-100,4,3,1,60,0,1
120258,-100,4,2,1,60,0,1
121438,-100,4,2,1,40,0,0
121607,-100,4,2,1,30,0,0
121944,-100,4,2,1,10,0,0
122281,-100,4,2,1,5,0,0

[Colours]
Combo1 : 242,24,57
Combo2 : 0,202,0
Combo3 : 128,0,255

[HitObjects]
44,88,5483,6,0,P|108:80|192:108,1,135,6|8,0:0|0:0,0:0:0:0:
232,168,6326,2,0,P|276:176|344:136,1,90,2|10,0:0|0:0,0:0:0:0:
396,116,7000,2,0,P|440:112|456:256,1,225,2|2,0:0|0:0,0:0:0:0:
400,312,8180,6,0,P|316:332|256:304,1,135,2|8,0:0|0:0,0:0:0:0:
200,264,9023,2,0,L|188:148,1,90,2|10,0:0|0:0,0:0:0:0:
164,88,9697,2,0,P|56:100|40:232,1,225,2|2,0:0|0:0,0:0:0:0:
36,288,10876,6,0,P|67:342|172:352,1,135,6|8,0:0|0:0,0:0:0:0:
220,340,11719,2,0,P|267:338|328:340,1,90,2|10,0:0|0:0,0:0:0:0:
400,340,12393,2,0,P|460:296|468:176,2,180,2|2|2,0:0|0:0|0:0,0:0:0:0:
348,264,14079,5,8,0:0:0:0:
388,184,14416,2,0,P|396:136|388:68,1,90,2|10,0:0|0:0,0:0:0:0:
344,20,15090,2,0,P|264:32|212:156,1,225,8|10,0:0|0:0,0:0:0:0:
240,240,16270,6,0,P|200:300|120:316,1,135,6|8,0:0|0:0,0:0:0:0:
52,316,17112,2,0,P|20:280|28:200,1,90,2|10,0:0|0:0,0:0:0:0:
8,148,17787,2,0,B|24:88|96:76|96:76|132:116|204:108,1,225,2|2,0:0|0:0,0:0:0:0:
264,60,18966,6,0,P|324:40|412:60,1,135,2|8,0:0|0:0,0:0:0:0:
464,104,19809,2,0,L|480:208,1,90,2|10,0:0|0:0,0:0:0:0:
460,280,20483,2,0,P|412:344|268:332,1,225,2|10,0:0|0:0,0:0:0:0:
248,256,21663,6,0,P|220:184|140:180,1,135,6|8,0:0|0:0,0:0:0:0:
84,148,22506,2,0,P|71:102|108:40,1,90,2|10,0:0|0:0,0:0:0:0:
172,84,23180,2,0,P|248:84|356:68,2,180,2|2|2,0:0|0:0|0:0,0:0:0:0:
120,12,24865,5,8,0:0:0:0:
72,88,25202,2,0,L|64:192,1,90,2|10,0:0|0:0,0:0:0:0:
64,268,25876,2,0,P|144:288|192:260,1,135,8|4,0:0|0:0,0:0:0:0:
104,88,28573,5,4,0:0:0:0:
408,88,31270,5,4,0:0:0:0:
408,296,33966,5,4,0:0:0:0:
128,296,35315,2,0,P|56:184|184:120,1,270,4|2,0:0|0:0,0:0:0:0:
232,96,36663,6,0,P|288:92|384:128,1,135,0|2,0:0|0:0,0:0:0:0:
412,188,37506,1,2,0:0:0:0:
448,272,37843,2,0,P|384:332|308:320,1,135,4|8,0:0|0:0,0:0:0:0:
268,284,38685,2,0,P|224:276|168:292,1,90,2|8,0:0|0:0,0:0:0:0:
116,348,39360,6,0,P|52:340|40:200,1,225,14|2,0:0|0:0,0:0:0:0:
64,120,40539,2,0,P|92:76|188:52,1,135,2|8,0:0|0:0,0:0:0:0:
252,84,41382,2,0,L|356:84,1,90,2|8,0:0|0:0,0:0:0:0:
420,132,42056,6,0,P|476:172|416:296,1,225,2|2,0:0|0:0,0:0:0:0:
336,316,43236,2,0,L|196:316,1,135,2|8,0:0|0:0,0:0:0:0:
112,316,44079,2,0,P|76:315|28:268,1,90,2|8,0:0|0:0,0:0:0:0:
12,196,44753,6,0,L|12:100,1,90,2|12,0:0|0:0,0:0:0:0:
72,40,45427,2,0,P|168:28|248:56,1,180,2|8,0:0|0:0,0:0:0:0:
308,116,46438,1,12,0:0:0:0:
356,192,46775,2,0,L|360:316,1,90,2|0,0:0|0:0,0:0:0:0:
304,352,47450,6,0,P|232:368|176:332,2,135,8|8|8,0:0|0:0|0:0,0:0:0:0:
64,96,50146,6,0,P|140:72|300:168,1,270,6|8,0:0|0:0,0:0:0:0:
328,244,51494,2,0,P|376:289|472:156,1,270,2|8,0:0|0:0,0:0:0:0:
472,84,52843,6,0,B|424:20|344:52|344:52|288:76|212:44,1,270,2|12,0:0|0:0,0:0:0:0:
68,144,54528,2,0,P|72:260|208:316,1,270,8|2,0:0|0:0,0:0:0:0:
276,268,55876,6,0,B|316:276|360:252|360:252|394:276|452:264,1,180,8|8,0:0|0:0,0:0:0:0:
416,88,57225,2,0,P|336:64|240:92,1,180,8|8,0:0|0:0,0:0:0:0:
108,208,58573,6,0,P|108:260|212:364,1,180,8|8,0:0|0:0,0:0:0:0:
264,312,59584,2,0,P|328:300|400:316,2,135,2|6|8,0:0|0:0|0:0,0:0:0:0:
176,328,60933,6,0,B|136:328|116:360|116:360|8:336|12:196,1,270,6|8,0:0|0:0,0:0:0:0:
24,124,62281,2,0,P|80:56|256:116,1,270,2|8,0:0|0:0,0:0:0:0:
248,180,63629,6,0,P|252:264|324:336,1,180,2|10,0:0|0:0,0:0:0:0:
404,336,64641,1,14,0:0:0:0:
320,304,66326,6,0,P|276:292|152:304,2,135,12|0|8,0:0|0:0|0:0,0:0:0:0:
408,280,67674,2,0,P|420:216|400:136,2,135,8|0|8,0:0|0:0|0:0,0:0:0:0:
320,252,69023,6,0,P|220:264|128:240,1,180,2|2,0:0|0:0,0:0:0:0:
88,120,70202,2,0,B|168:104|224:60|224:60|280:96|400:104,1,315,4|2,0:0|0:0,0:0:0:0:
464,140,71719,2,0,P|488:196|472:248,1,90,8|8,0:0|0:0,0:0:0:0:
428,292,72393,2,0,P|380:300|320:288,1,90,2|4,0:0|0:0,0:0:0:0:
256,260,73067,6,0,L|152:256,1,90,6|8,0:0|0:0,0:0:0:0:
76,248,73742,2,0,P|40:188|44:160,1,90,0|8,0:0|0:0,0:0:0:0:
96,100,74416,2,0,P|145:96|192:96,1,90,2|10,0:0|0:0,0:0:0:0:
268,132,75090,2,0,P|360:144|432:120,2,135,2|2|8,0:0|0:0|0:0,0:0:0:0:
180,156,76438,6,0,P|144:200|152:260,1,90,2|8,0:0|0:0,0:0:0:0:
208,296,77112,2,0,P|284:328|404:280,1,180,2|2,0:0|0:0,0:0:0:0:
436,240,78124,1,8,0:0:0:0:
416,152,78461,6,0,P|368:100|284:100,1,135,4|2,0:0|0:0,0:0:0:0:
216,96,79303,1,2,0:0:0:0:
220,188,79641,2,0,P|212:264|136:288,1,135,2|8,0:0|0:0,0:0:0:0:
76,296,80483,1,2,0:0:0:0:
8,236,80820,1,10,0:0:0:0:
8,148,81157,6,0,P|20:72|64:20,1,135,4|4,0:0|0:0,0:0:0:0:
204,124,82337,2,0,B|236:152|284:148|284:148|336:96|428:120,1,225,4|0,0:0|0:0,0:0:0:0:
468,188,83517,1,8,0:0:0:0:
420,264,83854,6,0,P|364:280|292:268,1,90,4|8,0:0|0:0,0:0:0:0:
252,316,84528,2,0,P|200:332|76:280,1,180,2|0,0:0|0:0,0:0:0:0:
44,212,85539,1,8,0:0:0:0:
76,128,85876,2,0,P|116:100|176:96,1,90,2|8,0:0|0:0,0:0:0:0:
244,88,86551,6,0,P|308:84|348:92,1,90,0|8,0:0|0:0,0:0:0:0:
404,144,87225,2,0,L|404:256,1,90,2|10,0:0|0:0,0:0:0:0:
368,316,87899,2,0,P|324:336|184:312,1,180,2|2,0:0|0:0,0:0:0:0:
128,264,88910,1,8,0:0:0:0:
92,180,89247,6,0,P|80:128|100:72,1,90,4|8,0:0|0:0,0:0:0:0:
168,56,89921,1,0,0:0:0:0:
256,68,90258,1,8,0:0:0:0:
332,120,90596,2,0,L|344:216,1,90,0|8,0:0|0:0,0:0:0:0:
344,300,91270,6,0,P|304:352|228:348,2,135,0|2|8,0:0|0:0|0:0,0:0:0:0:
420,256,92618,2,0,P|440:144|320:44,1,270,2|8,0:0|0:0,0:0:0:0:
252,152,94135,6,0,P|208:208|112:238,1,135,8|4,0:0|0:0,0:0:0:0:
72,280,94978,1,8,0:0:0:0:
146,337,95315,2,0,P|183:361|228:360,1,90,8|2,0:0|0:0,0:0:0:0:
316,356,95989,2,0,P|364:348|436:196,1,225,8|2,0:0|0:0,0:0:0:0:
416,116,97169,6,0,P|348:88|283:111,1,135,6|8,0:0|0:0,0:0:0:0:
228,168,98011,2,0,L|216:288,1,90,2|10,0:0|0:0,0:0:0:0:
156,320,98685,2,0,P|88:328|44:200,1,225,2|2,0:0|0:0,0:0:0:0:
76,116,99865,6,0,P|108:88|220:88,1,135,2|8,0:0|0:0,0:0:0:0:
248,152,100708,2,0,P|312:160|360:144,1,90,2|10,0:0|0:0,0:0:0:0:
400,88,101382,2,0,B|444:72|480:104|480:104|448:176|480:276,1,225,2|2,0:0|0:0,0:0:0:0:
408,304,102562,6,0,P|357:308|256:292,1,135,6|8,0:0|0:0,0:0:0:0:
220,224,103405,2,0,P|132:220|100:236,1,90,2|10,0:0|0:0,0:0:0:0:
48,252,104079,2,0,P|8:190|48:80,2,180,2|2|2,0:0|0:0|0:0,0:0:0:0:
112,312,105764,5,8,0:0:0:0:
192,352,106101,2,0,L|296:352,1,90,2|10,0:0|0:0,0:0:0:0:
372,340,106775,2,0,P|436:284|408:168,1,180,2|10,0:0|0:0,0:0:0:0:
364,80,107955,6,0,P|304:52|246:81,1,135,6|8,0:0|0:0,0:0:0:0:
200,160,108798,2,0,L|196:268,1,90,2|10,0:0|0:0,0:0:0:0:
148,328,109472,2,0,P|76:328|24:200,1,225,2|2,0:0|0:0,0:0:0:0:
40,112,110652,6,0,P|92:72|164:68,1,135,2|8,0:0|0:0,0:0:0:0:
212,140,111494,2,0,P|288:160|328:148,1,90,2|10,0:0|0:0,0:0:0:0:
380,124,112169,2,0,P|452:132|428:256,1,225,2|4,0:0|0:0,0:0:0:0:
364,308,113348,6,0,P|291:313|212:308,1,135,6|8,0:0|0:0,0:0:0:0:
140,312,114191,2,0,P|104:272|76:212,1,90,2|10,0:0|0:0,0:0:0:0:
84,152,114865,2,0,P|116:76|232:60,2,180,2|2|2,0:0|0:0|0:0,0:0:0:0:
164,196,116551,1,8,0:0:0:0:
248,228,116888,2,0,P|312:212|348:172,1,90,8|0,0:0|0:0,0:0:0:0:
376,120,117562,6,0,P|432:108|496:180,1,135,2|6,0:0|0:0,0:0:0:0:
464,284,118573,2,0,P|439:346|372:364,2,135,4|2|2,0:0|0:0|0:0,0:0:0:0:
412,212,119921,5,2,0:0:0:0:
336,260,120258,2,0,P|264:296|212:280,1,135,4|6,0:0|0:0,0:0:0:0:
140,232,121101,2,0,L|120:136,1,90,6|6,0:0|0:0,0:0:0:0:
256,192,121775,12,0,124303,0:0:0:0:
