osu file format v14

[General]
AudioFilename: plox.mp3
AudioLeadIn: 0
PreviewTime: 163687
Countdown: 0
SampleSet: Normal
StackLeniency: 0.7
Mode: 1
LetterboxInBreaks: 0
WidescreenStoryboard: 0

[Editor]
DistanceSpacing: 1
BeatDivisor: 4
GridSize: 8
TimelineZoom: 1.8

[Metadata]
Title:Contra (nes/dendy) - All stages OST Metal cover
TitleUnicode:Contra (nes/dendy) - All stages OST Metal cover
Artist:Mikhail Sobin
ArtistUnicode:Михаил Собин
Creator:Surono
Version:Fukutsu
Source:魂斗羅
Tags:NES Nintendo Arcade Soundtrack Bill Rizer Lance Bean Michael ProgMuz Marathon Medley
BeatmapID:762221
BeatmapSetID:345092

[Difficulty]
HPDrainRate:4.5
CircleSize:2
OverallDifficulty:6
ApproachRate:0
SliderMultiplier:1.4
SliderTickRate:1

[Events]
//Background and Video events
0,0,"Bill Rizel & Lance Bean.jpg",0,69
//Break Periods
//Storyboard Layer 0 (Background)
//Storyboard Layer 1 (Fail)
//Storyboard Layer 2 (Pass)
//Storyboard Layer 3 (Foreground)
//Storyboard Sound Samples

[TimingPoints]
769,659.340659340659,4,1,0,80,1,0
3406,740.740740740741,4,1,0,80,1,0
3406,-90.9090909090909,4,1,0,80,0,0
5628,810.810810810811,4,1,0,80,1,0
6438,413.793103448276,4,1,0,80,1,8
8093,413.793103448276,4,1,0,80,1,0
27953,-75.7575757575758,4,1,0,80,0,0
28056,-76.9230769230769,4,1,0,80,0,0
28159,-78.125,4,1,0,80,0,0
28263,-79.3650793650794,4,1,0,80,0,0
28366,-80.6451612903226,4,1,0,80,0,0
28470,-81.9672131147541,4,1,0,80,0,0
28573,-83.3333333333333,4,1,0,80,0,0
28677,-84.7457627118644,4,1,0,80,0,0
28780,-86.2068965517241,4,1,0,80,0,0
28884,-87.719298245614,4,1,0,80,0,0
28987,-89.2857142857143,4,1,0,80,0,0
29091,-90.9090909090909,4,1,0,80,0,0
29194,-92.5925925925926,4,1,0,80,0,0
29297,-94.3396226415094,4,1,0,80,0,0
29401,-96.1538461538461,4,1,0,80,0,0
29504,-98.0392156862745,4,1,0,80,0,0
29610,-100,4,1,0,80,0,1
42851,-100,4,1,0,80,0,0
55894,-133.333333333333,4,1,0,80,0,0
59299,-133.333333333333,4,1,0,50,0,0
62711,-131.578947368421,4,1,0,50,0,0
62918,-129.87012987013,4,1,0,50,0,0
63125,-128.205128205128,4,1,0,55,0,0
63332,-126.582278481013,4,1,0,55,0,0
63539,-125,4,1,0,60,0,0
64366,-121.951219512195,4,1,0,60,0,0
64573,-119.047619047619,4,1,0,65,0,0
64780,-116.279069767442,4,1,0,65,0,0
64987,-113.636363636364,4,1,0,70,0,0
65194,-111.111111111111,4,1,0,70,0,0
65401,-108.695652173913,4,1,0,75,0,0
65608,-106.382978723404,4,1,0,75,0,0
65815,-104.166666666667,4,1,0,80,0,0
66022,-102.040816326531,4,1,0,80,0,0
67263,-101.010101010101,4,1,0,80,0,0
67677,-100,4,1,0,80,0,0
74299,-95.2380952380952,4,1,0,80,0,1
80920,-100,4,1,0,80,0,0
87541,-95.2380952380952,4,1,0,80,0,1
92093,-100,4,1,0,80,0,0
93859,-102.827763496144,4,1,0,80,0,0
94066,-105.263157894737,4,1,0,80,0,0
99032,-100,4,1,0,80,0,0
107403,-95.2380952380952,4,1,0,80,0,1
112109,472.627018511225,4,1,0,20,1,0
115890,483.870967741935,4,1,0,20,1,0
117341,413.793103448276,4,1,0,20,1,0
123548,-125,4,1,0,60,0,0
125204,-111.111111111111,4,1,0,70,0,0
126859,-105.263157894737,4,1,0,80,0,0
137100,-100,4,1,0,80,0,0
163893,-83.3333333333333,4,1,0,80,0,0
164100,-100,4,1,0,80,0,0
165548,-83.3333333333333,4,1,0,80,0,0
165755,-100,4,1,0,80,0,0
167204,-83.3333333333333,4,1,0,80,0,0
167410,-100,4,1,0,80,0,0
168859,-83.3333333333333,4,1,0,80,0,0
169066,-100,4,1,0,80,0,0
170306,-100,4,1,0,80,0,1
183547,-100,4,1,0,80,0,0
196375,-98.0392156862745,4,1,0,80,0,0
196478,-96.1538461538461,4,1,0,80,0,0
196582,-94.3396226415094,4,1,0,80,0,0
196685,-92.5925925925926,4,1,0,80,0,0
196789,267.379679144385,6,1,0,80,1,0
196789,-142.857142857143,6,1,0,80,0,0
197165,267.857142857143,6,1,0,80,1,8
197165,-142.857142857143,6,1,0,80,0,8
198370,267.857142857143,6,1,0,80,1,8
198370,-142.857142857143,6,1,0,80,0,8
222477,267.857142857143,6,1,0,80,1,8
222477,-142.857142857143,6,1,0,80,0,8
223259,401.33779264214,4,1,0,80,1,1
238548,413.793103448276,4,1,0,80,1,0
284375,-95.2380952380952,4,1,0,80,0,0
284584,-90.9090909090909,4,1,0,80,0,0
291513,-90.9090909090909,4,1,0,80,0,1
311375,413.793103448276,4,1,0,80,1,9
311388,413.080895008606,6,1,0,80,1,0
311388,-90.9090909090909,6,1,0,80,0,0
311491,-90.9090909090909,6,1,0,40,0,0
313763,-125,6,1,0,60,0,0
320784,-117.647058823529,6,1,0,65,0,0
320887,-111.111111111111,6,1,0,70,0,0
320991,-105.263157894737,6,1,0,75,0,0
321094,-100,6,1,0,80,0,0
329976,310.077519379845,4,1,0,80,1,0
329976,-131.578947368421,4,1,0,80,0,0
330079,-128.205128205128,4,1,0,80,0,0
330182,-125,4,1,0,80,0,0
330286,-121.951219512195,4,1,0,80,0,0
330389,-119.047619047619,4,1,0,80,0,0
330492,-116.279069767442,4,1,0,80,0,0
330596,-113.636363636364,4,1,0,80,0,0
330699,-111.111111111111,4,1,0,80,0,0
330802,-108.695652173913,4,1,0,80,0,0
330906,-106.382978723404,4,1,0,80,0,0
331009,-104.166666666667,4,1,0,80,0,0
331112,-102.040816326531,4,1,0,80,0,0
331216,310.23784901758,4,1,0,80,1,1
331216,-100,4,1,0,80,0,1
341143,-100,4,1,0,80,0,0
341264,-108.40108401084,4,1,0,80,0,0
349739,-100,4,1,0,80,0,0
353553,-100,4,1,0,80,0,1
373408,267.857142857143,11,1,0,80,1,0
373408,-115.942028985507,11,1,0,80,0,0
379300,267.857142857143,5,1,0,80,1,1
383317,267.857142857143,6,1,0,80,1,0
396174,267.857142857143,7,1,0,80,1,1
396174,-100,4,1,0,80,0,1
398049,267.857142857143,5,1,0,80,1,1
399254,267.857142857143,7,1,0,80,1,0
399254,-100,4,1,0,80,0,0
401129,230.769230769231,4,1,0,80,1,0
401129,-111.111111111111,4,1,0,80,0,0
401798,250,4,1,0,80,1,8
402173,250,4,1,0,80,1,0
402798,250,4,1,0,80,1,8
402875,250,4,1,0,80,1,8
403250,250,4,1,0,80,1,0
403312,-100,4,1,0,30,0,0

[HitObjects]
240,184,769,5,4,0:0:0:0:
248,176,1428,1,12,0:0:0:0:
248,168,2087,1,12,0:0:0:0:
248,176,2747,1,4,0:0:0:0:
248,168,3406,1,12,0:0:0:0:
256,192,3776,12,0,6438,0:0:0:0:
288,224,7679,5,8,0:0:0:0:
288,232,7782,1,8,0:0:0:0:
288,224,7989,1,8,0:0:0:0:
288,224,8093,5,0,0:0:0:0:
288,224,8299,1,0,0:0:0:0:
288,224,8506,1,8,0:0:0:0:
288,224,8610,1,0,0:0:0:0:
288,224,8817,1,0,0:0:0:0:
288,224,8920,1,0,0:0:0:0:
272,216,9024,1,0,0:0:0:0:
288,232,9127,1,8,0:0:0:0:
288,232,9334,1,8,0:0:0:0:
288,232,9437,1,0,0:0:0:0:
288,224,9644,1,0,0:0:0:0:
288,224,9748,1,8,0:0:0:0:
304,216,9955,1,0,0:0:0:0:
304,216,10161,1,8,0:0:0:0:
304,216,10265,1,0,0:0:0:0:
312,216,10472,1,8,0:0:0:0:
312,216,10575,1,0,0:0:0:0:
304,216,10782,1,0,0:0:0:0:
304,216,10989,1,0,0:0:0:0:
304,216,11093,1,0,0:0:0:0:
304,216,11196,1,8,0:0:0:0:
320,208,11403,1,8,0:0:0:0:
312,208,11610,1,0,0:0:0:0:
312,208,11817,1,8,0:0:0:0:
312,208,11920,1,0,0:0:0:0:
312,208,12127,1,0,0:0:0:0:
312,208,12230,1,0,0:0:0:0:
280,192,12334,1,0,0:0:0:0:
312,208,12437,1,8,0:0:0:0:
312,208,12644,1,8,0:0:0:0:
312,208,12748,1,0,0:0:0:0:
304,208,12955,1,0,0:0:0:0:
304,208,13058,1,0,0:0:0:0:
312,208,13265,1,0,0:0:0:0:
304,176,13472,1,8,0:0:0:0:
304,176,13575,1,0,0:0:0:0:
304,176,13782,1,8,0:0:0:0:
304,176,13886,1,0,0:0:0:0:
304,176,14093,1,0,0:0:0:0:
304,176,14299,1,8,0:0:0:0:
304,176,14403,1,8,0:0:0:0:
288,232,14610,1,0,0:0:0:0:
304,176,14713,1,8,0:0:0:0:
296,168,14920,1,0,0:0:0:0:
296,168,15127,1,8,0:0:0:0:
296,176,15230,1,0,0:0:0:0:
296,176,15437,1,0,0:0:0:0:
296,176,15541,1,0,0:0:0:0:
288,192,15644,1,0,0:0:0:0:
296,176,15748,1,8,0:0:0:0:
296,176,15955,1,8,0:0:0:0:
296,168,16058,1,0,0:0:0:0:
296,168,16265,1,0,0:0:0:0:
296,168,16368,1,8,0:0:0:0:
312,168,16575,1,0,0:0:0:0:
312,168,16782,1,8,0:0:0:0:
312,168,16886,1,0,0:0:0:0:
312,168,17093,1,8,0:0:0:0:
312,168,17196,1,0,0:0:0:0:
312,168,17403,1,0,0:0:0:0:
312,168,17610,1,0,0:0:0:0:
312,168,17713,1,0,0:0:0:0:
312,168,17817,1,8,0:0:0:0:
312,168,18024,1,8,0:0:0:0:
312,168,18230,1,0,0:0:0:0:
312,160,18437,1,8,0:0:0:0:
312,160,18541,1,0,0:0:0:0:
312,152,18748,1,0,0:0:0:0:
312,152,18851,1,0,0:0:0:0:
288,192,18955,1,0,0:0:0:0:
304,152,19058,1,8,0:0:0:0:
304,152,19265,1,8,0:0:0:0:
304,152,19368,1,0,0:0:0:0:
304,152,19575,1,0,0:0:0:0:
304,152,19679,1,0,0:0:0:0:
304,160,19886,1,0,0:0:0:0:
304,160,20093,1,8,0:0:0:0:
304,160,20196,1,0,0:0:0:0:
304,160,20403,1,8,0:0:0:0:
304,152,20506,1,8,0:0:0:0:
304,144,20713,1,0,0:0:0:0:
304,152,20817,1,8,0:0:0:0:
304,152,20920,1,8,0:0:0:0:
304,152,21127,1,8,0:0:0:0:
304,152,21230,1,8,0:0:0:0:
304,144,21334,1,0,0:0:0:0:
304,144,21541,1,0,0:0:0:0:
304,144,21748,1,8,0:0:0:0:
304,144,21851,1,0,0:0:0:0:
304,144,22161,1,0,0:0:0:0:
304,152,22368,1,0,0:0:0:0:
288,128,22437,1,0,0:0:0:0:
288,128,22506,1,0,0:0:0:0:
304,152,22575,1,8,0:0:0:0:
288,136,22679,1,0,0:0:0:0:
288,136,22782,1,0,0:0:0:0:
288,136,22886,1,8,0:0:0:0:
288,136,22989,1,0,0:0:0:0:
288,136,23196,1,0,0:0:0:0:
288,136,23403,1,8,0:0:0:0:
288,136,23506,1,0,0:0:0:0:
288,136,23817,1,0,0:0:0:0:
288,128,24024,1,0,0:0:0:0:
296,112,24230,1,8,0:0:0:0:
296,112,24334,1,0,0:0:0:0:
296,112,24437,1,8,0:0:0:0:
296,112,24541,1,8,0:0:0:0:
296,112,24644,1,0,0:0:0:0:
296,120,24851,1,0,0:0:0:0:
296,120,24955,1,0,0:0:0:0:
296,120,25058,1,8,0:0:0:0:
296,120,25161,1,0,0:0:0:0:
296,120,25472,1,0,0:0:0:0:
296,112,25679,1,0,0:0:0:0:
296,120,25886,1,8,0:0:0:0:
280,96,25989,1,0,0:0:0:0:
280,96,26093,1,0,0:0:0:0:
280,96,26196,1,8,0:0:0:0:
280,96,26299,1,0,0:0:0:0:
280,96,26506,1,0,0:0:0:0:
272,96,26713,1,8,0:0:0:0:
272,88,26817,1,0,0:0:0:0:
272,88,27127,1,8,0:0:0:0:
264,72,27541,1,8,0:0:0:0:
264,72,27748,1,8,0:0:0:0:
264,72,27851,5,8,0:0:0:0:
264,72,27955,1,0,0:0:0:0:
256,72,28058,1,0,0:0:0:0:
264,80,28161,1,8,0:0:0:0:
264,80,28265,1,0,0:0:0:0:
264,80,28368,1,8,0:0:0:0:
264,80,28472,1,8,0:0:0:0:
264,80,28575,1,0,0:0:0:0:
264,80,28679,1,8,0:0:0:0:
264,80,28782,1,0,0:0:0:0:
264,72,28886,1,0,0:0:0:0:
264,72,28989,1,8,0:0:0:0:
264,72,29093,1,8,0:0:0:0:
264,72,29196,1,0,0:0:0:0:
264,72,29299,1,8,0:0:0:0:
264,72,29403,1,0,0:0:0:0:
264,72,29506,1,0,0:0:0:0:
256,72,29610,1,8,0:0:0:0:
256,64,30024,1,8,0:0:0:0:
256,72,30127,1,0,0:0:0:0:
256,72,30334,1,0,0:0:0:0:
264,72,30437,1,8,0:0:0:0:
256,72,30644,1,8,0:0:0:0:
248,48,30851,1,8,0:0:0:0:
248,48,30955,1,0,0:0:0:0:
240,48,31161,1,0,0:0:0:0:
240,48,31265,1,0,0:0:0:0:
240,48,31472,1,0,0:0:0:0:
240,48,31679,1,8,0:0:0:0:
240,48,31782,1,0,0:0:0:0:
240,48,31989,1,0,0:0:0:0:
240,48,32093,1,0,0:0:0:0:
240,48,32299,1,0,0:0:0:0:
240,48,32506,1,8,0:0:0:0:
240,48,32610,1,0,0:0:0:0:
240,48,32817,1,0,0:0:0:0:
240,48,32920,1,0,0:0:0:0:
240,48,33334,1,8,0:0:0:0:
240,48,33437,1,0,0:0:0:0:
240,48,33644,1,0,0:0:0:0:
240,48,33748,1,0,0:0:0:0:
240,48,33955,1,0,0:0:0:0:
240,48,34161,1,8,0:0:0:0:
240,48,34265,1,0,0:0:0:0:
240,48,34575,1,8,0:0:0:0:
240,48,34679,1,8,0:0:0:0:
240,48,34782,1,8,0:0:0:0:
224,96,34989,1,8,0:0:0:0:
224,96,35093,1,0,0:0:0:0:
224,96,35299,1,0,0:0:0:0:
224,96,35403,1,8,0:0:0:0:
224,112,35817,1,8,0:0:0:0:
240,80,35920,1,8,0:0:0:0:
240,80,36127,1,8,0:0:0:0:
240,80,36230,1,0,0:0:0:0:
240,80,36334,1,0,0:0:0:0:
240,80,36437,1,8,0:0:0:0:
240,80,36541,1,0,0:0:0:0:
240,80,36644,1,8,0:0:0:0:
240,88,36851,1,8,0:0:0:0:
240,88,36955,1,0,0:0:0:0:
240,88,37058,1,0,0:0:0:0:
240,88,37265,1,8,0:0:0:0:
240,88,37368,1,0,0:0:0:0:
240,88,37472,1,8,0:0:0:0:
240,88,37575,1,0,0:0:0:0:
240,88,37782,1,0,0:0:0:0:
240,88,37886,1,8,0:0:0:0:
240,96,37989,1,0,0:0:0:0:
240,112,38093,1,0,0:0:0:0:
240,112,38196,1,8,0:0:0:0:
224,96,38299,1,8,0:0:0:0:
232,96,38506,1,0,0:0:0:0:
232,96,38610,1,8,0:0:0:0:
232,96,38713,1,0,0:0:0:0:
216,96,38920,1,8,0:0:0:0:
216,96,39024,1,0,0:0:0:0:
216,96,39127,1,8,0:0:0:0:
208,104,39230,1,8,0:0:0:0:
208,104,39437,1,0,0:0:0:0:
208,104,39541,1,0,0:0:0:0:
208,104,39955,1,8,0:0:0:0:
200,104,40058,1,0,0:0:0:0:
200,104,40265,1,0,0:0:0:0:
200,104,40368,1,0,0:0:0:0:
200,96,40575,1,0,0:0:0:0:
200,96,40782,1,8,0:0:0:0:
200,96,40886,1,0,0:0:0:0:
200,96,41196,1,0,0:0:0:0:
200,96,41403,1,0,0:0:0:0:
200,96,41610,1,8,0:0:0:0:
200,96,41713,1,8,0:0:0:0:
200,96,41920,1,0,0:0:0:0:
200,96,42024,1,8,0:0:0:0:
184,80,42437,1,8,0:0:0:0:
184,80,42541,1,8,0:0:0:0:
184,80,42748,1,8,0:0:0:0:
184,80,42851,1,0,0:0:0:0:
184,80,42955,1,0,0:0:0:0:
184,80,43058,1,0,0:0:0:0:
184,80,43161,1,8,0:0:0:0:
184,80,43472,1,0,0:0:0:0:
184,80,43575,1,0,0:0:0:0:
184,80,43679,1,0,0:0:0:0:
184,80,43782,1,8,0:0:0:0:
184,80,43886,1,8,0:0:0:0:
184,80,43989,1,8,0:0:0:0:
176,88,44196,1,4,0:0:0:0:
176,88,44506,1,8,0:0:0:0:
176,88,44610,1,8,0:0:0:0:
176,88,44713,1,8,0:0:0:0:
176,88,44817,1,0,0:0:0:0:
176,88,45127,1,8,0:0:0:0:
176,88,45230,1,8,0:0:0:0:
176,88,45334,1,8,0:0:0:0:
176,88,45437,1,0,0:0:0:0:
176,88,45541,1,0,0:0:0:0:
176,88,45644,1,0,0:0:0:0:
184,80,45851,5,12,0:0:0:0:
192,72,46161,1,0,0:0:0:0:
192,80,46265,1,0,0:0:0:0:
192,80,46368,1,0,0:0:0:0:
192,80,46472,1,8,0:0:0:0:
192,80,46782,1,0,0:0:0:0:
192,80,46886,1,0,0:0:0:0:
192,80,46989,1,0,0:0:0:0:
192,80,47093,1,8,0:0:0:0:
184,80,47196,1,8,0:0:0:0:
184,80,47299,1,8,0:0:0:0:
184,80,47506,1,4,0:0:0:0:
184,80,47817,1,8,0:0:0:0:
184,80,47920,1,8,0:0:0:0:
184,80,48024,1,8,0:0:0:0:
184,88,48127,1,0,0:0:0:0:
184,72,48437,1,8,0:0:0:0:
184,72,48541,1,0,0:0:0:0:
184,72,48644,1,8,0:0:0:0:
184,80,48748,1,8,0:0:0:0:
184,80,48851,1,0,0:0:0:0:
184,80,48920,1,0,0:0:0:0:
176,72,48989,1,0,0:0:0:0:
184,80,49058,1,8,0:0:0:0:
184,80,49265,1,8,0:0:0:0:
176,64,49368,1,8,0:0:0:0:
184,64,49472,1,0,0:0:0:0:
176,64,49575,1,8,0:0:0:0:
176,64,49679,1,0,0:0:0:0:
184,72,49782,1,0,0:0:0:0:
200,72,49886,1,8,0:0:0:0:
184,56,50093,1,0,0:0:0:0:
184,56,50196,1,8,0:0:0:0:
184,56,50299,1,0,0:0:0:0:
184,56,50403,1,0,0:0:0:0:
184,56,50506,1,8,0:0:0:0:
184,56,50610,1,0,0:0:0:0:
184,56,50713,1,8,0:0:0:0:
184,56,50817,1,8,0:0:0:0:
184,56,51127,1,8,0:0:0:0:
184,56,51230,1,8,0:0:0:0:
184,56,51334,1,0,0:0:0:0:
184,56,51437,1,0,0:0:0:0:
184,56,51541,1,8,0:0:0:0:
184,56,51748,1,8,0:0:0:0:
184,56,51851,1,8,0:0:0:0:
184,56,51955,1,0,0:0:0:0:
184,56,52058,1,0,0:0:0:0:
184,56,52161,1,8,0:0:0:0:
184,56,52265,1,0,0:0:0:0:
184,56,52368,1,8,0:0:0:0:
184,56,52472,1,8,0:0:0:0:
184,56,52782,1,0,0:0:0:0:
176,32,52886,1,0,0:0:0:0:
176,32,52989,1,8,0:0:0:0:
176,32,53093,1,8,0:0:0:0:
176,32,53196,1,8,0:0:0:0:
176,32,53403,1,0,0:0:0:0:
176,32,53506,1,0,0:0:0:0:
176,32,53610,1,8,0:0:0:0:
176,32,53713,1,8,0:0:0:0:
176,32,53817,1,8,0:0:0:0:
176,32,53920,1,0,0:0:0:0:
176,32,54024,1,8,0:0:0:0:
176,32,54127,1,8,0:0:0:0:
176,32,54437,1,8,0:0:0:0:
176,32,54541,1,8,0:0:0:0:
176,32,54644,1,8,0:0:0:0:
176,32,54748,1,8,0:0:0:0:
176,32,55058,1,0,0:0:0:0:
168,48,55161,1,0,0:0:0:0:
176,32,55265,1,8,0:0:0:0:
176,32,55368,1,8,0:0:0:0:
256,192,55989,12,0,57541,0:0:0:0:
176,40,57748,5,4,0:0:0:0:
256,184,59403,1,0,0:0:0:0:
280,200,61058,1,0,0:0:0:0:
296,192,62713,1,0,0:0:0:0:
296,192,62920,1,0,0:0:0:0:
296,192,63127,1,0,0:0:0:0:
296,192,63334,1,0,0:0:0:0:
296,192,63541,1,0,0:0:0:0:
296,192,63748,1,0,0:0:0:0:
296,192,63955,1,0,0:0:0:0:
288,168,64161,1,0,0:0:0:0:
288,168,64368,1,4,0:0:0:0:
288,168,64575,1,4,0:0:0:0:
288,168,64782,1,4,0:0:0:0:
288,168,64989,1,4,0:0:0:0:
288,168,65196,1,4,0:0:0:0:
288,168,65403,1,4,0:0:0:0:
288,168,65610,1,4,0:0:0:0:
288,168,65817,1,4,0:0:0:0:
288,168,66024,1,4,0:0:0:0:
288,168,66230,1,4,0:0:0:0:
288,168,66437,1,4,0:0:0:0:
288,168,66644,1,4,0:0:0:0:
288,168,66851,1,4,0:0:0:0:
288,168,67058,1,4,0:0:0:0:
288,168,67265,1,8,0:0:0:0:
288,168,67472,1,8,0:0:0:0:
288,168,67679,1,8,0:0:0:0:
288,168,67782,1,8,0:0:0:0:
288,168,67886,1,0,0:0:0:0:
288,168,67989,1,0,0:0:0:0:
288,152,68093,1,8,0:0:0:0:
296,136,68196,1,0,0:0:0:0:
280,152,68506,1,8,0:0:0:0:
280,152,68610,1,8,0:0:0:0:
288,168,68713,1,0,0:0:0:0:
280,120,68817,1,0,0:0:0:0:
280,160,68920,1,8,0:0:0:0:
296,136,69127,1,0,0:0:0:0:
296,136,69230,1,8,0:0:0:0:
296,136,69334,1,0,0:0:0:0:
296,120,69541,1,0,0:0:0:0:
296,120,69748,1,8,0:0:0:0:
296,120,69851,1,0,0:0:0:0:
296,120,69955,1,0,0:0:0:0:
296,120,70058,1,8,0:0:0:0:
296,120,70368,1,0,0:0:0:0:
296,120,70575,1,8,0:0:0:0:
296,120,70886,1,0,0:0:0:0:
296,120,70989,1,0,0:0:0:0:
272,104,71196,1,0,0:0:0:0:
280,112,71299,1,0,0:0:0:0:
280,112,71403,1,8,0:0:0:0:
280,112,71506,1,0,0:0:0:0:
280,112,71817,1,8,0:0:0:0:
280,112,72024,1,0,0:0:0:0:
272,88,72127,1,0,0:0:0:0:
288,104,72230,1,8,0:0:0:0:
304,136,72437,1,0,0:0:0:0:
304,136,72541,1,8,0:0:0:0:
304,136,72644,1,0,0:0:0:0:
304,136,72851,1,0,0:0:0:0:
304,136,73058,1,8,0:0:0:0:
384,168,73161,1,0,0:0:0:0:
304,136,73265,1,8,0:0:0:0:
304,136,73368,1,8,0:0:0:0:
304,136,73679,1,0,0:0:0:0:
304,136,73782,1,0,0:0:0:0:
304,136,73886,1,8,0:0:0:0:
288,112,73989,1,8,0:0:0:0:
288,112,74196,1,8,0:0:0:0:
288,112,74299,1,0,0:0:0:0:
288,112,74506,1,0,0:0:0:0:
288,112,74610,1,0,0:0:0:0:
288,112,74713,1,8,0:0:0:0:
288,112,74920,1,0,0:0:0:0:
288,112,75024,1,8,0:0:0:0:
288,112,75127,1,8,0:0:0:0:
288,112,75334,1,8,0:0:0:0:
288,112,75437,1,0,0:0:0:0:
288,112,75541,1,8,0:0:0:0:
288,112,75955,1,0,0:0:0:0:
264,104,76161,1,0,0:0:0:0:
264,104,76265,1,0,0:0:0:0:
264,104,76368,1,8,0:0:0:0:
264,104,76575,1,0,0:0:0:0:
264,104,76679,1,8,0:0:0:0:
264,104,76782,1,8,0:0:0:0:
264,104,76989,1,8,0:0:0:0:
264,104,77093,1,0,0:0:0:0:
264,104,77196,1,8,0:0:0:0:
264,104,77403,1,0,0:0:0:0:
264,104,77610,1,0,0:0:0:0:
264,104,77713,1,0,0:0:0:0:
264,104,77817,1,8,0:0:0:0:
264,96,78024,1,8,0:0:0:0:
264,72,78127,1,8,0:0:0:0:
288,64,78230,1,0,0:0:0:0:
264,96,78437,1,0,0:0:0:0:
264,96,78541,1,8,0:0:0:0:
264,96,78644,1,0,0:0:0:0:
272,32,78748,1,0,0:0:0:0:
280,88,78851,1,8,0:0:0:0:
280,88,79058,1,8,0:0:0:0:
280,88,79265,1,0,0:0:0:0:
272,56,79472,1,0,0:0:0:0:
272,56,79575,1,0,0:0:0:0:
224,72,79679,1,8,0:0:0:0:
272,56,79782,1,0,0:0:0:0:
272,56,79886,1,0,0:0:0:0:
224,72,79989,1,8,0:0:0:0:
272,72,80196,1,8,0:0:0:0:
272,56,80299,1,0,0:0:0:0:
272,32,80403,1,0,0:0:0:0:
272,64,80506,1,8,0:0:0:0:
280,48,80713,1,8,0:0:0:0:
280,48,80920,1,4,0:0:0:0:
280,48,81127,1,0,0:0:0:0:
280,48,81230,1,0,0:0:0:0:
264,56,81334,1,8,0:0:0:0:
264,56,81437,1,0,0:0:0:0:
264,56,81748,1,8,0:0:0:0:
264,56,81851,1,8,0:0:0:0:
264,56,81955,1,0,0:0:0:0:
264,56,82058,1,0,0:0:0:0:
264,56,82161,1,8,0:0:0:0:
264,56,82368,1,0,0:0:0:0:
264,56,82472,1,8,0:0:0:0:
264,56,82575,1,0,0:0:0:0:
240,48,82782,1,0,0:0:0:0:
264,56,82989,1,8,0:0:0:0:
248,48,83093,1,0,0:0:0:0:
248,48,83196,1,0,0:0:0:0:
248,48,83299,1,8,0:0:0:0:
248,32,83610,1,0,0:0:0:0:
256,40,83817,1,8,0:0:0:0:
256,40,84127,1,0,0:0:0:0:
240,48,84230,1,0,0:0:0:0:
240,40,84437,1,0,0:0:0:0:
240,40,84541,1,8,0:0:0:0:
240,40,84644,1,8,0:0:0:0:
240,40,84748,1,0,0:0:0:0:
240,40,85058,1,0,0:0:0:0:
240,40,85161,1,8,0:0:0:0:
240,40,85265,1,8,0:0:0:0:
240,40,85368,1,0,0:0:0:0:
240,40,85472,1,8,0:0:0:0:
240,40,85679,1,8,0:0:0:0:
240,48,85782,1,8,0:0:0:0:
240,40,85886,1,0,0:0:0:0:
240,40,86093,1,0,0:0:0:0:
224,40,86299,1,8,0:0:0:0:
256,48,86506,1,8,0:0:0:0:
224,24,86610,1,0,0:0:0:0:
224,24,86713,1,8,0:0:0:0:
240,32,86920,1,0,0:0:0:0:
240,32,87024,1,0,0:0:0:0:
240,32,87127,1,8,0:0:0:0:
264,40,87230,1,8,0:0:0:0:
240,32,87437,1,8,0:0:0:0:
240,32,87541,1,0,0:0:0:0:
240,32,87748,1,0,0:0:0:0:
240,32,87851,1,0,0:0:0:0:
240,32,87955,1,8,0:0:0:0:
240,32,88161,1,0,0:0:0:0:
240,32,88265,1,8,0:0:0:0:
240,32,88368,1,8,0:0:0:0:
240,32,88575,1,8,0:0:0:0:
240,32,88679,1,0,0:0:0:0:
240,32,88782,1,8,0:0:0:0:
240,32,89196,1,0,0:0:0:0:
240,32,89403,1,0,0:0:0:0:
240,32,89506,1,0,0:0:0:0:
240,32,89610,1,8,0:0:0:0:
240,32,89817,1,0,0:0:0:0:
240,32,89920,1,8,0:0:0:0:
240,32,90024,1,8,0:0:0:0:
240,32,90230,1,8,0:0:0:0:
240,32,90334,1,0,0:0:0:0:
240,32,90437,1,8,0:0:0:0:
240,32,90644,1,0,0:0:0:0:
240,32,90851,1,8,0:0:0:0:
240,32,90955,1,8,0:0:0:0:
240,32,91058,1,8,0:0:0:0:
240,32,91161,1,0,0:0:0:0:
240,32,91265,1,8,0:0:0:0:
240,32,91368,1,8,0:0:0:0:
240,32,91472,1,0,0:0:0:0:
240,32,91575,1,0,0:0:0:0:
240,32,91679,1,8,0:0:0:0:
240,32,91782,1,8,0:0:0:0:
240,32,91886,1,0,0:0:0:0:
240,32,91989,1,8,0:0:0:0:
240,32,92506,1,8,0:0:0:0:
240,32,92610,1,8,0:0:0:0:
240,32,92920,1,0,0:0:0:0:
240,32,93334,1,8,0:0:0:0:
240,32,93437,1,8,0:0:0:0:
240,32,93541,1,8,0:0:0:0:
240,32,93748,1,8,0:0:0:0:
240,32,93955,1,8,0:0:0:0:
232,24,94161,1,4,0:0:0:0:
232,24,94368,1,8,0:0:0:0:
232,24,94472,1,0,0:0:0:0:
232,24,94575,1,0,0:0:0:0:
232,24,94782,1,0,0:0:0:0:
232,24,94886,1,8,0:0:0:0:
232,24,95196,1,0,0:0:0:0:
224,16,95403,1,0,0:0:0:0:
224,16,95506,1,8,0:0:0:0:
224,16,95817,1,8,0:0:0:0:
224,16,96024,1,8,0:0:0:0:
224,16,96127,1,0,0:0:0:0:
224,16,96230,1,0,0:0:0:0:
224,16,96437,1,0,0:0:0:0:
224,16,96541,1,8,0:0:0:0:
224,16,96851,1,0,0:0:0:0:
224,16,96920,1,8,0:0:0:0:
272,40,96989,1,8,0:0:0:0:
224,16,97058,1,0,0:0:0:0:
224,16,97161,1,8,0:0:0:0:
248,48,97472,1,8,0:0:0:0:
224,64,97679,1,8,0:0:0:0:
224,64,97782,1,0,0:0:0:0:
224,64,97886,1,0,0:0:0:0:
224,64,98093,1,0,0:0:0:0:
224,72,98196,1,8,0:0:0:0:
224,56,98506,1,0,0:0:0:0:
224,56,98713,1,0,0:0:0:0:
224,56,98817,1,8,0:0:0:0:
224,56,99127,1,0,0:0:0:0:
224,56,99230,1,8,0:0:0:0:
224,56,99334,1,8,0:0:0:0:
224,56,99437,1,0,0:0:0:0:
224,64,99541,1,0,0:0:0:0:
224,64,99644,1,8,0:0:0:0:
224,64,99748,1,8,0:0:0:0:
224,56,99851,1,0,0:0:0:0:
224,56,99955,1,0,0:0:0:0:
224,56,100058,1,8,0:0:0:0:
224,56,100161,1,0,0:0:0:0:
224,56,100265,1,8,0:0:0:0:
224,56,100368,1,8,0:0:0:0:
224,56,100472,1,0,0:0:0:0:
224,56,100575,1,8,0:0:0:0:
224,48,100679,1,8,0:0:0:0:
224,56,100782,1,0,0:0:0:0:
224,104,100989,1,0,0:0:0:0:
224,104,101093,1,0,0:0:0:0:
224,80,101196,1,8,0:0:0:0:
224,80,101299,1,8,0:0:0:0:
240,96,101610,1,8,0:0:0:0:
280,88,101713,1,8,0:0:0:0:
224,80,101817,1,0,0:0:0:0:
232,152,101920,1,0,0:0:0:0:
224,80,102024,1,8,0:0:0:0:
224,80,102230,1,8,0:0:0:0:
224,80,102334,1,8,0:0:0:0:
224,80,102437,1,0,0:0:0:0:
224,80,102644,1,0,0:0:0:0:
224,80,102851,1,8,0:0:0:0:
224,80,102955,1,0,0:0:0:0:
224,80,103058,1,8,0:0:0:0:
224,80,103161,1,8,0:0:0:0:
216,80,103472,1,0,0:0:0:0:
216,80,103679,1,8,0:0:0:0:
216,80,103989,1,8,0:0:0:0:
216,80,104093,1,0,0:0:0:0:
216,80,104299,1,0,0:0:0:0:
216,80,104403,1,8,0:0:0:0:
216,80,104506,1,8,0:0:0:0:
216,80,104610,1,0,0:0:0:0:
216,80,104920,1,8,0:0:0:0:
208,64,105127,1,0,0:0:0:0:
208,64,105230,1,0,0:0:0:0:
208,64,105334,1,8,0:0:0:0:
208,64,105541,1,0,0:0:0:0:
208,64,105644,1,8,0:0:0:0:
208,64,105748,1,0,0:0:0:0:
200,72,105955,1,0,0:0:0:0:
208,64,106161,1,8,0:0:0:0:
232,64,106265,1,0,0:0:0:0:
200,56,106368,1,8,0:0:0:0:
200,56,106472,1,8,0:0:0:0:
200,56,106782,1,0,0:0:0:0:
200,56,106886,1,0,0:0:0:0:
200,56,106989,1,8,0:0:0:0:
200,56,107093,1,8,0:0:0:0:
200,56,107299,1,8,0:0:0:0:
200,56,107403,1,0,0:0:0:0:
200,56,107610,1,0,0:0:0:0:
200,56,107713,1,8,0:0:0:0:
200,56,107817,1,8,0:0:0:0:
200,56,108024,1,8,0:0:0:0:
200,56,108127,1,0,0:0:0:0:
200,56,108230,1,8,0:0:0:0:
200,56,108437,1,0,0:0:0:0:
200,56,108541,1,0,0:0:0:0:
200,56,108644,1,8,0:0:0:0:
200,64,109058,1,0,0:0:0:0:
200,64,109265,1,0,0:0:0:0:
200,64,109368,1,8,0:0:0:0:
200,64,109472,1,8,0:0:0:0:
200,64,109679,1,8,0:0:0:0:
200,64,109782,1,0,0:0:0:0:
200,64,109886,1,8,0:0:0:0:
200,64,110093,1,0,0:0:0:0:
200,64,110196,1,0,0:0:0:0:
200,64,110299,1,8,0:0:0:0:
200,64,110506,1,0,0:0:0:0:
240,32,110713,1,8,0:0:0:0:
240,32,110817,1,8,0:0:0:0:
240,32,110920,1,8,0:0:0:0:
240,32,111024,1,0,0:0:0:0:
240,32,111127,1,8,0:0:0:0:
240,32,111230,1,0,0:0:0:0:
240,32,111334,1,0,0:0:0:0:
240,32,111437,1,0,0:0:0:0:
240,32,111541,1,8,0:0:0:0:
240,32,111644,1,8,0:0:0:0:
240,32,111748,1,0,0:0:0:0:
240,32,111851,1,8,0:0:0:0:
256,192,112109,12,0,115417,0:0:0:0:
256,192,115890,12,0,123341,0:0:0:0:
248,160,123754,5,8,0:0:0:0:
248,160,123961,5,0,0:0:0:0:
248,160,124168,5,0,0:0:0:0:
256,144,125409,1,8,0:0:0:0:
248,144,125616,1,0,0:0:0:0:
256,144,125823,1,0,0:0:0:0:
240,120,126030,1,8,0:0:0:0:
240,120,126237,1,8,0:0:0:0:
240,120,126444,1,8,0:0:0:0:
240,120,126754,1,8,0:0:0:0:
240,120,127065,1,8,0:0:0:0:
264,120,127134,1,0,0:0:0:0:
248,144,127203,1,0,0:0:0:0:
256,144,127272,1,8,0:0:0:0:
256,144,127478,1,0,0:0:0:0:
240,120,127685,1,8,0:0:0:0:
248,104,127892,1,8,0:0:0:0:
248,104,128099,1,8,0:0:0:0:
240,104,128409,1,8,0:0:0:0:
240,104,128720,1,8,0:0:0:0:
232,128,128927,1,0,0:0:0:0:
232,128,129134,1,0,0:0:0:0:
240,80,129341,1,8,0:0:0:0:
232,128,129547,1,0,0:0:0:0:
240,104,129754,1,8,0:0:0:0:
240,80,130065,1,8,0:0:0:0:
232,128,130168,1,0,0:0:0:0:
232,128,130375,1,8,0:0:0:0:
240,88,130582,1,0,0:0:0:0:
240,128,130685,1,0,0:0:0:0:
240,88,130789,1,0,0:0:0:0:
224,104,130996,1,8,0:0:0:0:
224,104,131203,1,8,0:0:0:0:
224,104,131409,1,8,0:0:0:0:
224,96,131720,5,8,0:0:0:0:
224,96,132030,1,8,0:0:0:0:
240,88,132237,1,0,0:0:0:0:
240,88,132444,1,0,0:0:0:0:
240,80,132651,1,8,0:0:0:0:
240,80,132858,1,8,0:0:0:0:
240,80,133065,1,8,0:0:0:0:
240,80,133375,1,8,0:0:0:0:
224,48,133685,1,8,0:0:0:0:
240,88,133892,1,0,0:0:0:0:
240,96,133996,1,0,0:0:0:0:
240,88,134099,1,0,0:0:0:0:
224,48,134306,1,8,0:0:0:0:
224,56,134513,1,8,0:0:0:0:
224,56,134720,1,8,0:0:0:0:
224,48,135030,1,8,0:0:0:0:
224,56,135341,1,8,0:0:0:0:
240,80,135547,1,0,0:0:0:0:
240,80,135754,1,0,0:0:0:0:
232,80,135961,1,8,0:0:0:0:
232,80,136168,1,0,0:0:0:0:
224,56,136375,1,8,0:0:0:0:
224,56,136685,1,8,0:0:0:0:
216,48,136789,1,8,0:0:0:0:
224,56,136996,1,8,0:0:0:0:
232,72,137203,1,4,0:0:0:0:
232,72,137409,1,0,0:0:0:0:
224,56,137616,1,8,0:0:0:0:
208,48,137823,5,0,0:0:0:0:
208,48,137927,1,0,0:0:0:0:
224,56,138030,1,8,0:0:0:0:
200,48,138237,1,0,0:0:0:0:
224,56,138341,1,8,0:0:0:0:
216,64,138444,1,8,0:0:0:0:
224,56,138651,1,8,0:0:0:0:
208,48,138754,1,0,0:0:0:0:
232,72,138858,1,0,0:0:0:0:
232,72,139065,1,0,0:0:0:0:
224,56,139272,1,8,0:0:0:0:
208,48,139478,1,0,0:0:0:0:
208,48,139582,1,0,0:0:0:0:
224,56,139685,1,8,0:0:0:0:
208,48,139892,1,0,0:0:0:0:
224,56,139996,1,8,0:0:0:0:
224,56,140203,1,0,0:0:0:0:
224,56,140306,1,8,0:0:0:0:
232,72,140513,1,0,0:0:0:0:
232,72,140720,1,0,0:0:0:0:
224,56,140927,1,8,0:0:0:0:
208,48,141134,1,0,0:0:0:0:
208,48,141237,1,0,0:0:0:0:
224,56,141341,1,8,0:0:0:0:
208,48,141547,1,0,0:0:0:0:
224,56,141651,1,8,0:0:0:0:
232,48,141754,1,8,0:0:0:0:
232,72,141961,1,8,0:0:0:0:
240,88,142030,1,0,0:0:0:0:
240,88,142099,1,0,0:0:0:0:
232,72,142168,1,8,0:0:0:0:
232,72,142375,1,0,0:0:0:0:
240,72,142582,1,8,0:0:0:0:
232,72,142789,1,0,0:0:0:0:
232,72,142892,1,0,0:0:0:0:
240,72,142996,1,8,0:0:0:0:
232,72,143099,1,8,0:0:0:0:
224,56,143203,1,0,0:0:0:0:
240,72,143306,1,8,0:0:0:0:
240,72,143513,1,0,0:0:0:0:
240,72,143616,1,8,0:0:0:0:
232,72,143720,1,8,0:0:0:0:
232,72,143823,1,0,0:0:0:0:
232,72,143927,1,0,0:0:0:0:
208,56,144134,1,8,0:0:0:0:
216,48,144341,1,0,0:0:0:0:
224,56,144547,1,0,0:0:0:0:
224,56,144651,1,0,0:0:0:0:
224,56,144858,1,0,0:0:0:0:
224,56,144961,1,0,0:0:0:0:
216,64,145065,1,8,0:0:0:0:
216,56,145272,1,8,0:0:0:0:
216,56,145341,1,8,0:0:0:0:
216,56,145409,1,8,0:0:0:0:
224,48,145478,1,0,0:0:0:0:
224,48,145582,1,0,0:0:0:0:
216,32,145789,1,8,0:0:0:0:
216,40,145996,1,0,0:0:0:0:
232,56,146099,1,8,0:0:0:0:
216,40,146306,1,0,0:0:0:0:
224,56,146513,1,0,0:0:0:0:
200,32,146582,1,0,0:0:0:0:
256,40,146651,1,0,0:0:0:0:
200,32,146720,1,8,0:0:0:0:
200,32,146927,1,8,0:0:0:0:
200,32,147030,1,8,0:0:0:0:
200,32,147134,1,0,0:0:0:0:
200,32,147237,1,0,0:0:0:0:
200,32,147444,1,8,0:0:0:0:
192,24,147651,1,0,0:0:0:0:
192,24,147858,1,0,0:0:0:0:
192,16,147961,1,8,0:0:0:0:
192,16,148168,1,0,0:0:0:0:
192,24,148272,1,0,0:0:0:0:
192,24,148375,1,8,0:0:0:0:
312,72,148582,1,8,0:0:0:0:
240,88,148651,1,8,0:0:0:0:
240,88,148720,1,8,0:0:0:0:
192,24,148789,1,0,0:0:0:0:
240,56,148892,1,0,0:0:0:0:
240,64,149099,1,8,0:0:0:0:
240,64,149306,1,0,0:0:0:0:
240,64,149409,1,8,0:0:0:0:
240,64,149616,1,8,0:0:0:0:
240,64,149720,1,8,0:0:0:0:
240,64,149823,1,0,0:0:0:0:
240,64,149927,1,0,0:0:0:0:
240,64,150030,1,8,0:0:0:0:
240,64,150134,1,8,0:0:0:0:
240,64,150237,1,0,0:0:0:0:
240,64,150341,1,0,0:0:0:0:
240,64,150444,1,8,0:0:0:0:
240,64,150651,1,0,0:0:0:0:
240,64,150858,1,8,0:0:0:0:
240,64,151065,1,0,0:0:0:0:
240,64,151272,1,8,0:0:0:0:
240,64,151582,1,8,0:0:0:0:
240,64,151685,1,8,0:0:0:0:
240,64,151892,1,8,0:0:0:0:
240,64,152099,1,0,0:0:0:0:
232,64,152306,1,0,0:0:0:0:
232,64,152513,1,8,0:0:0:0:
232,64,152720,1,0,0:0:0:0:
232,64,152927,1,8,0:0:0:0:
232,64,153237,1,8,0:0:0:0:
232,64,153341,1,0,0:0:0:0:
232,64,153547,1,8,0:0:0:0:
232,64,153754,1,0,0:0:0:0:
224,56,153961,1,0,0:0:0:0:
216,56,154168,1,8,0:0:0:0:
216,56,154375,1,0,0:0:0:0:
216,56,154582,1,8,0:0:0:0:
216,56,154892,1,8,0:0:0:0:
232,56,154996,1,8,0:0:0:0:
216,56,155203,1,8,0:0:0:0:
232,64,155409,1,0,0:0:0:0:
224,56,155616,1,0,0:0:0:0:
216,56,155823,1,8,0:0:0:0:
216,56,156030,1,0,0:0:0:0:
216,56,156237,1,8,0:0:0:0:
224,56,156341,1,8,0:0:0:0:
216,56,156547,1,8,0:0:0:0:
224,56,156651,1,0,0:0:0:0:
216,56,156858,1,8,0:0:0:0:
232,64,157065,1,4,0:0:0:0:
224,56,157272,1,0,0:0:0:0:
216,56,157478,1,8,0:0:0:0:
216,56,157685,1,0,0:0:0:0:
216,56,157892,1,8,0:0:0:0:
216,56,158203,1,8,0:0:0:0:
240,56,158306,1,8,0:0:0:0:
216,56,158513,1,8,0:0:0:0:
232,64,158720,1,0,0:0:0:0:
224,56,158927,1,0,0:0:0:0:
216,56,159134,1,8,0:0:0:0:
216,56,159341,1,0,0:0:0:0:
216,56,159547,1,8,0:0:0:0:
216,56,159858,1,8,0:0:0:0:
240,56,159961,1,0,0:0:0:0:
216,56,160168,1,8,0:0:0:0:
232,64,160375,1,0,0:0:0:0:
224,56,160582,1,0,0:0:0:0:
216,56,160789,1,8,0:0:0:0:
216,56,160996,1,0,0:0:0:0:
216,56,161203,1,8,0:0:0:0:
216,56,161513,1,8,0:0:0:0:
240,56,161616,1,8,0:0:0:0:
216,56,161823,1,8,0:0:0:0:
232,64,162030,1,0,0:0:0:0:
224,56,162237,1,0,0:0:0:0:
216,56,162444,1,8,0:0:0:0:
216,56,162651,1,0,0:0:0:0:
216,56,162858,1,8,0:0:0:0:
240,56,162961,1,8,0:0:0:0:
240,56,163168,1,8,0:0:0:0:
240,56,163272,1,0,0:0:0:0:
216,56,163478,1,8,0:0:0:0:
208,112,163685,1,0,0:0:0:0:
216,104,163789,1,0,0:0:0:0:
216,96,163996,1,12,0:0:0:0:
216,88,164409,1,0,0:0:0:0:
208,104,164513,1,0,0:0:0:0:
208,104,164720,1,0,0:0:0:0:
208,104,164823,1,0,0:0:0:0:
208,104,164927,1,8,0:0:0:0:
208,96,165134,1,8,0:0:0:0:
208,96,165203,1,8,0:0:0:0:
208,96,165272,1,8,0:0:0:0:
208,104,165341,1,0,0:0:0:0:
208,96,165444,1,0,0:0:0:0:
216,88,165651,1,12,0:0:0:0:
216,96,166168,1,0,0:0:0:0:
216,88,166375,1,0,0:0:0:0:
224,88,166444,1,0,0:0:0:0:
224,88,166513,1,0,0:0:0:0:
216,88,166582,1,8,0:0:0:0:
216,88,166789,1,8,0:0:0:0:
216,88,166892,1,8,0:0:0:0:
208,88,166996,1,0,0:0:0:0:
216,88,167099,1,0,0:0:0:0:
208,88,167306,1,12,0:0:0:0:
208,88,167720,1,0,0:0:0:0:
216,88,167823,1,0,0:0:0:0:
216,88,168030,1,0,0:0:0:0:
216,88,168134,1,0,0:0:0:0:
216,88,168237,1,8,0:0:0:0:
216,88,168444,1,8,0:0:0:0:
216,88,168513,1,8,0:0:0:0:
216,96,168582,1,8,0:0:0:0:
216,88,168651,1,0,0:0:0:0:
224,80,168754,1,0,0:0:0:0:
216,80,168961,1,12,0:0:0:0:
216,88,169478,1,8,0:0:0:0:
216,88,169582,1,8,0:0:0:0:
216,88,169685,1,0,0:0:0:0:
208,56,169789,1,0,0:0:0:0:
216,88,169892,1,8,0:0:0:0:
208,56,169996,1,8,0:0:0:0:
216,80,170099,1,0,0:0:0:0:
208,64,170203,1,0,0:0:0:0:
216,80,170306,1,8,0:0:0:0:
208,64,170513,1,0,0:0:0:0:
208,64,170720,1,8,0:0:0:0:
208,64,170927,1,0,0:0:0:0:
208,64,171134,1,8,0:0:0:0:
208,64,171444,1,8,0:0:0:0:
192,48,171547,1,8,0:0:0:0:
208,64,171754,1,8,0:0:0:0:
208,64,171961,1,0,0:0:0:0:
208,64,172168,1,0,0:0:0:0:
208,64,172375,1,8,0:0:0:0:
208,64,172582,1,0,0:0:0:0:
208,64,172789,1,8,0:0:0:0:
208,32,173099,1,8,0:0:0:0:
208,32,173203,1,0,0:0:0:0:
208,64,173409,1,8,0:0:0:0:
208,64,173616,1,0,0:0:0:0:
208,64,173823,1,0,0:0:0:0:
208,64,174030,1,8,0:0:0:0:
208,64,174237,1,0,0:0:0:0:
208,64,174444,1,8,0:0:0:0:
208,64,174754,1,8,0:0:0:0:
208,64,174858,1,8,0:0:0:0:
208,64,175065,1,8,0:0:0:0:
208,64,175272,1,0,0:0:0:0:
208,64,175478,1,0,0:0:0:0:
208,64,175685,1,8,0:0:0:0:
208,64,175892,1,0,0:0:0:0:
208,64,176099,1,8,0:0:0:0:
208,64,176203,1,0,0:0:0:0:
208,64,176409,1,8,0:0:0:0:
208,64,176513,1,0,0:0:0:0:
208,64,176720,1,8,0:0:0:0:
208,64,176927,1,0,0:0:0:0:
208,64,177134,1,0,0:0:0:0:
208,64,177341,1,8,0:0:0:0:
208,64,177547,1,0,0:0:0:0:
208,64,177754,1,8,0:0:0:0:
208,64,177961,1,0,0:0:0:0:
208,64,178065,1,8,0:0:0:0:
208,64,178168,1,8,0:0:0:0:
208,64,178375,1,8,0:0:0:0:
208,64,178582,1,0,0:0:0:0:
208,64,178789,1,0,0:0:0:0:
208,64,178996,1,8,0:0:0:0:
208,64,179203,1,0,0:0:0:0:
208,64,179409,1,8,0:0:0:0:
208,64,179720,1,8,0:0:0:0:
208,64,179823,1,0,0:0:0:0:
208,64,180030,1,8,0:0:0:0:
208,72,180237,1,0,0:0:0:0:
192,72,180341,1,0,0:0:0:0:
208,64,180444,1,0,0:0:0:0:
256,104,180547,1,0,0:0:0:0:
208,64,180651,1,8,0:0:0:0:
208,64,180858,1,0,0:0:0:0:
200,72,180961,1,0,0:0:0:0:
216,64,181065,1,8,0:0:0:0:
256,104,181272,1,0,0:0:0:0:
208,64,181375,1,8,0:0:0:0:
216,72,181478,1,8,0:0:0:0:
224,72,181685,1,8,0:0:0:0:
200,72,181892,1,4,0:0:0:0:
208,72,182099,1,8,0:0:0:0:
208,72,182203,1,0,0:0:0:0:
208,72,182306,1,8,0:0:0:0:
208,72,182409,1,8,0:0:0:0:
208,72,182513,1,0,0:0:0:0:
208,96,182616,1,0,0:0:0:0:
208,72,182720,1,8,0:0:0:0:
208,72,182823,1,8,0:0:0:0:
208,72,182927,1,0,0:0:0:0:
208,72,183030,1,8,0:0:0:0:
208,72,183134,1,8,0:0:0:0:
208,96,183237,1,0,0:0:0:0:
192,80,183341,1,8,0:0:0:0:
192,96,183547,1,4,0:0:0:0:
200,96,183754,1,0,0:0:0:0:
200,72,183961,1,8,0:0:0:0:
200,96,184168,1,0,0:0:0:0:
200,72,184375,1,0,0:0:0:0:
200,96,184582,1,0,0:0:0:0:
200,72,184789,1,8,0:0:0:0:
200,96,184996,1,0,0:0:0:0:
200,72,185203,1,0,0:0:0:0:
200,96,185409,1,0,0:0:0:0:
200,72,185616,1,8,0:0:0:0:
200,96,185823,1,0,0:0:0:0:
200,72,186030,1,0,0:0:0:0:
200,96,186237,1,8,0:0:0:0:
200,72,186444,1,8,0:0:0:0:
200,96,186651,1,0,0:0:0:0:
200,72,186858,1,0,0:0:0:0:
200,96,187065,1,0,0:0:0:0:
200,72,187272,1,8,0:0:0:0:
200,96,187375,1,8,0:0:0:0:
200,96,187478,1,0,0:0:0:0:
200,96,187582,1,8,0:0:0:0:
200,72,187685,1,8,0:0:0:0:
200,96,187789,1,8,0:0:0:0:
200,96,187892,1,0,0:0:0:0:
192,96,187996,1,0,0:0:0:0:
192,72,188099,1,8,0:0:0:0:
192,72,188203,1,8,0:0:0:0:
200,72,188306,1,0,0:0:0:0:
200,72,188409,1,8,0:0:0:0:
200,72,188513,1,0,0:0:0:0:
192,72,188616,1,8,0:0:0:0:
200,72,188720,1,8,0:0:0:0:
200,72,188823,1,0,0:0:0:0:
200,72,188927,1,8,0:0:0:0:
192,72,189030,1,0,0:0:0:0:
192,72,189134,1,8,0:0:0:0:
200,72,189237,1,0,0:0:0:0:
200,72,189341,1,8,0:0:0:0:
192,72,189444,1,8,0:0:0:0:
192,72,189547,1,0,0:0:0:0:
192,72,189651,1,0,0:0:0:0:
200,72,189754,1,8,0:0:0:0:
200,72,189961,1,0,0:0:0:0:
200,72,190168,1,8,0:0:0:0:
200,72,190375,1,8,0:0:0:0:
200,72,190582,1,8,0:0:0:0:
200,72,190789,1,0,0:0:0:0:
200,72,190996,1,0,0:0:0:0:
200,72,191203,1,8,0:0:0:0:
192,72,191409,1,8,0:0:0:0:
200,72,191616,1,0,0:0:0:0:
200,72,191823,1,8,0:0:0:0:
200,72,192030,1,8,0:0:0:0:
200,72,192237,1,8,0:0:0:0:
200,72,192444,1,0,0:0:0:0:
200,72,192651,1,0,0:0:0:0:
200,72,192858,1,8,0:0:0:0:
200,72,193065,1,8,0:0:0:0:
200,72,193272,1,0,0:0:0:0:
200,72,193478,1,8,0:0:0:0:
200,72,193685,1,8,0:0:0:0:
200,72,193892,1,8,0:0:0:0:
200,72,194099,1,0,0:0:0:0:
200,72,194306,1,0,0:0:0:0:
200,72,194513,1,8,0:0:0:0:
200,72,194720,1,8,0:0:0:0:
200,72,194927,1,0,0:0:0:0:
200,64,195134,1,8,0:0:0:0:
200,64,195237,1,0,0:0:0:0:
200,64,195341,1,0,0:0:0:0:
192,64,195444,1,8,0:0:0:0:
192,64,195547,1,0,0:0:0:0:
192,64,195651,1,0,0:0:0:0:
192,64,195754,1,8,0:0:0:0:
192,64,195858,1,0,0:0:0:0:
192,64,195961,1,0,0:0:0:0:
192,64,196065,1,0,0:0:0:0:
192,64,196168,1,0,0:0:0:0:
192,64,196272,1,0,0:0:0:0:
200,72,196375,1,8,0:0:0:0:
192,64,196478,1,8,0:0:0:0:
192,64,196582,1,8,0:0:0:0:
192,64,196685,1,8,0:0:0:0:
200,72,196789,1,0,0:0:0:0:
192,88,196922,1,0,0:0:0:0:
200,40,197165,1,8,0:0:0:0:
232,72,197298,5,0,0:0:0:0:
192,80,197432,1,0,0:0:0:0:
184,80,197566,1,8,0:0:0:0:
232,72,197834,1,0,0:0:0:0:
232,72,197968,1,0,0:0:0:0:
208,96,198102,1,0,0:0:0:0:
192,80,198236,1,8,0:0:0:0:
192,80,198370,1,0,0:0:0:0:
192,80,198637,1,0,0:0:0:0:
240,104,198771,1,0,0:0:0:0:
224,72,198905,1,0,0:0:0:0:
192,80,199039,1,0,0:0:0:0:
192,80,199173,1,8,0:0:0:0:
184,72,199441,1,0,0:0:0:0:
192,80,199575,1,8,0:0:0:0:
224,72,199709,1,8,0:0:0:0:
192,80,199843,1,0,0:0:0:0:
192,80,199977,1,0,0:0:0:0:
216,72,200111,1,8,0:0:0:0:
200,32,200378,5,8,0:0:0:0:
200,32,200512,1,0,0:0:0:0:
192,80,200646,1,0,0:0:0:0:
192,80,200780,1,8,0:0:0:0:
160,24,201048,1,0,0:0:0:0:
192,80,201182,1,8,0:0:0:0:
216,72,201316,1,0,0:0:0:0:
192,80,201450,1,8,0:0:0:0:
192,80,201584,1,0,0:0:0:0:
184,80,201852,1,0,0:0:0:0:
240,104,201986,1,8,0:0:0:0:
192,80,202120,1,0,0:0:0:0:
208,64,202253,1,0,0:0:0:0:
216,64,202387,1,8,0:0:0:0:
248,96,202521,1,8,0:0:0:0:
192,80,202655,1,0,0:0:0:0:
192,48,202923,1,0,0:0:0:0:
208,64,203057,1,8,0:0:0:0:
208,64,203191,1,0,0:0:0:0:
200,80,203325,1,0,0:0:0:0:
200,64,203593,5,8,0:0:0:0:
232,56,203727,1,0,0:0:0:0:
208,64,203861,1,0,0:0:0:0:
208,64,203995,1,8,0:0:0:0:
232,56,204262,1,0,0:0:0:0:
224,56,204396,1,0,0:0:0:0:
224,56,204530,1,8,0:0:0:0:
200,72,204664,1,0,0:0:0:0:
208,80,204798,1,0,0:0:0:0:
208,64,205066,1,0,0:0:0:0:
232,80,205200,1,0,0:0:0:0:
240,72,205334,1,8,0:0:0:0:
208,80,205468,1,0,0:0:0:0:
208,64,205602,1,8,0:0:0:0:
176,48,205870,1,0,0:0:0:0:
208,64,206003,1,8,0:0:0:0:
240,72,206137,1,8,0:0:0:0:
224,80,206271,1,0,0:0:0:0:
224,80,206405,1,0,0:0:0:0:
240,64,206539,1,8,0:0:0:0:
240,72,206807,1,8,0:0:0:0:
208,64,206941,1,0,0:0:0:0:
208,64,207075,1,8,0:0:0:0:
208,64,207209,1,8,0:0:0:0:
280,88,207477,1,0,0:0:0:0:
208,64,207611,1,0,0:0:0:0:
256,128,207745,1,8,0:0:0:0:
208,64,207878,1,8,0:0:0:0:
208,64,208012,1,0,0:0:0:0:
208,64,208280,1,0,0:0:0:0:
208,64,208414,1,8,0:0:0:0:
192,120,208548,1,8,0:0:0:0:
208,64,208682,1,0,0:0:0:0:
208,64,208816,1,8,0:0:0:0:
208,64,208950,1,8,0:0:0:0:
208,104,209084,1,0,0:0:0:0:
208,64,209218,1,0,0:0:0:0:
208,64,209285,1,0,0:0:0:0:
176,24,209352,5,0,0:0:0:0:
208,48,209486,1,8,0:0:0:0:
200,72,209620,1,0,0:0:0:0:
192,88,209753,1,0,0:0:0:0:
200,40,210021,1,8,0:0:0:0:
232,72,210155,5,0,0:0:0:0:
192,80,210289,1,0,0:0:0:0:
184,80,210423,1,8,0:0:0:0:
232,72,210691,1,0,0:0:0:0:
232,72,210825,1,0,0:0:0:0:
208,96,210959,1,0,0:0:0:0:
192,80,211093,1,8,0:0:0:0:
192,80,211227,1,0,0:0:0:0:
192,80,211495,1,0,0:0:0:0:
240,104,211628,1,0,0:0:0:0:
224,72,211762,1,0,0:0:0:0:
192,80,211896,1,0,0:0:0:0:
192,80,212030,1,8,0:0:0:0:
184,72,212298,1,0,0:0:0:0:
192,80,212432,1,8,0:0:0:0:
224,72,212566,1,8,0:0:0:0:
192,80,212700,1,0,0:0:0:0:
192,80,212834,1,0,0:0:0:0:
216,72,212968,1,8,0:0:0:0:
200,32,213236,5,8,0:0:0:0:
200,32,213370,1,0,0:0:0:0:
192,80,213503,1,0,0:0:0:0:
192,80,213637,1,8,0:0:0:0:
160,24,213905,1,0,0:0:0:0:
192,80,214039,1,8,0:0:0:0:
216,72,214173,1,0,0:0:0:0:
192,80,214307,1,8,0:0:0:0:
192,80,214441,1,0,0:0:0:0:
184,80,214709,1,0,0:0:0:0:
240,104,214843,1,8,0:0:0:0:
192,80,214977,1,0,0:0:0:0:
208,64,215111,1,0,0:0:0:0:
216,64,215245,1,8,0:0:0:0:
248,96,215378,1,8,0:0:0:0:
192,80,215512,1,0,0:0:0:0:
192,48,215780,1,0,0:0:0:0:
208,64,215914,1,8,0:0:0:0:
208,64,216048,1,0,0:0:0:0:
200,80,216182,1,0,0:0:0:0:
200,64,216450,5,8,0:0:0:0:
232,56,216584,1,0,0:0:0:0:
208,64,216718,1,0,0:0:0:0:
208,64,216852,1,8,0:0:0:0:
232,56,217120,1,0,0:0:0:0:
224,56,217253,1,0,0:0:0:0:
224,56,217387,1,8,0:0:0:0:
200,72,217521,1,0,0:0:0:0:
208,80,217655,1,0,0:0:0:0:
208,64,217923,1,0,0:0:0:0:
232,80,218057,1,0,0:0:0:0:
240,72,218191,1,8,0:0:0:0:
208,80,218325,1,0,0:0:0:0:
208,64,218459,1,8,0:0:0:0:
176,48,218727,1,0,0:0:0:0:
208,64,218861,1,8,0:0:0:0:
240,72,218995,1,8,0:0:0:0:
224,80,219128,1,0,0:0:0:0:
224,80,219262,1,0,0:0:0:0:
240,64,219396,1,8,0:0:0:0:
240,72,219664,1,8,0:0:0:0:
208,64,219798,1,0,0:0:0:0:
208,64,219932,1,8,0:0:0:0:
208,64,220066,1,8,0:0:0:0:
280,88,220334,1,0,0:0:0:0:
208,64,220468,1,0,0:0:0:0:
256,128,220602,1,8,0:0:0:0:
208,64,220736,1,8,0:0:0:0:
208,64,220870,1,0,0:0:0:0:
208,64,221137,1,0,0:0:0:0:
208,64,221271,1,8,0:0:0:0:
192,120,221405,1,8,0:0:0:0:
208,64,221539,1,0,0:0:0:0:
208,64,221673,1,8,0:0:0:0:
208,64,221807,1,8,0:0:0:0:
208,104,221941,1,0,0:0:0:0:
208,64,222075,1,0,0:0:0:0:
208,64,222142,1,0,0:0:0:0:
152,0,222209,5,0,0:0:0:0:
208,64,222343,1,8,0:0:0:0:
200,72,222477,1,8,0:0:0:0:
184,72,222611,1,8,0:0:0:0:
184,72,222878,1,8,0:0:0:0:
184,72,223012,1,8,0:0:0:0:
208,80,223259,1,4,0:0:0:0:
216,80,223526,1,0,0:0:0:0:
168,48,223660,1,8,0:0:0:0:
200,72,223927,1,0,0:0:0:0:
200,72,224061,1,8,0:0:0:0:
176,80,224195,1,0,0:0:0:0:
176,80,224329,1,0,0:0:0:0:
176,80,224463,1,0,0:0:0:0:
168,48,224730,1,0,0:0:0:0:
168,48,224864,1,0,0:0:0:0:
184,72,225131,1,0,0:0:0:0:
208,72,225265,1,0,0:0:0:0:
184,64,225533,1,0,0:0:0:0:
184,64,225667,1,8,0:0:0:0:
168,16,225800,1,0,0:0:0:0:
168,16,225934,1,0,0:0:0:0:
168,16,226068,1,8,0:0:0:0:
248,160,226335,1,0,0:0:0:0:
240,336,226469,1,0,0:0:0:0:
248,168,226603,1,0,0:0:0:0:
248,160,226737,5,0,0:0:0:0:
248,160,226871,1,0,0:0:0:0:
248,160,227138,1,0,0:0:0:0:
248,160,227272,1,8,0:0:0:0:
288,136,227406,1,0,0:0:0:0:
288,136,227539,1,0,0:0:0:0:
272,168,227673,1,0,0:0:0:0:
280,144,227941,1,0,0:0:0:0:
280,160,228075,1,0,0:0:0:0:
256,136,228342,1,0,0:0:0:0:
320,112,228476,1,0,0:0:0:0:
280,136,228743,1,0,0:0:0:0:
280,136,228877,1,8,0:0:0:0:
280,128,229011,1,8,0:0:0:0:
272,120,229145,1,0,0:0:0:0:
272,120,229279,1,0,0:0:0:0:
280,136,229546,1,8,0:0:0:0:
248,96,229680,1,0,0:0:0:0:
256,136,229814,1,0,0:0:0:0:
272,144,229947,1,0,0:0:0:0:
288,144,230081,1,8,0:0:0:0:
256,128,230349,1,0,0:0:0:0:
288,136,230483,1,8,0:0:0:0:
272,136,230616,1,0,0:0:0:0:
272,136,230750,1,0,0:0:0:0:
280,136,230884,1,0,0:0:0:0:
256,112,231151,5,0,0:0:0:0:
280,112,231285,1,0,0:0:0:0:
264,96,231553,1,0,0:0:0:0:
272,96,231687,1,0,0:0:0:0:
288,128,231954,1,0,0:0:0:0:
264,112,232088,1,8,0:0:0:0:
264,112,232222,1,0,0:0:0:0:
264,112,232355,1,0,0:0:0:0:
264,112,232489,1,8,0:0:0:0:
272,80,232891,5,0,0:0:0:0:
248,112,233024,5,0,0:0:0:0:
248,112,233158,1,0,0:0:0:0:
248,112,233292,1,0,0:0:0:0:
248,112,233426,1,0,0:0:0:0:
248,112,233560,1,0,0:0:0:0:
232,88,233693,1,8,0:0:0:0:
232,88,233827,1,8,0:0:0:0:
232,88,233961,1,8,0:0:0:0:
224,96,234095,1,8,0:0:0:0:
208,40,234228,1,8,0:0:0:0:
208,40,234362,1,8,0:0:0:0:
208,40,234496,1,0,0:0:0:0:
208,40,234630,1,0,0:0:0:0:
208,40,234764,1,0,0:0:0:0:
208,40,234897,1,0,0:0:0:0:
272,80,235031,1,0,0:0:0:0:
272,80,235165,1,0,0:0:0:0:
272,80,235299,1,8,0:0:0:0:
272,80,235432,1,8,0:0:0:0:
240,104,235700,1,0,0:0:0:0:
240,104,235767,1,0,0:0:0:0:
240,104,235834,1,0,0:0:0:0:
224,64,235968,1,8,0:0:0:0:
224,64,236101,1,8,0:0:0:0:
224,64,236235,1,8,0:0:0:0:
224,64,236369,1,8,0:0:0:0:
224,64,236503,1,8,0:0:0:0:
224,64,236636,1,8,0:0:0:0:
224,64,236770,1,8,0:0:0:0:
224,64,236904,1,8,0:0:0:0:
224,64,237038,1,0,0:0:0:0:
240,88,237172,1,0,0:0:0:0:
232,88,237305,1,8,0:0:0:0:
232,88,237439,1,0,0:0:0:0:
232,88,237573,1,0,0:0:0:0:
232,88,237707,1,8,0:0:0:0:
232,88,237840,1,0,0:0:0:0:
232,88,237974,1,0,0:0:0:0:
232,88,238108,1,8,0:0:0:0:
232,88,238242,1,0,0:0:0:0:
232,88,238376,1,0,0:0:0:0:
224,72,238548,1,8,0:0:0:0:
211,265,238651,1,8,0:0:0:0:
217,258,239375,1,8,0:0:0:0:
217,258,239582,1,0,0:0:0:0:
217,258,239789,1,8,0:0:0:0:
217,258,239996,1,8,0:0:0:0:
183,242,240203,1,0,0:0:0:0:
183,242,240306,1,8,0:0:0:0:
231,229,241030,1,8,0:0:0:0:
231,229,241237,1,0,0:0:0:0:
231,229,241444,1,8,0:0:0:0:
231,229,241651,1,8,0:0:0:0:
231,229,241858,1,0,0:0:0:0:
231,229,241961,1,8,0:0:0:0:
252,206,242685,1,8,0:0:0:0:
252,206,242892,1,0,0:0:0:0:
252,206,243099,1,8,0:0:0:0:
252,206,243306,1,8,0:0:0:0:
252,206,243513,1,8,0:0:0:0:
252,206,243616,1,8,0:0:0:0:
272,200,244237,1,0,0:0:0:0:
252,206,244341,1,8,0:0:0:0:
274,198,244548,1,0,0:0:0:0:
272,192,244651,1,0,0:0:0:0:
275,198,244754,1,8,0:0:0:0:
268,189,244961,1,8,0:0:0:0:
268,189,245065,1,8,0:0:0:0:
268,189,245168,1,0,0:0:0:0:
268,189,245272,1,8,0:0:0:0:
265,158,245996,1,8,0:0:0:0:
265,158,246203,1,0,0:0:0:0:
265,158,246410,1,8,0:0:0:0:
265,158,246616,1,0,0:0:0:0:
265,158,246823,1,0,0:0:0:0:
265,158,246927,1,8,0:0:0:0:
285,155,247651,1,8,0:0:0:0:
285,155,247858,1,0,0:0:0:0:
285,155,248065,1,8,0:0:0:0:
285,155,248272,1,0,0:0:0:0:
285,155,248479,1,0,0:0:0:0:
285,155,248582,1,8,0:0:0:0:
285,155,249306,1,8,0:0:0:0:
288,133,249513,1,0,0:0:0:0:
288,133,249720,1,8,0:0:0:0:
287,127,249927,1,0,0:0:0:0:
287,126,250134,1,8,0:0:0:0:
287,126,250237,1,8,0:0:0:0:
248,152,250858,1,0,0:0:0:0:
287,125,250961,1,8,0:0:0:0:
268,127,251168,1,0,0:0:0:0:
248,152,251272,1,0,0:0:0:0:
266,132,251375,1,8,0:0:0:0:
298,116,251582,1,8,0:0:0:0:
298,116,251685,1,8,0:0:0:0:
298,116,251789,1,8,0:0:0:0:
298,116,251892,1,0,0:0:0:0:
289,116,252616,1,0,0:0:0:0:
284,110,252823,1,0,0:0:0:0:
284,110,253030,1,8,0:0:0:0:
283,108,253237,1,8,0:0:0:0:
283,108,253444,1,0,0:0:0:0:
283,108,253548,1,0,0:0:0:0:
289,93,254272,1,8,0:0:0:0:
289,93,254479,5,0,0:0:0:0:
289,93,254685,1,0,0:0:0:0:
283,146,254892,1,8,0:0:0:0:
283,146,255099,1,8,0:0:0:0:
303,101,255203,1,0,0:0:0:0:
303,101,255927,1,0,0:0:0:0:
303,101,256134,1,0,0:0:0:0:
303,101,256341,1,8,0:0:0:0:
303,101,256548,1,8,0:0:0:0:
303,101,256754,1,0,0:0:0:0:
303,101,256858,1,0,0:0:0:0:
290,93,257582,1,8,0:0:0:0:
290,93,257685,1,8,0:0:0:0:
290,93,257789,1,8,0:0:0:0:
290,92,257996,1,8,0:0:0:0:
256,152,258099,1,8,0:0:0:0:
290,92,258203,1,8,0:0:0:0:
290,92,258410,1,4,0:0:0:0:
290,93,258616,1,0,0:0:0:0:
263,160,258823,1,8,0:0:0:0:
263,160,259030,1,8,0:0:0:0:
263,160,259134,1,0,0:0:0:0:
263,160,259341,1,8,0:0:0:0:
263,160,259444,1,0,0:0:0:0:
263,160,259651,1,8,0:0:0:0:
263,160,260065,1,0,0:0:0:0:
283,145,260272,1,0,0:0:0:0:
283,146,260479,1,8,0:0:0:0:
282,143,260685,1,0,0:0:0:0:
281,142,260789,1,8,0:0:0:0:
283,145,260996,1,0,0:0:0:0:
283,145,261099,1,8,0:0:0:0:
284,113,261306,1,8,0:0:0:0:
284,113,261720,1,0,0:0:0:0:
284,113,261927,1,0,0:0:0:0:
284,113,262134,1,8,0:0:0:0:
284,113,262341,1,8,0:0:0:0:
284,113,262548,1,0,0:0:0:0:
290,107,262754,1,0,0:0:0:0:
290,107,262961,1,8,0:0:0:0:
290,107,263168,1,8,0:0:0:0:
290,107,263375,1,0,0:0:0:0:
290,107,263582,1,0,0:0:0:0:
289,106,263789,1,8,0:0:0:0:
289,106,263996,1,8,0:0:0:0:
289,97,264203,1,0,0:0:0:0:
294,77,264410,1,0,0:0:0:0:
287,98,264616,1,8,0:0:0:0:
287,98,264823,1,8,0:0:0:0:
289,106,264927,1,8,0:0:0:0:
287,98,265030,1,0,0:0:0:0:
287,98,265237,1,0,0:0:0:0:
287,98,265444,1,8,0:0:0:0:
279,71,265651,1,8,0:0:0:0:
279,71,265754,1,0,0:0:0:0:
279,71,265961,1,8,0:0:0:0:
279,71,266065,1,0,0:0:0:0:
279,71,266272,1,8,0:0:0:0:
279,71,266685,1,0,0:0:0:0:
281,57,266892,1,0,0:0:0:0:
266,77,267099,1,8,0:0:0:0:
266,77,267306,1,0,0:0:0:0:
266,77,267410,1,8,0:0:0:0:
266,77,267616,1,0,0:0:0:0:
266,77,267720,1,8,0:0:0:0:
266,77,267927,1,8,0:0:0:0:
279,183,268134,1,0,0:0:0:0:
279,183,268237,1,0,0:0:0:0:
266,77,268341,1,0,0:0:0:0:
266,77,268548,1,0,0:0:0:0:
266,77,268754,1,8,0:0:0:0:
268,140,268961,1,8,0:0:0:0:
268,140,269168,1,0,0:0:0:0:
268,140,269375,1,0,0:0:0:0:
268,140,269582,1,8,0:0:0:0:
268,140,269789,1,8,0:0:0:0:
268,140,269996,1,0,0:0:0:0:
268,140,270203,1,0,0:0:0:0:
268,140,270410,1,8,0:0:0:0:
268,140,270616,1,8,0:0:0:0:
268,140,270823,1,0,0:0:0:0:
268,140,271030,1,8,0:0:0:0:
268,140,271237,1,8,0:0:0:0:
268,140,271444,1,8,0:0:0:0:
268,140,271548,1,8,0:0:0:0:
268,140,271651,1,0,0:0:0:0:
268,140,271858,1,0,0:0:0:0:
268,140,272065,1,8,0:0:0:0:
268,140,272272,1,8,0:0:0:0:
268,140,272375,1,0,0:0:0:0:
268,140,272582,1,8,0:0:0:0:
268,140,272685,1,0,0:0:0:0:
268,140,272892,1,8,0:0:0:0:
277,111,272996,1,8,0:0:0:0:
277,111,273099,1,0,0:0:0:0:
272,104,273203,1,0,0:0:0:0:
277,111,273306,1,0,0:0:0:0:
277,111,273513,1,0,0:0:0:0:
277,111,273720,1,8,0:0:0:0:
266,113,273927,1,0,0:0:0:0:
266,113,274030,1,8,0:0:0:0:
266,113,274237,1,0,0:0:0:0:
266,113,274341,1,8,0:0:0:0:
266,113,274548,1,8,0:0:0:0:
272,96,274651,1,8,0:0:0:0:
266,113,274754,1,0,0:0:0:0:
266,113,274858,1,0,0:0:0:0:
266,113,274961,1,0,0:0:0:0:
266,115,275168,1,8,0:0:0:0:
266,113,275375,1,8,0:0:0:0:
286,100,275582,1,8,0:0:0:0:
286,100,275789,1,0,0:0:0:0:
286,100,275996,1,0,0:0:0:0:
286,100,276203,1,8,0:0:0:0:
286,100,276410,1,8,0:0:0:0:
277,102,276513,1,0,0:0:0:0:
286,100,276616,1,0,0:0:0:0:
286,100,276823,1,0,0:0:0:0:
286,100,277030,1,8,0:0:0:0:
286,100,277237,1,8,0:0:0:0:
286,100,277444,1,0,0:0:0:0:
286,100,277651,1,0,0:0:0:0:
250,111,277858,1,8,0:0:0:0:
254,100,278065,1,8,0:0:0:0:
240,96,278168,1,8,0:0:0:0:
254,100,278272,1,0,0:0:0:0:
254,100,278479,1,0,0:0:0:0:
254,100,278685,1,8,0:0:0:0:
254,100,278892,1,8,0:0:0:0:
254,100,278996,1,0,0:0:0:0:
254,100,279203,1,8,0:0:0:0:
254,100,279306,1,0,0:0:0:0:
254,100,279513,1,8,0:0:0:0:
254,100,279616,1,8,0:0:0:0:
254,100,279720,1,0,0:0:0:0:
272,104,279823,1,0,0:0:0:0:
254,100,279927,1,0,0:0:0:0:
254,100,280134,1,0,0:0:0:0:
254,100,280341,1,8,0:0:0:0:
254,100,280548,1,0,0:0:0:0:
254,100,280651,1,8,0:0:0:0:
254,100,280858,1,0,0:0:0:0:
254,100,280961,1,8,0:0:0:0:
254,100,281168,1,8,0:0:0:0:
245,97,281272,1,8,0:0:0:0:
245,97,281375,1,0,0:0:0:0:
248,88,281479,1,0,0:0:0:0:
245,97,281582,1,0,0:0:0:0:
245,97,281789,1,8,0:0:0:0:
245,97,281996,1,8,0:0:0:0:
245,97,282203,1,8,0:0:0:0:
245,97,282410,1,0,0:0:0:0:
245,97,282616,1,0,0:0:0:0:
245,97,282823,1,8,0:0:0:0:
245,97,283030,1,8,0:0:0:0:
277,104,283134,1,0,0:0:0:0:
245,97,283237,1,0,0:0:0:0:
245,97,283444,1,0,0:0:0:0:
245,97,283651,1,8,0:0:0:0:
245,97,283858,1,8,0:0:0:0:
245,97,284065,1,0,0:0:0:0:
245,97,284272,1,0,0:0:0:0:
245,97,284479,1,8,0:0:0:0:
245,97,284685,1,8,0:0:0:0:
245,97,284789,1,0,0:0:0:0:
245,97,284892,1,8,0:0:0:0:
245,97,284996,1,8,0:0:0:0:
237,91,285203,1,8,0:0:0:0:
237,91,285410,1,8,0:0:0:0:
237,91,285616,1,8,0:0:0:0:
238,88,285789,1,0,0:0:0:0:
248,80,285858,1,0,0:0:0:0:
251,75,285927,1,8,0:0:0:0:
251,75,286030,1,8,0:0:0:0:
251,75,286134,1,8,0:0:0:0:
251,75,286237,1,8,0:0:0:0:
251,75,286341,1,0,0:0:0:0:
251,75,286548,1,8,0:0:0:0:
251,75,286651,1,8,0:0:0:0:
243,75,286858,1,0,0:0:0:0:
243,75,286961,1,0,0:0:0:0:
238,76,287168,1,8,0:0:0:0:
238,76,287272,1,8,0:0:0:0:
238,76,287479,1,0,0:0:0:0:
238,76,287582,1,0,0:0:0:0:
238,76,287789,1,8,0:0:0:0:
227,67,287892,1,8,0:0:0:0:
226,67,287996,1,8,0:0:0:0:
230,43,288099,1,0,0:0:0:0:
230,43,288203,1,8,0:0:0:0:
234,86,288306,1,8,0:0:0:0:
234,86,288410,1,8,0:0:0:0:
232,86,288513,1,0,0:0:0:0:
184,80,288616,1,8,0:0:0:0:
214,53,288720,1,0,0:0:0:0:
232,86,288823,1,0,0:0:0:0:
228,52,289030,1,0,0:0:0:0:
228,52,289134,5,0,0:0:0:0:
228,52,289341,1,0,0:0:0:0:
228,52,289444,1,8,0:0:0:0:
228,52,289548,1,8,0:0:0:0:
228,52,289651,1,0,0:0:0:0:
232,56,289858,1,8,0:0:0:0:
228,52,289961,1,8,0:0:0:0:
248,96,290065,1,0,0:0:0:0:
232,120,290168,1,8,0:0:0:0:
228,52,290272,1,8,0:0:0:0:
228,52,290375,1,8,0:0:0:0:
224,40,290479,1,0,0:0:0:0:
224,40,290582,1,0,0:0:0:0:
280,208,290685,1,8,0:0:0:0:
232,56,290789,1,8,0:0:0:0:
232,56,290892,1,8,0:0:0:0:
232,56,290996,1,8,0:0:0:0:
232,72,291099,1,0,0:0:0:0:
232,72,291203,1,8,0:0:0:0:
232,64,291306,1,8,0:0:0:0:
232,64,291410,1,8,0:0:0:0:
203,290,291513,5,0,0:0:0:0:
258,177,291720,1,8,0:0:0:0:
256,177,291927,1,0,0:0:0:0:
256,177,292134,1,8,0:0:0:0:
217,258,292341,1,0,0:0:0:0:
224,208,292444,1,0,0:0:0:0:
217,258,292548,1,8,0:0:0:0:
217,258,292754,1,0,0:0:0:0:
224,208,292858,1,0,0:0:0:0:
217,258,292961,1,8,0:0:0:0:
240,208,293065,1,8,0:0:0:0:
183,242,293168,1,0,0:0:0:0:
199,130,293375,1,8,0:0:0:0:
199,130,293582,1,0,0:0:0:0:
199,130,293789,1,8,0:0:0:0:
231,229,293996,1,0,0:0:0:0:
248,224,294099,1,0,0:0:0:0:
231,229,294203,1,8,0:0:0:0:
231,229,294410,1,0,0:0:0:0:
208,200,294513,1,0,0:0:0:0:
231,229,294616,1,8,0:0:0:0:
231,229,294823,1,0,0:0:0:0:
199,130,295030,1,8,0:0:0:0:
199,130,295237,1,0,0:0:0:0:
199,130,295444,1,8,0:0:0:0:
252,206,295651,1,0,0:0:0:0:
224,208,295754,1,0,0:0:0:0:
252,206,295858,1,8,0:0:0:0:
252,206,296065,1,0,0:0:0:0:
240,208,296168,1,0,0:0:0:0:
252,206,296272,1,8,0:0:0:0:
288,200,296375,1,8,0:0:0:0:
252,206,296479,1,0,0:0:0:0:
189,126,296685,1,8,0:0:0:0:
189,126,296892,1,0,0:0:0:0:
189,126,297099,1,8,0:0:0:0:
252,206,297306,1,0,0:0:0:0:
280,192,297410,1,0,0:0:0:0:
274,198,297513,1,8,0:0:0:0:
275,198,297720,1,0,0:0:0:0:
256,176,297823,1,0,0:0:0:0:
268,189,297927,1,8,0:0:0:0:
268,189,298134,1,0,0:0:0:0:
268,189,298237,1,8,0:0:0:0:
189,126,298341,1,8,0:0:0:0:
189,126,298444,1,8,0:0:0:0:
189,126,298548,1,0,0:0:0:0:
189,126,298651,1,0,0:0:0:0:
189,126,298754,1,8,0:0:0:0:
185,129,298858,1,0,0:0:0:0:
189,126,298961,1,0,0:0:0:0:
188,132,299065,1,0,0:0:0:0:
265,158,299168,1,8,0:0:0:0:
256,144,299272,1,8,0:0:0:0:
265,158,299375,1,0,0:0:0:0:
188,132,299479,1,0,0:0:0:0:
265,158,299582,1,8,0:0:0:0:
188,132,299685,1,0,0:0:0:0:
265,158,299789,1,0,0:0:0:0:
265,158,299892,1,8,0:0:0:0:
188,132,299996,1,8,0:0:0:0:
188,132,300099,1,8,0:0:0:0:
188,132,300203,1,0,0:0:0:0:
188,132,300306,1,0,0:0:0:0:
185,129,300410,1,8,0:0:0:0:
262,125,300513,1,0,0:0:0:0:
285,155,300616,5,0,0:0:0:0:
188,132,300720,1,0,0:0:0:0:
285,155,300823,1,8,0:0:0:0:
188,132,300927,1,8,0:0:0:0:
285,155,301030,1,0,0:0:0:0:
188,132,301134,1,0,0:0:0:0:
285,155,301237,1,8,0:0:0:0:
188,132,301341,1,0,0:0:0:0:
285,155,301444,1,0,0:0:0:0:
285,155,301548,1,8,0:0:0:0:
188,132,301651,1,8,0:0:0:0:
188,132,301754,1,8,0:0:0:0:
188,132,301858,1,0,0:0:0:0:
188,133,301961,1,0,0:0:0:0:
188,132,302065,1,8,0:0:0:0:
188,132,302168,1,0,0:0:0:0:
285,155,302272,1,0,0:0:0:0:
188,132,302375,1,0,0:0:0:0:
288,133,302479,1,8,0:0:0:0:
188,132,302582,1,8,0:0:0:0:
288,133,302685,1,0,0:0:0:0:
188,132,302789,1,0,0:0:0:0:
287,127,302892,1,8,0:0:0:0:
188,132,302996,1,0,0:0:0:0:
188,132,303099,1,0,0:0:0:0:
287,126,303203,1,8,0:0:0:0:
188,132,303306,1,8,0:0:0:0:
188,132,303410,1,8,0:0:0:0:
188,133,303513,1,0,0:0:0:0:
188,132,303616,1,0,0:0:0:0:
188,132,303720,1,8,0:0:0:0:
200,122,303823,1,0,0:0:0:0:
287,125,303927,1,0,0:0:0:0:
199,122,304030,1,0,0:0:0:0:
268,127,304134,1,8,0:0:0:0:
199,122,304237,1,0,0:0:0:0:
266,132,304341,1,8,0:0:0:0:
199,121,304444,1,0,0:0:0:0:
298,116,304548,1,8,0:0:0:0:
298,116,304651,1,0,0:0:0:0:
298,116,304754,1,0,0:0:0:0:
298,116,304858,1,8,0:0:0:0:
241,120,305582,1,8,0:0:0:0:
241,120,305789,1,8,0:0:0:0:
241,120,305996,1,8,0:0:0:0:
264,111,306203,1,8,0:0:0:0:
237,87,306410,1,4,0:0:0:0:
250,100,307237,1,8,0:0:0:0:
250,100,307444,1,0,0:0:0:0:
250,100,307651,1,8,0:0:0:0:
250,97,307858,1,8,0:0:0:0:
268,89,308065,1,4,0:0:0:0:
265,87,308892,1,0,0:0:0:0:
265,87,309099,1,8,0:0:0:0:
264,168,309168,1,8,0:0:0:0:
264,168,309237,1,8,0:0:0:0:
264,168,309306,1,0,0:0:0:0:
265,87,309513,1,0,0:0:0:0:
256,156,309720,1,12,0:0:0:0:
256,156,310548,1,8,0:0:0:0:
256,156,310754,1,0,0:0:0:0:
256,156,310961,1,8,0:0:0:0:
256,156,311168,1,8,0:0:0:0:
256,156,311388,1,12,0:0:0:0:
256,192,311594,12,0,313659,0:0:0:0:
256,152,313866,5,8,0:0:0:0:
256,152,314486,1,0,0:0:0:0:
264,128,315105,1,0,0:0:0:0:
264,128,315725,1,0,0:0:0:0:
248,120,315828,1,0,0:0:0:0:
248,112,316035,1,0,0:0:0:0:
240,144,316344,1,8,0:0:0:0:
248,120,316964,1,0,0:0:0:0:
248,128,317584,1,0,0:0:0:0:
248,120,318203,1,0,0:0:0:0:
248,120,318616,1,0,0:0:0:0:
256,176,318823,1,8,0:0:0:0:
248,120,319443,1,0,0:0:0:0:
248,120,320062,1,0,0:0:0:0:
248,128,320682,1,8,0:0:0:0:
248,128,320785,1,0,0:0:0:0:
232,160,320888,1,8,0:0:0:0:
248,96,320992,1,0,0:0:0:0:
224,168,321095,1,8,0:0:0:0:
248,160,321301,1,4,0:0:0:0:
232,160,321508,1,0,0:0:0:0:
232,160,321611,1,0,0:0:0:0:
232,160,321715,1,0,0:0:0:0:
232,160,321818,1,0,0:0:0:0:
264,152,321921,1,8,0:0:0:0:
232,160,322128,1,0,0:0:0:0:
232,160,322231,1,0,0:0:0:0:
232,160,322334,1,0,0:0:0:0:
232,160,322437,1,0,0:0:0:0:
256,152,322541,1,8,0:0:0:0:
224,160,322747,1,0,0:0:0:0:
224,160,322850,1,0,0:0:0:0:
232,160,322954,1,0,0:0:0:0:
232,160,323057,1,0,0:0:0:0:
264,152,323160,1,8,0:0:0:0:
264,136,323367,1,0,0:0:0:0:
248,128,323573,1,8,0:0:0:0:
264,136,323677,1,8,0:0:0:0:
264,136,323780,1,0,0:0:0:0:
216,96,323986,1,0,0:0:0:0:
216,96,324090,1,0,0:0:0:0:
216,96,324193,1,0,0:0:0:0:
216,96,324296,1,0,0:0:0:0:
256,152,324400,1,8,0:0:0:0:
216,96,324606,1,0,0:0:0:0:
216,96,324709,1,0,0:0:0:0:
216,96,324813,1,0,0:0:0:0:
216,96,324916,1,0,0:0:0:0:
256,152,325019,1,8,0:0:0:0:
208,88,325226,1,0,0:0:0:0:
208,88,325329,1,0,0:0:0:0:
208,88,325432,1,0,0:0:0:0:
208,88,325536,1,0,0:0:0:0:
256,152,325639,1,8,0:0:0:0:
232,128,325845,1,0,0:0:0:0:
248,128,326052,1,8,0:0:0:0:
248,136,326155,1,8,0:0:0:0:
232,128,326258,1,0,0:0:0:0:
232,80,326465,1,0,0:0:0:0:
232,80,326568,1,0,0:0:0:0:
232,80,326671,1,0,0:0:0:0:
232,80,326775,1,0,0:0:0:0:
256,152,326878,1,8,0:0:0:0:
224,80,327085,1,0,0:0:0:0:
232,80,327188,1,0,0:0:0:0:
232,80,327291,1,0,0:0:0:0:
232,80,327394,1,0,0:0:0:0:
256,152,327498,1,8,0:0:0:0:
224,80,327704,1,0,0:0:0:0:
224,80,327807,1,0,0:0:0:0:
224,80,327911,1,0,0:0:0:0:
224,80,328014,1,0,0:0:0:0:
256,152,328117,1,8,0:0:0:0:
232,112,328324,1,0,0:0:0:0:
248,128,328530,1,8,0:0:0:0:
256,128,328634,1,0,0:0:0:0:
232,112,328737,1,0,0:0:0:0:
240,120,329976,1,8,0:0:0:0:
240,120,330079,1,8,0:0:0:0:
240,120,330182,1,0,0:0:0:0:
240,120,330286,1,8,0:0:0:0:
240,120,330389,1,8,0:0:0:0:
240,120,330492,1,0,0:0:0:0:
240,120,330596,1,8,0:0:0:0:
240,120,330699,1,8,0:0:0:0:
240,120,330802,1,0,0:0:0:0:
240,120,330906,1,8,0:0:0:0:
240,120,331009,1,8,0:0:0:0:
240,120,331112,1,8,0:0:0:0:
240,120,331216,1,0,0:0:0:0:
240,104,331526,1,8,0:0:0:0:
240,104,331836,1,0,0:0:0:0:
240,104,332146,1,8,0:0:0:0:
232,96,332250,1,0,0:0:0:0:
232,96,332353,1,0,0:0:0:0:
240,104,332456,1,8,0:0:0:0:
232,104,332663,1,8,0:0:0:0:
240,96,332767,1,8,0:0:0:0:
240,104,333077,1,0,0:0:0:0:
240,104,333387,1,8,0:0:0:0:
248,88,333491,1,0,0:0:0:0:
248,88,333594,1,0,0:0:0:0:
240,104,333697,1,0,0:0:0:0:
232,104,333904,1,8,0:0:0:0:
240,88,334008,1,8,0:0:0:0:
240,104,334318,1,0,0:0:0:0:
240,88,334525,1,0,0:0:0:0:
240,104,334628,1,8,0:0:0:0:
240,104,334938,1,0,0:0:0:0:
232,104,335145,1,8,0:0:0:0:
240,104,335249,1,8,0:0:0:0:
240,104,335559,1,8,0:0:0:0:
240,88,335766,1,0,0:0:0:0:
240,88,335869,1,8,0:0:0:0:
240,88,336179,1,0,0:0:0:0:
240,104,336490,1,8,0:0:0:0:
240,104,336800,1,0,0:0:0:0:
240,104,337110,1,8,0:0:0:0:
240,80,337213,1,0,0:0:0:0:
240,80,337317,1,0,0:0:0:0:
240,104,337420,1,8,0:0:0:0:
248,64,337627,1,8,0:0:0:0:
240,104,337730,1,8,0:0:0:0:
240,104,338041,1,0,0:0:0:0:
240,104,338351,1,8,0:0:0:0:
256,88,338454,1,0,0:0:0:0:
256,88,338558,1,0,0:0:0:0:
240,104,338661,1,0,0:0:0:0:
240,80,338868,1,8,0:0:0:0:
240,104,338971,1,8,0:0:0:0:
240,104,339282,1,0,0:0:0:0:
256,80,339489,1,0,0:0:0:0:
240,104,339592,1,8,0:0:0:0:
240,104,339902,1,0,0:0:0:0:
240,80,340109,1,8,0:0:0:0:
240,104,340212,1,8,0:0:0:0:
240,104,340523,1,8,0:0:0:0:
256,80,340729,1,0,0:0:0:0:
240,96,340833,1,8,0:0:0:0:
256,80,340936,1,8,0:0:0:0:
256,80,341040,1,8,0:0:0:0:
240,104,341143,1,0,0:0:0:0:
256,80,341350,1,0,0:0:0:0:
256,80,341453,1,0,0:0:0:0:
256,80,341764,1,0,0:0:0:0:
256,88,342074,1,0,0:0:0:0:
248,72,342384,1,0,0:0:0:0:
248,72,342591,1,0,0:0:0:0:
248,72,342694,1,0,0:0:0:0:
240,72,343005,5,0,0:0:0:0:
240,72,343315,1,0,0:0:0:0:
240,72,343625,1,0,0:0:0:0:
248,72,343832,1,0,0:0:0:0:
248,72,343935,1,0,0:0:0:0:
248,72,344245,1,0,0:0:0:0:
240,72,344556,1,0,0:0:0:0:
240,64,344866,1,0,0:0:0:0:
240,64,345073,1,0,0:0:0:0:
240,64,345176,1,0,0:0:0:0:
240,64,345486,1,0,0:0:0:0:
240,64,345797,1,8,0:0:0:0:
232,64,346107,1,0,0:0:0:0:
232,64,346314,1,0,0:0:0:0:
232,64,346417,1,0,0:0:0:0:
232,64,346727,1,0,0:0:0:0:
232,64,347038,1,0,0:0:0:0:
232,64,347348,1,0,0:0:0:0:
232,64,347555,1,0,0:0:0:0:
232,64,347658,1,0,0:0:0:0:
232,64,347968,1,0,0:0:0:0:
232,64,348279,1,0,0:0:0:0:
232,64,348589,1,0,0:0:0:0:
232,64,348796,1,0,0:0:0:0:
232,64,348899,1,0,0:0:0:0:
232,64,349209,1,0,0:0:0:0:
232,64,349520,1,0,0:0:0:0:
232,64,349830,1,8,0:0:0:0:
232,64,349933,1,0,0:0:0:0:
232,64,350037,1,8,0:0:0:0:
232,64,350140,1,0,0:0:0:0:
248,72,350243,1,8,0:0:0:0:
248,80,350347,1,0,0:0:0:0:
232,64,350450,1,0,0:0:0:0:
248,80,350554,1,8,0:0:0:0:
232,64,350760,1,8,0:0:0:0:
248,72,350864,1,8,0:0:0:0:
248,72,350967,1,8,0:0:0:0:
224,72,351071,1,8,0:0:0:0:
224,72,351174,1,0,0:0:0:0:
224,72,351278,1,0,0:0:0:0:
224,64,351381,1,8,0:0:0:0:
232,64,351484,1,0,0:0:0:0:
232,64,351588,1,0,0:0:0:0:
224,64,351691,1,8,0:0:0:0:
224,80,351795,1,0,0:0:0:0:
224,80,351898,1,0,0:0:0:0:
224,64,352001,1,8,0:0:0:0:
232,64,352105,1,0,0:0:0:0:
232,64,352208,1,0,0:0:0:0:
232,64,352312,1,8,0:0:0:0:
232,64,352518,1,0,0:0:0:0:
224,48,352622,1,8,0:0:0:0:
232,64,352829,1,0,0:0:0:0:
232,64,352932,1,8,0:0:0:0:
272,56,353036,1,0,0:0:0:0:
232,64,353139,1,0,0:0:0:0:
232,64,353242,1,8,0:0:0:0:
232,56,353449,1,8,0:0:0:0:
232,56,353553,1,0,0:0:0:0:
216,48,353863,1,8,0:0:0:0:
216,48,354173,1,0,0:0:0:0:
216,48,354483,1,8,0:0:0:0:
224,80,354587,1,0,0:0:0:0:
224,80,354690,1,0,0:0:0:0:
224,80,354794,1,8,0:0:0:0:
224,80,355000,1,0,0:0:0:0:
216,48,355104,1,8,0:0:0:0:
232,56,355414,1,0,0:0:0:0:
216,48,355724,1,8,0:0:0:0:
224,80,355828,1,8,0:0:0:0:
224,80,355931,1,8,0:0:0:0:
216,48,356035,1,0,0:0:0:0:
224,80,356241,1,0,0:0:0:0:
216,48,356345,1,8,0:0:0:0:
216,48,356655,1,0,0:0:0:0:
224,80,356862,1,0,0:0:0:0:
216,48,356965,1,8,0:0:0:0:
232,56,357275,1,0,0:0:0:0:
224,80,357482,1,8,0:0:0:0:
216,48,357586,1,8,0:0:0:0:
216,48,357896,1,8,0:0:0:0:
224,80,358103,1,0,0:0:0:0:
216,48,358206,1,8,0:0:0:0:
224,80,358516,1,4,0:0:0:0:
216,48,358827,1,8,0:0:0:0:
232,56,359137,1,0,0:0:0:0:
216,48,359447,1,8,0:0:0:0:
224,120,359551,1,0,0:0:0:0:
224,120,359654,1,0,0:0:0:0:
216,48,359757,1,8,0:0:0:0:
224,120,359964,1,8,0:0:0:0:
216,48,360068,1,8,0:0:0:0:
216,48,360378,1,0,0:0:0:0:
216,48,360688,1,8,0:0:0:0:
224,120,360792,1,8,0:0:0:0:
224,120,360895,1,8,0:0:0:0:
232,56,360998,1,0,0:0:0:0:
224,120,361205,1,8,0:0:0:0:
216,48,361309,1,8,0:0:0:0:
216,48,361619,1,0,0:0:0:0:
224,120,361826,1,8,0:0:0:0:
216,48,361929,1,8,0:0:0:0:
224,128,362239,1,8,0:0:0:0:
224,120,362343,1,0,0:0:0:0:
224,120,362446,1,8,0:0:0:0:
216,48,362550,1,8,0:0:0:0:
224,120,362653,1,0,0:0:0:0:
224,120,362756,1,0,0:0:0:0:
216,112,362860,1,8,0:0:0:0:
224,120,362963,1,8,0:0:0:0:
224,120,363067,1,0,0:0:0:0:
216,48,363170,1,8,0:0:0:0:
232,112,363273,1,8,0:0:0:0:
232,112,363377,1,8,0:0:0:0:
232,112,363480,1,0,0:0:0:0:
232,112,363687,1,0,0:0:0:0:
216,48,363790,1,8,0:0:0:0:
216,48,364101,1,0,0:0:0:0:
216,48,364411,1,8,0:0:0:0:
216,48,364721,1,0,0:0:0:0:
224,112,364928,1,0,0:0:0:0:
216,48,365031,1,8,0:0:0:0:
232,56,365342,1,0,0:0:0:0:
216,48,365652,1,8,0:0:0:0:
216,48,365962,1,8,0:0:0:0:
224,112,366169,1,0,0:0:0:0:
216,48,366272,1,8,0:0:0:0:
216,48,366583,1,0,0:0:0:0:
216,48,366893,1,8,0:0:0:0:
232,56,367203,1,0,0:0:0:0:
224,112,367410,1,0,0:0:0:0:
216,48,367513,1,8,0:0:0:0:
216,48,367824,1,0,0:0:0:0:
224,112,367927,1,8,0:0:0:0:
224,112,368030,1,8,0:0:0:0:
216,48,368134,1,0,0:0:0:0:
224,112,368237,1,8,0:0:0:0:
224,112,368341,1,8,0:0:0:0:
216,48,368444,1,0,0:0:0:0:
224,112,368651,1,8,0:0:0:0:
216,48,368754,1,8,0:0:0:0:
232,56,369065,1,0,0:0:0:0:
216,48,369375,1,8,0:0:0:0:
216,48,369685,1,0,0:0:0:0:
208,112,369892,1,8,0:0:0:0:
216,48,369995,1,8,0:0:0:0:
216,48,370305,1,0,0:0:0:0:
216,48,370616,1,8,0:0:0:0:
232,56,370926,1,0,0:0:0:0:
216,104,371133,1,8,0:0:0:0:
216,48,371236,1,8,0:0:0:0:
216,48,371546,1,0,0:0:0:0:
216,48,371857,1,8,0:0:0:0:
216,48,372167,1,8,0:0:0:0:
216,104,372270,1,0,0:0:0:0:
216,104,372374,1,8,0:0:0:0:
216,104,372477,1,0,0:0:0:0:
216,104,372581,1,8,0:0:0:0:
216,104,372684,1,0,0:0:0:0:
216,104,372787,1,0,0:0:0:0:
216,72,372891,1,8,0:0:0:0:
216,104,373098,1,8,0:0:0:0:
224,96,373201,1,8,0:0:0:0:
224,96,373304,1,8,0:0:0:0:
240,104,373408,1,8,0:0:0:0:
224,96,373809,1,0,0:0:0:0:
224,96,374077,1,0,0:0:0:0:
200,80,374211,1,8,0:0:0:0:
200,88,374479,1,8,0:0:0:0:
224,96,374747,1,0,0:0:0:0:
224,96,375015,1,0,0:0:0:0:
224,96,375416,1,0,0:0:0:0:
224,96,375483,1,0,0:0:0:0:
200,88,375550,1,8,0:0:0:0:
224,104,375684,1,0,0:0:0:0:
200,96,375818,1,0,0:0:0:0:
200,80,375952,1,8,0:0:0:0:
224,104,376086,1,0,0:0:0:0:
200,80,376354,1,4,0:0:0:0:
232,96,376756,1,0,0:0:0:0:
232,96,377024,1,0,0:0:0:0:
200,80,377158,1,8,0:0:0:0:
200,80,377425,1,8,0:0:0:0:
232,88,377693,1,0,0:0:0:0:
232,96,377961,1,0,0:0:0:0:
232,96,378095,1,0,0:0:0:0:
200,80,378229,1,8,0:0:0:0:
200,80,378497,1,8,0:0:0:0:
200,80,378564,1,8,0:0:0:0:
200,80,378631,1,8,0:0:0:0:
232,96,378765,1,0,0:0:0:0:
200,80,378899,1,8,0:0:0:0:
232,88,379033,1,0,0:0:0:0:
200,80,379166,1,8,0:0:0:0:
248,104,379300,1,4,0:0:0:0:
224,96,379701,1,4,0:0:0:0:
224,96,380103,1,4,0:0:0:0:
224,96,380371,1,4,0:0:0:0:
224,96,380639,1,0,0:0:0:0:
200,80,380773,1,8,0:0:0:0:
200,80,380907,1,8,0:0:0:0:
224,96,381041,1,4,0:0:0:0:
200,80,381442,1,8,0:0:0:0:
200,80,381576,1,8,0:0:0:0:
200,80,381710,1,8,0:0:0:0:
216,80,381844,1,8,0:0:0:0:
216,80,381978,1,4,0:0:0:0:
224,72,382380,1,4,0:0:0:0:
224,72,382782,1,8,0:0:0:0:
224,72,382849,1,8,0:0:0:0:
224,72,382916,1,8,0:0:0:0:
224,72,383050,1,8,0:0:0:0:
224,72,383116,1,8,0:0:0:0:
224,72,383183,1,8,0:0:0:0:
184,48,383317,1,4,0:0:0:0:
208,72,383718,1,8,0:0:0:0:
208,72,383986,1,0,0:0:0:0:
200,48,384120,1,12,0:0:0:0:
208,72,384388,1,0,0:0:0:0:
208,64,384656,1,0,0:0:0:0:
208,64,384790,1,0,0:0:0:0:
200,64,384924,1,12,0:0:0:0:
200,64,385325,1,0,0:0:0:0:
192,64,385727,1,12,0:0:0:0:
192,56,385995,1,0,0:0:0:0:
192,56,386129,1,8,0:0:0:0:
200,56,386397,1,8,0:0:0:0:
200,56,386531,1,4,0:0:0:0:
200,48,386933,1,0,0:0:0:0:
200,48,387200,1,0,0:0:0:0:
200,48,387334,1,12,0:0:0:0:
200,48,387602,1,0,0:0:0:0:
184,40,388004,1,0,0:0:0:0:
264,120,388071,1,0,0:0:0:0:
184,40,388138,1,8,0:0:0:0:
184,40,388272,1,0,0:0:0:0:
184,40,388406,1,0,0:0:0:0:
184,40,388540,1,8,0:0:0:0:
184,40,388674,1,0,0:0:0:0:
184,40,388808,1,0,0:0:0:0:
176,48,388942,1,8,0:0:0:0:
184,40,389075,1,0,0:0:0:0:
176,56,389209,1,0,0:0:0:0:
176,8,389343,1,0,0:0:0:0:
184,40,389477,1,8,0:0:0:0:
184,40,389611,1,8,0:0:0:0:
192,48,389745,1,4,0:0:0:0:
184,48,390147,1,8,0:0:0:0:
176,48,390415,1,0,0:0:0:0:
176,48,390549,1,12,0:0:0:0:
176,48,390817,1,0,0:0:0:0:
176,48,391084,1,0,0:0:0:0:
176,48,391218,1,0,0:0:0:0:
184,48,391352,1,12,0:0:0:0:
176,48,391754,1,0,0:0:0:0:
168,48,392156,1,12,0:0:0:0:
168,48,392424,1,0,0:0:0:0:
168,48,392558,1,8,0:0:0:0:
168,48,392825,1,8,0:0:0:0:
168,48,392959,1,4,0:0:0:0:
168,48,393227,1,0,0:0:0:0:
168,48,393361,1,0,0:0:0:0:
168,48,393629,1,0,0:0:0:0:
176,56,393763,1,12,0:0:0:0:
168,48,394031,1,0,0:0:0:0:
184,48,394165,1,0,0:0:0:0:
176,56,394433,1,0,0:0:0:0:
168,40,394567,1,12,0:0:0:0:
168,48,394834,1,0,0:0:0:0:
168,48,394968,1,0,0:0:0:0:
168,56,395102,1,0,0:0:0:0:
168,56,395236,1,0,0:0:0:0:
168,56,395370,1,8,0:0:0:0:
168,56,395504,1,8,0:0:0:0:
168,56,395638,1,8,0:0:0:0:
176,56,395772,1,8,0:0:0:0:
176,56,395906,1,8,0:0:0:0:
176,56,396040,1,8,0:0:0:0:
176,64,396174,1,8,0:0:0:0:
176,64,396307,1,0,0:0:0:0:
176,64,396441,1,0,0:0:0:0:
176,64,396575,1,8,0:0:0:0:
176,64,396709,1,0,0:0:0:0:
176,64,396843,1,0,0:0:0:0:
176,64,396977,1,8,0:0:0:0:
176,64,397111,1,8,0:0:0:0:
176,56,397245,1,0,0:0:0:0:
176,64,397379,1,0,0:0:0:0:
176,64,397513,1,8,0:0:0:0:
176,64,397647,1,8,0:0:0:0:
176,64,397781,1,0,0:0:0:0:
176,64,397915,1,0,0:0:0:0:
176,64,398049,1,8,0:0:0:0:
176,64,398182,1,8,0:0:0:0:
176,64,398316,1,0,0:0:0:0:
176,64,398450,1,8,0:0:0:0:
176,64,398584,1,0,0:0:0:0:
176,64,398718,1,0,0:0:0:0:
176,64,398852,1,8,0:0:0:0:
176,64,399120,1,12,0:0:0:0:
176,64,399254,1,12,0:0:0:0:
176,64,401129,5,8,0:0:0:0:
248,112,401244,1,8,0:0:0:0:
184,40,401359,1,8,0:0:0:0:
200,48,401475,1,8,0:0:0:0:
184,48,401798,1,8,0:0:0:0:
176,24,401923,1,8,0:0:0:0:
184,32,402048,1,8,0:0:0:0:
184,32,402173,1,8,0:0:0:0:
240,120,402298,1,0,0:0:0:0:
256,120,402423,1,0,0:0:0:0:
224,80,402548,1,0,0:0:0:0:
256,120,402673,1,0,0:0:0:0:
216,48,402875,1,8,0:0:0:0:
216,48,403000,1,8,0:0:0:0:
184,48,403125,1,0,0:0:0:0:
184,48,403250,1,12,0:0:0:0:
256,192,403375,12,0,406750,0:0:0:0:
