osu file format v14

[General]
AudioFilename: audio.mp3
AudioLeadIn: 0
PreviewTime: 84017
Countdown: 1
SampleSet: Normal
StackLeniency: 0.7
Mode: 0
LetterboxInBreaks: 0
WidescreenStoryboard: 0

[Editor]
Bookmarks: 65437,65454,65471,65488,65505,65522
DistanceSpacing: 0.4
BeatDivisor: 4
GridSize: 4
TimelineZoom: 3.699999

[Metadata]
Title:Zolotye kupola (speedcore remix)
TitleUnicode:Золотые купола (speedcore remix)
Artist:Mikhail Krug
ArtistUnicode:Михаил Круг
Creator:Morbon
Version:Not a single pound of gold
Source:
Tags:
BeatmapID:1413052
BeatmapSetID:667853

[Difficulty]
HPDrainRate:3
CircleSize:3
OverallDifficulty:9
ApproachRate:10
SliderMultiplier:2.5
SliderTickRate:1

[Events]
//Background and Video events
0,0,"artleo.com-182316.jpg",0,0
//Break Periods
2,50262,51901
2,84149,91174
//Storyboard Layer 0 (Background)
//Storyboard Layer 1 (Fail)
//Storyboard Layer 2 (Pass)
//Storyboard Layer 3 (Foreground)
//Storyboard Sound Samples

[TimingPoints]
3290,272.727272727273,4,1,0,70,1,0
104471,-50,4,1,0,70,0,0
104744,-100,4,1,0,70,0,0
134199,-66.6666666666667,4,1,0,70,0,0
134471,-100,4,1,0,70,0,0
135290,-66.6666666666667,4,1,0,70,0,0
135562,-100,4,1,0,70,0,0
136380,-66.6666666666667,4,1,0,70,0,0
136653,-100,4,1,0,70,0,0
138562,-66.6666666666667,4,1,0,70,0,1
138971,-66.6666666666667,4,1,0,70,0,0
139040,-66.6666666666667,4,1,0,70,0,1
139517,-66.6666666666667,4,1,0,70,0,0
139585,-66.6666666666667,4,1,0,70,0,1
139790,-66.6666666666667,4,1,0,70,0,0
139858,-66.6666666666667,4,1,0,70,0,1
140062,-66.6666666666667,4,1,0,70,0,0
140130,-66.6666666666667,4,1,0,70,0,1
140335,-66.6666666666667,4,1,0,70,0,0
140403,-66.6666666666667,4,1,0,70,0,1
140608,-66.6666666666667,4,1,0,70,0,0
140676,-66.6666666666667,4,1,0,70,0,1
140812,-66.6666666666667,4,1,0,70,0,0
140949,-66.6666666666667,4,1,0,70,0,1
141017,-66.6666666666667,4,1,0,70,0,0
141085,-66.6666666666667,4,1,0,70,0,1
141153,-66.6666666666667,4,1,0,70,0,0
141221,-66.6666666666667,4,1,0,70,0,1
141426,-66.6666666666667,4,1,0,70,0,0
141494,-66.6666666666667,4,1,0,70,0,1
141699,-66.6666666666667,4,1,0,70,0,0
141767,-66.6666666666667,4,1,0,70,0,1
141971,-66.6666666666667,4,1,0,70,0,0
142040,-66.6666666666667,4,1,0,70,0,1
142108,-66.6666666666667,4,1,0,70,0,0
142176,-66.6666666666667,4,1,0,70,0,1
142244,-66.6666666666667,4,1,0,70,0,0
142312,-66.6666666666667,4,1,0,70,0,1
142790,-66.6666666666667,4,1,0,70,0,0
142858,-66.6666666666667,4,1,0,70,0,1
143335,-66.6666666666667,4,1,0,70,0,0
143403,-66.6666666666667,4,1,0,70,0,1
143884,-66.6666666666667,4,1,0,70,0,0
143949,-66.6666666666667,4,1,0,70,0,1
144153,-66.6666666666667,4,1,0,70,0,0
144221,-66.6666666666667,4,1,0,70,0,1
144426,-66.6666666666667,4,1,0,70,0,0
144494,-66.6666666666667,4,1,0,70,0,1
144699,-66.6666666666667,4,1,0,70,0,0
144767,-66.6666666666667,4,1,0,70,0,1
144971,-66.6666666666667,4,1,0,70,0,0
145040,-66.6666666666667,4,1,0,70,0,1
145176,-66.6666666666667,4,1,0,70,0,0
145312,-66.6666666666667,4,1,0,70,0,1
145380,-66.6666666666667,4,1,0,70,0,0
145449,-66.6666666666667,4,1,0,70,0,1
145517,-66.6666666666667,4,1,0,70,0,0
145585,-66.6666666666667,4,1,0,70,0,1
145790,-66.6666666666667,4,1,0,70,0,0
145858,-66.6666666666667,4,1,0,70,0,1
146062,-66.6666666666667,4,1,0,70,0,0
146130,-66.6666666666667,4,1,0,70,0,1
146335,-66.6666666666667,4,1,0,70,0,0
146403,-66.6666666666667,4,1,0,70,0,1
146471,-66.6666666666667,4,1,0,70,0,0
146540,-66.6666666666667,4,1,0,70,0,1
146608,-66.6666666666667,4,1,0,70,0,0
146676,-66.6666666666667,4,1,0,70,0,1
147153,-66.6666666666667,4,1,0,70,0,0
147221,-66.6666666666667,4,1,0,70,0,1
147426,-66.6666666666667,4,1,0,70,0,0
147767,-66.6666666666667,4,1,0,70,0,1
147971,-66.6666666666667,4,1,0,70,0,0
148312,-66.6666666666667,4,1,0,70,0,1
148380,-66.6666666666667,4,1,0,70,0,0
148449,-66.6666666666667,4,1,0,70,0,1
148517,-66.6666666666667,4,1,0,70,0,0
148585,-66.6666666666667,4,1,0,70,0,1
148653,-66.6666666666667,4,1,0,70,0,0
148721,-66.6666666666667,4,1,0,70,0,1
148790,-66.6666666666667,4,1,0,70,0,0
148858,-66.6666666666667,4,1,0,70,0,1
149062,-66.6666666666667,4,1,0,70,0,0
149403,-66.6666666666667,4,1,0,70,0,1
149608,-66.6666666666667,4,1,0,70,0,0
149949,-66.6666666666667,4,1,0,70,0,1
150153,-66.6666666666667,4,1,0,70,0,0
150494,-66.6666666666667,4,1,0,70,0,1
150562,-66.6666666666667,4,1,0,70,0,0
150630,-66.6666666666667,4,1,0,70,0,1
150699,-66.6666666666667,4,1,0,70,0,0
150767,-66.6666666666667,4,1,0,70,0,1
150835,-66.6666666666667,4,1,0,70,0,0
150903,-66.6666666666667,4,1,0,70,0,1
150971,-66.6666666666667,4,1,0,70,0,0
151040,-66.6666666666667,4,1,0,70,0,1
151244,-66.6666666666667,4,1,0,70,0,0
151585,-66.6666666666667,4,1,0,70,0,1
151790,-66.6666666666667,4,1,0,70,0,0
152130,-66.6666666666667,4,1,0,70,0,1
152335,-66.6666666666667,4,1,0,70,0,0
152676,-66.6666666666667,4,1,0,70,0,1
152744,-66.6666666666667,4,1,0,70,0,0
152812,-66.6666666666667,4,1,0,70,0,1
152880,-66.6666666666667,4,1,0,70,0,0
152949,-66.6666666666667,4,1,0,70,0,1
153017,-66.6666666666667,4,1,0,70,0,0
153085,-66.6666666666667,4,1,0,70,0,1
153153,-66.6666666666667,4,1,0,70,0,0
153221,-66.6666666666667,4,1,0,70,0,1
153426,-66.6666666666667,4,1,0,70,0,0
153767,-66.6666666666667,4,1,0,70,0,1
153971,-66.6666666666667,4,1,0,70,0,0
154312,-66.6666666666667,4,1,0,70,0,1
154517,-66.6666666666667,4,1,0,70,0,0
154858,-66.6666666666667,4,1,0,70,0,1
154926,-66.6666666666667,4,1,0,70,0,0
154994,-66.6666666666667,4,1,0,70,0,1
155062,-66.6666666666667,4,1,0,70,0,0
155130,-66.6666666666667,4,1,0,70,0,1
155199,-66.6666666666667,4,1,0,70,0,0
155267,-66.6666666666667,4,1,0,70,0,1
155335,-66.6666666666667,4,1,0,70,0,0
155403,-66.6666666666667,4,1,0,70,0,1
155608,-66.6666666666667,4,1,0,70,0,0
156017,-100,4,1,0,70,0,0

[HitObjects]
256,192,17,12,0,1926,0:0:0:0:
40,56,1994,6,0,L|108:32,6,62.5
172,88,2471,2,0,L|212:88,15,31.25
232,164,3017,2,0,L|256:168,15,15.625
204,272,3290,5,0,0:0:0:0:
119,38,3426,1,0,0:0:0:0:
362,81,3562,1,0,0:0:0:0:
32,160,3699,1,0,0:0:0:0:
480,256,3835,5,0,0:0:0:0:
272,48,3971,1,0,0:0:0:0:
288,320,4108,2,0,B|228:312|228:312|160:328|160:328|88:308,1,187.5
32,32,4380,5,0,0:0:0:0:
92,228,4517,1,0,0:0:0:0:
480,32,4653,1,0,0:0:0:0:
420,228,4790,1,0,0:0:0:0:
32,32,4926,1,0,0:0:0:0:
92,228,5063,1,0,0:0:0:0:
480,32,5199,2,0,P|492:124|456:248,1,187.5
32,320,5471,5,0,0:0:0:0:
224,32,5608,1,0,0:0:0:0:
224,32,5676,1,0,0:0:0:0:
224,32,5744,1,0,0:0:0:0:
256,320,5880,1,0,0:0:0:0:
39,62,6017,2,0,L|231:30,1,187.5
492,48,6290,2,0,L|300:80,1,187.5
131,334,6562,6,0,L|256:320,1,125
416,192,6835,1,0,0:0:0:0:
384,352,6971,1,0,0:0:0:0:
64,64,7108,1,0,0:0:0:0:
320,32,7244,1,0,0:0:0:0:
62,339,7380,2,0,P|33:273|97:307,1,187.5
224,352,7653,5,0,0:0:0:0:
448,288,7790,1,0,0:0:0:0:
160,256,7926,1,0,0:0:0:0:
320,96,8062,1,0,0:0:0:0:
64,192,8199,1,0,0:0:0:0:
480,128,8335,1,0,0:0:0:0:
164,36,8471,2,0,P|152:112|180:200,1,125
416,320,8744,5,0,0:0:0:0:
128,320,8880,1,0,0:0:0:0:
224,96,9017,5,0,0:0:0:0:
512,96,9153,1,0,0:0:0:0:
304,276,9290,5,0,0:0:0:0:
16,276,9426,1,0,0:0:0:0:
416,32,9562,6,0,B|424:96|424:96|416:156,1,125
160,344,9835,6,0,P|112:288|92:204,1,125
95,241,10040,1,0,0:0:0:0:
95,241,10108,1,0,0:0:0:0:
288,64,10244,1,0,0:0:0:0:
480,256,10380,2,0,B|364:256|364:256|364:220,1,125
32,144,10653,2,0,B|148:144|148:144|148:108,1,125
416,32,10926,5,0,0:0:0:0:
380,352,11062,1,0,0:0:0:0:
96,32,11199,1,0,0:0:0:0:
132,352,11335,1,0,0:0:0:0:
416,32,11471,5,0,0:0:0:0:
448,92,11540,1,0,0:0:0:0:
464,160,11608,1,0,0:0:0:0:
460,228,11676,1,0,0:0:0:0:
440,292,11744,1,0,0:0:0:0:
384,328,11812,2,0,B|348:336|348:336|304:332,1,62.5
260,308,11949,1,0,0:0:0:0:
212,260,12017,6,0,B|148:248|148:248|64:268,1,125
352,64,12290,2,0,B|416:52|416:52|500:72,1,125
316,324,12562,1,0,0:0:0:0:
32,192,12699,1,0,0:0:0:0:
480,256,12835,1,0,0:0:0:0:
128,32,12971,1,0,0:0:0:0:
64,352,13108,5,0,0:0:0:0:
64,352,13244,1,0,0:0:0:0:
416,32,13380,1,0,0:0:0:0:
416,32,13517,1,0,0:0:0:0:
32,192,13653,1,0,0:0:0:0:
32,192,13790,1,0,0:0:0:0:
448,192,13926,2,0,P|464:260|428:320,1,125
24,56,14199,6,0,P|84:48|168:72,1,125
208,132,14403,1,0,0:0:0:0:
268,204,14471,2,0,P|328:212|412:188,1,125
216,28,14744,1,0,0:0:0:0:
56,284,14880,1,0,0:0:0:0:
216,28,15017,1,0,0:0:0:0:
56,284,15153,1,0,0:0:0:0:
480,232,15290,6,0,P|420:244|351:239,1,125
128,64,15562,1,0,0:0:0:0:
408,136,15699,1,0,0:0:0:0:
192,288,15835,1,0,0:0:0:0:
352,32,15971,1,0,0:0:0:0:
355,357,16108,2,0,B|307:353|303:329|303:329|231:341|175:269,1,187.5
64,224,16380,5,0,0:0:0:0:
448,288,16517,1,0,0:0:0:0:
160,32,16653,1,0,0:0:0:0:
191,287,16790,1,0,0:0:0:0:
448,64,16926,1,0,0:0:0:0:
288,352,17062,1,0,0:0:0:0:
64,96,17199,1,0,0:0:0:0:
352,32,17335,1,0,0:0:0:0:
448,352,17471,5,0,0:0:0:0:
64,288,17608,1,0,0:0:0:0:
416,288,17744,1,0,0:0:0:0:
32,224,17880,1,0,0:0:0:0:
384,224,18017,1,0,0:0:0:0:
0,160,18153,1,0,0:0:0:0:
392,140,18290,2,0,P|460:184|444:284,1,187.5
288,352,18562,5,0,0:0:0:0:
160,32,18699,1,0,0:0:0:0:
160,32,18767,1,0,0:0:0:0:
160,32,18835,1,0,0:0:0:0:
416,288,18971,1,0,0:0:0:0:
32,224,19108,2,0,P|16:288|32:348,1,125
488,352,19380,2,0,P|504:288|488:228,1,125
272,48,19653,5,0,0:0:0:0:
260,56,19721,1,0,0:0:0:0:
248,60,19790,1,0,0:0:0:0:
236,68,19858,1,0,0:0:0:0:
224,76,19994,1,0,0:0:0:0:
212,84,20096,1,0,0:0:0:0:
200,92,20199,2,0,L|160:120,6,31.25
236,180,20471,2,0,L|240:196,15,15.625
346,126,20744,6,0,P|436:204|320:176,1,312.5
64,64,21290,5,0,0:0:0:0:
64,64,21358,1,0,0:0:0:0:
64,64,21427,1,0,0:0:0:0:
64,64,21495,1,0,0:0:0:0:
64,64,21562,2,0,B|48:124|48:124|60:188,1,125
160,190,21767,2,0,B|172:252|172:252|156:312,1,125
34,307,21971,2,0,B|94:323|94:323|158:311,1,125
180,300,22176,5,0,0:0:0:0:
204,288,22244,1,0,0:0:0:0:
232,272,22312,6,0,L|252:308,1,31.25
256,260,22381,2,0,L|228:220,1,31.25
280,252,22449,2,0,L|300:288,1,31.25
304,240,22518,2,0,L|276:200,1,31.25
324,232,22585,2,0,L|344:268,1,31.25
348,220,22654,2,0,L|320:180,1,31.25
372,212,22722,2,0,L|392:248,1,31.25
404,200,22790,2,0,L|376:160,1,31.25
448,176,22926,5,0,0:0:0:0:
192,120,23096,1,0,0:0:0:0:
192,120,23199,1,0,0:0:0:0:
60,272,23335,6,0,L|44:284,8,15.625
136,312,23505,2,0,L|140:328,7,15.625
216,312,23659,2,0,L|220:328,7,15.625
288,276,23812,2,0,L|276:244,3,20.8333333333333
400,96,23966,6,0,L|416:116,8,15.625
332,60,24170,2,0,L|328:36,3,15.625
256,56,24238,2,0,L|252:40,3,15.625
180,76,24307,2,0,L|176:52,3,15.625
120,120,24375,2,0,L|104:136,42,15.625
116,128,25108,6,0,L|96:144,7,15.625
196,232,25380,2,0,L|176:248,7,15.625
332,156,25653,2,0,L|312:172,7,15.625
412,260,25925,2,0,L|392:276,7,15.625
268,328,26199,2,0,L|284:348,7,15.625
248,20,26471,2,0,L|232:0,7,15.625
72,372,26744,2,0,L|88:392,7,15.625
20,12,27016,2,0,L|4:-8,7,15.625
452,324,27290,2,0,L|472:308,7,15.625
60,60,27562,2,0,L|40:76,7,15.625
487,146,27835,2,0,L|490:121,7,15.625
24,237,28107,2,0,L|21:262,7,15.625
288,352,28380,5,4,0:0:0:0:
224,32,28517,1,0,0:0:0:0:
192,256,28653,1,4,0:0:0:0:
320,128,28790,1,0,0:0:0:0:
320,128,28926,5,4,0:0:0:0:
128,192,29062,1,4,0:0:0:0:
480,320,29199,1,4,0:0:0:0:
32,64,29335,1,4,0:0:0:0:
384,288,29471,6,0,L|388:312,7,15.625
128,256,29744,2,0,L|124:280,7,15.625
480,96,30017,6,0,L|480:68,7,15.625
224,128,30290,2,0,L|220:104,7,15.625
352,32,30562,6,0,L|376:28,7,15.625
288,320,30835,2,0,L|264:324,7,15.625
196,20,31108,6,0,L|168:16,7,15.625
472,168,31380,2,0,L|496:164,7,15.625
128,288,31653,6,0,L|124:312,7,15.625
358,151,31926,2,0,L|356:128,7,15.625
112,96,32199,6,0,L|112:72,7,15.625
320,288,32471,2,0,L|324:316,7,15.625
92,36,32744,5,0,0:0:0:0:
56,69,32812,1,0,0:0:0:0:
53,117,32880,1,0,0:0:0:0:
85,154,32948,1,0,0:0:0:0:
134,158,33016,1,0,0:0:0:0:
171,126,33084,1,0,0:0:0:0:
176,78,33153,1,0,0:0:0:0:
145,40,33221,1,0,0:0:0:0:
92,36,33290,6,0,L|32:24,3,31.25
60,112,33426,2,0,L|0:100,3,31.25
171,126,33562,2,0,L|201:119,3,31.25
203,202,33698,2,0,L|233:195,3,31.25
128,264,33835,6,0,L|112:280,7,15.625
164,276,33971,2,0,L|148:292,6,15.625
252,280,34108,6,0,L|236:296,7,15.625
288,292,34244,2,0,L|272:308,6,15.625
312,164,34380,6,0,L|296:148,7,15.625
348,152,34516,2,0,L|332:136,6,15.625
444,168,34653,6,0,L|428:152,7,15.625
480,156,34789,2,0,L|464:140,6,15.625
208,144,34926,6,0,L|196:132,7,15.625
172,156,35062,2,0,L|160:144,6,15.625
76,140,35199,6,0,L|64:128,7,15.625
40,152,35335,2,0,L|28:140,6,15.625
212,272,35471,6,0,L|223:283,7,15.625
248,260,35607,2,0,L|259:271,6,15.625
344,276,35744,6,0,L|355:287,7,15.625
380,264,35880,2,0,L|391:275,5,15.625
511,357,36017,6,0,B|452:348|452:348|388:360,1,125
140,312,36290,2,0,B|76:300|76:300|16:309,1,125
0,48,36562,2,0,B|59:38|59:38|123:50,1,125
371,2,36835,2,0,B|435:-10|435:-10|494:0,1,125
64,160,37108,5,0,0:0:0:0:
416,288,37244,1,0,0:0:0:0:
68,144,37380,1,0,0:0:0:0:
420,272,37516,1,0,0:0:0:0:
224,32,37653,5,0,0:0:0:0:
288,352,37790,1,0,0:0:0:0:
140,48,37926,2,0,L|12:64,1,125
288,256,38199,5,0,0:0:0:0:
332,280,38267,1,0,0:0:0:0:
380,276,38335,1,0,0:0:0:0:
424,252,38403,1,0,0:0:0:0:
452,212,38471,2,0,P|444:152|444:128,1,62.5
351,34,38608,2,0,P|354:65|360:96,1,62.5
288,160,38744,5,0,0:0:0:0:
32,216,38880,1,0,0:0:0:0:
208,224,39017,5,0,0:0:0:0:
440,344,39153,1,0,0:0:0:0:
187,321,39290,5,0,0:0:0:0:
143,345,39358,1,0,0:0:0:0:
95,341,39426,1,0,0:0:0:0:
51,317,39494,1,0,0:0:0:0:
23,277,39562,2,0,P|31:217|31:193,1,62.5
144,48,39699,2,0,P|141:79|135:109,1,62.5
224,192,39835,5,0,0:0:0:0:
480,64,39971,1,0,0:0:0:0:
288,352,40108,1,0,0:0:0:0:
224,32,40244,1,0,0:0:0:0:
384,352,40380,5,0,0:0:0:0:
432,337,40448,1,0,0:0:0:0:
463,301,40516,1,0,0:0:0:0:
477,253,40584,1,0,0:0:0:0:
468,204,40652,2,0,P|419:167|402:150,1,62.5
144,64,40789,2,0,P|167:84|193:102,1,62.5
160,224,40926,5,0,0:0:0:0:
416,32,41062,1,0,0:0:0:0:
320,320,41199,5,0,0:0:0:0:
64,128,41335,1,0,0:0:0:0:
276,64,41471,5,0,0:0:0:0:
312,96,41540,1,0,0:0:0:0:
360,116,41608,1,0,0:0:0:0:
408,120,41676,1,0,0:0:0:0:
456,116,41744,2,0,P|480:84|492:40,1,62.5
192,36,41880,2,0,P|188:72|196:120,1,62.5
288,256,42017,5,0,0:0:0:0:
64,32,42153,1,0,0:0:0:0:
160,352,42290,1,0,0:0:0:0:
384,64,42426,1,0,0:0:0:0:
128,160,42562,6,0,P|112:232|120:288,1,125,4|0,0:0|0:0,0:0:0:0:
352,320,42835,1,4,0:0:0:0:
384,64,42971,1,0,0:0:0:0:
96,160,43108,6,0,P|80:232|88:288,1,125,4|0,0:0|0:0,0:0:0:0:
384,328,43381,1,4,0:0:0:0:
416,48,43517,1,0,0:0:0:0:
64,160,43653,6,0,P|48:232|56:288,1,125,4|0,0:0|0:0,0:0:0:0:
416,336,43926,1,4,0:0:0:0:
448,32,44062,1,0,0:0:0:0:
32,160,44199,6,0,P|16:232|24:288,1,125,4|0,0:0|0:0,0:0:0:0:
448,344,44472,1,4,0:0:0:0:
480,16,44608,1,0,0:0:0:0:
104,312,44744,5,0,0:0:0:0:
192,32,44880,1,0,0:0:0:0:
124,320,45017,5,0,0:0:0:0:
212,40,45153,1,0,0:0:0:0:
144,328,45290,5,0,0:0:0:0:
232,48,45426,1,0,0:0:0:0:
164,336,45563,5,0,0:0:0:0:
252,56,45699,1,0,0:0:0:0:
184,344,45835,5,0,0:0:0:0:
232,352,45903,1,0,0:0:0:0:
280,336,45971,1,0,0:0:0:0:
320,304,46040,1,0,0:0:0:0:
416,32,46176,1,0,0:0:0:0:
288,160,46278,1,0,0:0:0:0:
488,212,46380,6,0,L|504:244,7,31.25
480,328,46653,2,0,L|476:343,16,15.625
256,192,46994,12,0,50062,0:0:0:0:
210,362,52380,5,0,0:0:0:0:
85,146,52653,1,0,0:0:0:0:
301,21,52926,1,0,0:0:0:0:
426,237,53199,1,0,0:0:0:0:
102,280,53471,5,0,0:0:0:0:
409,103,53744,1,0,0:0:0:0:
344,345,54017,1,0,0:0:0:0:
167,38,54290,1,0,0:0:0:0:
480,336,54562,5,0,0:0:0:0:
32,224,54835,1,0,0:0:0:0:
480,48,55108,1,0,0:0:0:0:
96,336,55380,1,0,0:0:0:0:
144,48,55653,6,0,L|148:16,15,31.25
168,52,56199,5,0,0:0:0:0:
192,56,56267,1,0,0:0:0:0:
216,60,56335,1,0,0:0:0:0:
240,64,56403,1,0,0:0:0:0:
264,68,56471,1,0,0:0:0:0:
288,72,56540,1,0,0:0:0:0:
312,76,56608,1,0,0:0:0:0:
336,80,56676,1,0,0:0:0:0:
360,84,56744,6,0,L|368:132,31,31.25
392,96,57835,6,0,P|408:156|396:232,1,125
256,320,58108,1,0,0:0:0:0:
116,208,58244,1,0,0:0:0:0:
112,216,58312,1,0,0:0:0:0:
108,224,58380,1,0,0:0:0:0:
104,232,58449,1,0,0:0:0:0:
100,240,58517,1,0,0:0:0:0:
32,56,58653,1,0,0:0:0:0:
36,48,58721,1,0,0:0:0:0:
40,40,58789,1,0,0:0:0:0:
44,32,58858,1,0,0:0:0:0:
48,24,58926,5,0,0:0:0:0:
256,96,59062,1,0,0:0:0:0:
128,96,59198,1,0,0:0:0:0:
352,32,59335,1,0,0:0:0:0:
256,224,59471,1,0,0:0:0:0:
252,216,59540,1,0,0:0:0:0:
248,208,59608,1,0,0:0:0:0:
176,16,59744,1,0,0:0:0:0:
208,24,59812,1,0,0:0:0:0:
240,32,59880,1,0,0:0:0:0:
272,40,59949,1,0,0:0:0:0:
304,48,60017,5,0,0:0:0:0:
308,64,60085,1,0,0:0:0:0:
312,80,60153,1,0,0:0:0:0:
256,272,60290,1,0,0:0:0:0:
416,104,60426,1,0,0:0:0:0:
224,128,60562,1,0,0:0:0:0:
216,124,60630,1,0,0:0:0:0:
208,120,60699,1,0,0:0:0:0:
416,256,60835,1,0,0:0:0:0:
424,260,60903,1,0,0:0:0:0:
432,264,60972,1,0,0:0:0:0:
128,320,61108,6,0,P|88:324|40:316,2,62.5
288,32,61380,1,0,0:0:0:0:
192,256,61517,1,0,0:0:0:0:
64,96,61653,1,0,0:0:0:0:
36,84,61721,1,0,0:0:0:0:
36,52,61790,1,0,0:0:0:0:
64,36,61858,1,0,0:0:0:0:
96,40,61926,1,0,0:0:0:0:
124,48,61994,1,0,0:0:0:0:
152,60,62062,1,0,0:0:0:0:
184,68,62130,1,0,0:0:0:0:
216,68,62199,5,0,0:0:0:0:
448,32,62335,1,0,0:0:0:0:
384,268,62471,1,0,0:0:0:0:
216,68,62608,1,0,0:0:0:0:
128,320,62744,1,0,0:0:0:0:
384,268,62880,1,0,0:0:0:0:
216,68,63017,1,0,0:0:0:0:
212,72,63085,1,0,0:0:0:0:
208,76,63154,1,0,0:0:0:0:
204,80,63221,1,0,0:0:0:0:
200,84,63290,5,0,0:0:0:0:
176,76,63358,1,0,0:0:0:0:
152,68,63426,1,0,0:0:0:0:
320,128,63562,1,0,0:0:0:0:
32,192,63699,1,0,0:0:0:0:
224,352,63835,1,0,0:0:0:0:
256,332,63903,1,0,0:0:0:0:
292,320,63971,1,0,0:0:0:0:
328,320,64040,1,0,0:0:0:0:
364,324,64108,1,0,0:0:0:0:
448,128,64244,1,0,0:0:0:0:
432,96,64312,1,0,0:0:0:0:
448,60,64380,5,0,0:0:0:0:
224,96,64517,1,0,0:0:0:0:
416,256,64653,1,0,0:0:0:0:
288,32,64790,1,0,0:0:0:0:
480,192,64926,1,0,0:0:0:0:
256,288,65062,1,0,0:0:0:0:
416,32,65199,1,0,0:0:0:0:
416,352,65335,1,0,0:0:0:0:
96,160,65471,6,0,L|44:164,7,31.25
144,56,65744,2,0,L|92:52,7,31.25
236,160,66017,6,0,L|184:164,3,31.25
272,60,66153,2,0,L|220:56,3,31.25
328,152,66290,2,0,L|359:149,3,31.25
364,47,66426,2,0,L|395:49,3,31.25
444,136,66562,6,0,P|445:73|421:16,2,125
184,48,66971,1,0,0:0:0:0:
160,256,67108,2,0,L|28:272,1,125
121,111,67380,1,0,0:0:0:0:
304,217,67517,1,0,0:0:0:0:
160,256,67653,5,0,0:0:0:0:
266,72,67790,1,0,0:0:0:0:
352,352,67926,1,0,0:0:0:0:
160,256,68062,1,0,0:0:0:0:
320,4,68199,6,0,L|356:56,1,62.5
355,55,68335,1,0,0:0:0:0:
476,224,68471,2,0,L|512:172,1,62.5
511,172,68608,1,0,0:0:0:0:
164,76,68744,6,0,B|92:116|32:68|32:68|12:140,1,187.5
72,208,69017,1,0,0:0:0:0:
100,0,69153,1,0,0:0:0:0:
264,140,69290,6,0,L|400:132,1,125
68,332,69562,2,0,L|72:208,1,125
264,312,69835,6,0,B|304:360|304:360|360:328|428:340,1,187.5
336,168,70108,2,0,B|296:120|296:120|240:152|172:140,1,187.5
160,320,70380,1,0,0:0:0:0:
148,36,70517,1,0,0:0:0:0:
32,256,70653,1,0,0:0:0:0:
32,256,70721,1,0,0:0:0:0:
32,256,70790,1,0,0:0:0:0:
32,256,70858,1,0,0:0:0:0:
32,256,70926,6,0,B|84:280|84:280|176:264,1,125
360,164,71199,2,0,B|412:140|412:140|504:156,2,125
192,352,71608,1,0,0:0:0:0:
320,56,71744,2,0,B|372:32|372:32|464:48,1,125
64,320,72017,5,0,0:0:0:0:
96,32,72153,1,0,0:0:0:0:
160,160,72290,1,0,0:0:0:0:
96,32,72426,1,0,0:0:0:0:
360,164,72562,2,0,P|372:128|372:92,1,62.5
368,24,72699,1,0,0:0:0:0:
74,143,72835,2,0,P|77:174|88:204,1,62.5
132,268,72971,1,0,0:0:0:0:
312,352,73108,6,0,P|408:272|428:176,1,187.5
352,32,73380,1,0,0:0:0:0:
224,192,73517,1,0,0:0:0:0:
352,32,73653,1,0,0:0:0:0:
112,160,73790,1,0,0:0:0:0:
352,32,73926,1,0,0:0:0:0:
92,52,74062,1,0,0:0:0:0:
352,32,74199,5,0,0:0:0:0:
368,48,74267,1,0,0:0:0:0:
384,64,74335,1,0,0:0:0:0:
400,80,74403,1,0,0:0:0:0:
416,96,74471,2,0,L|472:48,1,62.5
432,112,74608,2,0,L|384:152,1,62.5
448,128,74744,5,0,0:0:0:0:
456,144,74812,1,0,0:0:0:0:
456,160,74880,1,0,0:0:0:0:
456,176,74949,1,0,0:0:0:0:
448,192,75017,1,0,0:0:0:0:
432,208,75085,1,0,0:0:0:0:
416,216,75153,1,0,0:0:0:0:
396,220,75221,1,0,0:0:0:0:
380,228,75290,6,0,P|356:284|364:352,1,125
480,124,75562,2,0,P|504:68|496:0,1,125
320,32,75835,5,0,0:0:0:0:
160,224,75971,1,0,0:0:0:0:
320,256,76108,5,0,0:0:0:0:
160,64,76244,1,0,0:0:0:0:
448,160,76380,5,0,0:0:0:0:
224,320,76517,1,0,0:0:0:0:
80,96,76653,2,0,P|72:56|80:20,1,62.5
160,64,76790,1,0,0:0:0:0:
352,64,76926,2,0,L|488:72,1,125
364,340,77199,2,0,L|239:347,1,125
128,256,77471,5,0,0:0:0:0:
224,192,77608,1,0,0:0:0:0:
104,234,77744,5,0,0:0:0:0:
221,185,77881,1,0,0:0:0:0:
84,205,78017,5,0,0:0:0:0:
220,177,78154,1,0,0:0:0:0:
71,171,78290,5,0,0:0:0:0:
221,169,78427,1,0,0:0:0:0:
64,132,78562,5,0,0:0:0:0:
223,160,78699,1,0,0:0:0:0:
67,89,78835,5,0,0:0:0:0:
228,152,78972,1,0,0:0:0:0:
79,46,79108,5,0,0:0:0:0:
235,145,79245,1,0,0:0:0:0:
488,112,79380,1,0,0:0:0:0:
304,236,79517,1,0,0:0:0:0:
79,46,79653,5,0,0:0:0:0:
72,56,79721,1,0,0:0:0:0:
76,68,79790,1,0,0:0:0:0:
84,76,79858,1,0,0:0:0:0:
80,88,79926,1,0,0:0:0:0:
72,100,79994,1,0,0:0:0:0:
80,112,80062,1,0,0:0:0:0:
88,120,80130,1,0,0:0:0:0:
84,132,80199,2,0,B|56:188|56:188|88:252,1,125
272,248,80403,1,0,0:0:0:0:
272,248,80471,2,0,B|300:304|300:304|272:360,1,125
160,32,80744,5,0,0:0:0:0:
160,32,80880,1,0,0:0:0:0:
448,192,81017,1,0,0:0:0:0:
448,192,81153,1,0,0:0:0:0:
64,160,81290,1,0,0:0:0:0:
64,160,81426,1,0,0:0:0:0:
384,352,81562,1,0,0:0:0:0:
384,352,81699,1,0,0:0:0:0:
320,32,81835,5,0,0:0:0:0:
96,288,81971,1,0,0:0:0:0:
224,32,82108,1,0,0:0:0:0:
192,352,82244,1,0,0:0:0:0:
384,96,82380,1,0,0:0:0:0:
32,192,82517,1,0,0:0:0:0:
288,352,82653,1,0,0:0:0:0:
128,32,82790,1,0,0:0:0:0:
480,256,82926,5,0,0:0:0:0:
456,264,82994,1,0,0:0:0:0:
424,268,83062,1,0,0:0:0:0:
388,264,83130,1,0,0:0:0:0:
348,244,83199,1,0,0:0:0:0:
316,204,83267,1,0,0:0:0:0:
308,148,83335,1,0,0:0:0:0:
316,88,83403,1,0,0:0:0:0:
352,44,83471,1,0,0:0:0:0:
400,32,83540,1,0,0:0:0:0:
444,36,83608,1,0,0:0:0:0:
472,60,83676,1,0,0:0:0:0:
476,92,83744,1,0,0:0:0:0:
464,116,83812,1,0,0:0:0:0:
448,128,83880,1,0,0:0:0:0:
436,132,83949,1,0,0:0:0:0:
448,320,91653,5,0,0:0:0:0:
448,320,91926,1,0,0:0:0:0:
448,320,92199,1,0,0:0:0:0:
448,320,92471,1,0,0:0:0:0:
448,320,92608,1,0,0:0:0:0:
352,160,92744,5,0,0:0:0:0:
344,176,92812,1,0,0:0:0:0:
336,192,92880,1,0,0:0:0:0:
328,208,92949,1,0,0:0:0:0:
320,224,93017,1,0,0:0:0:0:
312,240,93085,1,0,0:0:0:0:
304,256,93153,1,0,0:0:0:0:
88,248,93290,1,0,0:0:0:0:
100,260,93358,1,0,0:0:0:0:
112,276,93426,1,0,0:0:0:0:
232,36,93562,1,0,0:0:0:0:
228,56,93630,1,0,0:0:0:0:
224,76,93699,1,0,0:0:0:0:
220,96,93767,1,0,0:0:0:0:
216,116,93835,5,0,0:0:0:0:
448,192,93971,1,0,0:0:0:0:
96,192,94108,1,0,0:0:0:0:
116,196,94176,1,0,0:0:0:0:
136,200,94244,1,0,0:0:0:0:
156,204,94312,1,0,0:0:0:0:
176,208,94380,1,0,0:0:0:0:
384,264,94517,1,0,0:0:0:0:
380,284,94585,1,0,0:0:0:0:
376,304,94653,1,0,0:0:0:0:
372,324,94721,1,0,0:0:0:0:
368,344,94789,1,0,0:0:0:0:
480,96,94926,5,0,0:0:0:0:
148,308,95062,1,0,0:0:0:0:
128,312,95131,1,0,0:0:0:0:
108,316,95199,1,0,0:0:0:0:
192,32,95335,1,0,0:0:0:0:
204,44,95403,1,0,0:0:0:0:
216,56,95471,1,0,0:0:0:0:
228,72,95540,1,0,0:0:0:0:
240,84,95608,1,0,0:0:0:0:
48,248,95744,1,0,0:0:0:0:
44,228,95812,1,0,0:0:0:0:
40,208,95880,1,0,0:0:0:0:
456,184,96017,5,0,0:0:0:0:
460,164,96085,1,0,0:0:0:0:
464,144,96153,1,0,0:0:0:0:
180,300,96290,1,0,0:0:0:0:
160,304,96358,1,0,0:0:0:0:
140,308,96426,1,0,0:0:0:0:
296,80,96562,1,0,0:0:0:0:
300,96,96630,1,0,0:0:0:0:
304,116,96699,1,0,0:0:0:0:
308,132,96767,1,0,0:0:0:0:
312,148,96835,1,0,0:0:0:0:
316,168,96903,1,0,0:0:0:0:
320,188,96971,1,0,0:0:0:0:
128,32,97108,5,0,0:0:0:0:
112,36,97176,1,0,0:0:0:0:
96,40,97244,1,0,0:0:0:0:
416,192,97380,1,0,0:0:0:0:
420,172,97449,1,0,0:0:0:0:
424,156,97517,1,0,0:0:0:0:
428,136,97585,1,0,0:0:0:0:
432,116,97653,1,0,0:0:0:0:
200,272,97790,1,0,0:0:0:0:
204,252,97858,1,0,0:0:0:0:
208,232,97926,1,0,0:0:0:0:
212,216,97994,1,0,0:0:0:0:
216,196,98063,1,0,0:0:0:0:
220,180,98130,1,0,0:0:0:0:
224,160,98199,5,0,0:0:0:0:
480,256,98335,1,0,0:0:0:0:
112,240,98471,1,0,0:0:0:0:
120,256,98540,1,0,0:0:0:0:
128,272,98608,1,0,0:0:0:0:
136,288,98676,1,0,0:0:0:0:
144,304,98744,1,0,0:0:0:0:
44,68,98880,1,0,0:0:0:0:
60,60,98949,1,0,0:0:0:0:
76,56,99017,1,0,0:0:0:0:
92,48,99085,1,0,0:0:0:0:
108,44,99153,1,0,0:0:0:0:
268,356,99290,5,0,0:0:0:0:
276,340,99358,1,0,0:0:0:0:
284,324,99426,1,0,0:0:0:0:
172,176,99562,1,0,0:0:0:0:
180,160,99630,1,0,0:0:0:0:
188,144,99698,1,0,0:0:0:0:
20,60,99835,1,0,0:0:0:0:
28,44,99903,1,0,0:0:0:0:
36,28,99971,1,0,0:0:0:0:
32,320,100108,5,0,0:0:0:0:
44,304,100176,1,0,0:0:0:0:
56,288,100244,1,0,0:0:0:0:
68,272,100312,1,0,0:0:0:0:
80,256,100380,5,0,0:0:0:0:
92,240,100449,1,0,0:0:0:0:
104,224,100517,1,0,0:0:0:0:
116,208,100585,1,0,0:0:0:0:
128,192,100653,5,0,0:0:0:0:
140,176,100721,1,0,0:0:0:0:
152,160,100790,1,0,0:0:0:0:
164,144,100858,1,0,0:0:0:0:
176,128,100926,5,0,0:0:0:0:
188,112,100994,1,0,0:0:0:0:
200,96,101062,1,0,0:0:0:0:
212,80,101130,1,0,0:0:0:0:
224,64,101199,6,0,P|248:60|272:60,8,31.25
256,192,101540,12,0,102494,0:0:0:0:
32,64,102562,6,0,L|48:56,28,15.625
104,176,103108,6,0,B|132:192|132:192|164:172,1,62.5
216,76,103210,6,0,L|232:68,7,15.625
284,168,103380,6,0,B|312:184|312:184|344:164,1,62.5
408,60,103483,6,0,L|424:52,8,15.625
460,140,103653,6,0,L|476:148,14,15.625
412,220,103926,6,0,B|408:260|408:260|416:252|416:252|412:300,1,93.75
324,312,104062,6,0,L|320:332,6,15.625
232,320,104199,6,0,B|236:280|236:280|228:288|228:288|232:240,1,93.75
152,208,104335,6,0,L|152:184,6,15.625
68,248,104471,6,0,B|64:288|64:288|72:280|72:280|68:328,3,93.75
28,108,104744,6,0,B|56:52|56:52|140:88,1,125
232,244,105017,1,0,0:0:0:0:
312,60,105153,6,0,L|320:40,6,15.625
320,156,105290,6,0,B|344:188|344:188|400:196,1,93.75
480,152,105426,6,0,L|499:143,6,15.625
472,264,105562,6,0,B|440:288|440:288|432:344,1,93.75
352,376,105699,6,0,L|331:384,6,15.625
268,336,105835,6,0,B|244:304|244:304|190:296,1,93.75
96,332,105971,6,0,L|75:340,6,15.625
104,232,106108,6,0,B|72:208|72:208|64:154,1,93.75
80,68,106244,6,0,L|88:48,6,15.625
156,132,106380,6,0,L|203:136,1,31.25
263,141,106449,1,0,0:0:0:0:
337,146,106517,1,0,0:0:0:0:
411,152,106585,1,0,0:0:0:0:
256,192,106653,12,0,107949,0:0:0:0:
64,332,108017,6,0,B|24:244|24:244|88:232,1,125
28,80,108290,2,0,L|40:12,1,62.5
152,88,108426,2,0,L|208:44,1,62.5
192,200,108562,6,0,B|248:224|248:224|332:232,1,125
400,136,108835,2,0,L|468:148,1,62.5
440,272,108971,2,0,L|484:328,1,62.5
340,356,109108,6,0,L|324:368,13,15.625
264,308,109380,2,0,L|251:323,13,15.625
168,292,109653,2,0,L|160:310,30,15.625
164,328,110199,6,0,B|116:328|92:308|92:308|64:256,2,125
256,64,110608,1,0,0:0:0:0:
371,159,110744,2,0,L|496:148,1,125
432,328,111017,2,0,L|308:340,1,125
76,36,111290,6,0,L|56:228,1,187.5
176,52,111562,2,0,L|176:160,1,93.75
176,228,111699,2,0,L|176:248,6,15.625
276,40,111835,2,0,L|289:147,1,93.75
297,214,111972,2,0,L|299:233,6,15.625
376,16,112108,2,0,L|402:120,1,93.75
418,186,112245,2,0,L|422:205,6,15.625
480,0,112380,5,0,0:0:0:0:
512,288,112517,1,0,0:0:0:0:
188,320,112653,2,0,B|120:328|120:328|40:312,1,125
490,105,112926,5,0,0:0:0:0:
374,371,113063,1,0,0:0:0:0:
77,236,113199,2,0,B|14:209|14:209|-46:155,1,125
480,196,113471,6,0,L|468:212,13,15.625
248,152,113744,2,0,L|236:168,13,15.625
448,320,114017,2,0,L|436:336,13,15.625
124,268,114290,2,0,L|112:284,13,15.625
32,104,114562,6,0,L|48:248,2,125
224,352,114971,1,0,0:0:0:0:
388,268,115108,2,0,L|512:254,1,125
124,368,115380,2,0,L|-12:356,1,125
128,48,115653,6,0,P|212:36|316:88,1,187.5
124,368,115926,2,0,P|56:317|19:206,1,187.5
356,144,116199,2,0,L|360:168,14,15.625
292,228,116471,2,0,L|188:220,1,93.75
136,156,116608,2,0,L|132:132,6,15.625
196,60,116744,6,0,L|344:48,1,125
352,320,117017,1,0,0:0:0:0:
352,320,117153,1,0,0:0:0:0:
40,168,117290,2,0,L|50:43,1,125
409,119,117562,2,0,L|420:244,1,125
160,320,117835,5,0,0:0:0:0:
40,168,117971,1,0,0:0:0:0:
409,119,118108,5,0,0:0:0:0:
257,239,118244,1,0,0:0:0:0:
128,64,118380,5,0,0:0:0:0:
409,119,118517,1,0,0:0:0:0:
256,352,118653,1,0,0:0:0:0:
256,352,118721,1,0,0:0:0:0:
256,352,118790,1,0,0:0:0:0:
256,352,118858,1,0,0:0:0:0:
256,352,118926,6,0,L|392:364,1,125
64,128,119199,1,0,0:0:0:0:
32,352,119335,1,0,0:0:0:0:
320,256,119471,2,0,L|456:268,1,125
188,117,119744,2,0,L|52:129,1,125
256,352,120017,5,0,0:0:0:0:
272,356,120153,1,0,0:0:0:0:
92,208,120290,5,0,0:0:0:0:
77,216,120426,1,0,0:0:0:0:
352,140,120562,5,0,0:0:0:0:
368,144,120698,1,0,0:0:0:0:
184,32,120835,6,0,L|176:16,7,15.625
176,72,120971,2,0,P|144:72|108:80,1,62.5
336,312,121108,6,0,P|396:312|464:296,1,125
32,128,121380,1,0,0:0:0:0:
152,304,121517,1,0,0:0:0:0:
416,28,121653,1,0,0:0:0:0:
384,236,121790,1,0,0:0:0:0:
144,32,121926,2,0,L|16:24,1,125
152,304,122199,5,0,0:0:0:0:
152,304,122335,1,0,0:0:0:0:
416,28,122471,1,0,0:0:0:0:
416,28,122608,1,0,0:0:0:0:
32,256,122744,5,0,0:0:0:0:
448,160,122880,1,0,0:0:0:0:
8,216,123017,1,0,0:0:0:0:
12,172,123085,1,0,0:0:0:0:
36,136,123153,1,0,0:0:0:0:
76,116,123221,1,0,0:0:0:0:
120,116,123290,6,0,L|172:152,1,62.5
312,320,123426,2,0,L|328:368,2,31.25
72,356,123562,2,0,L|112:300,1,62.5
308,164,123699,2,0,L|356:148,2,31.25
104,20,123835,6,0,L|42:30,1,62.5
24,236,123971,2,0,L|72:220,2,31.25
308,164,124108,2,0,L|246:174,1,62.5
228,380,124244,2,0,L|276:364,2,31.25
426,55,124380,6,0,P|478:131|480:224,1,187.5
335,340,124653,2,0,P|388:263|389:171,1,187.5
248,52,124926,2,0,P|300:128|301:220,1,187.5
157,336,125199,2,0,L|188:292,3,31.25
157,336,125335,2,0,P|192:268|192:188,1,125
32,176,125608,5,0,0:0:0:0:
32,176,125676,1,0,0:0:0:0:
32,176,125744,1,0,0:0:0:0:
128,44,125880,1,0,0:0:0:0:
244,160,126017,1,0,0:0:0:0:
360,44,126153,1,0,0:0:0:0:
508,116,126290,2,0,P|484:192|480:256,2,125
360,44,126699,5,0,0:0:0:0:
360,44,126767,1,0,0:0:0:0:
360,44,126835,1,0,0:0:0:0:
244,160,126971,1,0,0:0:0:0:
368,268,127108,1,0,0:0:0:0:
232,356,127244,1,0,0:0:0:0:
112,248,127380,1,0,0:0:0:0:
112,248,127449,1,0,0:0:0:0:
112,248,127517,1,0,0:0:0:0:
112,248,127585,1,0,0:0:0:0:
112,248,127653,5,0,0:0:0:0:
252,164,127790,1,0,0:0:0:0:
252,164,127858,1,0,0:0:0:0:
252,164,127926,1,0,0:0:0:0:
112,80,128062,1,0,0:0:0:0:
252,164,128199,1,0,0:0:0:0:
396,240,128335,1,0,0:0:0:0:
252,164,128471,2,0,L|248:236,1,62.5
120,340,128608,2,0,L|123:277,1,62.5
112,80,128744,5,0,0:0:0:0:
268,36,128880,1,0,0:0:0:0:
268,36,128949,1,0,0:0:0:0:
268,36,129017,1,0,0:0:0:0:
336,184,129153,1,0,0:0:0:0:
492,132,129290,1,0,0:0:0:0:
376,20,129426,1,0,0:0:0:0:
300,336,129562,1,0,0:0:0:0:
300,336,129630,1,0,0:0:0:0:
300,336,129699,1,0,0:0:0:0:
300,336,129767,1,0,0:0:0:0:
300,336,129835,6,0,L|444:364,1,125
124,272,130040,1,0,0:0:0:0:
124,272,130108,2,0,L|-20:300,1,125
324,176,130312,1,0,0:0:0:0:
324,176,130380,2,0,L|180:148,1,125
488,248,130585,1,0,0:0:0:0:
488,248,130653,2,0,L|408:268,1,62.5
256,48,130790,2,0,L|316:32,1,62.5
300,336,130926,6,0,P|232:316|184:276,1,125
52,84,131130,1,0,0:0:0:0:
52,84,131199,2,0,P|52:148|32:220,1,125
300,336,131403,1,0,0:0:0:0:
300,336,131471,2,0,P|364:336|448:372,1,125
92,360,131676,1,0,0:0:0:0:
92,360,131744,2,0,P|92:324|100:280,1,62.5
200,56,131880,2,0,P|181:80|165:108,1,62.5
244,220,132017,6,0,B|288:224|288:224|328:220|328:220|396:232,1,125
32,36,132221,1,0,0:0:0:0:
32,36,132290,2,0,P|20:108|36:192,1,125
480,348,132494,1,0,0:0:0:0:
480,348,132563,2,0,P|492:276|476:192,1,125
104,264,132767,1,0,0:0:0:0:
104,264,132835,2,0,P|136:272|180:264,1,62.5
408,120,132971,2,0,P|376:112|332:120,1,62.5
24,160,133108,5,0,0:0:0:0:
68,140,133176,1,0,0:0:0:0:
116,136,133244,1,0,0:0:0:0:
160,160,133312,1,0,0:0:0:0:
188,200,133380,1,0,0:0:0:0:
232,224,133449,1,0,0:0:0:0:
280,224,133517,1,0,0:0:0:0:
320,196,133585,1,0,0:0:0:0:
328,148,133653,5,0,0:0:0:0:
304,104,133721,1,0,0:0:0:0:
256,88,133790,1,0,0:0:0:0:
208,96,133858,1,0,0:0:0:0:
192,144,133926,2,0,L|132:160,1,62.5
280,224,134062,2,0,L|340:240,1,62.5
192,306,134199,6,0,B|312:350|320:258|276:230|276:230|320:210|316:110|180:146,1,375
80,252,134608,1,0,0:0:0:0:
424,320,134744,2,0,P|444:256|444:176,1,125
191,143,135017,2,0,P|251:79|311:47,1,125
313,309,135290,6,0,B|205:309|205:309|244:275|244:275|308:227|300:119|212:103|121:185,1,375.000014305115
96,352,135699,1,0,0:0:0:0:
416,144,135835,2,0,P|460:184|488:260,1,125
52,160,136108,2,0,P|49:100|83:27,1,125
256,328,136380,6,0,B|256:160|256:160|224:160|224:160|144:232,1,281.250010728836
164,215,136653,1,0,0:0:0:0:
384,288,136790,1,0,0:0:0:0:
84,348,136926,2,0,P|40:272|36:200,1,125
212,32,137199,2,0,P|168:108|164:180,1,125
248,332,137471,5,0,0:0:0:0:
296,340,137540,1,0,0:0:0:0:
344,336,137608,1,0,0:0:0:0:
392,308,137676,1,0,0:0:0:0:
432,268,137744,5,0,0:0:0:0:
448,208,137812,1,0,0:0:0:0:
440,148,137880,1,0,0:0:0:0:
408,84,137949,1,0,0:0:0:0:
348,48,138017,5,0,0:0:0:0:
276,36,138085,1,0,0:0:0:0:
204,52,138153,1,0,0:0:0:0:
136,96,138221,1,0,0:0:0:0:
100,172,138290,5,0,0:0:0:0:
112,260,138358,1,0,0:0:0:0:
172,324,138426,1,0,0:0:0:0:
260,360,138494,1,0,0:0:0:0:
352,360,138562,6,0,P|408:292|416:192,1,187.500007152558
100,172,138835,2,0,B|64:264|88:360,1,187.500007152558
448,64,139108,1,0,0:0:0:0:
64,32,139244,1,0,0:0:0:0:
288,256,139380,2,0,P|328:192|320:64,1,187.500007152558
248,36,139585,1,0,0:0:0:0:
248,36,139653,5,0,0:0:0:0:
288,352,139790,1,0,0:0:0:0:
248,36,139926,1,0,0:0:0:0:
288,352,140063,1,0,0:0:0:0:
248,36,140199,1,0,0:0:0:0:
288,352,140336,1,0,0:0:0:0:
248,36,140471,6,0,B|156:80|60:40|60:40|-20:132,1,281.250010728836
32,192,140744,5,0,0:0:0:0:
384,128,140880,1,0,0:0:0:0:
416,192,140949,1,0,0:0:0:0:
416,256,141017,1,0,0:0:0:0:
192,320,141153,1,0,0:0:0:0:
130,89,141290,2,0,B|86:29|86:29|-6:113,1,187.500007152558
384,128,141562,2,0,B|442:81|442:81|509:186,1,187.500007152558
391,361,141835,6,0,P|319:381|199:357,1,187.500007152558
85,146,142107,1,0,0:0:0:0:
301,21,142243,1,0,0:0:0:0:
426,237,142380,1,0,0:0:0:0:
208,360,142517,5,0,0:0:0:0:
301,21,142653,1,0,0:0:0:0:
512,272,142790,1,0,0:0:0:0:
216,264,142926,6,0,P|120:264|28:288,1,187.500007152558
464,348,143199,2,0,P|488:256|472:152,1,187.500007152558
36,40,143471,1,0,0:0:0:0:
216,268,143608,1,0,0:0:0:0:
388,36,143744,2,0,P|404:124|384:232,1,187.500007152558
32,320,144017,5,0,0:0:0:0:
480,224,144153,1,0,0:0:0:0:
32,320,144290,1,0,0:0:0:0:
480,224,144426,1,0,0:0:0:0:
32,320,144562,1,0,0:0:0:0:
480,224,144698,1,0,0:0:0:0:
32,320,144835,2,0,B|4:220|4:220|56:152|56:152|20:40,1,281.250010728836
124,20,145108,6,0,P|220:4|340:16,1,187.500007152558
384,64,145312,1,0,0:0:0:0:
324,136,145380,2,0,P|344:236|404:324,1,187.500007152558
96,352,145653,5,0,0:0:0:0:
32,128,145790,1,0,0:0:0:0:
480,288,145926,5,0,0:0:0:0:
247,291,146063,1,0,0:0:0:0:
160,0,146199,6,0,L|128:64,2,46.8750017881394
224,96,146335,2,0,L|320:96,1,93.7500035762788
92,112,146471,2,0,L|60:176,2,46.8750017881394
156,208,146607,2,0,L|252:208,1,93.7500035762788
28,224,146744,2,0,L|-4:288,2,46.8750017881394
92,320,146880,2,0,L|188:320,1,93.7500035762788
384,320,147017,5,0,0:0:0:0:
0,352,147153,1,0,0:0:0:0:
160,32,147290,6,0,P|256:32|348:88,1,187.500007152558
480,288,147562,1,0,0:0:0:0:
480,288,147699,1,0,0:0:0:0:
23,188,147835,6,0,P|115:163|219:193,1,187.500007152558
398,352,148107,1,0,0:0:0:0:
398,352,148244,1,0,0:0:0:0:
32,264,148380,6,0,P|40:309|64:349,1,93.7500035762788
297,307,148517,2,0,P|257:331|212:340,1,93.7500035762788
140,272,148653,1,0,0:0:0:0:
120,32,148790,1,0,0:0:0:0:
140,272,148926,2,0,P|216:228|332:228,1,187.500007152558
400,360,149199,1,0,0:0:0:0:
432,316,149267,1,0,0:0:0:0:
456,264,149335,1,0,0:0:0:0:
464,208,149403,1,0,0:0:0:0:
456,152,149471,6,0,P|396:80|260:40,1,187.500007152558
0,64,149744,1,0,0:0:0:0:
0,64,149880,1,0,0:0:0:0:
313,223,150017,6,0,P|398:260|457:332,1,187.500007152558
16,321,150290,1,0,0:0:0:0:
16,321,150426,1,0,0:0:0:0:
232,24,150562,6,0,L|236:128,1,93.7500035762788
328,368,150699,2,0,L|324:264,1,93.7500035762788
264,28,150835,1,0,0:0:0:0:
300,32,150903,1,0,0:0:0:0:
336,40,150971,1,0,0:0:0:0:
372,48,151040,1,0,0:0:0:0:
408,56,151108,5,0,0:0:0:0:
224,320,151244,1,0,0:0:0:0:
492,192,151380,1,0,0:0:0:0:
456,184,151449,1,0,0:0:0:0:
420,188,151517,1,0,0:0:0:0:
384,176,151585,1,0,0:0:0:0:
348,180,151653,6,0,B|284:172|284:172|240:188|240:188|136:176,1,187.500007152558
480,352,151926,1,0,0:0:0:0:
480,352,152062,1,0,0:0:0:0:
256,64,152199,6,0,B|320:56|320:56|364:72|364:72|468:60,1,187.500007152558
32,256,152471,1,0,0:0:0:0:
32,256,152608,1,0,0:0:0:0:
256,352,152744,5,0,0:0:0:0:
288,320,152812,1,0,0:0:0:0:
308,288,152880,1,0,0:0:0:0:
320,252,152949,1,0,0:0:0:0:
352,176,153017,6,0,P|360:222|352:268,1,93.7500035762788
208,288,153153,2,0,P|161:295|116:287,1,93.7500035762788
32,116,153290,2,0,P|100:60|232:40,1,187.500007152558
416,352,153562,1,0,0:0:0:0:
416,352,153630,1,0,0:0:0:0:
416,352,153699,1,0,0:0:0:0:
416,352,153767,1,0,0:0:0:0:
416,352,153835,6,0,L|424:144,2,187.500007152558
32,352,154244,1,0,0:0:0:0:
288,32,154380,2,0,L|296:224,1,187.500007152558
32,32,154653,1,0,0:0:0:0:
32,32,154789,1,0,0:0:0:0:
128,308,154926,6,0,B|240:360|240:360|200:272|220:184,1,281.250010728836
128,212,155199,2,0,B|16:264|16:264|56:176|36:88,1,281.250010728836
128,104,155471,2,0,B|240:52|240:52|200:140|220:228,1,281.250010728836
296,228,155744,6,0,L|304:188,5,31.2500011920929
32,32,156017,1,0,0:0:0:0:
