osu file format v14

[General]
AudioFilename: audio.mp3
AudioLeadIn: 0
PreviewTime: -1
Countdown: 1
SampleSet: Normal
StackLeniency: 0.7
Mode: 3
LetterboxInBreaks: 0
SpecialStyle: 0
WidescreenStoryboard: 0

[Editor]
DistanceSpacing: 1.1
BeatDivisor: 2
GridSize: 16
TimelineZoom: 1

[Metadata]
Title:Never Stop Speedcore
TitleUnicode:Never Stop Speedcore
Artist:Mike van de Wetering
ArtistUnicode:Mike van de Wetering
Creator:jasionnn
Version:Galaxy
Source:
Tags:
BeatmapID:1606626
BeatmapSetID:764061

[Difficulty]
HPDrainRate:8
CircleSize:4
OverallDifficulty:7
ApproachRate:5
SliderMultiplier:1.4
SliderTickRate:1

[Events]
//Background and Video events
0,0,"ykurkkkrl.jpg",0,0
//Break Periods
//Storyboard Layer 0 (Background)
//Storyboard Layer 1 (Fail)
//Storyboard Layer 2 (Pass)
//Storyboard Layer 3 (Foreground)
//Storyboard Sound Samples

[TimingPoints]
200,245.901639344262,4,1,0,100,1,0

[HitObjects]
192,192,1429,5,0,0:0:0:0:
64,192,1429,1,0,0:0:0:0:
448,192,1429,1,0,0:0:0:0:
320,192,1429,1,0,0:0:0:0:
320,192,1675,1,0,0:0:0:0:
320,192,1798,1,0,0:0:0:0:
192,192,1921,1,0,0:0:0:0:
64,192,1921,1,0,0:0:0:0:
448,192,1921,1,0,0:0:0:0:
192,192,2044,1,0,0:0:0:0:
192,192,2167,1,0,0:0:0:0:
192,192,2290,1,0,0:0:0:0:
448,192,2413,1,0,0:0:0:0:
320,192,2413,1,0,0:0:0:0:
64,192,2413,1,0,0:0:0:0:
192,192,2413,1,0,0:0:0:0:
448,192,2536,1,0,0:0:0:0:
448,192,2659,1,0,0:0:0:0:
448,192,2781,1,0,0:0:0:0:
320,192,2904,1,0,0:0:0:0:
192,192,2904,1,0,0:0:0:0:
64,192,2904,1,0,0:0:0:0:
448,192,2904,1,0,0:0:0:0:
64,192,3027,1,0,0:0:0:0:
64,192,3150,1,0,0:0:0:0:
64,192,3273,1,0,0:0:0:0:
64,192,3396,1,0,0:0:0:0:
192,192,3396,1,0,0:0:0:0:
320,192,3396,1,0,0:0:0:0:
448,192,3396,1,0,0:0:0:0:
320,192,3519,1,0,0:0:0:0:
320,192,3642,1,0,0:0:0:0:
320,192,3765,1,0,0:0:0:0:
320,192,3888,1,0,0:0:0:0:
448,192,3888,1,0,0:0:0:0:
192,192,3888,1,0,0:0:0:0:
64,192,3888,1,0,0:0:0:0:
192,192,4011,1,0,0:0:0:0:
192,192,4134,1,0,0:0:0:0:
192,192,4257,1,0,0:0:0:0:
320,192,4257,1,0,0:0:0:0:
448,192,4257,1,0,0:0:0:0:
64,192,4257,1,0,0:0:0:0:
192,192,4380,1,0,0:0:0:0:
64,192,4380,1,0,0:0:0:0:
320,192,4380,1,0,0:0:0:0:
448,192,4380,1,0,0:0:0:0:
448,192,4503,1,0,0:0:0:0:
320,192,4503,1,0,0:0:0:0:
192,192,4626,1,0,0:0:0:0:
448,192,4626,1,0,0:0:0:0:
192,192,4749,1,0,0:0:0:0:
320,192,4749,1,0,0:0:0:0:
448,192,4749,1,0,0:0:0:0:
64,192,4749,1,0,0:0:0:0:
448,192,4872,1,0,0:0:0:0:
320,192,4872,1,0,0:0:0:0:
64,192,4872,1,0,0:0:0:0:
192,192,4872,1,0,0:0:0:0:
64,192,4995,1,0,0:0:0:0:
192,192,4995,1,0,0:0:0:0:
320,192,5118,1,0,0:0:0:0:
64,192,5118,1,0,0:0:0:0:
448,192,5240,1,0,0:0:0:0:
192,192,5240,1,0,0:0:0:0:
320,192,5363,1,0,0:0:0:0:
64,192,5363,1,0,0:0:0:0:
192,192,5363,1,0,0:0:0:0:
448,192,5363,1,0,0:0:0:0:
192,192,5609,1,0,0:0:0:0:
192,192,5855,1,0,0:0:0:0:
192,192,6101,1,0,0:0:0:0:
192,192,6347,1,0,0:0:0:0:
192,192,6593,1,0,0:0:0:0:
192,192,6839,1,0,0:0:0:0:
192,192,7085,1,0,0:0:0:0:
448,192,7208,1,0,0:0:0:0:
320,192,7331,1,0,0:0:0:0:
320,192,7577,1,0,0:0:0:0:
320,192,7822,1,0,0:0:0:0:
320,192,8068,1,0,0:0:0:0:
192,192,8191,1,0,0:0:0:0:
320,192,8314,1,0,0:0:0:0:
64,192,8560,1,0,0:0:0:0:
192,192,8683,1,0,0:0:0:0:
64,192,8806,1,0,0:0:0:0:
320,192,8806,1,0,0:0:0:0:
320,192,9052,1,0,0:0:0:0:
448,192,9298,1,0,0:0:0:0:
64,192,9298,1,0,0:0:0:0:
192,192,9298,1,0,0:0:0:0:
448,192,9544,1,0,0:0:0:0:
64,192,9544,1,0,0:0:0:0:
192,192,9544,1,0,0:0:0:0:
448,192,9790,1,0,0:0:0:0:
64,192,9790,1,0,0:0:0:0:
192,192,9790,1,0,0:0:0:0:
448,192,10036,1,0,0:0:0:0:
64,192,10036,1,0,0:0:0:0:
192,192,10036,1,0,0:0:0:0:
64,192,10281,1,0,0:0:0:0:
448,192,10281,1,0,0:0:0:0:
192,192,10281,1,0,0:0:0:0:
448,192,10527,1,0,0:0:0:0:
64,192,10527,1,0,0:0:0:0:
192,192,10527,1,0,0:0:0:0:
64,192,10773,1,0,0:0:0:0:
448,192,10773,1,0,0:0:0:0:
192,192,10773,1,0,0:0:0:0:
64,192,11019,1,0,0:0:0:0:
448,192,11019,1,0,0:0:0:0:
192,192,11019,1,0,0:0:0:0:
320,192,11265,1,0,0:0:0:0:
64,192,11265,1,0,0:0:0:0:
448,192,11265,1,0,0:0:0:0:
64,192,11511,1,0,0:0:0:0:
320,192,11511,1,0,0:0:0:0:
448,192,11511,1,0,0:0:0:0:
64,192,11757,1,0,0:0:0:0:
448,192,11757,1,0,0:0:0:0:
320,192,11757,1,0,0:0:0:0:
64,192,12003,1,0,0:0:0:0:
448,192,12003,1,0,0:0:0:0:
320,192,12003,1,0,0:0:0:0:
64,192,12249,1,0,0:0:0:0:
320,192,12249,1,0,0:0:0:0:
448,192,12249,1,0,0:0:0:0:
64,192,12495,1,0,0:0:0:0:
448,192,12495,1,0,0:0:0:0:
320,192,12495,1,0,0:0:0:0:
448,192,12740,1,0,0:0:0:0:
320,192,12740,1,0,0:0:0:0:
64,192,12740,1,0,0:0:0:0:
64,192,12986,1,0,0:0:0:0:
448,192,12986,1,0,0:0:0:0:
320,192,12986,1,0,0:0:0:0:
64,192,13232,1,0,0:0:0:0:
192,192,13232,1,0,0:0:0:0:
448,192,13232,1,0,0:0:0:0:
320,192,13355,1,0,0:0:0:0:
320,192,13478,1,0,0:0:0:0:
448,192,13478,1,0,0:0:0:0:
192,192,13478,1,0,0:0:0:0:
192,192,13601,1,0,0:0:0:0:
448,192,13724,1,0,0:0:0:0:
320,192,13724,1,0,0:0:0:0:
64,192,13724,1,0,0:0:0:0:
192,192,13847,1,0,0:0:0:0:
64,192,13970,1,0,0:0:0:0:
192,192,13970,1,0,0:0:0:0:
320,192,13970,1,0,0:0:0:0:
320,192,14093,1,0,0:0:0:0:
448,192,14216,1,0,0:0:0:0:
64,192,14216,1,0,0:0:0:0:
192,192,14216,1,0,0:0:0:0:
320,192,14339,1,0,0:0:0:0:
192,192,14462,1,0,0:0:0:0:
320,192,14462,1,0,0:0:0:0:
448,192,14462,1,0,0:0:0:0:
192,192,14585,1,0,0:0:0:0:
320,192,14708,1,0,0:0:0:0:
448,192,14708,1,0,0:0:0:0:
64,192,14708,1,0,0:0:0:0:
192,192,14831,1,0,0:0:0:0:
64,192,14954,1,0,0:0:0:0:
192,192,14954,1,0,0:0:0:0:
320,192,14954,1,0,0:0:0:0:
320,192,15077,1,0,0:0:0:0:
64,192,15199,1,0,0:0:0:0:
192,192,15199,1,0,0:0:0:0:
448,192,15199,1,0,0:0:0:0:
192,192,15322,1,0,0:0:0:0:
64,192,15445,1,0,0:0:0:0:
320,192,15445,1,0,0:0:0:0:
448,192,15445,1,0,0:0:0:0:
320,192,15568,1,0,0:0:0:0:
64,192,15691,1,0,0:0:0:0:
192,192,15691,1,0,0:0:0:0:
448,192,15691,1,0,0:0:0:0:
192,192,15814,1,0,0:0:0:0:
64,192,15937,1,0,0:0:0:0:
448,192,15937,1,0,0:0:0:0:
320,192,15937,1,0,0:0:0:0:
192,192,16060,1,0,0:0:0:0:
320,192,16060,1,0,0:0:0:0:
448,192,16183,1,0,0:0:0:0:
64,192,16183,1,0,0:0:0:0:
192,192,16183,1,0,0:0:0:0:
320,192,16306,1,0,0:0:0:0:
64,192,16306,1,0,0:0:0:0:
192,192,16429,1,0,0:0:0:0:
448,192,16429,1,0,0:0:0:0:
320,192,16429,1,0,0:0:0:0:
64,192,16552,1,0,0:0:0:0:
320,192,16552,1,0,0:0:0:0:
64,192,16675,1,0,0:0:0:0:
448,192,16675,1,0,0:0:0:0:
192,192,16675,1,0,0:0:0:0:
192,192,16798,1,0,0:0:0:0:
320,192,16798,1,0,0:0:0:0:
448,192,16921,1,0,0:0:0:0:
320,192,16921,1,0,0:0:0:0:
64,192,16921,1,0,0:0:0:0:
192,192,17044,1,0,0:0:0:0:
448,192,17044,1,0,0:0:0:0:
192,192,17167,1,0,0:0:0:0:
320,192,17167,1,0,0:0:0:0:
448,192,17167,1,0,0:0:0:0:
64,192,17167,1,0,0:0:0:0:
320,192,17290,1,0,0:0:0:0:
192,192,17413,1,0,0:0:0:0:
64,192,17536,1,0,0:0:0:0:
192,192,17659,1,0,0:0:0:0:
448,192,17659,1,0,0:0:0:0:
320,192,17781,1,0,0:0:0:0:
192,192,17904,1,0,0:0:0:0:
64,192,18027,1,0,0:0:0:0:
192,192,18150,1,0,0:0:0:0:
448,192,18150,1,0,0:0:0:0:
320,192,18273,1,0,0:0:0:0:
192,192,18396,1,0,0:0:0:0:
64,192,18519,1,0,0:0:0:0:
192,192,18642,1,0,0:0:0:0:
448,192,18642,1,0,0:0:0:0:
320,192,18765,1,0,0:0:0:0:
192,192,18888,1,0,0:0:0:0:
64,192,19011,1,0,0:0:0:0:
192,192,19134,1,0,0:0:0:0:
448,192,19134,1,0,0:0:0:0:
320,192,19257,1,0,0:0:0:0:
192,192,19380,1,0,0:0:0:0:
64,192,19503,1,0,0:0:0:0:
192,192,19626,1,0,0:0:0:0:
448,192,19626,1,0,0:0:0:0:
320,192,19749,1,0,0:0:0:0:
192,192,19872,1,0,0:0:0:0:
64,192,19995,1,0,0:0:0:0:
192,192,20118,1,0,0:0:0:0:
448,192,20118,1,0,0:0:0:0:
320,192,20240,1,0,0:0:0:0:
192,192,20363,1,0,0:0:0:0:
64,192,20486,1,0,0:0:0:0:
192,192,20609,1,0,0:0:0:0:
448,192,20609,1,0,0:0:0:0:
320,192,20732,1,0,0:0:0:0:
192,192,20855,1,0,0:0:0:0:
64,192,20978,1,0,0:0:0:0:
192,192,21101,1,0,0:0:0:0:
448,192,21101,1,0,0:0:0:0:
320,192,21224,1,0,0:0:0:0:
192,192,21347,1,0,0:0:0:0:
64,192,21470,1,0,0:0:0:0:
192,192,21593,1,0,0:0:0:0:
448,192,21593,1,0,0:0:0:0:
320,192,21593,1,0,0:0:0:0:
64,192,21716,1,0,0:0:0:0:
192,192,21839,1,0,0:0:0:0:
320,192,21962,1,0,0:0:0:0:
448,192,22085,1,0,0:0:0:0:
192,192,22085,1,0,0:0:0:0:
64,192,22208,1,0,0:0:0:0:
320,192,22331,1,0,0:0:0:0:
192,192,22454,1,0,0:0:0:0:
448,192,22577,1,0,0:0:0:0:
64,192,22577,1,0,0:0:0:0:
320,192,22699,1,0,0:0:0:0:
192,192,22822,1,0,0:0:0:0:
64,192,22945,1,0,0:0:0:0:
192,192,23068,1,0,0:0:0:0:
448,192,23068,1,0,0:0:0:0:
320,192,23191,1,0,0:0:0:0:
192,192,23314,1,0,0:0:0:0:
64,192,23314,1,0,0:0:0:0:
448,192,23437,1,0,0:0:0:0:
192,192,23560,1,0,0:0:0:0:
320,192,23560,1,0,0:0:0:0:
64,192,23683,1,0,0:0:0:0:
192,192,23806,1,0,0:0:0:0:
448,192,23806,1,0,0:0:0:0:
320,192,23929,1,0,0:0:0:0:
192,192,24052,1,0,0:0:0:0:
64,192,24052,1,0,0:0:0:0:
448,192,24175,1,0,0:0:0:0:
64,192,24298,1,0,0:0:0:0:
320,192,24298,1,0,0:0:0:0:
192,192,24421,1,0,0:0:0:0:
320,192,24544,1,0,0:0:0:0:
448,192,24544,1,0,0:0:0:0:
64,192,24667,1,0,0:0:0:0:
320,192,24790,1,0,0:0:0:0:
192,192,24790,1,0,0:0:0:0:
64,192,24913,1,0,0:0:0:0:
320,192,25036,1,0,0:0:0:0:
448,192,25036,1,0,0:0:0:0:
320,192,25159,1,0,0:0:0:0:
448,192,25159,1,0,0:0:0:0:
320,192,25281,1,0,0:0:0:0:
448,192,25281,1,0,0:0:0:0:
320,192,25404,1,0,0:0:0:0:
448,192,25404,1,0,0:0:0:0:
320,192,25527,1,0,0:0:0:0:
448,192,25527,1,0,0:0:0:0:
320,192,25650,1,0,0:0:0:0:
448,192,25650,1,0,0:0:0:0:
320,192,25773,1,0,0:0:0:0:
448,192,25773,1,0,0:0:0:0:
448,192,25896,1,0,0:0:0:0:
320,192,25896,1,0,0:0:0:0:
448,192,26019,1,0,0:0:0:0:
320,192,26019,1,0,0:0:0:0:
192,192,26081,1,0,0:0:0:0:
64,192,26081,1,0,0:0:0:0:
320,192,26142,1,0,0:0:0:0:
448,192,26142,1,0,0:0:0:0:
192,192,26204,1,0,0:0:0:0:
64,192,26204,1,0,0:0:0:0:
320,192,26265,1,0,0:0:0:0:
448,192,26265,1,0,0:0:0:0:
64,192,26327,1,0,0:0:0:0:
192,192,26327,1,0,0:0:0:0:
320,192,26388,1,0,0:0:0:0:
448,192,26388,1,0,0:0:0:0:
64,192,26449,1,0,0:0:0:0:
192,192,26449,1,0,0:0:0:0:
320,192,26511,1,0,0:0:0:0:
448,192,26511,1,0,0:0:0:0:
192,192,26572,1,0,0:0:0:0:
64,192,26572,1,0,0:0:0:0:
320,192,26634,1,0,0:0:0:0:
448,192,26634,1,0,0:0:0:0:
64,192,26695,1,0,0:0:0:0:
192,192,26695,1,0,0:0:0:0:
320,192,26757,1,0,0:0:0:0:
448,192,26757,1,0,0:0:0:0:
64,192,26818,1,0,0:0:0:0:
192,192,26818,1,0,0:0:0:0:
320,192,26880,1,0,0:0:0:0:
448,192,26880,1,0,0:0:0:0:
192,192,26941,1,0,0:0:0:0:
64,192,26941,1,0,0:0:0:0:
320,192,27003,1,0,0:0:0:0:
448,192,27003,1,0,0:0:0:0:
64,192,27003,1,0,0:0:0:0:
64,192,27126,1,0,0:0:0:0:
192,192,27126,1,0,0:0:0:0:
448,192,27249,1,0,0:0:0:0:
192,192,27249,1,0,0:0:0:0:
320,192,27249,1,0,0:0:0:0:
320,192,27372,1,0,0:0:0:0:
64,192,27372,1,0,0:0:0:0:
64,192,27495,1,0,0:0:0:0:
192,192,27495,1,0,0:0:0:0:
448,192,27495,1,0,0:0:0:0:
320,192,27618,1,0,0:0:0:0:
448,192,27618,1,0,0:0:0:0:
64,192,27740,1,0,0:0:0:0:
192,192,27740,1,0,0:0:0:0:
320,192,27740,1,0,0:0:0:0:
192,192,27863,1,0,0:0:0:0:
448,192,27863,1,0,0:0:0:0:
320,192,27986,1,0,0:0:0:0:
448,192,27986,1,0,0:0:0:0:
64,192,27986,1,0,0:0:0:0:
64,192,28109,1,0,0:0:0:0:
192,192,28109,1,0,0:0:0:0:
192,192,28232,1,0,0:0:0:0:
320,192,28232,1,0,0:0:0:0:
448,192,28232,1,0,0:0:0:0:
320,192,28355,1,0,0:0:0:0:
64,192,28355,1,0,0:0:0:0:
64,192,28478,1,0,0:0:0:0:
192,192,28478,1,0,0:0:0:0:
448,192,28478,1,0,0:0:0:0:
320,192,28601,1,0,0:0:0:0:
448,192,28601,1,0,0:0:0:0:
192,192,28601,1,0,0:0:0:0:
192,192,28724,1,0,0:0:0:0:
448,192,28847,1,0,0:0:0:0:
320,192,28847,1,0,0:0:0:0:
64,192,28847,1,0,0:0:0:0:
64,192,28970,1,0,0:0:0:0:
192,192,28970,1,0,0:0:0:0:
320,192,28970,1,0,0:0:0:0:
320,192,29093,1,0,0:0:0:0:
448,192,29216,1,0,0:0:0:0:
192,192,29216,1,0,0:0:0:0:
64,192,29216,1,0,0:0:0:0:
192,192,29339,1,0,0:0:0:0:
320,192,29339,1,0,0:0:0:0:
64,192,29462,1,0,0:0:0:0:
320,192,29462,1,0,0:0:0:0:
448,192,29462,1,0,0:0:0:0:
448,192,29585,1,0,0:0:0:0:
192,192,29585,1,0,0:0:0:0:
320,192,29708,1,0,0:0:0:0:
448,192,29708,1,0,0:0:0:0:
64,192,29708,1,0,0:0:0:0:
64,192,29831,1,0,0:0:0:0:
192,192,29831,1,0,0:0:0:0:
192,192,29954,1,0,0:0:0:0:
320,192,29954,1,0,0:0:0:0:
448,192,29954,1,0,0:0:0:0:
64,192,30077,1,0,0:0:0:0:
320,192,30077,1,0,0:0:0:0:
448,192,30199,1,0,0:0:0:0:
192,192,30199,1,0,0:0:0:0:
64,192,30199,1,0,0:0:0:0:
320,192,30322,1,0,0:0:0:0:
64,192,30322,1,0,0:0:0:0:
448,192,30445,1,0,0:0:0:0:
320,192,30445,1,0,0:0:0:0:
192,192,30445,1,0,0:0:0:0:
64,192,30568,1,0,0:0:0:0:
192,192,30568,1,0,0:0:0:0:
448,192,30568,1,0,0:0:0:0:
320,192,30691,1,0,0:0:0:0:
192,192,30691,1,0,0:0:0:0:
64,192,30691,1,0,0:0:0:0:
64,192,30814,1,0,0:0:0:0:
448,192,30814,1,0,0:0:0:0:
320,192,30814,1,0,0:0:0:0:
192,192,30937,1,0,0:0:0:0:
448,192,30937,1,0,0:0:0:0:
320,192,30937,1,0,0:0:0:0:
320,192,31060,1,0,0:0:0:0:
64,192,31060,1,0,0:0:0:0:
448,192,31183,1,0,0:0:0:0:
320,192,31183,1,0,0:0:0:0:
192,192,31183,1,0,0:0:0:0:
192,192,31306,1,0,0:0:0:0:
448,192,31306,1,0,0:0:0:0:
64,192,31306,1,0,0:0:0:0:
320,192,31429,1,0,0:0:0:0:
192,192,31429,1,0,0:0:0:0:
64,192,31429,1,0,0:0:0:0:
320,192,31552,1,0,0:0:0:0:
448,192,31552,1,0,0:0:0:0:
64,192,31675,1,0,0:0:0:0:
448,192,31675,1,0,0:0:0:0:
192,192,31675,1,0,0:0:0:0:
320,192,31798,1,0,0:0:0:0:
64,192,31798,1,0,0:0:0:0:
192,192,31921,1,0,0:0:0:0:
448,192,31921,1,0,0:0:0:0:
320,192,31921,1,0,0:0:0:0:
64,192,32044,1,0,0:0:0:0:
192,192,32044,1,0,0:0:0:0:
448,192,32167,1,0,0:0:0:0:
320,192,32167,1,0,0:0:0:0:
64,192,32167,1,0,0:0:0:0:
192,192,32290,1,0,0:0:0:0:
448,192,32290,1,0,0:0:0:0:
320,192,32413,1,0,0:0:0:0:
192,192,32413,1,0,0:0:0:0:
64,192,32413,1,0,0:0:0:0:
448,192,32536,1,0,0:0:0:0:
320,192,32536,1,0,0:0:0:0:
64,192,32659,1,0,0:0:0:0:
192,192,32659,1,0,0:0:0:0:
448,192,32659,1,0,0:0:0:0:
320,192,32781,1,0,0:0:0:0:
192,192,32781,1,0,0:0:0:0:
448,192,32904,1,0,0:0:0:0:
320,192,32904,1,0,0:0:0:0:
64,192,32904,1,0,0:0:0:0:
192,192,33027,1,0,0:0:0:0:
448,192,33027,1,0,0:0:0:0:
64,192,33150,1,0,0:0:0:0:
320,192,33150,1,0,0:0:0:0:
192,192,33150,1,0,0:0:0:0:
448,192,33273,1,0,0:0:0:0:
320,192,33273,1,0,0:0:0:0:
64,192,33396,1,0,0:0:0:0:
192,192,33396,1,0,0:0:0:0:
448,192,33396,1,0,0:0:0:0:
320,192,33519,1,0,0:0:0:0:
64,192,33519,1,0,0:0:0:0:
192,192,33642,1,0,0:0:0:0:
320,192,33642,1,0,0:0:0:0:
448,192,33642,1,0,0:0:0:0:
64,192,33765,1,0,0:0:0:0:
192,192,33765,1,0,0:0:0:0:
320,192,33888,1,0,0:0:0:0:
448,192,33888,1,0,0:0:0:0:
64,192,33888,1,0,0:0:0:0:
192,192,34011,1,0,0:0:0:0:
320,192,34011,1,0,0:0:0:0:
64,192,34134,1,0,0:0:0:0:
448,192,34134,1,0,0:0:0:0:
192,192,34134,1,0,0:0:0:0:
320,192,34257,1,0,0:0:0:0:
64,192,34257,1,0,0:0:0:0:
192,192,34380,1,0,0:0:0:0:
448,192,34380,1,0,0:0:0:0:
320,192,34380,1,0,0:0:0:0:
64,192,34503,1,0,0:0:0:0:
192,192,34503,1,0,0:0:0:0:
448,192,34626,1,0,0:0:0:0:
320,192,34626,1,0,0:0:0:0:
192,192,34687,1,0,0:0:0:0:
64,192,34687,1,0,0:0:0:0:
320,192,34749,1,0,0:0:0:0:
448,192,34749,1,0,0:0:0:0:
192,192,34810,1,0,0:0:0:0:
64,192,34810,1,0,0:0:0:0:
320,192,34872,1,0,0:0:0:0:
448,192,34872,1,0,0:0:0:0:
192,192,34995,1,0,0:0:0:0:
448,192,34995,1,0,0:0:0:0:
64,192,35118,1,0,0:0:0:0:
320,192,35118,1,0,0:0:0:0:
192,192,35118,1,0,0:0:0:0:
320,192,35240,1,0,0:0:0:0:
448,192,35240,1,0,0:0:0:0:
64,192,35363,1,0,0:0:0:0:
192,192,35363,1,0,0:0:0:0:
448,192,35363,1,0,0:0:0:0:
320,192,35486,1,0,0:0:0:0:
64,192,35486,1,0,0:0:0:0:
192,192,35609,1,0,0:0:0:0:
320,192,35609,1,0,0:0:0:0:
448,192,35609,1,0,0:0:0:0:
64,192,35732,1,0,0:0:0:0:
192,192,35732,1,0,0:0:0:0:
320,192,35855,1,0,0:0:0:0:
448,192,35855,1,0,0:0:0:0:
64,192,35855,1,0,0:0:0:0:
192,192,35978,1,0,0:0:0:0:
448,192,35978,1,0,0:0:0:0:
64,192,36101,1,0,0:0:0:0:
192,192,36101,1,0,0:0:0:0:
320,192,36101,1,0,0:0:0:0:
448,192,36224,1,0,0:0:0:0:
320,192,36224,1,0,0:0:0:0:
64,192,36347,1,0,0:0:0:0:
192,192,36347,1,0,0:0:0:0:
448,192,36347,1,0,0:0:0:0:
320,192,36470,1,0,0:0:0:0:
192,192,36470,1,0,0:0:0:0:
64,192,36470,1,0,0:0:0:0:
448,192,36593,1,0,0:0:0:0:
192,192,36593,1,0,0:0:0:0:
448,192,36716,1,0,0:0:0:0:
64,192,36716,1,0,0:0:0:0:
320,192,36716,1,0,0:0:0:0:
320,192,36839,1,0,0:0:0:0:
192,192,36839,1,0,0:0:0:0:
64,192,36839,1,0,0:0:0:0:
448,192,36962,1,0,0:0:0:0:
320,192,36962,1,0,0:0:0:0:
64,192,37085,1,0,0:0:0:0:
192,192,37085,1,0,0:0:0:0:
448,192,37085,1,0,0:0:0:0:
320,192,37208,1,0,0:0:0:0:
64,192,37208,1,0,0:0:0:0:
192,192,37331,1,0,0:0:0:0:
320,192,37331,1,0,0:0:0:0:
448,192,37331,1,0,0:0:0:0:
64,192,37454,1,0,0:0:0:0:
192,192,37454,1,0,0:0:0:0:
448,192,37577,1,0,0:0:0:0:
320,192,37577,1,0,0:0:0:0:
64,192,37577,1,0,0:0:0:0:
192,192,37699,1,0,0:0:0:0:
448,192,37699,1,0,0:0:0:0:
320,192,37822,1,0,0:0:0:0:
192,192,37822,1,0,0:0:0:0:
64,192,37822,1,0,0:0:0:0:
448,192,37945,1,0,0:0:0:0:
320,192,37945,1,0,0:0:0:0:
64,192,38068,1,0,0:0:0:0:
192,192,38068,1,0,0:0:0:0:
448,192,38068,1,0,0:0:0:0:
320,192,38191,1,0,0:0:0:0:
64,192,38191,1,0,0:0:0:0:
192,192,38314,1,0,0:0:0:0:
320,192,38314,1,0,0:0:0:0:
448,192,38314,1,0,0:0:0:0:
64,192,38437,1,0,0:0:0:0:
192,192,38437,1,0,0:0:0:0:
320,192,38437,1,0,0:0:0:0:
448,192,38560,1,0,0:0:0:0:
320,192,38560,1,0,0:0:0:0:
64,192,38560,1,0,0:0:0:0:
192,192,38683,1,0,0:0:0:0:
320,192,38683,1,0,0:0:0:0:
448,192,38683,1,0,0:0:0:0:
448,192,38806,1,0,0:0:0:0:
64,192,38806,1,0,0:0:0:0:
192,192,38806,1,0,0:0:0:0:
320,192,38929,1,0,0:0:0:0:
64,192,38929,1,0,0:0:0:0:
192,192,39052,1,0,0:0:0:0:
448,192,39052,1,0,0:0:0:0:
320,192,39052,1,0,0:0:0:0:
64,192,39175,1,0,0:0:0:0:
192,192,39175,1,0,0:0:0:0:
448,192,39298,1,0,0:0:0:0:
320,192,39298,1,0,0:0:0:0:
64,192,39298,1,0,0:0:0:0:
192,192,39421,1,0,0:0:0:0:
448,192,39421,1,0,0:0:0:0:
320,192,39544,1,0,0:0:0:0:
192,192,39544,1,0,0:0:0:0:
64,192,39544,1,0,0:0:0:0:
448,192,39667,1,0,0:0:0:0:
320,192,39667,1,0,0:0:0:0:
64,192,39790,1,0,0:0:0:0:
192,192,39790,1,0,0:0:0:0:
448,192,39790,1,0,0:0:0:0:
320,192,39913,1,0,0:0:0:0:
192,192,39913,1,0,0:0:0:0:
320,192,40036,1,0,0:0:0:0:
448,192,40036,1,0,0:0:0:0:
64,192,40036,1,0,0:0:0:0:
192,192,40159,1,0,0:0:0:0:
320,192,40159,1,0,0:0:0:0:
64,192,40281,1,0,0:0:0:0:
192,192,40281,1,0,0:0:0:0:
448,192,40281,1,0,0:0:0:0:
320,192,40404,1,0,0:0:0:0:
192,192,40404,1,0,0:0:0:0:
448,192,40404,1,0,0:0:0:0:
64,192,40527,1,0,0:0:0:0:
320,192,40527,1,0,0:0:0:0:
192,192,40527,1,0,0:0:0:0:
448,192,40650,1,0,0:0:0:0:
320,192,40650,1,0,0:0:0:0:
64,192,40650,1,0,0:0:0:0:
192,192,40773,1,0,0:0:0:0:
448,192,40773,1,0,0:0:0:0:
320,192,40773,1,0,0:0:0:0:
64,192,40896,1,0,0:0:0:0:
192,192,40896,1,0,0:0:0:0:
448,192,41019,1,0,0:0:0:0:
320,192,41019,1,0,0:0:0:0:
64,192,41019,1,0,0:0:0:0:
192,192,41142,1,0,0:0:0:0:
320,192,41265,1,0,0:0:0:0:
192,192,41388,1,0,0:0:0:0:
64,192,41511,1,0,0:0:0:0:
192,192,41634,1,0,0:0:0:0:
320,192,41757,1,0,0:0:0:0:
448,192,41757,1,0,0:0:0:0:
192,192,41880,1,0,0:0:0:0:
64,192,42003,1,0,0:0:0:0:
320,192,42003,1,0,0:0:0:0:
448,192,42126,1,0,0:0:0:0:
320,192,42249,1,0,0:0:0:0:
192,192,42249,1,0,0:0:0:0:
64,192,42372,1,0,0:0:0:0:
320,192,42372,1,0,0:0:0:0:
448,192,42495,1,0,0:0:0:0:
192,192,42495,1,0,0:0:0:0:
320,192,42618,1,0,0:0:0:0:
192,192,42740,1,0,0:0:0:0:
64,192,42740,1,0,0:0:0:0:
448,192,42740,1,0,0:0:0:0:
320,192,42863,1,0,0:0:0:0:
64,192,42863,1,0,0:0:0:0:
448,192,42986,1,0,0:0:0:0:
320,192,42986,1,0,0:0:0:0:
192,192,42986,1,0,0:0:0:0:
64,192,43109,1,0,0:0:0:0:
192,192,43109,1,0,0:0:0:0:
448,192,43232,1,0,0:0:0:0:
320,192,43232,1,0,0:0:0:0:
64,192,43232,1,0,0:0:0:0:
192,192,43355,1,0,0:0:0:0:
448,192,43355,1,0,0:0:0:0:
320,192,43478,1,0,0:0:0:0:
192,192,43478,1,0,0:0:0:0:
64,192,43478,1,0,0:0:0:0:
448,192,43601,1,0,0:0:0:0:
320,192,43601,1,0,0:0:0:0:
64,192,43724,1,0,0:0:0:0:
192,192,43724,1,0,0:0:0:0:
448,192,43724,1,0,0:0:0:0:
320,192,43847,1,0,0:0:0:0:
64,192,43847,1,0,0:0:0:0:
192,192,43970,1,0,0:0:0:0:
320,192,43970,1,0,0:0:0:0:
448,192,43970,1,0,0:0:0:0:
64,192,44093,1,0,0:0:0:0:
192,192,44093,1,0,0:0:0:0:
320,192,44216,1,0,0:0:0:0:
448,192,44216,1,0,0:0:0:0:
64,192,44216,1,0,0:0:0:0:
192,192,44339,1,0,0:0:0:0:
320,192,44339,1,0,0:0:0:0:
448,192,44339,1,0,0:0:0:0:
64,192,44462,1,0,0:0:0:0:
320,192,44462,1,0,0:0:0:0:
320,192,44585,1,0,0:0:0:0:
192,192,44585,1,0,0:0:0:0:
448,192,44585,1,0,0:0:0:0:
64,192,44708,1,0,0:0:0:0:
192,192,44708,1,0,0:0:0:0:
448,192,44708,1,0,0:0:0:0:
192,192,44831,1,0,0:0:0:0:
320,192,44831,1,0,0:0:0:0:
320,192,44954,1,0,0:0:0:0:
448,192,44954,1,0,0:0:0:0:
64,192,44954,1,0,0:0:0:0:
192,192,45077,1,0,0:0:0:0:
448,192,45077,1,0,0:0:0:0:
320,192,45199,1,0,0:0:0:0:
192,192,45199,1,0,0:0:0:0:
64,192,45199,1,0,0:0:0:0:
320,192,45322,1,0,0:0:0:0:
448,192,45322,1,0,0:0:0:0:
192,192,45445,1,0,0:0:0:0:
64,192,45445,1,0,0:0:0:0:
448,192,45445,1,0,0:0:0:0:
320,192,45568,1,0,0:0:0:0:
64,192,45568,1,0,0:0:0:0:
192,192,45691,1,0,0:0:0:0:
448,192,45691,1,0,0:0:0:0:
320,192,45691,1,0,0:0:0:0:
64,192,45814,1,0,0:0:0:0:
192,192,45814,1,0,0:0:0:0:
448,192,45937,1,0,0:0:0:0:
320,192,45937,1,0,0:0:0:0:
64,192,45937,1,0,0:0:0:0:
192,192,46060,1,0,0:0:0:0:
448,192,46060,1,0,0:0:0:0:
64,192,46183,1,0,0:0:0:0:
192,192,46183,1,0,0:0:0:0:
320,192,46183,1,0,0:0:0:0:
448,192,46306,1,0,0:0:0:0:
320,192,46306,1,0,0:0:0:0:
64,192,46306,1,0,0:0:0:0:
192,192,46429,1,0,0:0:0:0:
320,192,46429,1,0,0:0:0:0:
448,192,46429,1,0,0:0:0:0:
64,192,46552,1,0,0:0:0:0:
192,192,46552,1,0,0:0:0:0:
448,192,46552,1,0,0:0:0:0:
320,192,46675,1,0,0:0:0:0:
64,192,46675,1,0,0:0:0:0:
192,192,46675,1,0,0:0:0:0:
448,192,46798,1,0,0:0:0:0:
320,192,46798,1,0,0:0:0:0:
64,192,46921,1,0,0:0:0:0:
192,192,46921,1,0,0:0:0:0:
448,192,46921,1,0,0:0:0:0:
320,192,47044,1,0,0:0:0:0:
64,192,47044,1,0,0:0:0:0:
192,192,47167,1,0,0:0:0:0:
320,192,47167,1,0,0:0:0:0:
448,192,47167,1,0,0:0:0:0:
64,192,47290,1,0,0:0:0:0:
192,192,47290,1,0,0:0:0:0:
320,192,47413,1,0,0:0:0:0:
448,192,47413,1,0,0:0:0:0:
64,192,47413,1,0,0:0:0:0:
192,192,47536,1,0,0:0:0:0:
448,192,47536,1,0,0:0:0:0:
320,192,47659,1,0,0:0:0:0:
192,192,47659,1,0,0:0:0:0:
64,192,47659,1,0,0:0:0:0:
320,192,47781,1,0,0:0:0:0:
448,192,47781,1,0,0:0:0:0:
192,192,47904,1,0,0:0:0:0:
64,192,47904,1,0,0:0:0:0:
448,192,47904,1,0,0:0:0:0:
320,192,48027,1,0,0:0:0:0:
64,192,48027,1,0,0:0:0:0:
192,192,48150,1,0,0:0:0:0:
448,192,48150,1,0,0:0:0:0:
320,192,48150,1,0,0:0:0:0:
320,192,48273,1,0,0:0:0:0:
64,192,48273,1,0,0:0:0:0:
192,192,48273,1,0,0:0:0:0:
448,192,48396,1,0,0:0:0:0:
64,192,48396,1,0,0:0:0:0:
320,192,48396,1,0,0:0:0:0:
192,192,48519,1,0,0:0:0:0:
64,192,48519,1,0,0:0:0:0:
448,192,48519,1,0,0:0:0:0:
320,192,48642,1,0,0:0:0:0:
448,192,48642,1,0,0:0:0:0:
192,192,48642,1,0,0:0:0:0:
64,192,48765,1,0,0:0:0:0:
320,192,48765,1,0,0:0:0:0:
192,192,48888,1,0,0:0:0:0:
320,192,49011,1,0,0:0:0:0:
448,192,49134,1,0,0:0:0:0:
320,192,49257,1,0,0:0:0:0:
192,192,49380,1,0,0:0:0:0:
64,192,49503,1,0,0:0:0:0:
448,192,49503,1,0,0:0:0:0:
192,192,49626,1,0,0:0:0:0:
320,192,49626,1,0,0:0:0:0:
320,192,49749,1,0,0:0:0:0:
448,192,49749,1,0,0:0:0:0:
192,192,49872,1,0,0:0:0:0:
448,192,49995,1,0,0:0:0:0:
64,192,49995,1,0,0:0:0:0:
192,192,50118,1,0,0:0:0:0:
320,192,50118,1,0,0:0:0:0:
64,192,50240,1,0,0:0:0:0:
192,192,50240,1,0,0:0:0:0:
320,192,50363,1,0,0:0:0:0:
448,192,50363,1,0,0:0:0:0:
64,192,50486,1,0,0:0:0:0:
192,192,50486,1,0,0:0:0:0:
320,192,50609,1,0,0:0:0:0:
64,192,50609,1,0,0:0:0:0:
448,192,50855,1,0,0:0:0:0:
320,192,50855,1,0,0:0:0:0:
192,192,51101,1,0,0:0:0:0:
448,192,51101,1,0,0:0:0:0:
64,192,51347,1,0,0:0:0:0:
448,192,51347,1,0,0:0:0:0:
192,192,51593,1,0,0:0:0:0:
320,192,51593,1,0,0:0:0:0:
448,192,51839,1,0,0:0:0:0:
192,192,51839,1,0,0:0:0:0:
64,192,52085,1,0,0:0:0:0:
448,192,52085,1,0,0:0:0:0:
192,192,52331,1,0,0:0:0:0:
64,192,52331,1,0,0:0:0:0:
448,192,52577,1,0,0:0:0:0:
192,192,52577,1,0,0:0:0:0:
192,192,52822,1,0,0:0:0:0:
320,192,52822,1,0,0:0:0:0:
448,192,53068,1,0,0:0:0:0:
64,192,53068,1,0,0:0:0:0:
192,192,53314,1,0,0:0:0:0:
448,192,53314,1,0,0:0:0:0:
320,192,53560,1,0,0:0:0:0:
192,192,53560,1,0,0:0:0:0:
64,192,53683,1,0,0:0:0:0:
320,192,53683,1,0,0:0:0:0:
448,192,53806,1,0,0:0:0:0:
64,192,53806,1,0,0:0:0:0:
192,192,53806,1,0,0:0:0:0:
320,192,53929,1,0,0:0:0:0:
192,192,53929,1,0,0:0:0:0:
448,192,54052,1,0,0:0:0:0:
64,192,54052,1,0,0:0:0:0:
320,192,54175,1,0,0:0:0:0:
64,192,54175,1,0,0:0:0:0:
192,192,54298,1,0,0:0:0:0:
320,192,54421,1,0,0:0:0:0:
448,192,54544,1,0,0:0:0:0:
192,192,54544,1,0,0:0:0:0:
64,192,54667,1,0,0:0:0:0:
320,192,54790,1,0,0:0:0:0:
192,192,54790,1,0,0:0:0:0:
448,192,54913,1,0,0:0:0:0:
320,192,55036,1,0,0:0:0:0:
64,192,55036,1,0,0:0:0:0:
192,192,55159,1,0,0:0:0:0:
320,192,55281,1,0,0:0:0:0:
448,192,55281,1,0,0:0:0:0:
64,192,55404,1,0,0:0:0:0:
192,192,55527,1,0,0:0:0:0:
448,192,55527,1,0,0:0:0:0:
320,192,55650,1,0,0:0:0:0:
192,192,55773,1,0,0:0:0:0:
64,192,55773,1,0,0:0:0:0:
448,192,55896,1,0,0:0:0:0:
320,192,56019,1,0,0:0:0:0:
64,192,56019,1,0,0:0:0:0:
192,192,56142,1,0,0:0:0:0:
448,192,56265,1,0,0:0:0:0:
320,192,56265,1,0,0:0:0:0:
64,192,56388,1,0,0:0:0:0:
320,192,56511,1,0,0:0:0:0:
192,192,56511,1,0,0:0:0:0:
448,192,56634,1,0,0:0:0:0:
320,192,56757,1,0,0:0:0:0:
64,192,56757,1,0,0:0:0:0:
192,192,56880,1,0,0:0:0:0:
448,192,57003,1,0,0:0:0:0:
320,192,57003,1,0,0:0:0:0:
64,192,57126,1,0,0:0:0:0:
192,192,57249,1,0,0:0:0:0:
448,192,57249,1,0,0:0:0:0:
320,192,57372,1,0,0:0:0:0:
192,192,57495,1,0,0:0:0:0:
64,192,57495,1,0,0:0:0:0:
448,192,57618,1,0,0:0:0:0:
320,192,57740,1,0,0:0:0:0:
192,192,57740,1,0,0:0:0:0:
64,192,57863,1,0,0:0:0:0:
192,192,57986,1,0,0:0:0:0:
448,192,57986,1,0,0:0:0:0:
64,192,58109,1,0,0:0:0:0:
448,192,58109,1,0,0:0:0:0:
192,192,58232,1,0,0:0:0:0:
320,192,58232,1,0,0:0:0:0:
64,192,58294,1,0,0:0:0:0:
448,192,58294,1,0,0:0:0:0:
320,192,58355,1,0,0:0:0:0:
192,192,58355,1,0,0:0:0:0:
64,192,58417,1,0,0:0:0:0:
448,192,58417,1,0,0:0:0:0:
192,192,58478,1,0,0:0:0:0:
320,192,58478,1,0,0:0:0:0:
448,192,58540,1,0,0:0:0:0:
320,192,58601,1,0,0:0:0:0:
192,192,58663,1,0,0:0:0:0:
64,192,58724,1,0,0:0:0:0:
320,192,58724,1,0,0:0:0:0:
448,192,58786,1,0,0:0:0:0:
192,192,58847,1,0,0:0:0:0:
320,192,58909,1,0,0:0:0:0:
192,192,58970,1,0,0:0:0:0:
448,192,58970,1,0,0:0:0:0:
64,192,59031,1,0,0:0:0:0:
320,192,59093,1,0,0:0:0:0:
448,192,59154,1,0,0:0:0:0:
192,192,59216,1,0,0:0:0:0:
64,192,59216,1,0,0:0:0:0:
320,192,59277,1,0,0:0:0:0:
192,192,59339,1,0,0:0:0:0:
448,192,59400,1,0,0:0:0:0:
320,192,59462,1,0,0:0:0:0:
64,192,59462,1,0,0:0:0:0:
192,192,59523,1,0,0:0:0:0:
320,192,59585,1,0,0:0:0:0:
448,192,59646,1,0,0:0:0:0:
320,192,59708,1,0,0:0:0:0:
192,192,59708,1,0,0:0:0:0:
64,192,59769,1,0,0:0:0:0:
192,192,59831,1,0,0:0:0:0:
448,192,59892,1,0,0:0:0:0:
320,192,59954,1,0,0:0:0:0:
64,192,59954,1,0,0:0:0:0:
192,192,60015,1,0,0:0:0:0:
320,192,60077,1,0,0:0:0:0:
448,192,60138,1,0,0:0:0:0:
320,192,60199,1,0,0:0:0:0:
192,192,60199,1,0,0:0:0:0:
64,192,60261,1,0,0:0:0:0:
448,192,60322,1,0,0:0:0:0:
192,192,60322,1,0,0:0:0:0:
320,192,60384,1,0,0:0:0:0:
192,192,60445,1,0,0:0:0:0:
64,192,60445,1,0,0:0:0:0:
448,192,60507,1,0,0:0:0:0:
320,192,60568,1,0,0:0:0:0:
64,192,60630,1,0,0:0:0:0:
448,192,60691,1,0,0:0:0:0:
192,192,60691,1,0,0:0:0:0:
320,192,60753,1,0,0:0:0:0:
64,192,60814,1,0,0:0:0:0:
192,192,60876,1,0,0:0:0:0:
448,192,60937,1,0,0:0:0:0:
320,192,60937,1,0,0:0:0:0:
192,192,60999,1,0,0:0:0:0:
320,192,61060,1,0,0:0:0:0:
64,192,61122,1,0,0:0:0:0:
192,192,61183,1,0,0:0:0:0:
448,192,61183,1,0,0:0:0:0:
320,192,61245,1,0,0:0:0:0:
192,192,61306,1,0,0:0:0:0:
64,192,61368,1,0,0:0:0:0:
192,192,61429,1,0,0:0:0:0:
320,192,61429,1,0,0:0:0:0:
448,192,61490,1,0,0:0:0:0:
192,192,61552,1,0,0:0:0:0:
64,192,61613,1,0,0:0:0:0:
320,192,61675,1,0,0:0:0:0:
448,192,61675,1,0,0:0:0:0:
192,192,61736,1,0,0:0:0:0:
64,192,61798,1,0,0:0:0:0:
320,192,61859,1,0,0:0:0:0:
448,192,61921,1,0,0:0:0:0:
192,192,61921,1,0,0:0:0:0:
64,192,61982,1,0,0:0:0:0:
192,192,62044,1,0,0:0:0:0:
320,192,62044,1,0,0:0:0:0:
448,192,62105,1,0,0:0:0:0:
64,192,62167,1,0,0:0:0:0:
192,192,62167,1,0,0:0:0:0:
320,192,62228,1,0,0:0:0:0:
448,192,62228,1,0,0:0:0:0:
192,192,62290,1,0,0:0:0:0:
64,192,62290,1,0,0:0:0:0:
320,192,62351,1,0,0:0:0:0:
448,192,62351,1,0,0:0:0:0:
192,192,62413,1,0,0:0:0:0:
64,192,62413,1,0,0:0:0:0:
320,192,62536,1,0,0:0:0:0:
192,192,62659,1,0,0:0:0:0:
448,192,62659,1,0,0:0:0:0:
64,192,62781,1,0,0:0:0:0:
192,192,62904,1,0,0:0:0:0:
448,192,63027,1,0,0:0:0:0:
320,192,63150,1,0,0:0:0:0:
192,192,63273,1,0,0:0:0:0:
64,192,63273,1,0,0:0:0:0:
448,192,63396,1,0,0:0:0:0:
320,192,63519,1,0,0:0:0:0:
64,192,63519,1,0,0:0:0:0:
192,192,63642,1,0,0:0:0:0:
320,192,63765,1,0,0:0:0:0:
448,192,63765,1,0,0:0:0:0:
64,192,63888,1,0,0:0:0:0:
320,192,64011,1,0,0:0:0:0:
192,192,64134,1,0,0:0:0:0:
64,192,64257,1,0,0:0:0:0:
192,192,64380,1,0,0:0:0:0:
448,192,64380,1,0,0:0:0:0:
320,192,64503,1,0,0:0:0:0:
192,192,64626,1,0,0:0:0:0:
64,192,64626,1,0,0:0:0:0:
448,192,64749,1,0,0:0:0:0:
192,192,64872,1,0,0:0:0:0:
320,192,64872,1,0,0:0:0:0:
64,192,64995,1,0,0:0:0:0:
320,192,65118,1,0,0:0:0:0:
448,192,65118,1,0,0:0:0:0:
192,192,65240,1,0,0:0:0:0:
64,192,65363,1,0,0:0:0:0:
320,192,65486,1,0,0:0:0:0:
448,192,65609,1,0,0:0:0:0:
192,192,65609,1,0,0:0:0:0:
64,192,65732,1,0,0:0:0:0:
192,192,65855,1,0,0:0:0:0:
320,192,65855,1,0,0:0:0:0:
448,192,65978,1,0,0:0:0:0:
192,192,66101,1,0,0:0:0:0:
320,192,66224,1,0,0:0:0:0:
448,192,66347,1,0,0:0:0:0:
192,192,66347,1,0,0:0:0:0:
64,192,66347,1,0,0:0:0:0:
448,192,66470,1,0,0:0:0:0:
320,192,66470,1,0,0:0:0:0:
192,192,66593,1,0,0:0:0:0:
320,192,66593,1,0,0:0:0:0:
64,192,66593,1,0,0:0:0:0:
192,192,66716,1,0,0:0:0:0:
320,192,66839,1,0,0:0:0:0:
64,192,66839,1,0,0:0:0:0:
448,192,66839,1,0,0:0:0:0:
320,192,66962,1,0,0:0:0:0:
192,192,66962,1,0,0:0:0:0:
64,192,67085,1,0,0:0:0:0:
192,192,67085,1,0,0:0:0:0:
448,192,67085,1,0,0:0:0:0:
64,192,67208,1,0,0:0:0:0:
192,192,67331,1,0,0:0:0:0:
320,192,67331,1,0,0:0:0:0:
448,192,67331,1,0,0:0:0:0:
320,192,67454,1,0,0:0:0:0:
64,192,67454,1,0,0:0:0:0:
192,192,67577,1,0,0:0:0:0:
64,192,67577,1,0,0:0:0:0:
448,192,67577,1,0,0:0:0:0:
192,192,67699,1,0,0:0:0:0:
320,192,67699,1,0,0:0:0:0:
320,192,67822,1,0,0:0:0:0:
448,192,67822,1,0,0:0:0:0:
64,192,67822,1,0,0:0:0:0:
192,192,67945,1,0,0:0:0:0:
64,192,67945,1,0,0:0:0:0:
448,192,68068,1,0,0:0:0:0:
320,192,68068,1,0,0:0:0:0:
192,192,68068,1,0,0:0:0:0:
320,192,68191,1,0,0:0:0:0:
448,192,68314,1,0,0:0:0:0:
64,192,68314,1,0,0:0:0:0:
192,192,68314,1,0,0:0:0:0:
448,192,68437,1,0,0:0:0:0:
320,192,68437,1,0,0:0:0:0:
320,192,68560,1,0,0:0:0:0:
192,192,68560,1,0,0:0:0:0:
64,192,68560,1,0,0:0:0:0:
192,192,68683,1,0,0:0:0:0:
320,192,68806,1,0,0:0:0:0:
448,192,68806,1,0,0:0:0:0:
64,192,68806,1,0,0:0:0:0:
320,192,68929,1,0,0:0:0:0:
192,192,68929,1,0,0:0:0:0:
64,192,69052,1,0,0:0:0:0:
192,192,69052,1,0,0:0:0:0:
448,192,69052,1,0,0:0:0:0:
192,192,69175,1,0,0:0:0:0:
64,192,69298,1,0,0:0:0:0:
320,192,69298,1,0,0:0:0:0:
448,192,69298,1,0,0:0:0:0:
64,192,69421,1,0,0:0:0:0:
192,192,69421,1,0,0:0:0:0:
192,192,69544,1,0,0:0:0:0:
448,192,69544,1,0,0:0:0:0:
320,192,69544,1,0,0:0:0:0:
192,192,69667,1,0,0:0:0:0:
320,192,69790,1,0,0:0:0:0:
448,192,69790,1,0,0:0:0:0:
64,192,69790,1,0,0:0:0:0:
448,192,69913,1,0,0:0:0:0:
192,192,69913,1,0,0:0:0:0:
320,192,70036,1,0,0:0:0:0:
64,192,70036,1,0,0:0:0:0:
192,192,70036,1,0,0:0:0:0:
320,192,70159,1,0,0:0:0:0:
448,192,70281,1,0,0:0:0:0:
192,192,70281,1,0,0:0:0:0:
64,192,70281,1,0,0:0:0:0:
64,192,70404,1,0,0:0:0:0:
192,192,70527,1,0,0:0:0:0:
320,192,70527,1,0,0:0:0:0:
448,192,70527,1,0,0:0:0:0:
192,192,70650,1,0,0:0:0:0:
448,192,70773,1,0,0:0:0:0:
64,192,70773,1,0,0:0:0:0:
320,192,70773,1,0,0:0:0:0:
448,192,70896,1,0,0:0:0:0:
64,192,71019,1,0,0:0:0:0:
192,192,71019,1,0,0:0:0:0:
320,192,71019,1,0,0:0:0:0:
320,192,71142,1,0,0:0:0:0:
448,192,71142,1,0,0:0:0:0:
192,192,71265,1,0,0:0:0:0:
64,192,71265,1,0,0:0:0:0:
448,192,71265,1,0,0:0:0:0:
192,192,71388,1,0,0:0:0:0:
320,192,71511,1,0,0:0:0:0:
448,192,71511,1,0,0:0:0:0:
64,192,71511,1,0,0:0:0:0:
448,192,71634,1,0,0:0:0:0:
192,192,71634,1,0,0:0:0:0:
64,192,71757,1,0,0:0:0:0:
192,192,71757,1,0,0:0:0:0:
320,192,71757,1,0,0:0:0:0:
320,192,71880,1,0,0:0:0:0:
448,192,71880,1,0,0:0:0:0:
64,192,72003,1,0,0:0:0:0:
192,192,72003,1,0,0:0:0:0:
448,192,72003,1,0,0:0:0:0:
192,192,72126,1,0,0:0:0:0:
320,192,72249,1,0,0:0:0:0:
448,192,72249,1,0,0:0:0:0:
64,192,72249,1,0,0:0:0:0:
64,192,72372,1,0,0:0:0:0:
192,192,72495,1,0,0:0:0:0:
448,192,72495,1,0,0:0:0:0:
320,192,72495,1,0,0:0:0:0:
320,192,72618,1,0,0:0:0:0:
448,192,72740,1,0,0:0:0:0:
192,192,72740,1,0,0:0:0:0:
64,192,72740,1,0,0:0:0:0:
192,192,72863,1,0,0:0:0:0:
320,192,72863,1,0,0:0:0:0:
320,192,72986,1,0,0:0:0:0:
448,192,72986,1,0,0:0:0:0:
64,192,72986,1,0,0:0:0:0:
192,192,73109,1,0,0:0:0:0:
448,192,73109,1,0,0:0:0:0:
192,192,73232,1,0,0:0:0:0:
320,192,73232,1,0,0:0:0:0:
64,192,73232,1,0,0:0:0:0:
448,192,73355,1,0,0:0:0:0:
320,192,73355,1,0,0:0:0:0:
64,192,73478,1,0,0:0:0:0:
192,192,73478,1,0,0:0:0:0:
448,192,73478,1,0,0:0:0:0:
320,192,73601,1,0,0:0:0:0:
64,192,73601,1,0,0:0:0:0:
192,192,73724,1,0,0:0:0:0:
448,192,73724,1,0,0:0:0:0:
320,192,73724,1,0,0:0:0:0:
64,192,73847,1,0,0:0:0:0:
192,192,73847,1,0,0:0:0:0:
320,192,73970,1,0,0:0:0:0:
448,192,73970,1,0,0:0:0:0:
64,192,73970,1,0,0:0:0:0:
192,192,74216,1,0,0:0:0:0:
448,192,74462,1,0,0:0:0:0:
192,192,74585,1,0,0:0:0:0:
448,192,74708,1,0,0:0:0:0:
64,192,74831,1,0,0:0:0:0:
320,192,74954,1,0,0:0:0:0:
448,192,75077,1,0,0:0:0:0:
192,192,75199,1,0,0:0:0:0:
64,192,75199,1,0,0:0:0:0:
448,192,75322,1,0,0:0:0:0:
192,192,75445,1,0,0:0:0:0:
320,192,75568,1,0,0:0:0:0:
448,192,75691,1,0,0:0:0:0:
64,192,75814,1,0,0:0:0:0:
320,192,75937,1,0,0:0:0:0:
192,192,76060,1,0,0:0:0:0:
64,192,76183,1,0,0:0:0:0:
448,192,76183,1,0,0:0:0:0:
192,192,76306,1,0,0:0:0:0:
320,192,76429,1,0,0:0:0:0:
192,192,76552,1,0,0:0:0:0:
448,192,76675,1,0,0:0:0:0:
64,192,76798,1,0,0:0:0:0:
320,192,76921,1,0,0:0:0:0:
64,192,77044,1,0,0:0:0:0:
448,192,77167,1,0,0:0:0:0:
192,192,77167,1,0,0:0:0:0:
320,192,77290,1,0,0:0:0:0:
64,192,77413,1,0,0:0:0:0:
448,192,77536,1,0,0:0:0:0:
192,192,77659,1,0,0:0:0:0:
448,192,77781,1,0,0:0:0:0:
64,192,77904,1,0,0:0:0:0:
320,192,78027,1,0,0:0:0:0:
192,192,78150,1,0,0:0:0:0:
64,192,78150,1,0,0:0:0:0:
448,192,78150,1,0,0:0:0:0:
192,192,78273,1,0,0:0:0:0:
320,192,78396,1,0,0:0:0:0:
448,192,78396,1,0,0:0:0:0:
64,192,78396,1,0,0:0:0:0:
448,192,78519,1,0,0:0:0:0:
64,192,78642,1,0,0:0:0:0:
192,192,78642,1,0,0:0:0:0:
320,192,78642,1,0,0:0:0:0:
320,192,78765,1,0,0:0:0:0:
64,192,78888,1,0,0:0:0:0:
192,192,78888,1,0,0:0:0:0:
448,192,78888,1,0,0:0:0:0:
64,192,79011,1,0,0:0:0:0:
192,192,79134,1,0,0:0:0:0:
320,192,79134,1,0,0:0:0:0:
448,192,79134,1,0,0:0:0:0:
448,192,79257,1,0,0:0:0:0:
64,192,79380,1,0,0:0:0:0:
192,192,79380,1,0,0:0:0:0:
320,192,79380,1,0,0:0:0:0:
192,192,79503,1,0,0:0:0:0:
320,192,79626,1,0,0:0:0:0:
448,192,79626,1,0,0:0:0:0:
64,192,79626,1,0,0:0:0:0:
320,192,79749,1,0,0:0:0:0:
64,192,79872,1,0,0:0:0:0:
192,192,79872,1,0,0:0:0:0:
448,192,79872,1,0,0:0:0:0:
64,192,79995,1,0,0:0:0:0:
192,192,80118,128,0,80363:0:0:0:0:
320,192,80118,1,0,0:0:0:0:
448,192,80118,1,0,0:0:0:0:
320,192,80240,1,0,0:0:0:0:
64,192,80363,128,0,80609:0:0:0:0:
320,192,80363,1,0,0:0:0:0:
320,192,80486,1,0,0:0:0:0:
448,192,80609,128,0,80855:0:0:0:0:
192,192,80609,1,0,0:0:0:0:
192,192,80732,1,0,0:0:0:0:
320,192,80855,128,0,81101:0:0:0:0:
192,192,80855,1,0,0:0:0:0:
192,192,80978,1,0,0:0:0:0:
64,192,81101,1,0,0:0:0:0:
448,192,81163,1,0,0:0:0:0:
64,192,81224,1,0,0:0:0:0:
448,192,81286,1,0,0:0:0:0:
64,192,81347,1,0,0:0:0:0:
448,192,81409,1,0,0:0:0:0:
64,192,81470,1,0,0:0:0:0:
448,192,81531,1,0,0:0:0:0:
64,192,81593,1,0,0:0:0:0:
448,192,81654,1,0,0:0:0:0:
64,192,81716,1,0,0:0:0:0:
448,192,81777,1,0,0:0:0:0:
64,192,81839,1,0,0:0:0:0:
448,192,81900,1,0,0:0:0:0:
64,192,81962,1,0,0:0:0:0:
448,192,82023,1,0,0:0:0:0:
64,192,82085,1,0,0:0:0:0:
320,192,82085,1,0,0:0:0:0:
192,192,82085,1,0,0:0:0:0:
320,192,82208,1,0,0:0:0:0:
448,192,82208,1,0,0:0:0:0:
64,192,82331,1,0,0:0:0:0:
192,192,82331,1,0,0:0:0:0:
448,192,82331,1,0,0:0:0:0:
64,192,82454,1,0,0:0:0:0:
320,192,82454,1,0,0:0:0:0:
192,192,82577,1,0,0:0:0:0:
320,192,82577,1,0,0:0:0:0:
448,192,82577,1,0,0:0:0:0:
64,192,82699,1,0,0:0:0:0:
192,192,82699,1,0,0:0:0:0:
448,192,82822,1,0,0:0:0:0:
320,192,82822,1,0,0:0:0:0:
64,192,82822,1,0,0:0:0:0:
192,192,82945,1,0,0:0:0:0:
448,192,82945,1,0,0:0:0:0:
320,192,82945,1,0,0:0:0:0:
320,192,83068,1,0,0:0:0:0:
64,192,83068,1,0,0:0:0:0:
192,192,83068,1,0,0:0:0:0:
448,192,83191,1,0,0:0:0:0:
320,192,83191,1,0,0:0:0:0:
448,192,83314,1,0,0:0:0:0:
64,192,83314,1,0,0:0:0:0:
192,192,83314,1,0,0:0:0:0:
320,192,83437,1,0,0:0:0:0:
64,192,83437,1,0,0:0:0:0:
192,192,83437,1,0,0:0:0:0:
192,192,83560,1,0,0:0:0:0:
320,192,83560,1,0,0:0:0:0:
448,192,83560,1,0,0:0:0:0:
64,192,83683,1,0,0:0:0:0:
192,192,83683,1,0,0:0:0:0:
448,192,83806,1,0,0:0:0:0:
320,192,83806,1,0,0:0:0:0:
64,192,83806,1,0,0:0:0:0:
192,192,83929,1,0,0:0:0:0:
448,192,83929,1,0,0:0:0:0:
320,192,83929,1,0,0:0:0:0:
320,192,84052,1,0,0:0:0:0:
192,192,84052,1,0,0:0:0:0:
64,192,84052,1,0,0:0:0:0:
448,192,84175,1,0,0:0:0:0:
192,192,84175,1,0,0:0:0:0:
320,192,84298,1,0,0:0:0:0:
64,192,84298,1,0,0:0:0:0:
448,192,84298,1,0,0:0:0:0:
192,192,84421,1,0,0:0:0:0:
64,192,84421,1,0,0:0:0:0:
448,192,84544,1,0,0:0:0:0:
192,192,84544,1,0,0:0:0:0:
320,192,84544,1,0,0:0:0:0:
64,192,84667,1,0,0:0:0:0:
320,192,84667,1,0,0:0:0:0:
192,192,84790,1,0,0:0:0:0:
64,192,84790,1,0,0:0:0:0:
448,192,84790,1,0,0:0:0:0:
192,192,84913,1,0,0:0:0:0:
320,192,84913,1,0,0:0:0:0:
448,192,84913,1,0,0:0:0:0:
64,192,85036,1,0,0:0:0:0:
192,192,85036,1,0,0:0:0:0:
320,192,85036,1,0,0:0:0:0:
448,192,85159,1,0,0:0:0:0:
320,192,85159,1,0,0:0:0:0:
64,192,85281,1,0,0:0:0:0:
192,192,85281,1,0,0:0:0:0:
448,192,85281,1,0,0:0:0:0:
320,192,85404,1,0,0:0:0:0:
64,192,85404,1,0,0:0:0:0:
192,192,85404,1,0,0:0:0:0:
192,192,85527,1,0,0:0:0:0:
320,192,85527,1,0,0:0:0:0:
448,192,85527,1,0,0:0:0:0:
64,192,85650,1,0,0:0:0:0:
192,192,85650,1,0,0:0:0:0:
448,192,85773,1,0,0:0:0:0:
320,192,85773,1,0,0:0:0:0:
64,192,85773,1,0,0:0:0:0:
192,192,85896,1,0,0:0:0:0:
448,192,85896,1,0,0:0:0:0:
320,192,85896,1,0,0:0:0:0:
320,192,86019,1,0,0:0:0:0:
192,192,86019,1,0,0:0:0:0:
64,192,86019,1,0,0:0:0:0:
448,192,86142,1,0,0:0:0:0:
320,192,86142,1,0,0:0:0:0:
64,192,86265,1,0,0:0:0:0:
192,192,86265,1,0,0:0:0:0:
448,192,86265,1,0,0:0:0:0:
320,192,86388,1,0,0:0:0:0:
64,192,86388,1,0,0:0:0:0:
192,192,86511,1,0,0:0:0:0:
320,192,86511,1,0,0:0:0:0:
448,192,86511,1,0,0:0:0:0:
64,192,86634,1,0,0:0:0:0:
192,192,86634,1,0,0:0:0:0:
448,192,86757,1,0,0:0:0:0:
320,192,86757,1,0,0:0:0:0:
64,192,86757,1,0,0:0:0:0:
192,192,86880,1,0,0:0:0:0:
448,192,86880,1,0,0:0:0:0:
320,192,86880,1,0,0:0:0:0:
64,192,87003,1,0,0:0:0:0:
192,192,87003,1,0,0:0:0:0:
320,192,87003,1,0,0:0:0:0:
320,192,87126,1,0,0:0:0:0:
448,192,87126,1,0,0:0:0:0:
192,192,87249,1,0,0:0:0:0:
64,192,87249,1,0,0:0:0:0:
448,192,87249,1,0,0:0:0:0:
320,192,87372,1,0,0:0:0:0:
64,192,87372,1,0,0:0:0:0:
192,192,87372,1,0,0:0:0:0:
192,192,87495,1,0,0:0:0:0:
320,192,87495,1,0,0:0:0:0:
448,192,87495,1,0,0:0:0:0:
64,192,87618,1,0,0:0:0:0:
192,192,87618,1,0,0:0:0:0:
320,192,87740,1,0,0:0:0:0:
448,192,87740,1,0,0:0:0:0:
64,192,87740,1,0,0:0:0:0:
192,192,87863,1,0,0:0:0:0:
448,192,87863,1,0,0:0:0:0:
320,192,87863,1,0,0:0:0:0:
320,192,87986,1,0,0:0:0:0:
64,192,87986,1,0,0:0:0:0:
192,192,87986,1,0,0:0:0:0:
448,192,88048,1,0,0:0:0:0:
320,192,88109,1,0,0:0:0:0:
192,192,88171,1,0,0:0:0:0:
64,192,88232,1,0,0:0:0:0:
320,192,88232,1,0,0:0:0:0:
448,192,88294,1,0,0:0:0:0:
192,192,88355,1,0,0:0:0:0:
64,192,88417,1,0,0:0:0:0:
192,192,88478,1,0,0:0:0:0:
320,192,88478,1,0,0:0:0:0:
448,192,88540,1,0,0:0:0:0:
64,192,88601,1,0,0:0:0:0:
192,192,88663,1,0,0:0:0:0:
320,192,88724,1,0,0:0:0:0:
448,192,88724,1,0,0:0:0:0:
64,192,88786,1,0,0:0:0:0:
192,192,88847,1,0,0:0:0:0:
448,192,88847,1,0,0:0:0:0:
320,192,88909,1,0,0:0:0:0:
192,192,88970,1,0,0:0:0:0:
64,192,88970,1,0,0:0:0:0:
448,192,89031,1,0,0:0:0:0:
64,192,89093,1,0,0:0:0:0:
192,192,89154,1,0,0:0:0:0:
320,192,89216,1,0,0:0:0:0:
448,192,89216,1,0,0:0:0:0:
64,192,89277,1,0,0:0:0:0:
448,192,89339,1,0,0:0:0:0:
192,192,89339,1,0,0:0:0:0:
320,192,89400,1,0,0:0:0:0:
192,192,89462,1,0,0:0:0:0:
64,192,89462,1,0,0:0:0:0:
448,192,89523,1,0,0:0:0:0:
64,192,89585,1,0,0:0:0:0:
192,192,89646,1,0,0:0:0:0:
320,192,89708,1,0,0:0:0:0:
448,192,89708,1,0,0:0:0:0:
64,192,89769,1,0,0:0:0:0:
192,192,89831,1,0,0:0:0:0:
448,192,89831,1,0,0:0:0:0:
320,192,89892,1,0,0:0:0:0:
192,192,89954,1,0,0:0:0:0:
64,192,89954,1,0,0:0:0:0:
448,192,90077,1,0,0:0:0:0:
320,192,90077,1,0,0:0:0:0:
64,192,90199,1,0,0:0:0:0:
192,192,90199,1,0,0:0:0:0:
320,192,90199,1,0,0:0:0:0:
448,192,90322,1,0,0:0:0:0:
192,192,90322,1,0,0:0:0:0:
320,192,90445,1,0,0:0:0:0:
448,192,90445,1,0,0:0:0:0:
64,192,90445,1,0,0:0:0:0:
192,192,90568,1,0,0:0:0:0:
64,192,90568,1,0,0:0:0:0:
448,192,90691,1,0,0:0:0:0:
320,192,90691,1,0,0:0:0:0:
192,192,90691,1,0,0:0:0:0:
64,192,90814,1,0,0:0:0:0:
320,192,90814,1,0,0:0:0:0:
192,192,90937,1,0,0:0:0:0:
64,192,90937,1,0,0:0:0:0:
448,192,90937,1,0,0:0:0:0:
320,192,91060,1,0,0:0:0:0:
192,192,91060,1,0,0:0:0:0:
448,192,91183,1,0,0:0:0:0:
64,192,91183,1,0,0:0:0:0:
320,192,91183,1,0,0:0:0:0:
192,192,91306,1,0,0:0:0:0:
448,192,91306,1,0,0:0:0:0:
320,192,91429,1,0,0:0:0:0:
192,192,91429,1,0,0:0:0:0:
64,192,91429,1,0,0:0:0:0:
448,192,91552,1,0,0:0:0:0:
320,192,91552,1,0,0:0:0:0:
64,192,91675,1,0,0:0:0:0:
192,192,91675,1,0,0:0:0:0:
448,192,91675,1,0,0:0:0:0:
320,192,91798,1,0,0:0:0:0:
64,192,91798,1,0,0:0:0:0:
192,192,91921,1,0,0:0:0:0:
320,192,91921,1,0,0:0:0:0:
448,192,91921,1,0,0:0:0:0:
64,192,92044,1,0,0:0:0:0:
192,192,92044,1,0,0:0:0:0:
448,192,92167,1,0,0:0:0:0:
64,192,92167,1,0,0:0:0:0:
320,192,92167,1,0,0:0:0:0:
192,192,92290,1,0,0:0:0:0:
320,192,92290,1,0,0:0:0:0:
64,192,92413,1,0,0:0:0:0:
192,192,92413,1,0,0:0:0:0:
448,192,92413,1,0,0:0:0:0:
320,192,92536,1,0,0:0:0:0:
64,192,92536,1,0,0:0:0:0:
320,192,92659,1,0,0:0:0:0:
448,192,92659,1,0,0:0:0:0:
192,192,92659,1,0,0:0:0:0:
64,192,92781,1,0,0:0:0:0:
192,192,92781,1,0,0:0:0:0:
448,192,92904,1,0,0:0:0:0:
320,192,92904,1,0,0:0:0:0:
64,192,92904,1,0,0:0:0:0:
192,192,93027,1,0,0:0:0:0:
448,192,93027,1,0,0:0:0:0:
320,192,93150,1,0,0:0:0:0:
192,192,93150,1,0,0:0:0:0:
64,192,93150,1,0,0:0:0:0:
320,192,93273,1,0,0:0:0:0:
448,192,93273,1,0,0:0:0:0:
64,192,93396,1,0,0:0:0:0:
192,192,93396,1,0,0:0:0:0:
448,192,93396,1,0,0:0:0:0:
320,192,93519,1,0,0:0:0:0:
64,192,93519,1,0,0:0:0:0:
320,192,93642,1,0,0:0:0:0:
448,192,93642,1,0,0:0:0:0:
192,192,93642,1,0,0:0:0:0:
320,192,93765,1,0,0:0:0:0:
64,192,93765,1,0,0:0:0:0:
64,192,93888,1,0,0:0:0:0:
192,192,93888,1,0,0:0:0:0:
448,192,93888,1,0,0:0:0:0:
192,192,94011,1,0,0:0:0:0:
320,192,94011,1,0,0:0:0:0:
448,192,94134,1,0,0:0:0:0:
64,192,94134,1,0,0:0:0:0:
320,192,94134,1,0,0:0:0:0:
192,192,94257,1,0,0:0:0:0:
448,192,94257,1,0,0:0:0:0:
320,192,94380,1,0,0:0:0:0:
192,192,94380,1,0,0:0:0:0:
64,192,94380,1,0,0:0:0:0:
320,192,94503,1,0,0:0:0:0:
448,192,94503,1,0,0:0:0:0:
64,192,94626,1,0,0:0:0:0:
192,192,94626,1,0,0:0:0:0:
448,192,94626,1,0,0:0:0:0:
320,192,94749,1,0,0:0:0:0:
64,192,94749,1,0,0:0:0:0:
192,192,94872,1,0,0:0:0:0:
320,192,94872,1,0,0:0:0:0:
448,192,94872,1,0,0:0:0:0:
64,192,94995,1,0,0:0:0:0:
192,192,94995,1,0,0:0:0:0:
448,192,95118,1,0,0:0:0:0:
320,192,95118,1,0,0:0:0:0:
64,192,95118,1,0,0:0:0:0:
192,192,95240,1,0,0:0:0:0:
448,192,95240,1,0,0:0:0:0:
320,192,95363,1,0,0:0:0:0:
64,192,95363,1,0,0:0:0:0:
192,192,95363,1,0,0:0:0:0:
448,192,95486,1,0,0:0:0:0:
320,192,95486,1,0,0:0:0:0:
64,192,95609,1,0,0:0:0:0:
192,192,95609,1,0,0:0:0:0:
448,192,95609,1,0,0:0:0:0:
320,192,95732,1,0,0:0:0:0:
192,192,95732,1,0,0:0:0:0:
320,192,95855,1,0,0:0:0:0:
448,192,95855,1,0,0:0:0:0:
64,192,95855,1,0,0:0:0:0:
192,192,95978,1,0,0:0:0:0:
320,192,95978,1,0,0:0:0:0:
448,192,96101,1,0,0:0:0:0:
192,192,96101,1,0,0:0:0:0:
64,192,96101,1,0,0:0:0:0:
192,192,96224,1,0,0:0:0:0:
320,192,96224,1,0,0:0:0:0:
448,192,96347,1,0,0:0:0:0:
320,192,96347,1,0,0:0:0:0:
64,192,96347,1,0,0:0:0:0:
192,192,96470,1,0,0:0:0:0:
320,192,96470,1,0,0:0:0:0:
64,192,96593,1,0,0:0:0:0:
192,192,96593,1,0,0:0:0:0:
448,192,96593,1,0,0:0:0:0:
192,192,96716,1,0,0:0:0:0:
320,192,96716,1,0,0:0:0:0:
320,192,96839,1,0,0:0:0:0:
448,192,96839,1,0,0:0:0:0:
64,192,96839,1,0,0:0:0:0:
320,192,96962,1,0,0:0:0:0:
192,192,96962,1,0,0:0:0:0:
64,192,97085,1,0,0:0:0:0:
192,192,97085,1,0,0:0:0:0:
448,192,97085,1,0,0:0:0:0:
192,192,97208,1,0,0:0:0:0:
320,192,97208,1,0,0:0:0:0:
320,192,97331,1,0,0:0:0:0:
448,192,97331,1,0,0:0:0:0:
64,192,97331,1,0,0:0:0:0:
320,192,97454,1,0,0:0:0:0:
192,192,97454,1,0,0:0:0:0:
64,192,97577,1,0,0:0:0:0:
192,192,97577,1,0,0:0:0:0:
448,192,97577,1,0,0:0:0:0:
192,192,97699,1,0,0:0:0:0:
320,192,97699,1,0,0:0:0:0:
