osu file format v14

[General]
AudioFilename: audio.mp3
AudioLeadIn: 0
PreviewTime: -1
Countdown: 0
SampleSet: Normal
StackLeniency: 0.7
Mode: 3
LetterboxInBreaks: 0
SpecialStyle: 0
WidescreenStoryboard: 1

[Editor]
DistanceSpacing: 1
BeatDivisor: 4
GridSize: 8
TimelineZoom: 2.7

[Metadata]
Title:Never Stop Speedcore
TitleUnicode:Never Stop Speedcore
Artist:Mike van de Wetering
ArtistUnicode:Mike van de Wetering
Creator:Choke Master
Version:7k NERF THIS
Source:
Tags:
BeatmapID:1148995
BeatmapSetID:541944

[Difficulty]
HPDrainRate:9
CircleSize:7
OverallDifficulty:9.5
ApproachRate:5
SliderMultiplier:1.4
SliderTickRate:1

[Events]
//Background and Video events
0,0,"bgosuNERFTHIS.png",0,0
//Break Periods
2,17719,20315
2,62535,65070
//Storyboard Layer 0 (Background)
//Storyboard Layer 1 (Fail)
//Storyboard Layer 2 (Pass)
//Storyboard Layer 3 (Foreground)
//Storyboard Sound Samples

[TimingPoints]
5286,245.901639344262,4,1,0,100,1,0
26926,245.901639344262,4,1,0,100,1,0

[HitObjects]
36,192,5286,5,0,0:0:0:0:
182,192,5286,1,0,0:0:0:0:
402,192,5286,1,0,0:0:0:0:
475,192,5286,1,0,0:0:0:0:
256,192,5286,1,0,0:0:0:0:
109,192,5286,1,0,0:0:0:0:
329,192,5286,1,0,0:0:0:0:
475,192,5531,1,0,0:0:0:0:
182,192,5531,1,0,0:0:0:0:
329,192,5531,1,0,0:0:0:0:
256,192,5777,1,0,0:0:0:0:
36,192,5777,1,0,0:0:0:0:
329,192,5777,1,0,0:0:0:0:
475,192,6023,1,0,0:0:0:0:
182,192,6023,1,0,0:0:0:0:
329,192,6023,1,0,0:0:0:0:
36,192,6269,1,0,0:0:0:0:
402,192,6269,1,0,0:0:0:0:
256,192,6269,1,0,0:0:0:0:
256,192,6515,1,0,0:0:0:0:
475,192,6515,1,0,0:0:0:0:
182,192,6515,1,0,0:0:0:0:
109,192,6761,1,0,0:0:0:0:
329,192,6761,1,0,0:0:0:0:
182,192,6761,1,0,0:0:0:0:
182,192,7007,1,0,0:0:0:0:
329,192,7007,1,0,0:0:0:0:
475,192,7007,1,0,0:0:0:0:
36,192,7253,1,0,0:0:0:0:
182,192,7253,1,0,0:0:0:0:
475,192,7253,1,0,0:0:0:0:
329,192,7499,1,0,0:0:0:0:
475,192,7499,1,0,0:0:0:0:
36,192,7499,1,0,0:0:0:0:
109,192,7745,1,0,0:0:0:0:
256,192,7745,1,0,0:0:0:0:
402,192,7745,1,0,0:0:0:0:
182,192,7990,1,0,0:0:0:0:
36,192,7990,1,0,0:0:0:0:
402,192,7990,1,0,0:0:0:0:
475,192,8236,1,0,0:0:0:0:
36,192,8236,1,0,0:0:0:0:
329,192,8236,1,0,0:0:0:0:
329,192,8482,1,0,0:0:0:0:
256,192,8482,1,0,0:0:0:0:
109,192,8482,1,0,0:0:0:0:
402,192,8728,1,0,0:0:0:0:
109,192,8728,1,0,0:0:0:0:
182,192,8728,1,0,0:0:0:0:
182,192,8974,1,0,0:0:0:0:
109,192,8974,1,0,0:0:0:0:
329,192,8974,1,0,0:0:0:0:
36,192,9220,1,0,0:0:0:0:
182,192,9220,1,0,0:0:0:0:
329,192,9220,1,0,0:0:0:0:
402,192,9220,1,0,0:0:0:0:
475,192,9220,1,0,0:0:0:0:
256,192,9220,1,0,0:0:0:0:
36,192,9466,1,0,0:0:0:0:
109,192,9466,1,0,0:0:0:0:
182,192,9466,1,0,0:0:0:0:
475,192,9466,1,0,0:0:0:0:
402,192,9466,1,0,0:0:0:0:
256,192,9466,1,0,0:0:0:0:
329,192,9712,1,0,0:0:0:0:
36,192,9712,1,0,0:0:0:0:
109,192,9712,1,0,0:0:0:0:
182,192,9712,1,0,0:0:0:0:
256,192,9712,1,0,0:0:0:0:
402,192,9712,1,0,0:0:0:0:
475,192,9958,1,0,0:0:0:0:
36,192,9958,1,0,0:0:0:0:
109,192,9958,1,0,0:0:0:0:
402,192,9958,1,0,0:0:0:0:
329,192,9958,1,0,0:0:0:0:
182,192,9958,1,0,0:0:0:0:
182,192,10204,1,0,0:0:0:0:
402,192,10204,1,0,0:0:0:0:
475,192,10204,1,0,0:0:0:0:
36,192,10204,1,0,0:0:0:0:
256,192,10204,1,0,0:0:0:0:
329,192,10204,1,0,0:0:0:0:
402,192,10449,1,0,0:0:0:0:
182,192,10449,1,0,0:0:0:0:
329,192,10449,1,0,0:0:0:0:
475,192,10449,1,0,0:0:0:0:
109,192,10449,1,0,0:0:0:0:
256,192,10449,1,0,0:0:0:0:
109,192,10695,1,0,0:0:0:0:
182,192,10695,1,0,0:0:0:0:
256,192,10695,1,0,0:0:0:0:
475,192,10695,1,0,0:0:0:0:
329,192,10695,1,0,0:0:0:0:
36,192,10695,1,0,0:0:0:0:
475,192,10941,1,0,0:0:0:0:
36,192,10941,1,0,0:0:0:0:
182,192,10941,1,0,0:0:0:0:
329,192,10941,1,0,0:0:0:0:
402,192,10941,1,0,0:0:0:0:
109,192,10941,1,0,0:0:0:0:
256,192,11187,1,0,0:0:0:0:
475,192,11187,1,0,0:0:0:0:
329,192,11187,1,0,0:0:0:0:
182,192,11187,1,0,0:0:0:0:
402,192,11187,1,0,0:0:0:0:
36,192,11187,1,0,0:0:0:0:
109,192,11433,1,0,0:0:0:0:
329,192,11433,1,0,0:0:0:0:
402,192,11433,1,0,0:0:0:0:
182,192,11433,1,0,0:0:0:0:
36,192,11433,1,0,0:0:0:0:
475,192,11433,1,0,0:0:0:0:
36,192,11679,1,0,0:0:0:0:
109,192,11679,1,0,0:0:0:0:
329,192,11679,1,0,0:0:0:0:
402,192,11679,1,0,0:0:0:0:
256,192,11679,1,0,0:0:0:0:
475,192,11679,1,0,0:0:0:0:
402,192,11925,1,0,0:0:0:0:
475,192,11925,1,0,0:0:0:0:
329,192,11925,1,0,0:0:0:0:
182,192,11925,1,0,0:0:0:0:
36,192,11925,1,0,0:0:0:0:
109,192,11925,1,0,0:0:0:0:
256,192,12171,1,0,0:0:0:0:
36,192,12171,1,0,0:0:0:0:
109,192,12171,1,0,0:0:0:0:
402,192,12171,1,0,0:0:0:0:
475,192,12171,1,0,0:0:0:0:
329,192,12171,1,0,0:0:0:0:
256,192,12417,1,0,0:0:0:0:
329,192,12417,1,0,0:0:0:0:
402,192,12417,1,0,0:0:0:0:
36,192,12417,1,0,0:0:0:0:
475,192,12417,1,0,0:0:0:0:
182,192,12417,1,0,0:0:0:0:
109,192,12663,1,0,0:0:0:0:
182,192,12663,1,0,0:0:0:0:
256,192,12663,1,0,0:0:0:0:
36,192,12663,1,0,0:0:0:0:
329,192,12663,1,0,0:0:0:0:
402,192,12663,1,0,0:0:0:0:
475,192,12908,1,0,0:0:0:0:
182,192,12908,1,0,0:0:0:0:
329,192,12908,1,0,0:0:0:0:
402,192,12908,1,0,0:0:0:0:
256,192,12908,1,0,0:0:0:0:
109,192,12908,1,0,0:0:0:0:
475,192,13154,1,0,0:0:0:0:
182,192,13154,1,0,0:0:0:0:
256,192,13154,1,0,0:0:0:0:
402,192,13154,1,0,0:0:0:0:
36,192,13154,1,0,0:0:0:0:
109,192,13154,1,0,0:0:0:0:
475,192,13277,1,0,0:0:0:0:
402,192,13277,1,0,0:0:0:0:
109,192,13277,1,0,0:0:0:0:
36,192,13400,1,0,0:0:0:0:
329,192,13400,1,0,0:0:0:0:
402,192,13400,1,0,0:0:0:0:
475,192,13400,1,0,0:0:0:0:
182,192,13400,1,0,0:0:0:0:
109,192,13400,1,0,0:0:0:0:
109,192,13523,1,0,0:0:0:0:
182,192,13523,1,0,0:0:0:0:
402,192,13523,1,0,0:0:0:0:
475,192,13646,1,0,0:0:0:0:
402,192,13646,1,0,0:0:0:0:
256,192,13646,1,0,0:0:0:0:
182,192,13646,1,0,0:0:0:0:
109,192,13646,1,0,0:0:0:0:
36,192,13769,1,0,0:0:0:0:
329,192,13769,1,0,0:0:0:0:
402,192,13769,1,0,0:0:0:0:
109,192,13892,1,0,0:0:0:0:
182,192,13892,1,0,0:0:0:0:
329,192,13892,1,0,0:0:0:0:
402,192,13892,1,0,0:0:0:0:
475,192,13892,1,0,0:0:0:0:
36,192,13892,1,0,0:0:0:0:
475,192,14015,1,0,0:0:0:0:
36,192,14015,1,0,0:0:0:0:
329,192,14015,1,0,0:0:0:0:
36,192,14138,1,0,0:0:0:0:
109,192,14138,1,0,0:0:0:0:
402,192,14138,1,0,0:0:0:0:
475,192,14138,1,0,0:0:0:0:
256,192,14138,1,0,0:0:0:0:
182,192,14138,1,0,0:0:0:0:
329,192,14261,1,0,0:0:0:0:
475,192,14261,1,0,0:0:0:0:
109,192,14261,1,0,0:0:0:0:
109,192,14384,1,0,0:0:0:0:
182,192,14384,1,0,0:0:0:0:
256,192,14384,1,0,0:0:0:0:
402,192,14384,1,0,0:0:0:0:
475,192,14384,1,0,0:0:0:0:
329,192,14384,1,0,0:0:0:0:
109,192,14507,1,0,0:0:0:0:
402,192,14507,1,0,0:0:0:0:
182,192,14507,1,0,0:0:0:0:
36,192,14630,1,0,0:0:0:0:
109,192,14630,1,0,0:0:0:0:
402,192,14630,1,0,0:0:0:0:
475,192,14630,1,0,0:0:0:0:
256,192,14630,1,0,0:0:0:0:
182,192,14630,1,0,0:0:0:0:
182,192,14753,1,0,0:0:0:0:
329,192,14753,1,0,0:0:0:0:
402,192,14753,1,0,0:0:0:0:
475,192,14876,1,0,0:0:0:0:
402,192,14876,1,0,0:0:0:0:
109,192,14876,1,0,0:0:0:0:
36,192,14876,1,0,0:0:0:0:
329,192,14876,1,0,0:0:0:0:
256,192,14876,1,0,0:0:0:0:
36,192,14999,1,0,0:0:0:0:
402,192,14999,1,0,0:0:0:0:
182,192,14999,1,0,0:0:0:0:
36,192,15122,1,0,0:0:0:0:
109,192,15122,1,0,0:0:0:0:
256,192,15122,1,0,0:0:0:0:
329,192,15122,1,0,0:0:0:0:
475,192,15122,1,0,0:0:0:0:
402,192,15122,1,0,0:0:0:0:
109,192,15245,1,0,0:0:0:0:
475,192,15245,1,0,0:0:0:0:
329,192,15245,1,0,0:0:0:0:
182,192,15367,1,0,0:0:0:0:
402,192,15367,1,0,0:0:0:0:
256,192,15367,1,0,0:0:0:0:
475,192,15367,1,0,0:0:0:0:
36,192,15367,1,0,0:0:0:0:
329,192,15367,1,0,0:0:0:0:
182,192,15490,1,0,0:0:0:0:
402,192,15490,1,0,0:0:0:0:
36,192,15490,1,0,0:0:0:0:
36,192,15613,1,0,0:0:0:0:
109,192,15613,1,0,0:0:0:0:
329,192,15613,1,0,0:0:0:0:
402,192,15613,1,0,0:0:0:0:
475,192,15613,1,0,0:0:0:0:
256,192,15613,1,0,0:0:0:0:
182,192,15736,1,0,0:0:0:0:
36,192,15736,1,0,0:0:0:0:
402,192,15736,1,0,0:0:0:0:
256,192,15859,1,0,0:0:0:0:
329,192,15859,1,0,0:0:0:0:
402,192,15859,1,0,0:0:0:0:
36,192,15859,1,0,0:0:0:0:
109,192,15859,1,0,0:0:0:0:
475,192,15859,1,0,0:0:0:0:
256,192,15982,1,0,0:0:0:0:
402,192,15982,1,0,0:0:0:0:
109,192,15982,1,0,0:0:0:0:
109,192,16105,1,0,0:0:0:0:
182,192,16105,1,0,0:0:0:0:
256,192,16105,1,0,0:0:0:0:
475,192,16105,1,0,0:0:0:0:
402,192,16105,1,0,0:0:0:0:
329,192,16105,1,0,0:0:0:0:
36,192,16228,128,0,16351:0:0:0:0:
475,192,16228,128,0,16351:0:0:0:0:
402,192,16228,1,0,0:0:0:0:
109,192,16228,1,0,0:0:0:0:
256,192,16228,128,0,16474:0:0:0:0:
182,192,16228,1,0,0:0:0:0:
329,192,16228,1,0,0:0:0:0:
109,192,16290,128,0,16413:0:0:0:0:
402,192,16290,128,0,16413:0:0:0:0:
329,192,16351,128,0,16413:0:0:0:0:
182,192,16351,128,0,16413:0:0:0:0:
36,192,16597,1,0,0:0:0:0:
109,192,16597,1,0,0:0:0:0:
475,192,16597,1,0,0:0:0:0:
402,192,16597,1,0,0:0:0:0:
329,192,16597,1,0,0:0:0:0:
182,192,16597,1,0,0:0:0:0:
109,192,16720,128,0,16904:0:0:0:0:
182,192,16720,128,0,16843:0:0:0:0:
329,192,16720,128,0,16904:0:0:0:0:
402,192,16720,128,0,16843:0:0:0:0:
36,192,16720,128,0,16781:0:0:0:0:
256,192,16720,128,0,16904:0:0:0:0:
475,192,16720,128,0,16781:0:0:0:0:
36,192,16966,1,0,0:0:0:0:
182,192,16966,1,0,0:0:0:0:
475,192,16966,1,0,0:0:0:0:
402,192,16966,1,0,0:0:0:0:
329,192,16966,1,0,0:0:0:0:
109,192,16966,1,0,0:0:0:0:
109,192,17089,128,0,17396:0:0:0:0:
36,192,17089,128,0,17335:0:0:0:0:
475,192,17089,128,0,17335:0:0:0:0:
256,192,17089,128,0,17519:0:0:0:0:
182,192,17089,128,0,17458:0:0:0:0:
329,192,17089,128,0,17458:0:0:0:0:
402,192,17089,128,0,17396:0:0:0:0:
36,192,21515,132,0,21884:0:0:0:0:
109,192,21515,128,0,21822:0:0:0:0:
402,192,21515,128,0,21761:0:0:0:0:
475,192,21515,128,0,21945:0:0:0:0:
256,192,21515,128,0,22007:0:0:0:0:
182,192,21515,128,0,21945:0:0:0:0:
329,192,21515,128,0,21884:0:0:0:0:
182,192,22990,1,0,0:0:0:0:
402,192,22990,1,0,0:0:0:0:
256,192,22990,1,0,0:0:0:0:
109,192,23236,1,0,0:0:0:0:
329,192,23236,1,0,0:0:0:0:
256,192,23236,1,0,0:0:0:0:
36,192,23482,1,0,0:0:0:0:
256,192,23482,1,0,0:0:0:0:
109,192,23482,1,0,0:0:0:0:
109,192,23728,1,0,0:0:0:0:
329,192,23728,1,0,0:0:0:0:
256,192,23728,1,0,0:0:0:0:
182,192,23974,1,0,0:0:0:0:
402,192,23974,1,0,0:0:0:0:
256,192,23974,1,0,0:0:0:0:
256,192,24220,1,0,0:0:0:0:
475,192,24220,1,0,0:0:0:0:
402,192,24220,1,0,0:0:0:0:
182,192,24466,1,0,0:0:0:0:
402,192,24466,1,0,0:0:0:0:
256,192,24466,1,0,0:0:0:0:
256,192,24712,1,0,0:0:0:0:
36,192,24712,1,0,0:0:0:0:
182,192,24712,1,0,0:0:0:0:
109,192,24958,1,0,0:0:0:0:
329,192,24958,1,0,0:0:0:0:
256,192,24958,1,0,0:0:0:0:
182,192,25081,1,0,0:0:0:0:
402,192,25081,1,0,0:0:0:0:
256,192,25081,1,0,0:0:0:0:
256,192,25204,1,0,0:0:0:0:
475,192,25204,1,0,0:0:0:0:
402,192,25204,1,0,0:0:0:0:
402,192,25326,1,0,0:0:0:0:
182,192,25326,1,0,0:0:0:0:
256,192,25326,1,0,0:0:0:0:
36,192,25449,1,0,0:0:0:0:
256,192,25449,1,0,0:0:0:0:
109,192,25449,1,0,0:0:0:0:
109,192,25572,1,0,0:0:0:0:
329,192,25572,1,0,0:0:0:0:
256,192,25572,1,0,0:0:0:0:
182,192,25695,1,0,0:0:0:0:
402,192,25695,1,0,0:0:0:0:
256,192,25695,1,0,0:0:0:0:
256,192,25818,1,0,0:0:0:0:
475,192,25818,1,0,0:0:0:0:
329,192,25818,1,0,0:0:0:0:
475,192,25941,1,0,0:0:0:0:
109,192,25941,1,0,0:0:0:0:
329,192,25941,1,0,0:0:0:0:
109,192,26003,1,0,0:0:0:0:
475,192,26003,1,0,0:0:0:0:
329,192,26003,1,0,0:0:0:0:
109,192,26064,1,0,0:0:0:0:
329,192,26064,1,0,0:0:0:0:
475,192,26064,1,0,0:0:0:0:
329,192,26126,1,0,0:0:0:0:
475,192,26126,1,0,0:0:0:0:
109,192,26126,1,0,0:0:0:0:
329,192,26187,1,0,0:0:0:0:
475,192,26187,1,0,0:0:0:0:
109,192,26187,1,0,0:0:0:0:
182,192,26249,1,0,0:0:0:0:
402,192,26249,1,0,0:0:0:0:
36,192,26249,1,0,0:0:0:0:
36,192,26310,1,0,0:0:0:0:
182,192,26310,1,0,0:0:0:0:
402,192,26310,1,0,0:0:0:0:
182,192,26372,1,0,0:0:0:0:
402,192,26372,1,0,0:0:0:0:
36,192,26372,1,0,0:0:0:0:
182,192,26433,1,0,0:0:0:0:
402,192,26433,1,0,0:0:0:0:
36,192,26433,1,0,0:0:0:0:
36,192,26495,1,0,0:0:0:0:
475,192,26495,1,0,0:0:0:0:
329,192,26495,1,0,0:0:0:0:
329,192,26556,1,0,0:0:0:0:
475,192,26556,1,0,0:0:0:0:
36,192,26556,1,0,0:0:0:0:
36,192,26617,1,0,0:0:0:0:
329,192,26617,1,0,0:0:0:0:
475,192,26617,1,0,0:0:0:0:
475,192,26679,1,0,0:0:0:0:
36,192,26679,1,0,0:0:0:0:
329,192,26679,1,0,0:0:0:0:
256,192,26740,1,0,0:0:0:0:
109,192,26740,1,0,0:0:0:0:
402,192,26740,1,0,0:0:0:0:
402,192,26802,1,0,0:0:0:0:
109,192,26802,1,0,0:0:0:0:
256,192,26802,1,0,0:0:0:0:
402,192,26863,1,0,0:0:0:0:
109,192,26863,1,0,0:0:0:0:
256,192,26863,1,0,0:0:0:0:
475,192,26925,1,0,0:0:0:0:
36,192,26926,1,0,0:0:0:0:
182,192,26926,1,0,0:0:0:0:
402,192,26926,1,0,0:0:0:0:
109,192,26926,1,0,0:0:0:0:
329,192,26926,1,0,0:0:0:0:
36,192,27171,1,0,0:0:0:0:
182,192,27171,1,0,0:0:0:0:
329,192,27171,1,0,0:0:0:0:
402,192,27171,1,0,0:0:0:0:
475,192,27171,1,0,0:0:0:0:
109,192,27171,1,0,0:0:0:0:
36,192,27417,1,0,0:0:0:0:
402,192,27417,1,0,0:0:0:0:
182,192,27417,1,0,0:0:0:0:
109,192,27417,1,0,0:0:0:0:
329,192,27417,1,0,0:0:0:0:
256,192,27417,1,0,0:0:0:0:
36,192,27663,1,0,0:0:0:0:
109,192,27663,1,0,0:0:0:0:
329,192,27663,1,0,0:0:0:0:
475,192,27663,1,0,0:0:0:0:
402,192,27663,1,0,0:0:0:0:
182,192,27663,1,0,0:0:0:0:
256,192,27909,1,0,0:0:0:0:
329,192,27909,1,0,0:0:0:0:
475,192,27909,1,0,0:0:0:0:
109,192,27909,1,0,0:0:0:0:
36,192,27909,1,0,0:0:0:0:
182,192,27909,1,0,0:0:0:0:
182,192,28155,1,0,0:0:0:0:
402,192,28155,1,0,0:0:0:0:
329,192,28155,1,0,0:0:0:0:
109,192,28155,1,0,0:0:0:0:
256,192,28155,1,0,0:0:0:0:
475,192,28155,1,0,0:0:0:0:
109,192,28401,1,0,0:0:0:0:
402,192,28401,1,0,0:0:0:0:
475,192,28401,1,0,0:0:0:0:
329,192,28401,1,0,0:0:0:0:
36,192,28401,1,0,0:0:0:0:
182,192,28401,1,0,0:0:0:0:
36,192,28524,1,0,0:0:0:0:
182,192,28524,1,0,0:0:0:0:
109,192,28524,1,0,0:0:0:0:
402,192,28524,1,0,0:0:0:0:
475,192,28524,1,0,0:0:0:0:
256,192,28524,1,0,0:0:0:0:
329,192,28770,1,0,0:0:0:0:
256,192,28770,1,0,0:0:0:0:
109,192,28770,1,0,0:0:0:0:
475,192,28770,1,0,0:0:0:0:
402,192,28770,1,0,0:0:0:0:
182,192,28770,1,0,0:0:0:0:
402,192,28893,1,0,0:0:0:0:
182,192,28893,1,0,0:0:0:0:
109,192,28893,1,0,0:0:0:0:
329,192,28893,1,0,0:0:0:0:
36,192,28893,1,0,0:0:0:0:
256,192,28893,1,0,0:0:0:0:
475,192,29139,1,0,0:0:0:0:
402,192,29139,1,0,0:0:0:0:
256,192,29139,1,0,0:0:0:0:
329,192,29139,1,0,0:0:0:0:
36,192,29139,1,0,0:0:0:0:
109,192,29139,1,0,0:0:0:0:
109,192,29385,1,0,0:0:0:0:
182,192,29385,1,0,0:0:0:0:
256,192,29385,1,0,0:0:0:0:
402,192,29385,1,0,0:0:0:0:
475,192,29385,1,0,0:0:0:0:
329,192,29385,1,0,0:0:0:0:
36,192,29630,1,0,0:0:0:0:
329,192,29630,1,0,0:0:0:0:
182,192,29630,1,0,0:0:0:0:
256,192,29630,1,0,0:0:0:0:
475,192,29630,1,0,0:0:0:0:
402,192,29630,1,0,0:0:0:0:
402,192,29876,1,0,0:0:0:0:
109,192,29876,1,0,0:0:0:0:
36,192,29876,1,0,0:0:0:0:
329,192,29876,1,0,0:0:0:0:
475,192,29876,1,0,0:0:0:0:
256,192,29876,1,0,0:0:0:0:
182,192,30122,1,0,0:0:0:0:
256,192,30122,1,0,0:0:0:0:
475,192,30122,1,0,0:0:0:0:
402,192,30122,1,0,0:0:0:0:
36,192,30122,1,0,0:0:0:0:
109,192,30122,1,0,0:0:0:0:
329,192,30368,1,0,0:0:0:0:
109,192,30368,1,0,0:0:0:0:
182,192,30368,1,0,0:0:0:0:
36,192,30368,1,0,0:0:0:0:
256,192,30368,1,0,0:0:0:0:
402,192,30368,1,0,0:0:0:0:
256,192,30491,1,0,0:0:0:0:
329,192,30491,1,0,0:0:0:0:
475,192,30491,1,0,0:0:0:0:
402,192,30491,1,0,0:0:0:0:
109,192,30491,1,0,0:0:0:0:
182,192,30491,1,0,0:0:0:0:
109,192,30614,1,0,0:0:0:0:
182,192,30614,1,0,0:0:0:0:
475,192,30614,1,0,0:0:0:0:
36,192,30614,1,0,0:0:0:0:
256,192,30614,1,0,0:0:0:0:
329,192,30614,1,0,0:0:0:0:
256,192,30737,1,0,0:0:0:0:
475,192,30737,1,0,0:0:0:0:
36,192,30737,1,0,0:0:0:0:
182,192,30737,1,0,0:0:0:0:
329,192,30737,1,0,0:0:0:0:
402,192,30737,1,0,0:0:0:0:
329,192,30860,1,0,0:0:0:0:
402,192,30860,1,0,0:0:0:0:
36,192,30860,1,0,0:0:0:0:
182,192,30860,1,0,0:0:0:0:
475,192,30860,1,0,0:0:0:0:
109,192,30860,1,0,0:0:0:0:
109,192,31106,1,0,0:0:0:0:
475,192,31106,1,0,0:0:0:0:
402,192,31106,1,0,0:0:0:0:
182,192,31106,1,0,0:0:0:0:
36,192,31106,1,0,0:0:0:0:
256,192,31106,1,0,0:0:0:0:
256,192,31352,1,0,0:0:0:0:
329,192,31352,1,0,0:0:0:0:
475,192,31352,1,0,0:0:0:0:
36,192,31352,1,0,0:0:0:0:
109,192,31352,1,0,0:0:0:0:
182,192,31352,1,0,0:0:0:0:
182,192,31598,1,0,0:0:0:0:
402,192,31598,1,0,0:0:0:0:
329,192,31598,1,0,0:0:0:0:
256,192,31598,1,0,0:0:0:0:
36,192,31598,1,0,0:0:0:0:
475,192,31598,1,0,0:0:0:0:
402,192,31844,1,0,0:0:0:0:
475,192,31844,1,0,0:0:0:0:
109,192,31844,1,0,0:0:0:0:
182,192,31844,1,0,0:0:0:0:
329,192,31844,1,0,0:0:0:0:
36,192,31844,1,0,0:0:0:0:
36,192,32089,1,0,0:0:0:0:
182,192,32089,1,0,0:0:0:0:
475,192,32089,1,0,0:0:0:0:
402,192,32089,1,0,0:0:0:0:
256,192,32089,1,0,0:0:0:0:
329,192,32089,1,0,0:0:0:0:
256,192,32335,1,0,0:0:0:0:
182,192,32335,1,0,0:0:0:0:
329,192,32335,1,0,0:0:0:0:
109,192,32335,1,0,0:0:0:0:
475,192,32335,1,0,0:0:0:0:
402,192,32335,1,0,0:0:0:0:
182,192,32581,1,0,0:0:0:0:
402,192,32581,128,0,32643:0:0:0:0:
256,192,32581,128,0,32704:0:0:0:0:
329,192,32581,1,0,0:0:0:0:
109,192,32581,128,0,32643:0:0:0:0:
36,192,32581,1,0,0:0:0:0:
475,192,32581,1,0,0:0:0:0:
182,192,32643,128,0,32704:0:0:0:0:
36,192,32643,128,0,32704:0:0:0:0:
329,192,32643,128,0,32704:0:0:0:0:
475,192,32643,128,0,32704:0:0:0:0:
109,192,32704,1,0,0:0:0:0:
402,192,32704,1,0,0:0:0:0:
402,192,32827,1,0,0:0:0:0:
36,192,32827,1,0,0:0:0:0:
182,192,32827,1,0,0:0:0:0:
329,192,32827,1,0,0:0:0:0:
475,192,32827,1,0,0:0:0:0:
109,192,32827,1,0,0:0:0:0:
256,192,33073,1,0,0:0:0:0:
109,192,33073,1,0,0:0:0:0:
402,192,33073,1,0,0:0:0:0:
475,192,33073,1,0,0:0:0:0:
182,192,33073,1,0,0:0:0:0:
36,192,33073,1,0,0:0:0:0:
36,192,33319,1,0,0:0:0:0:
329,192,33319,1,0,0:0:0:0:
182,192,33319,1,0,0:0:0:0:
475,192,33319,1,0,0:0:0:0:
109,192,33319,1,0,0:0:0:0:
402,192,33319,1,0,0:0:0:0:
256,192,33565,1,0,0:0:0:0:
402,192,33565,1,0,0:0:0:0:
36,192,33565,1,0,0:0:0:0:
109,192,33565,1,0,0:0:0:0:
475,192,33565,1,0,0:0:0:0:
329,192,33565,1,0,0:0:0:0:
182,192,33811,1,0,0:0:0:0:
475,192,33811,1,0,0:0:0:0:
109,192,33811,1,0,0:0:0:0:
256,192,33811,1,0,0:0:0:0:
36,192,33811,1,0,0:0:0:0:
402,192,33811,1,0,0:0:0:0:
36,192,34057,1,0,0:0:0:0:
109,192,34057,1,0,0:0:0:0:
182,192,34057,1,0,0:0:0:0:
475,192,34057,1,0,0:0:0:0:
402,192,34057,1,0,0:0:0:0:
329,192,34057,1,0,0:0:0:0:
256,192,34303,1,0,0:0:0:0:
329,192,34303,1,0,0:0:0:0:
36,192,34303,1,0,0:0:0:0:
109,192,34303,1,0,0:0:0:0:
475,192,34303,1,0,0:0:0:0:
402,192,34303,1,0,0:0:0:0:
256,192,34548,128,0,34856:0:0:0:0:
329,192,34548,128,0,34671:0:0:0:0:
36,192,34548,128,0,34610:0:0:0:0:
182,192,34548,128,0,34733:0:0:0:0:
109,192,34548,1,0,0:0:0:0:
402,192,34548,1,0,0:0:0:0:
475,192,34548,128,0,34733:0:0:0:0:
109,192,34610,1,0,0:0:0:0:
402,192,34610,1,0,0:0:0:0:
109,192,34671,1,0,0:0:0:0:
36,192,34671,128,0,34856:0:0:0:0:
402,192,34671,128,0,34856:0:0:0:0:
109,192,34733,1,0,0:0:0:0:
329,192,34733,1,0,0:0:0:0:
109,192,34794,1,0,0:0:0:0:
182,192,34794,128,0,34856:0:0:0:0:
329,192,34794,1,0,0:0:0:0:
475,192,34794,1,0,0:0:0:0:
329,192,34856,1,0,0:0:0:0:
109,192,34856,1,0,0:0:0:0:
475,192,34856,1,0,0:0:0:0:
182,192,35040,1,0,0:0:0:0:
402,192,35040,1,0,0:0:0:0:
36,192,35040,1,0,0:0:0:0:
109,192,35040,1,0,0:0:0:0:
475,192,35040,1,0,0:0:0:0:
329,192,35040,1,0,0:0:0:0:
256,192,35286,1,0,0:0:0:0:
329,192,35286,1,0,0:0:0:0:
475,192,35286,1,0,0:0:0:0:
109,192,35286,1,0,0:0:0:0:
36,192,35286,1,0,0:0:0:0:
182,192,35286,1,0,0:0:0:0:
182,192,35532,1,0,0:0:0:0:
402,192,35532,1,0,0:0:0:0:
36,192,35532,1,0,0:0:0:0:
109,192,35532,1,0,0:0:0:0:
329,192,35532,1,0,0:0:0:0:
475,192,35532,1,0,0:0:0:0:
475,192,35778,1,0,0:0:0:0:
36,192,35778,1,0,0:0:0:0:
256,192,35778,1,0,0:0:0:0:
182,192,35778,1,0,0:0:0:0:
402,192,35778,1,0,0:0:0:0:
109,192,35778,1,0,0:0:0:0:
109,192,36024,1,0,0:0:0:0:
256,192,36024,1,0,0:0:0:0:
329,192,36024,1,0,0:0:0:0:
402,192,36024,1,0,0:0:0:0:
36,192,36024,1,0,0:0:0:0:
182,192,36024,1,0,0:0:0:0:
182,192,36270,1,0,0:0:0:0:
329,192,36270,1,0,0:0:0:0:
475,192,36270,1,0,0:0:0:0:
402,192,36270,1,0,0:0:0:0:
36,192,36270,1,0,0:0:0:0:
256,192,36270,1,0,0:0:0:0:
256,192,36393,1,0,0:0:0:0:
109,192,36393,1,0,0:0:0:0:
182,192,36393,1,0,0:0:0:0:
402,192,36393,1,0,0:0:0:0:
475,192,36393,1,0,0:0:0:0:
36,192,36393,1,0,0:0:0:0:
36,192,36639,1,0,0:0:0:0:
256,192,36639,1,0,0:0:0:0:
329,192,36639,1,0,0:0:0:0:
475,192,36639,1,0,0:0:0:0:
182,192,36639,1,0,0:0:0:0:
402,192,36639,1,0,0:0:0:0:
402,192,36762,1,0,0:0:0:0:
109,192,36762,1,0,0:0:0:0:
256,192,36762,1,0,0:0:0:0:
329,192,36762,1,0,0:0:0:0:
475,192,36762,1,0,0:0:0:0:
182,192,36762,1,0,0:0:0:0:
36,192,37007,1,0,0:0:0:0:
182,192,37007,1,0,0:0:0:0:
329,192,37007,1,0,0:0:0:0:
402,192,37007,1,0,0:0:0:0:
475,192,37007,1,0,0:0:0:0:
256,192,37007,1,0,0:0:0:0:
256,192,37253,1,0,0:0:0:0:
109,192,37253,1,0,0:0:0:0:
182,192,37253,1,0,0:0:0:0:
402,192,37253,1,0,0:0:0:0:
475,192,37253,1,0,0:0:0:0:
36,192,37253,1,0,0:0:0:0:
329,192,37499,1,0,0:0:0:0:
36,192,37499,1,0,0:0:0:0:
182,192,37499,1,0,0:0:0:0:
475,192,37499,1,0,0:0:0:0:
402,192,37499,1,0,0:0:0:0:
109,192,37499,1,0,0:0:0:0:
109,192,37745,1,0,0:0:0:0:
256,192,37745,1,0,0:0:0:0:
329,192,37745,1,0,0:0:0:0:
402,192,37745,1,0,0:0:0:0:
182,192,37745,1,0,0:0:0:0:
36,192,37745,1,0,0:0:0:0:
475,192,37991,1,0,0:0:0:0:
36,192,37991,1,0,0:0:0:0:
182,192,37991,1,0,0:0:0:0:
256,192,37991,1,0,0:0:0:0:
329,192,37991,1,0,0:0:0:0:
109,192,37991,1,0,0:0:0:0:
109,192,38237,1,0,0:0:0:0:
402,192,38237,1,0,0:0:0:0:
256,192,38237,1,0,0:0:0:0:
329,192,38237,1,0,0:0:0:0:
475,192,38237,1,0,0:0:0:0:
182,192,38237,1,0,0:0:0:0:
36,192,38360,1,0,0:0:0:0:
182,192,38360,1,0,0:0:0:0:
329,192,38360,1,0,0:0:0:0:
402,192,38360,1,0,0:0:0:0:
475,192,38360,1,0,0:0:0:0:
256,192,38360,1,0,0:0:0:0:
109,192,38483,1,0,0:0:0:0:
256,192,38483,1,0,0:0:0:0:
402,192,38483,1,0,0:0:0:0:
329,192,38483,1,0,0:0:0:0:
182,192,38483,1,0,0:0:0:0:
36,192,38483,1,0,0:0:0:0:
182,192,38606,1,0,0:0:0:0:
329,192,38606,1,0,0:0:0:0:
475,192,38606,1,0,0:0:0:0:
36,192,38606,1,0,0:0:0:0:
256,192,38606,1,0,0:0:0:0:
109,192,38606,1,0,0:0:0:0:
402,192,38729,1,0,0:0:0:0:
182,192,38729,1,0,0:0:0:0:
109,192,38729,1,0,0:0:0:0:
475,192,38729,1,0,0:0:0:0:
329,192,38729,1,0,0:0:0:0:
36,192,38729,1,0,0:0:0:0:
329,192,38975,1,0,0:0:0:0:
256,192,38975,1,0,0:0:0:0:
182,192,38975,1,0,0:0:0:0:
36,192,38975,1,0,0:0:0:0:
475,192,38975,1,0,0:0:0:0:
402,192,38975,1,0,0:0:0:0:
402,192,39221,1,0,0:0:0:0:
109,192,39221,1,0,0:0:0:0:
256,192,39221,1,0,0:0:0:0:
182,192,39221,1,0,0:0:0:0:
475,192,39221,1,0,0:0:0:0:
329,192,39221,1,0,0:0:0:0:
36,192,39466,1,0,0:0:0:0:
329,192,39466,1,0,0:0:0:0:
182,192,39466,1,0,0:0:0:0:
256,192,39466,1,0,0:0:0:0:
475,192,39466,1,0,0:0:0:0:
109,192,39466,1,0,0:0:0:0:
109,192,39712,1,0,0:0:0:0:
402,192,39712,1,0,0:0:0:0:
36,192,39712,1,0,0:0:0:0:
256,192,39712,1,0,0:0:0:0:
475,192,39712,1,0,0:0:0:0:
182,192,39712,1,0,0:0:0:0:
182,192,39958,1,0,0:0:0:0:
329,192,39958,1,0,0:0:0:0:
402,192,39958,1,0,0:0:0:0:
475,192,39958,1,0,0:0:0:0:
256,192,39958,1,0,0:0:0:0:
36,192,39958,1,0,0:0:0:0:
36,192,40204,1,0,0:0:0:0:
109,192,40204,1,0,0:0:0:0:
256,192,40204,1,0,0:0:0:0:
402,192,40204,1,0,0:0:0:0:
182,192,40204,1,0,0:0:0:0:
329,192,40204,1,0,0:0:0:0:
475,192,40327,1,0,0:0:0:0:
329,192,40327,1,0,0:0:0:0:
182,192,40327,1,0,0:0:0:0:
109,192,40327,1,0,0:0:0:0:
36,192,40327,1,0,0:0:0:0:
402,192,40327,1,0,0:0:0:0:
475,192,40450,1,0,0:0:0:0:
402,192,40450,1,0,0:0:0:0:
256,192,40450,1,0,0:0:0:0:
109,192,40450,1,0,0:0:0:0:
36,192,40450,1,0,0:0:0:0:
182,192,40450,1,0,0:0:0:0:
475,192,40573,1,0,0:0:0:0:
402,192,40573,1,0,0:0:0:0:
329,192,40573,1,0,0:0:0:0:
182,192,40573,1,0,0:0:0:0:
256,192,40573,1,0,0:0:0:0:
109,192,40573,1,0,0:0:0:0:
256,192,40696,1,0,0:0:0:0:
329,192,40696,1,0,0:0:0:0:
475,192,40696,1,0,0:0:0:0:
402,192,40696,1,0,0:0:0:0:
182,192,40696,1,0,0:0:0:0:
36,192,40696,1,0,0:0:0:0:
36,192,40942,128,0,41065:0:0:0:0:
109,192,40942,128,0,41065:0:0:0:0:
256,192,40942,128,0,41126:0:0:0:0:
475,192,40942,128,0,41003:0:0:0:0:
402,192,40942,128,0,41065:0:0:0:0:
329,192,40942,128,0,41003:0:0:0:0:
256,192,41188,128,0,41372:0:0:0:0:
36,192,41188,128,0,41249:0:0:0:0:
402,192,41188,128,0,41311:0:0:0:0:
475,192,41188,128,0,41311:0:0:0:0:
109,192,41188,128,0,41311:0:0:0:0:
182,192,41188,128,0,41249:0:0:0:0:
475,192,41680,128,0,41864:0:0:0:0:
109,192,41680,128,0,41803:0:0:0:0:
36,192,41680,128,0,41864:0:0:0:0:
256,192,41680,128,0,42663:0:0:0:0:
402,192,41680,128,0,41741:0:0:0:0:
329,192,41680,128,0,41803:0:0:0:0:
109,192,41925,128,0,42110:0:0:0:0:
182,192,41925,128,0,42048:0:0:0:0:
329,192,41925,128,0,41987:0:0:0:0:
36,192,41925,128,0,41987:0:0:0:0:
475,192,41925,128,0,42110:0:0:0:0:
109,192,42171,128,0,42233:0:0:0:0:
402,192,42171,128,0,42233:0:0:0:0:
475,192,42171,1,0,0:0:0:0:
36,192,42171,1,0,0:0:0:0:
109,192,42294,128,0,42356:0:0:0:0:
402,192,42294,128,0,42356:0:0:0:0:
329,192,42294,1,0,0:0:0:0:
182,192,42294,1,0,0:0:0:0:
109,192,42417,128,0,42479:0:0:0:0:
402,192,42417,128,0,42479:0:0:0:0:
475,192,42417,1,0,0:0:0:0:
36,192,42417,1,0,0:0:0:0:
109,192,42540,128,0,42602:0:0:0:0:
329,192,42540,1,0,0:0:0:0:
402,192,42540,128,0,42602:0:0:0:0:
182,192,42540,1,0,0:0:0:0:
36,192,42663,1,0,0:0:0:0:
109,192,42663,1,0,0:0:0:0:
182,192,42663,1,0,0:0:0:0:
329,192,42663,1,0,0:0:0:0:
402,192,42663,1,0,0:0:0:0:
475,192,42663,1,0,0:0:0:0:
402,192,42786,1,0,0:0:0:0:
475,192,42786,1,0,0:0:0:0:
329,192,42786,1,0,0:0:0:0:
256,192,42909,1,0,0:0:0:0:
329,192,42909,1,0,0:0:0:0:
475,192,42909,1,0,0:0:0:0:
402,192,42909,1,0,0:0:0:0:
182,192,42909,1,0,0:0:0:0:
109,192,42909,1,0,0:0:0:0:
329,192,43032,1,0,0:0:0:0:
402,192,43032,1,0,0:0:0:0:
256,192,43032,1,0,0:0:0:0:
36,192,43155,1,0,0:0:0:0:
182,192,43155,1,0,0:0:0:0:
329,192,43155,1,0,0:0:0:0:
256,192,43155,1,0,0:0:0:0:
402,192,43155,1,0,0:0:0:0:
475,192,43155,1,0,0:0:0:0:
329,192,43278,1,0,0:0:0:0:
256,192,43278,1,0,0:0:0:0:
182,192,43278,1,0,0:0:0:0:
256,192,43401,1,0,0:0:0:0:
475,192,43401,1,0,0:0:0:0:
36,192,43401,1,0,0:0:0:0:
109,192,43401,1,0,0:0:0:0:
329,192,43401,1,0,0:0:0:0:
402,192,43401,1,0,0:0:0:0:
256,192,43524,1,0,0:0:0:0:
182,192,43524,1,0,0:0:0:0:
109,192,43524,1,0,0:0:0:0:
402,192,43647,1,0,0:0:0:0:
329,192,43647,1,0,0:0:0:0:
36,192,43647,1,0,0:0:0:0:
109,192,43647,1,0,0:0:0:0:
475,192,43647,1,0,0:0:0:0:
182,192,43647,1,0,0:0:0:0:
109,192,43770,1,0,0:0:0:0:
36,192,43770,1,0,0:0:0:0:
182,192,43770,1,0,0:0:0:0:
182,192,43893,1,0,0:0:0:0:
256,192,43893,1,0,0:0:0:0:
36,192,43893,1,0,0:0:0:0:
402,192,43893,1,0,0:0:0:0:
475,192,43893,1,0,0:0:0:0:
109,192,43893,1,0,0:0:0:0:
109,192,44016,1,0,0:0:0:0:
182,192,44016,1,0,0:0:0:0:
256,192,44016,1,0,0:0:0:0:
329,192,44139,1,0,0:0:0:0:
109,192,44139,1,0,0:0:0:0:
36,192,44139,1,0,0:0:0:0:
256,192,44139,1,0,0:0:0:0:
182,192,44139,1,0,0:0:0:0:
475,192,44139,1,0,0:0:0:0:
182,192,44262,1,0,0:0:0:0:
256,192,44262,1,0,0:0:0:0:
329,192,44262,1,0,0:0:0:0:
182,192,44385,1,0,0:0:0:0:
36,192,44385,1,0,0:0:0:0:
109,192,44385,1,0,0:0:0:0:
402,192,44385,1,0,0:0:0:0:
329,192,44385,1,0,0:0:0:0:
256,192,44385,1,0,0:0:0:0:
256,192,44507,1,0,0:0:0:0:
402,192,44507,1,0,0:0:0:0:
329,192,44507,1,0,0:0:0:0:
256,192,44630,1,0,0:0:0:0:
329,192,44630,1,0,0:0:0:0:
36,192,44630,1,0,0:0:0:0:
182,192,44630,1,0,0:0:0:0:
109,192,44630,1,0,0:0:0:0:
475,192,44630,1,0,0:0:0:0:
402,192,44753,1,0,0:0:0:0:
475,192,44753,1,0,0:0:0:0:
329,192,44753,1,0,0:0:0:0:
109,192,44876,1,0,0:0:0:0:
475,192,44876,1,0,0:0:0:0:
256,192,44876,1,0,0:0:0:0:
36,192,44876,1,0,0:0:0:0:
402,192,44876,1,0,0:0:0:0:
182,192,44876,1,0,0:0:0:0:
402,192,44999,1,0,0:0:0:0:
329,192,44999,1,0,0:0:0:0:
256,192,44999,1,0,0:0:0:0:
182,192,45122,1,0,0:0:0:0:
329,192,45122,1,0,0:0:0:0:
475,192,45122,1,0,0:0:0:0:
109,192,45122,1,0,0:0:0:0:
36,192,45122,1,0,0:0:0:0:
402,192,45122,1,0,0:0:0:0:
182,192,45245,1,0,0:0:0:0:
329,192,45245,1,0,0:0:0:0:
256,192,45245,1,0,0:0:0:0:
256,192,45368,1,0,0:0:0:0:
402,192,45368,1,0,0:0:0:0:
475,192,45368,1,0,0:0:0:0:
109,192,45368,1,0,0:0:0:0:
36,192,45368,1,0,0:0:0:0:
329,192,45368,1,0,0:0:0:0:
182,192,45491,1,0,0:0:0:0:
256,192,45491,1,0,0:0:0:0:
109,192,45491,1,0,0:0:0:0:
36,192,45614,1,0,0:0:0:0:
329,192,45614,1,0,0:0:0:0:
182,192,45614,1,0,0:0:0:0:
475,192,45614,1,0,0:0:0:0:
402,192,45614,1,0,0:0:0:0:
256,192,45614,1,0,0:0:0:0:
109,192,45737,1,0,0:0:0:0:
36,192,45737,1,0,0:0:0:0:
182,192,45737,1,0,0:0:0:0:
109,192,45860,1,0,0:0:0:0:
256,192,45860,1,0,0:0:0:0:
402,192,45860,1,0,0:0:0:0:
475,192,45860,1,0,0:0:0:0:
329,192,45860,1,0,0:0:0:0:
182,192,45860,1,0,0:0:0:0:
182,192,45983,1,0,0:0:0:0:
109,192,45983,1,0,0:0:0:0:
256,192,45983,1,0,0:0:0:0:
36,192,46106,1,0,0:0:0:0:
182,192,46106,1,0,0:0:0:0:
329,192,46106,1,0,0:0:0:0:
475,192,46106,1,0,0:0:0:0:
402,192,46106,1,0,0:0:0:0:
256,192,46106,1,0,0:0:0:0:
182,192,46229,1,0,0:0:0:0:
109,192,46229,1,0,0:0:0:0:
256,192,46229,1,0,0:0:0:0:
329,192,46229,1,0,0:0:0:0:
402,192,46229,1,0,0:0:0:0:
475,192,46229,1,0,0:0:0:0:
36,192,46352,1,0,0:0:0:0:
329,192,46352,1,0,0:0:0:0:
402,192,46352,1,0,0:0:0:0:
182,192,46352,1,0,0:0:0:0:
475,192,46352,1,0,0:0:0:0:
256,192,46352,1,0,0:0:0:0:
36,192,46475,1,0,0:0:0:0:
329,192,46475,1,0,0:0:0:0:
475,192,46475,1,0,0:0:0:0:
109,192,46475,1,0,0:0:0:0:
256,192,46475,1,0,0:0:0:0:
402,192,46475,1,0,0:0:0:0:
36,192,46598,1,0,0:0:0:0:
182,192,46598,1,0,0:0:0:0:
329,192,46598,1,0,0:0:0:0:
402,192,46598,1,0,0:0:0:0:
475,192,46598,1,0,0:0:0:0:
109,192,46598,1,0,0:0:0:0:
109,192,46721,1,0,0:0:0:0:
36,192,46721,1,0,0:0:0:0:
182,192,46721,1,0,0:0:0:0:
109,192,46844,1,0,0:0:0:0:
182,192,46844,1,0,0:0:0:0:
256,192,46844,1,0,0:0:0:0:
402,192,46844,1,0,0:0:0:0:
475,192,46844,1,0,0:0:0:0:
36,192,46844,1,0,0:0:0:0:
182,192,46966,1,0,0:0:0:0:
109,192,46966,1,0,0:0:0:0:
256,192,46966,1,0,0:0:0:0:
329,192,47089,1,0,0:0:0:0:
36,192,47089,1,0,0:0:0:0:
182,192,47089,1,0,0:0:0:0:
256,192,47089,1,0,0:0:0:0:
475,192,47089,1,0,0:0:0:0:
109,192,47089,1,0,0:0:0:0:
329,192,47212,1,0,0:0:0:0:
182,192,47212,1,0,0:0:0:0:
256,192,47212,1,0,0:0:0:0:
109,192,47335,1,0,0:0:0:0:
402,192,47335,1,0,0:0:0:0:
329,192,47335,1,0,0:0:0:0:
182,192,47335,1,0,0:0:0:0:
256,192,47335,1,0,0:0:0:0:
36,192,47335,1,0,0:0:0:0:
256,192,47458,1,0,0:0:0:0:
329,192,47458,1,0,0:0:0:0:
402,192,47458,1,0,0:0:0:0:
36,192,47581,1,0,0:0:0:0:
329,192,47581,1,0,0:0:0:0:
182,192,47581,1,0,0:0:0:0:
256,192,47581,1,0,0:0:0:0:
109,192,47581,1,0,0:0:0:0:
475,192,47581,1,0,0:0:0:0:
329,192,47704,1,0,0:0:0:0:
402,192,47704,1,0,0:0:0:0:
475,192,47704,1,0,0:0:0:0:
109,192,47827,1,0,0:0:0:0:
182,192,47827,1,0,0:0:0:0:
256,192,47827,1,0,0:0:0:0:
402,192,47827,1,0,0:0:0:0:
475,192,47827,1,0,0:0:0:0:
36,192,47827,1,0,0:0:0:0:
329,192,47950,1,0,0:0:0:0:
402,192,47950,1,0,0:0:0:0:
256,192,47950,1,0,0:0:0:0:
402,192,48073,1,0,0:0:0:0:
36,192,48073,1,0,0:0:0:0:
182,192,48073,1,0,0:0:0:0:
329,192,48073,1,0,0:0:0:0:
475,192,48073,1,0,0:0:0:0:
109,192,48073,1,0,0:0:0:0:
256,192,48196,1,0,0:0:0:0:
109,192,48196,1,0,0:0:0:0:
329,192,48196,1,0,0:0:0:0:
402,192,48196,1,0,0:0:0:0:
475,192,48196,1,0,0:0:0:0:
36,192,48196,1,0,0:0:0:0:
475,192,48319,1,0,0:0:0:0:
329,192,48319,1,0,0:0:0:0:
182,192,48319,1,0,0:0:0:0:
36,192,48319,1,0,0:0:0:0:
256,192,48319,1,0,0:0:0:0:
402,192,48319,1,0,0:0:0:0:
402,192,48442,1,0,0:0:0:0:
256,192,48442,1,0,0:0:0:0:
182,192,48442,1,0,0:0:0:0:
109,192,48442,1,0,0:0:0:0:
329,192,48442,1,0,0:0:0:0:
475,192,48442,1,0,0:0:0:0:
36,192,48565,1,0,0:0:0:0:
402,192,48565,1,0,0:0:0:0:
475,192,48565,1,0,0:0:0:0:
256,192,48565,1,0,0:0:0:0:
182,192,48565,1,0,0:0:0:0:
329,192,48565,1,0,0:0:0:0:
36,192,48811,128,0,48934:0:0:0:0:
475,192,48811,128,0,49180:0:0:0:0:
256,192,48811,128,0,49487:0:0:0:0:
402,192,48811,128,0,48995:0:0:0:0:
329,192,48811,1,0,0:0:0:0:
182,192,48811,128,0,48872:0:0:0:0:
109,192,48811,128,0,49303:0:0:0:0:
329,192,48872,1,0,0:0:0:0:
329,192,48934,128,0,49241:0:0:0:0:
182,192,48934,128,0,49057:0:0:0:0:
36,192,48995,128,0,49487:0:0:0:0:
402,192,49057,1,0,0:0:0:0:
402,192,49118,1,0,0:0:0:0:
182,192,49118,128,0,49241:0:0:0:0:
402,192,49180,128,0,49364:0:0:0:0:
475,192,49241,128,0,49487:0:0:0:0:
182,192,49303,128,0,49794:0:0:0:0:
329,192,49303,128,0,49671:0:0:0:0:
109,192,49364,128,0,49487:0:0:0:0:
402,192,49425,1,0,0:0:0:0:
402,192,49487,1,0,0:0:0:0:
36,192,49548,128,0,49794:0:0:0:0:
475,192,49548,128,0,49856:0:0:0:0:
256,192,49548,128,0,50102:0:0:0:0:
402,192,49548,128,0,50040:0:0:0:0:
109,192,49610,1,0,0:0:0:0:
109,192,49671,128,0,50040:0:0:0:0:
329,192,49733,128,0,50040:0:0:0:0:
36,192,49856,128,0,50286:0:0:0:0:
182,192,49856,1,0,0:0:0:0:
475,192,49917,128,0,50348:0:0:0:0:
182,192,49917,1,0,0:0:0:0:
182,192,49979,1,0,0:0:0:0:
182,192,50040,1,0,0:0:0:0:
109,192,50102,1,0,0:0:0:0:
402,192,50102,1,0,0:0:0:0:
182,192,50102,128,0,50163:0:0:0:0:
329,192,50102,1,0,0:0:0:0:
109,192,50163,1,0,0:0:0:0:
256,192,50163,1,0,0:0:0:0:
402,192,50163,1,0,0:0:0:0:
329,192,50163,128,0,50225:0:0:0:0:
109,192,50225,1,0,0:0:0:0:
256,192,50225,1,0,0:0:0:0:
402,192,50225,1,0,0:0:0:0:
182,192,50225,1,0,0:0:0:0:
109,192,50286,128,0,50471:0:0:0:0:
402,192,50286,128,0,50471:0:0:0:0:
256,192,50286,128,0,50471:0:0:0:0:
182,192,50286,128,0,50409:0:0:0:0:
329,192,50286,128,0,50409:0:0:0:0:
36,192,50348,1,0,0:0:0:0:
36,192,50409,1,0,0:0:0:0:
475,192,50409,1,0,0:0:0:0:
36,192,50471,1,0,0:0:0:0:
475,192,50471,1,0,0:0:0:0:
182,192,50471,1,0,0:0:0:0:
329,192,50471,1,0,0:0:0:0:
36,192,50532,1,0,0:0:0:0:
182,192,50532,1,0,0:0:0:0:
329,192,50532,1,0,0:0:0:0:
475,192,50532,1,0,0:0:0:0:
402,192,50532,1,0,0:0:0:0:
256,192,50532,1,0,0:0:0:0:
109,192,50532,1,0,0:0:0:0:
109,192,50778,1,0,0:0:0:0:
256,192,50778,1,0,0:0:0:0:
329,192,50778,1,0,0:0:0:0:
36,192,50778,1,0,0:0:0:0:
182,192,50778,1,0,0:0:0:0:
402,192,50778,1,0,0:0:0:0:
182,192,51024,1,0,0:0:0:0:
402,192,51024,1,0,0:0:0:0:
475,192,51024,1,0,0:0:0:0:
109,192,51024,1,0,0:0:0:0:
329,192,51024,1,0,0:0:0:0:
256,192,51024,1,0,0:0:0:0:
329,192,51270,1,0,0:0:0:0:
256,192,51270,1,0,0:0:0:0:
182,192,51270,1,0,0:0:0:0:
36,192,51270,1,0,0:0:0:0:
109,192,51270,1,0,0:0:0:0:
475,192,51270,1,0,0:0:0:0:
475,192,51516,1,0,0:0:0:0:
402,192,51516,1,0,0:0:0:0:
256,192,51516,1,0,0:0:0:0:
182,192,51516,1,0,0:0:0:0:
36,192,51516,1,0,0:0:0:0:
329,192,51516,1,0,0:0:0:0:
36,192,51762,1,0,0:0:0:0:
256,192,51762,1,0,0:0:0:0:
329,192,51762,1,0,0:0:0:0:
475,192,51762,1,0,0:0:0:0:
109,192,51762,1,0,0:0:0:0:
402,192,51762,1,0,0:0:0:0:
182,192,52007,1,0,0:0:0:0:
402,192,52007,1,0,0:0:0:0:
36,192,52007,1,0,0:0:0:0:
109,192,52007,1,0,0:0:0:0:
256,192,52007,1,0,0:0:0:0:
475,192,52007,1,0,0:0:0:0:
475,192,52253,1,0,0:0:0:0:
182,192,52253,1,0,0:0:0:0:
109,192,52253,1,0,0:0:0:0:
402,192,52253,1,0,0:0:0:0:
36,192,52253,1,0,0:0:0:0:
329,192,52253,1,0,0:0:0:0:
36,192,52499,1,0,0:0:0:0:
182,192,52499,1,0,0:0:0:0:
329,192,52499,1,0,0:0:0:0:
402,192,52499,1,0,0:0:0:0:
475,192,52499,1,0,0:0:0:0:
256,192,52499,1,0,0:0:0:0:
109,192,52745,1,0,0:0:0:0:
256,192,52745,1,0,0:0:0:0:
182,192,52745,1,0,0:0:0:0:
475,192,52745,1,0,0:0:0:0:
402,192,52745,1,0,0:0:0:0:
329,192,52745,1,0,0:0:0:0:
36,192,52991,1,0,0:0:0:0:
329,192,52991,1,0,0:0:0:0:
256,192,52991,1,0,0:0:0:0:
182,192,52991,1,0,0:0:0:0:
475,192,52991,1,0,0:0:0:0:
402,192,52991,1,0,0:0:0:0:
402,192,53237,1,0,0:0:0:0:
109,192,53237,1,0,0:0:0:0:
475,192,53237,1,0,0:0:0:0:
329,192,53237,1,0,0:0:0:0:
36,192,53237,1,0,0:0:0:0:
256,192,53237,1,0,0:0:0:0:
256,192,53483,128,0,54098:0:0:0:0:
329,192,53483,128,0,53544:0:0:0:0:
109,192,53483,128,0,53544:0:0:0:0:
475,192,53483,1,0,0:0:0:0:
182,192,53606,128,0,53667:0:0:0:0:
402,192,53606,128,0,53667:0:0:0:0:
36,192,53606,1,0,0:0:0:0:
329,192,53729,128,0,53790:0:0:0:0:
109,192,53729,128,0,53790:0:0:0:0:
475,192,53729,1,0,0:0:0:0:
182,192,53852,128,0,53913:0:0:0:0:
402,192,53852,128,0,53913:0:0:0:0:
36,192,53852,1,0,0:0:0:0:
329,192,53975,128,0,54036:0:0:0:0:
109,192,53975,128,0,54036:0:0:0:0:
475,192,53975,1,0,0:0:0:0:
36,192,54098,1,0,0:0:0:0:
475,192,54098,1,0,0:0:0:0:
329,192,54098,1,0,0:0:0:0:
109,192,54098,1,0,0:0:0:0:
36,192,54466,1,0,0:0:0:0:
182,192,54466,1,0,0:0:0:0:
256,192,54466,1,0,0:0:0:0:
402,192,54466,1,0,0:0:0:0:
329,192,54466,1,0,0:0:0:0:
109,192,54466,1,0,0:0:0:0:
109,192,54712,1,0,0:0:0:0:
402,192,54712,1,0,0:0:0:0:
475,192,54712,1,0,0:0:0:0:
329,192,54712,1,0,0:0:0:0:
182,192,54712,1,0,0:0:0:0:
256,192,54712,1,0,0:0:0:0:
36,192,54958,1,0,0:0:0:0:
256,192,54958,1,0,0:0:0:0:
329,192,54958,1,0,0:0:0:0:
182,192,54958,1,0,0:0:0:0:
402,192,54958,1,0,0:0:0:0:
109,192,54958,1,0,0:0:0:0:
402,192,55204,1,0,0:0:0:0:
329,192,55204,1,0,0:0:0:0:
475,192,55204,1,0,0:0:0:0:
109,192,55204,1,0,0:0:0:0:
182,192,55204,1,0,0:0:0:0:
256,192,55204,1,0,0:0:0:0:
36,192,55450,1,0,0:0:0:0:
256,192,55450,1,0,0:0:0:0:
402,192,55450,1,0,0:0:0:0:
329,192,55450,1,0,0:0:0:0:
109,192,55450,1,0,0:0:0:0:
182,192,55450,1,0,0:0:0:0:
109,192,55696,1,0,0:0:0:0:
182,192,55696,1,0,0:0:0:0:
329,192,55696,1,0,0:0:0:0:
402,192,55696,1,0,0:0:0:0:
256,192,55696,1,0,0:0:0:0:
475,192,55696,1,0,0:0:0:0:
36,192,55942,1,0,0:0:0:0:
329,192,55942,1,0,0:0:0:0:
182,192,55942,1,0,0:0:0:0:
402,192,55942,1,0,0:0:0:0:
109,192,55942,1,0,0:0:0:0:
256,192,55942,1,0,0:0:0:0:
109,192,56188,1,0,0:0:0:0:
329,192,56188,1,0,0:0:0:0:
475,192,56188,1,0,0:0:0:0:
182,192,56188,1,0,0:0:0:0:
256,192,56188,1,0,0:0:0:0:
402,192,56188,1,0,0:0:0:0:
256,192,56434,1,0,0:0:0:0:
402,192,56434,1,0,0:0:0:0:
36,192,56434,1,0,0:0:0:0:
109,192,56434,1,0,0:0:0:0:
182,192,56434,1,0,0:0:0:0:
329,192,56434,1,0,0:0:0:0:
182,192,56680,1,0,0:0:0:0:
329,192,56680,1,0,0:0:0:0:
475,192,56680,1,0,0:0:0:0:
109,192,56680,1,0,0:0:0:0:
402,192,56680,1,0,0:0:0:0:
256,192,56680,1,0,0:0:0:0:
256,192,56925,1,0,0:0:0:0:
402,192,56925,1,0,0:0:0:0:
182,192,56925,1,0,0:0:0:0:
109,192,56925,1,0,0:0:0:0:
36,192,56925,1,0,0:0:0:0:
329,192,56925,1,0,0:0:0:0:
329,192,57171,1,0,0:0:0:0:
182,192,57171,1,0,0:0:0:0:
475,192,57171,1,0,0:0:0:0:
402,192,57171,1,0,0:0:0:0:
256,192,57171,1,0,0:0:0:0:
109,192,57171,1,0,0:0:0:0:
109,192,57417,1,0,0:0:0:0:
256,192,57417,1,0,0:0:0:0:
329,192,57417,1,0,0:0:0:0:
402,192,57417,1,0,0:0:0:0:
182,192,57417,1,0,0:0:0:0:
36,192,57417,1,0,0:0:0:0:
182,192,57663,1,0,0:0:0:0:
256,192,57663,1,0,0:0:0:0:
475,192,57663,1,0,0:0:0:0:
402,192,57663,1,0,0:0:0:0:
329,192,57663,1,0,0:0:0:0:
109,192,57663,1,0,0:0:0:0:
109,192,57909,1,0,0:0:0:0:
329,192,57909,1,0,0:0:0:0:
256,192,57909,1,0,0:0:0:0:
402,192,57909,1,0,0:0:0:0:
475,192,57909,1,0,0:0:0:0:
182,192,57909,1,0,0:0:0:0:
36,192,58032,1,0,0:0:0:0:
182,192,58032,1,0,0:0:0:0:
256,192,58032,1,0,0:0:0:0:
402,192,58032,1,0,0:0:0:0:
329,192,58032,1,0,0:0:0:0:
109,192,58032,1,0,0:0:0:0:
329,192,58155,1,0,0:0:0:0:
402,192,58155,1,0,0:0:0:0:
475,192,58155,1,0,0:0:0:0:
109,192,58155,1,0,0:0:0:0:
182,192,58155,1,0,0:0:0:0:
256,192,58155,1,0,0:0:0:0:
256,192,58278,128,0,58524:0:0:0:0:
182,192,58278,1,0,0:0:0:0:
109,192,58278,1,0,0:0:0:0:
36,192,58278,128,0,58524:0:0:0:0:
475,192,58278,1,0,0:0:0:0:
329,192,58278,1,0,0:0:0:0:
402,192,58278,128,0,58401:0:0:0:0:
182,192,58339,1,0,0:0:0:0:
109,192,58339,1,0,0:0:0:0:
475,192,58339,1,0,0:0:0:0:
329,192,58339,1,0,0:0:0:0:
329,192,58401,128,0,58524:0:0:0:0:
182,192,58401,1,0,0:0:0:0:
109,192,58401,1,0,0:0:0:0:
475,192,58401,1,0,0:0:0:0:
182,192,58462,1,0,0:0:0:0:
109,192,58462,1,0,0:0:0:0:
475,192,58462,1,0,0:0:0:0:
402,192,58462,1,0,0:0:0:0:
182,192,58524,1,0,0:0:0:0:
109,192,58524,1,0,0:0:0:0:
475,192,58524,1,0,0:0:0:0:
402,192,58524,1,0,0:0:0:0:
36,192,58647,1,0,0:0:0:0:
182,192,58647,1,0,0:0:0:0:
256,192,58647,1,0,0:0:0:0:
402,192,58647,1,0,0:0:0:0:
475,192,58647,1,0,0:0:0:0:
329,192,58647,1,0,0:0:0:0:
36,192,58770,1,0,0:0:0:0:
182,192,58770,1,0,0:0:0:0:
329,192,58770,1,0,0:0:0:0:
109,192,58893,1,0,0:0:0:0:
329,192,58893,1,0,0:0:0:0:
256,192,58893,1,0,0:0:0:0:
475,192,58893,1,0,0:0:0:0:
36,192,58893,1,0,0:0:0:0:
182,192,58893,1,0,0:0:0:0:
329,192,59016,1,0,0:0:0:0:
475,192,59016,1,0,0:0:0:0:
182,192,59016,1,0,0:0:0:0:
36,192,59139,1,0,0:0:0:0:
182,192,59139,1,0,0:0:0:0:
329,192,59139,1,0,0:0:0:0:
475,192,59139,1,0,0:0:0:0:
402,192,59139,1,0,0:0:0:0:
109,192,59139,1,0,0:0:0:0:
182,192,59262,1,0,0:0:0:0:
329,192,59262,1,0,0:0:0:0:
36,192,59262,1,0,0:0:0:0:
256,192,59385,1,0,0:0:0:0:
109,192,59385,1,0,0:0:0:0:
36,192,59385,1,0,0:0:0:0:
402,192,59385,1,0,0:0:0:0:
329,192,59385,1,0,0:0:0:0:
475,192,59507,1,0,0:0:0:0:
329,192,59507,1,0,0:0:0:0:
182,192,59507,1,0,0:0:0:0:
182,192,59630,1,0,0:0:0:0:
475,192,59630,1,0,0:0:0:0:
402,192,59630,1,0,0:0:0:0:
329,192,59630,1,0,0:0:0:0:
109,192,59630,1,0,0:0:0:0:
36,192,59630,1,0,0:0:0:0:
182,192,59753,1,0,0:0:0:0:
329,192,59753,1,0,0:0:0:0:
36,192,59753,1,0,0:0:0:0:
36,192,59876,1,0,0:0:0:0:
109,192,59876,1,0,0:0:0:0:
475,192,59876,1,0,0:0:0:0:
182,192,59876,1,0,0:0:0:0:
256,192,59876,1,0,0:0:0:0:
329,192,59876,1,0,0:0:0:0:
475,192,59999,1,0,0:0:0:0:
329,192,59999,1,0,0:0:0:0:
182,192,59999,1,0,0:0:0:0:
182,192,60122,1,0,0:0:0:0:
36,192,60122,1,0,0:0:0:0:
475,192,60122,1,0,0:0:0:0:
256,192,60122,1,0,0:0:0:0:
329,192,60122,1,0,0:0:0:0:
402,192,60122,1,0,0:0:0:0:
36,192,60245,1,0,0:0:0:0:
182,192,60245,1,0,0:0:0:0:
329,192,60245,1,0,0:0:0:0:
402,192,60368,1,0,0:0:0:0:
256,192,60368,1,0,0:0:0:0:
182,192,60368,1,0,0:0:0:0:
109,192,60368,1,0,0:0:0:0:
475,192,60368,1,0,0:0:0:0:
36,192,60368,1,0,0:0:0:0:
475,192,60491,1,0,0:0:0:0:
182,192,60491,1,0,0:0:0:0:
329,192,60491,1,0,0:0:0:0:
36,192,60614,1,0,0:0:0:0:
182,192,60614,1,0,0:0:0:0:
475,192,60614,1,0,0:0:0:0:
329,192,60614,1,0,0:0:0:0:
109,192,60614,1,0,0:0:0:0:
402,192,60614,1,0,0:0:0:0:
36,192,60737,1,0,0:0:0:0:
182,192,60737,1,0,0:0:0:0:
329,192,60737,1,0,0:0:0:0:
256,192,60860,1,0,0:0:0:0:
402,192,60860,1,0,0:0:0:0:
36,192,60860,1,0,0:0:0:0:
109,192,60860,1,0,0:0:0:0:
475,192,60860,1,0,0:0:0:0:
475,192,60983,1,0,0:0:0:0:
329,192,60983,1,0,0:0:0:0:
182,192,60983,1,0,0:0:0:0:
182,192,61106,1,0,0:0:0:0:
329,192,61106,1,0,0:0:0:0:
36,192,61106,1,0,0:0:0:0:
402,192,61106,1,0,0:0:0:0:
256,192,61106,1,0,0:0:0:0:
475,192,61106,1,0,0:0:0:0:
36,192,61229,1,0,0:0:0:0:
182,192,61229,1,0,0:0:0:0:
329,192,61229,1,0,0:0:0:0:
256,192,61352,1,0,0:0:0:0:
475,192,61352,1,0,0:0:0:0:
36,192,61352,1,0,0:0:0:0:
109,192,61352,1,0,0:0:0:0:
182,192,61352,1,0,0:0:0:0:
329,192,61352,1,0,0:0:0:0:
182,192,61475,1,0,0:0:0:0:
329,192,61475,1,0,0:0:0:0:
475,192,61475,1,0,0:0:0:0:
329,192,61598,1,0,0:0:0:0:
402,192,61598,1,0,0:0:0:0:
182,192,61598,1,0,0:0:0:0:
36,192,61598,1,0,0:0:0:0:
475,192,61598,1,0,0:0:0:0:
36,192,61721,1,0,0:0:0:0:
182,192,61721,1,0,0:0:0:0:
329,192,61721,1,0,0:0:0:0:
256,192,61844,1,0,0:0:0:0:
329,192,61844,1,0,0:0:0:0:
402,192,61844,1,0,0:0:0:0:
475,192,61844,1,0,0:0:0:0:
109,192,61844,1,0,0:0:0:0:
36,192,61844,1,0,0:0:0:0:
109,192,61966,1,0,0:0:0:0:
182,192,61966,1,0,0:0:0:0:
36,192,61966,1,0,0:0:0:0:
402,192,61966,1,0,0:0:0:0:
256,192,61966,1,0,0:0:0:0:
475,192,61966,1,0,0:0:0:0:
36,192,62089,1,0,0:0:0:0:
256,192,62089,128,0,62335:0:0:0:0:
109,192,62089,128,0,62335:0:0:0:0:
182,192,62089,1,0,0:0:0:0:
329,192,62089,128,0,62212:0:0:0:0:
475,192,62089,1,0,0:0:0:0:
402,192,62089,1,0,0:0:0:0:
36,192,62151,1,0,0:0:0:0:
182,192,62151,1,0,0:0:0:0:
475,192,62151,1,0,0:0:0:0:
402,192,62151,1,0,0:0:0:0:
36,192,62212,1,0,0:0:0:0:
182,192,62212,1,0,0:0:0:0:
402,192,62212,128,0,62335:0:0:0:0:
475,192,62212,1,0,0:0:0:0:
36,192,62274,1,0,0:0:0:0:
475,192,62274,1,0,0:0:0:0:
182,192,62274,1,0,0:0:0:0:
329,192,62274,1,0,0:0:0:0:
36,192,62335,1,0,0:0:0:0:
182,192,62335,1,0,0:0:0:0:
475,192,62335,1,0,0:0:0:0:
329,192,62335,1,0,0:0:0:0:
36,192,66270,5,0,0:0:0:0:
109,192,66270,1,0,0:0:0:0:
402,192,66270,1,0,0:0:0:0:
475,192,66270,1,0,0:0:0:0:
182,192,66270,1,0,0:0:0:0:
329,192,66270,1,0,0:0:0:0:
182,192,66516,1,0,0:0:0:0:
329,192,66516,1,0,0:0:0:0:
402,192,66516,1,0,0:0:0:0:
475,192,66516,1,0,0:0:0:0:
109,192,66516,1,0,0:0:0:0:
256,192,66516,1,0,0:0:0:0:
36,192,66762,1,0,0:0:0:0:
256,192,66762,1,0,0:0:0:0:
182,192,66762,1,0,0:0:0:0:
329,192,66762,1,0,0:0:0:0:
402,192,66762,1,0,0:0:0:0:
109,192,66762,1,0,0:0:0:0:
109,192,67007,1,0,0:0:0:0:
402,192,67007,1,0,0:0:0:0:
182,192,67007,1,0,0:0:0:0:
329,192,67007,1,0,0:0:0:0:
475,192,67007,1,0,0:0:0:0:
256,192,67007,1,0,0:0:0:0:
36,192,67253,1,0,0:0:0:0:
256,192,67253,1,0,0:0:0:0:
329,192,67253,1,0,0:0:0:0:
475,192,67253,1,0,0:0:0:0:
402,192,67253,1,0,0:0:0:0:
182,192,67253,1,0,0:0:0:0:
109,192,67499,1,0,0:0:0:0:
182,192,67499,1,0,0:0:0:0:
256,192,67499,1,0,0:0:0:0:
402,192,67499,1,0,0:0:0:0:
475,192,67499,1,0,0:0:0:0:
36,192,67499,1,0,0:0:0:0:
36,192,67745,1,0,0:0:0:0:
329,192,67745,1,0,0:0:0:0:
182,192,67745,1,0,0:0:0:0:
475,192,67745,1,0,0:0:0:0:
402,192,67745,1,0,0:0:0:0:
109,192,67745,1,0,0:0:0:0:
109,192,67991,1,0,0:0:0:0:
256,192,67991,1,0,0:0:0:0:
329,192,67991,1,0,0:0:0:0:
402,192,67991,1,0,0:0:0:0:
475,192,67991,1,0,0:0:0:0:
182,192,67991,1,0,0:0:0:0:
182,192,68237,1,0,0:0:0:0:
36,192,68237,1,0,0:0:0:0:
109,192,68237,1,0,0:0:0:0:
329,192,68237,1,0,0:0:0:0:
402,192,68237,1,0,0:0:0:0:
475,192,68237,1,0,0:0:0:0:
256,192,68483,1,0,0:0:0:0:
475,192,68483,1,0,0:0:0:0:
402,192,68483,1,0,0:0:0:0:
182,192,68483,1,0,0:0:0:0:
109,192,68483,1,0,0:0:0:0:
36,192,68483,1,0,0:0:0:0:
36,192,68729,1,0,0:0:0:0:
329,192,68729,1,0,0:0:0:0:
182,192,68729,1,0,0:0:0:0:
475,192,68729,1,0,0:0:0:0:
402,192,68729,1,0,0:0:0:0:
256,192,68729,1,0,0:0:0:0:
109,192,68975,1,0,0:0:0:0:
256,192,68975,1,0,0:0:0:0:
402,192,68975,1,0,0:0:0:0:
475,192,68975,1,0,0:0:0:0:
329,192,68975,1,0,0:0:0:0:
36,192,68975,1,0,0:0:0:0:
182,192,69221,1,0,0:0:0:0:
109,192,69221,1,0,0:0:0:0:
36,192,69221,1,0,0:0:0:0:
256,192,69221,1,0,0:0:0:0:
402,192,69221,1,0,0:0:0:0:
329,192,69221,1,0,0:0:0:0:
329,192,69466,1,0,0:0:0:0:
475,192,69466,1,0,0:0:0:0:
256,192,69466,1,0,0:0:0:0:
182,192,69466,1,0,0:0:0:0:
109,192,69466,1,0,0:0:0:0:
402,192,69466,1,0,0:0:0:0:
402,192,69712,1,0,0:0:0:0:
36,192,69712,1,0,0:0:0:0:
182,192,69712,1,0,0:0:0:0:
256,192,69712,1,0,0:0:0:0:
329,192,69712,1,0,0:0:0:0:
475,192,69712,1,0,0:0:0:0:
109,192,69958,1,0,0:0:0:0:
475,192,69958,1,0,0:0:0:0:
402,192,69958,1,0,0:0:0:0:
329,192,69958,1,0,0:0:0:0:
256,192,69958,1,0,0:0:0:0:
36,192,69958,1,0,0:0:0:0:
36,192,70204,1,0,0:0:0:0:
182,192,70204,1,0,0:0:0:0:
109,192,70204,1,0,0:0:0:0:
329,192,70204,1,0,0:0:0:0:
402,192,70204,1,0,0:0:0:0:
256,192,70204,1,0,0:0:0:0:
256,192,70450,1,0,0:0:0:0:
475,192,70450,1,0,0:0:0:0:
402,192,70450,1,0,0:0:0:0:
182,192,70450,1,0,0:0:0:0:
109,192,70450,1,0,0:0:0:0:
36,192,70450,1,0,0:0:0:0:
329,192,70696,1,0,0:0:0:0:
36,192,70696,1,0,0:0:0:0:
182,192,70696,1,0,0:0:0:0:
256,192,70696,1,0,0:0:0:0:
475,192,70696,1,0,0:0:0:0:
109,192,70696,1,0,0:0:0:0:
109,192,70942,1,0,0:0:0:0:
402,192,70942,1,0,0:0:0:0:
256,192,70942,1,0,0:0:0:0:
329,192,70942,1,0,0:0:0:0:
475,192,70942,1,0,0:0:0:0:
36,192,70942,1,0,0:0:0:0:
36,192,71188,1,0,0:0:0:0:
182,192,71188,1,0,0:0:0:0:
329,192,71188,1,0,0:0:0:0:
475,192,71188,1,0,0:0:0:0:
402,192,71188,1,0,0:0:0:0:
256,192,71188,1,0,0:0:0:0:
109,192,71434,1,0,0:0:0:0:
329,192,71434,1,0,0:0:0:0:
256,192,71434,1,0,0:0:0:0:
402,192,71434,1,0,0:0:0:0:
36,192,71434,1,0,0:0:0:0:
475,192,71434,1,0,0:0:0:0:
182,192,71680,1,0,0:0:0:0:
475,192,71680,1,0,0:0:0:0:
256,192,71680,1,0,0:0:0:0:
329,192,71680,1,0,0:0:0:0:
402,192,71680,1,0,0:0:0:0:
36,192,71680,1,0,0:0:0:0:
36,192,71925,1,0,0:0:0:0:
109,192,71925,1,0,0:0:0:0:
329,192,71925,1,0,0:0:0:0:
475,192,71925,1,0,0:0:0:0:
402,192,71925,1,0,0:0:0:0:
182,192,71925,1,0,0:0:0:0:
182,192,72171,1,0,0:0:0:0:
256,192,72171,1,0,0:0:0:0:
329,192,72171,1,0,0:0:0:0:
475,192,72171,1,0,0:0:0:0:
109,192,72171,1,0,0:0:0:0:
36,192,72171,1,0,0:0:0:0:
36,192,72417,1,0,0:0:0:0:
402,192,72417,1,0,0:0:0:0:
182,192,72417,1,0,0:0:0:0:
256,192,72417,1,0,0:0:0:0:
329,192,72417,1,0,0:0:0:0:
109,192,72417,1,0,0:0:0:0:
109,192,72663,1,0,0:0:0:0:
475,192,72663,1,0,0:0:0:0:
402,192,72663,1,0,0:0:0:0:
329,192,72663,1,0,0:0:0:0:
182,192,72663,1,0,0:0:0:0:
36,192,72663,1,0,0:0:0:0:
256,192,72909,1,0,0:0:0:0:
36,192,72909,1,0,0:0:0:0:
329,192,72909,1,0,0:0:0:0:
402,192,72909,1,0,0:0:0:0:
475,192,72909,1,0,0:0:0:0:
109,192,72909,1,0,0:0:0:0:
109,192,73155,1,0,0:0:0:0:
182,192,73155,1,0,0:0:0:0:
329,192,73155,1,0,0:0:0:0:
402,192,73155,1,0,0:0:0:0:
475,192,73155,1,0,0:0:0:0:
256,192,73155,1,0,0:0:0:0:
36,192,73401,1,0,0:0:0:0:
256,192,73401,1,0,0:0:0:0:
182,192,73401,1,0,0:0:0:0:
329,192,73401,1,0,0:0:0:0:
475,192,73401,1,0,0:0:0:0:
402,192,73401,1,0,0:0:0:0:
109,192,73647,1,0,0:0:0:0:
402,192,73647,1,0,0:0:0:0:
256,192,73647,1,0,0:0:0:0:
329,192,73647,1,0,0:0:0:0:
475,192,73647,1,0,0:0:0:0:
36,192,73647,1,0,0:0:0:0:
36,192,73893,1,0,0:0:0:0:
182,192,73893,1,0,0:0:0:0:
329,192,73893,1,0,0:0:0:0:
402,192,73893,1,0,0:0:0:0:
475,192,73893,1,0,0:0:0:0:
109,192,73893,1,0,0:0:0:0:
256,192,74139,128,0,74569:0:0:0:0:
329,192,74200,128,0,74385:0:0:0:0:
182,192,74200,128,0,74446:0:0:0:0:
402,192,74262,128,0,74507:0:0:0:0:
36,192,74323,128,0,74507:0:0:0:0:
475,192,74323,128,0,74753:0:0:0:0:
109,192,74385,128,0,74692:0:0:0:0:
329,192,74446,128,0,74876:0:0:0:0:
182,192,74507,128,0,74938:0:0:0:0:
36,192,74569,128,0,74999:0:0:0:0:
402,192,74569,128,0,75061:0:0:0:0:
256,192,74630,128,0,75122:0:0:0:0:
109,192,74753,128,0,75122:0:0:0:0:
475,192,74815,128,0,75307:0:0:0:0:
36,192,75122,1,0,0:0:0:0:
182,192,75122,1,0,0:0:0:0:
329,192,75122,1,0,0:0:0:0:
402,192,75122,1,0,0:0:0:0:
475,192,75491,128,0,75614:0:0:0:0:
402,192,75553,128,0,75737:0:0:0:0:
109,192,75553,128,0,75737:0:0:0:0:
329,192,75614,128,0,75860:0:0:0:0:
36,192,75614,128,0,75798:0:0:0:0:
256,192,75675,128,0,75921:0:0:0:0:
475,192,75675,128,0,75983:0:0:0:0:
182,192,75737,128,0,75983:0:0:0:0:
109,192,75798,128,0,75921:0:0:0:0:
402,192,75798,128,0,76044:0:0:0:0:
36,192,75860,128,0,76290:0:0:0:0:
329,192,75921,128,0,76106:0:0:0:0:
256,192,75983,128,0,76106:0:0:0:0:
109,192,76106,1,0,0:0:0:0:
182,192,76106,1,0,0:0:0:0:
402,192,76106,1,0,0:0:0:0:
475,192,76106,1,0,0:0:0:0:
329,192,76413,128,0,76475:0:0:0:0:
36,192,76413,128,0,76475:0:0:0:0:
109,192,76475,128,0,76721:0:0:0:0:
475,192,76475,128,0,76536:0:0:0:0:
402,192,76475,128,0,76659:0:0:0:0:
256,192,76475,128,0,76598:0:0:0:0:
329,192,76536,128,0,76905:0:0:0:0:
182,192,76536,128,0,76844:0:0:0:0:
36,192,76536,128,0,76905:0:0:0:0:
475,192,76598,128,0,76721:0:0:0:0:
402,192,76721,128,0,77028:0:0:0:0:
256,192,76782,128,0,77274:0:0:0:0:
109,192,76782,128,0,77089:0:0:0:0:
475,192,76782,128,0,76966:0:0:0:0:
182,192,76905,128,0,77089:0:0:0:0:
329,192,77089,1,0,0:0:0:0:
402,192,77089,1,0,0:0:0:0:
475,192,77089,1,0,0:0:0:0:
36,192,77089,1,0,0:0:0:0:
182,192,77458,128,0,77766:0:0:0:0:
402,192,77458,128,0,77889:0:0:0:0:
329,192,77520,128,0,77766:0:0:0:0:
256,192,77581,128,0,77827:0:0:0:0:
475,192,77581,128,0,77827:0:0:0:0:
109,192,77643,128,0,77889:0:0:0:0:
36,192,77704,128,0,77950:0:0:0:0:
182,192,77827,128,0,78073:0:0:0:0:
329,192,77827,128,0,78073:0:0:0:0:
475,192,77889,128,0,78012:0:0:0:0:
256,192,77889,128,0,78012:0:0:0:0:
402,192,77950,128,0,78257:0:0:0:0:
256,192,78073,1,0,0:0:0:0:
109,192,78073,1,0,0:0:0:0:
36,192,78073,1,0,0:0:0:0:
475,192,78073,1,0,0:0:0:0:
36,192,78319,1,0,0:0:0:0:
329,192,78319,1,0,0:0:0:0:
256,192,78319,1,0,0:0:0:0:
402,192,78565,1,0,0:0:0:0:
109,192,78565,1,0,0:0:0:0:
182,192,78565,1,0,0:0:0:0:
182,192,78811,1,0,0:0:0:0:
475,192,78811,1,0,0:0:0:0:
329,192,78811,1,0,0:0:0:0:
402,192,79057,1,0,0:0:0:0:
256,192,79057,1,0,0:0:0:0:
109,192,79057,1,0,0:0:0:0:
36,192,79303,1,0,0:0:0:0:
182,192,79303,1,0,0:0:0:0:
329,192,79303,1,0,0:0:0:0:
182,192,79548,1,0,0:0:0:0:
329,192,79548,1,0,0:0:0:0:
475,192,79548,1,0,0:0:0:0:
402,192,79794,1,0,0:0:0:0:
256,192,79794,1,0,0:0:0:0:
109,192,79794,1,0,0:0:0:0:
36,192,80040,1,0,0:0:0:0:
475,192,80040,1,0,0:0:0:0:
329,192,80040,128,0,80286:0:0:0:0:
182,192,80040,1,0,0:0:0:0:
109,192,80163,1,0,0:0:0:0:
182,192,80163,1,0,0:0:0:0:
402,192,80163,1,0,0:0:0:0:
36,192,80286,128,0,80532:0:0:0:0:
402,192,80286,1,0,0:0:0:0:
475,192,80286,1,0,0:0:0:0:
182,192,80286,1,0,0:0:0:0:
109,192,80409,1,0,0:0:0:0:
402,192,80409,1,0,0:0:0:0:
329,192,80409,1,0,0:0:0:0:
256,192,80532,128,0,80778:0:0:0:0:
182,192,80532,1,0,0:0:0:0:
329,192,80532,1,0,0:0:0:0:
475,192,80532,1,0,0:0:0:0:
36,192,80655,1,0,0:0:0:0:
475,192,80655,1,0,0:0:0:0:
182,192,80655,1,0,0:0:0:0:
36,192,80778,128,0,80901:0:0:0:0:
182,192,80778,1,0,0:0:0:0:
402,192,80778,1,0,0:0:0:0:
475,192,80778,1,0,0:0:0:0:
182,192,80901,1,0,0:0:0:0:
109,192,80901,128,0,81024:0:0:0:0:
256,192,80901,1,0,0:0:0:0:
256,192,81024,128,0,81270:0:0:0:0:
329,192,81024,1,0,0:0:0:0:
475,192,81024,1,0,0:0:0:0:
36,192,81024,1,0,0:0:0:0:
329,192,81085,1,0,0:0:0:0:
475,192,81085,1,0,0:0:0:0:
36,192,81085,1,0,0:0:0:0:
329,192,81147,1,0,0:0:0:0:
475,192,81147,1,0,0:0:0:0:
36,192,81147,1,0,0:0:0:0:
329,192,81208,1,0,0:0:0:0:
475,192,81208,1,0,0:0:0:0:
36,192,81208,1,0,0:0:0:0:
182,192,81270,128,0,81393:0:0:0:0:
329,192,81270,1,0,0:0:0:0:
475,192,81270,1,0,0:0:0:0:
36,192,81270,1,0,0:0:0:0:
402,192,81331,1,0,0:0:0:0:
109,192,81331,1,0,0:0:0:0:
36,192,81331,1,0,0:0:0:0:
256,192,81393,128,0,81516:0:0:0:0:
402,192,81393,1,0,0:0:0:0:
109,192,81393,1,0,0:0:0:0:
36,192,81393,1,0,0:0:0:0:
402,192,81454,1,0,0:0:0:0:
109,192,81454,1,0,0:0:0:0:
36,192,81454,1,0,0:0:0:0:
182,192,81516,128,0,81762:0:0:0:0:
402,192,81516,1,0,0:0:0:0:
109,192,81516,1,0,0:0:0:0:
36,192,81516,1,0,0:0:0:0:
402,192,81577,1,0,0:0:0:0:
109,192,81577,1,0,0:0:0:0:
36,192,81577,1,0,0:0:0:0:
329,192,81639,1,0,0:0:0:0:
475,192,81639,1,0,0:0:0:0:
402,192,81639,1,0,0:0:0:0:
329,192,81700,1,0,0:0:0:0:
475,192,81700,1,0,0:0:0:0:
402,192,81700,1,0,0:0:0:0:
256,192,81762,128,0,81885:0:0:0:0:
329,192,81762,1,0,0:0:0:0:
475,192,81762,1,0,0:0:0:0:
36,192,81762,1,0,0:0:0:0:
329,192,81823,1,0,0:0:0:0:
475,192,81823,1,0,0:0:0:0:
36,192,81823,1,0,0:0:0:0:
182,192,81885,128,0,82007:0:0:0:0:
329,192,81885,1,0,0:0:0:0:
475,192,81885,1,0,0:0:0:0:
36,192,81885,1,0,0:0:0:0:
36,192,81946,1,0,0:0:0:0:
329,192,81946,1,0,0:0:0:0:
475,192,81946,1,0,0:0:0:0:
109,192,82007,128,0,82253:0:0:0:0:
36,192,82007,1,0,0:0:0:0:
475,192,82007,1,0,0:0:0:0:
329,192,82007,1,0,0:0:0:0:
182,192,82253,128,0,82499:0:0:0:0:
402,192,82253,1,0,0:0:0:0:
475,192,82253,1,0,0:0:0:0:
36,192,82253,1,0,0:0:0:0:
329,192,82253,1,0,0:0:0:0:
402,192,82499,128,0,82745:0:0:0:0:
36,192,82499,1,0,0:0:0:0:
109,192,82499,1,0,0:0:0:0:
329,192,82499,1,0,0:0:0:0:
256,192,82499,1,0,0:0:0:0:
109,192,82745,128,0,82868:0:0:0:0:
36,192,82745,1,0,0:0:0:0:
256,192,82745,1,0,0:0:0:0:
329,192,82745,1,0,0:0:0:0:
182,192,82745,1,0,0:0:0:0:
329,192,82868,128,0,82991:0:0:0:0:
36,192,82991,128,0,83237:0:0:0:0:
109,192,82991,1,0,0:0:0:0:
256,192,82991,1,0,0:0:0:0:
402,192,82991,1,0,0:0:0:0:
475,192,82991,1,0,0:0:0:0:
402,192,83237,128,0,83360:0:0:0:0:
109,192,83237,1,0,0:0:0:0:
329,192,83237,1,0,0:0:0:0:
182,192,83237,1,0,0:0:0:0:
475,192,83237,1,0,0:0:0:0:
475,192,83360,128,0,83483:0:0:0:0:
256,192,83483,128,0,83729:0:0:0:0:
109,192,83483,1,0,0:0:0:0:
182,192,83483,1,0,0:0:0:0:
402,192,83483,1,0,0:0:0:0:
329,192,83483,1,0,0:0:0:0:
182,192,83729,128,0,83852:0:0:0:0:
36,192,83729,1,0,0:0:0:0:
109,192,83729,1,0,0:0:0:0:
402,192,83729,1,0,0:0:0:0:
329,192,83729,1,0,0:0:0:0:
256,192,83852,128,0,83975:0:0:0:0:
36,192,83975,128,0,84221:0:0:0:0:
475,192,83975,1,0,0:0:0:0:
329,192,83975,1,0,0:0:0:0:
182,192,83975,1,0,0:0:0:0:
109,192,83975,1,0,0:0:0:0:
402,192,84221,128,0,84466:0:0:0:0:
109,192,84221,1,0,0:0:0:0:
256,192,84221,1,0,0:0:0:0:
329,192,84221,1,0,0:0:0:0:
475,192,84221,1,0,0:0:0:0:
475,192,84466,128,0,84712:0:0:0:0:
36,192,84466,1,0,0:0:0:0:
109,192,84466,1,0,0:0:0:0:
182,192,84466,1,0,0:0:0:0:
256,192,84466,1,0,0:0:0:0:
109,192,84712,128,0,84835:0:0:0:0:
36,192,84712,1,0,0:0:0:0:
182,192,84712,1,0,0:0:0:0:
329,192,84712,1,0,0:0:0:0:
402,192,84712,1,0,0:0:0:0:
36,192,84835,128,0,84958:0:0:0:0:
182,192,84958,128,0,85204:0:0:0:0:
109,192,84958,1,0,0:0:0:0:
402,192,84958,1,0,0:0:0:0:
329,192,84958,1,0,0:0:0:0:
475,192,84958,1,0,0:0:0:0:
402,192,85204,128,0,85327:0:0:0:0:
329,192,85204,1,0,0:0:0:0:
109,192,85204,1,0,0:0:0:0:
36,192,85204,1,0,0:0:0:0:
475,192,85204,1,0,0:0:0:0:
36,192,85327,128,0,85450:0:0:0:0:
475,192,85450,128,0,85696:0:0:0:0:
402,192,85450,1,0,0:0:0:0:
182,192,85450,1,0,0:0:0:0:
109,192,85450,1,0,0:0:0:0:
256,192,85450,1,0,0:0:0:0:
109,192,85696,128,0,85819:0:0:0:0:
36,192,85696,1,0,0:0:0:0:
182,192,85696,1,0,0:0:0:0:
256,192,85696,1,0,0:0:0:0:
329,192,85696,1,0,0:0:0:0:
36,192,85819,128,0,85942:0:0:0:0:
256,192,85942,128,0,86188:0:0:0:0:
329,192,85942,1,0,0:0:0:0:
402,192,85942,1,0,0:0:0:0:
475,192,85942,1,0,0:0:0:0:
182,192,85942,1,0,0:0:0:0:
329,192,86188,128,0,86434:0:0:0:0:
36,192,86188,1,0,0:0:0:0:
182,192,86188,1,0,0:0:0:0:
475,192,86188,1,0,0:0:0:0:
109,192,86188,1,0,0:0:0:0:
109,192,86434,128,0,86680:0:0:0:0:
182,192,86434,1,0,0:0:0:0:
256,192,86434,1,0,0:0:0:0:
402,192,86434,1,0,0:0:0:0:
36,192,86434,1,0,0:0:0:0:
329,192,86680,128,0,86803:0:0:0:0:
182,192,86680,1,0,0:0:0:0:
256,192,86680,1,0,0:0:0:0:
36,192,86680,1,0,0:0:0:0:
475,192,86680,1,0,0:0:0:0:
402,192,86803,128,0,86925:0:0:0:0:
36,192,86925,128,0,87171:0:0:0:0:
109,192,86925,1,0,0:0:0:0:
256,192,86925,1,0,0:0:0:0:
329,192,86925,1,0,0:0:0:0:
182,192,86925,1,0,0:0:0:0:
329,192,87171,128,0,87294:0:0:0:0:
475,192,87171,1,0,0:0:0:0:
109,192,87171,1,0,0:0:0:0:
182,192,87171,1,0,0:0:0:0:
256,192,87171,1,0,0:0:0:0:
402,192,87294,128,0,87417:0:0:0:0:
182,192,87417,128,0,87663:0:0:0:0:
36,192,87417,1,0,0:0:0:0:
109,192,87417,1,0,0:0:0:0:
475,192,87417,1,0,0:0:0:0:
329,192,87417,1,0,0:0:0:0:
109,192,87663,128,0,87786:0:0:0:0:
36,192,87663,1,0,0:0:0:0:
329,192,87663,1,0,0:0:0:0:
475,192,87663,1,0,0:0:0:0:
402,192,87663,1,0,0:0:0:0:
256,192,87786,128,0,87909:0:0:0:0:
36,192,87909,1,0,0:0:0:0:
109,192,87909,1,0,0:0:0:0:
402,192,87909,1,0,0:0:0:0:
329,192,87909,1,0,0:0:0:0:
475,192,87909,1,0,0:0:0:0:
36,192,88032,1,0,0:0:0:0:
182,192,88032,1,0,0:0:0:0:
329,192,88032,1,0,0:0:0:0:
109,192,88155,1,0,0:0:0:0:
256,192,88155,1,0,0:0:0:0:
402,192,88155,1,0,0:0:0:0:
182,192,88278,1,0,0:0:0:0:
329,192,88278,1,0,0:0:0:0:
475,192,88278,1,0,0:0:0:0:
256,192,88401,1,0,0:0:0:0:
402,192,88401,1,0,0:0:0:0:
109,192,88401,1,0,0:0:0:0:
475,192,88524,1,0,0:0:0:0:
329,192,88524,1,0,0:0:0:0:
182,192,88524,1,0,0:0:0:0:
402,192,88647,1,0,0:0:0:0:
256,192,88647,1,0,0:0:0:0:
109,192,88647,1,0,0:0:0:0:
256,192,88770,1,0,0:0:0:0:
109,192,88770,1,0,0:0:0:0:
402,192,88770,1,0,0:0:0:0:
182,192,88893,1,0,0:0:0:0:
36,192,88893,1,0,0:0:0:0:
329,192,88893,1,0,0:0:0:0:
109,192,89016,1,0,0:0:0:0:
256,192,89016,1,0,0:0:0:0:
402,192,89016,1,0,0:0:0:0:
182,192,89139,1,0,0:0:0:0:
329,192,89139,1,0,0:0:0:0:
475,192,89139,1,0,0:0:0:0:
256,192,89262,1,0,0:0:0:0:
402,192,89262,1,0,0:0:0:0:
109,192,89262,1,0,0:0:0:0:
329,192,89385,1,0,0:0:0:0:
475,192,89385,1,0,0:0:0:0:
182,192,89385,1,0,0:0:0:0:
402,192,89507,1,0,0:0:0:0:
256,192,89507,1,0,0:0:0:0:
109,192,89507,1,0,0:0:0:0:
182,192,89630,1,0,0:0:0:0:
36,192,89630,1,0,0:0:0:0:
329,192,89630,1,0,0:0:0:0:
182,192,89753,1,0,0:0:0:0:
329,192,89753,1,0,0:0:0:0:
475,192,89753,1,0,0:0:0:0:
256,192,89876,1,0,0:0:0:0:
402,192,89876,1,0,0:0:0:0:
475,192,89876,128,0,90122:0:0:0:0:
109,192,89876,1,0,0:0:0:0:
182,192,89876,1,0,0:0:0:0:
36,192,89876,1,0,0:0:0:0:
109,192,90122,128,0,90368:0:0:0:0:
182,192,90122,1,0,0:0:0:0:
329,192,90122,1,0,0:0:0:0:
36,192,90122,1,0,0:0:0:0:
402,192,90122,1,0,0:0:0:0:
256,192,90368,128,0,90614:0:0:0:0:
36,192,90368,1,0,0:0:0:0:
182,192,90368,1,0,0:0:0:0:
402,192,90368,1,0,0:0:0:0:
329,192,90368,1,0,0:0:0:0:
402,192,90614,128,0,90737:0:0:0:0:
329,192,90614,1,0,0:0:0:0:
109,192,90614,1,0,0:0:0:0:
475,192,90614,1,0,0:0:0:0:
182,192,90614,1,0,0:0:0:0:
109,192,90737,128,0,90860:0:0:0:0:
182,192,90737,1,0,0:0:0:0:
36,192,90737,1,0,0:0:0:0:
329,192,90737,1,0,0:0:0:0:
256,192,90860,1,0,0:0:0:0:
475,192,90860,1,0,0:0:0:0:
182,192,90860,1,0,0:0:0:0:
329,192,90860,128,0,91106:0:0:0:0:
36,192,90860,1,0,0:0:0:0:
109,192,90983,1,0,0:0:0:0:
402,192,90983,1,0,0:0:0:0:
256,192,90983,1,0,0:0:0:0:
182,192,91106,128,0,91229:0:0:0:0:
109,192,91106,1,0,0:0:0:0:
36,192,91106,1,0,0:0:0:0:
402,192,91106,1,0,0:0:0:0:
475,192,91106,1,0,0:0:0:0:
402,192,91229,128,0,91352:0:0:0:0:
256,192,91229,1,0,0:0:0:0:
329,192,91229,1,0,0:0:0:0:
36,192,91229,1,0,0:0:0:0:
109,192,91352,128,0,91598:0:0:0:0:
36,192,91352,1,0,0:0:0:0:
475,192,91352,1,0,0:0:0:0:
182,192,91352,1,0,0:0:0:0:
329,192,91352,1,0,0:0:0:0:
182,192,91475,1,0,0:0:0:0:
402,192,91475,1,0,0:0:0:0:
36,192,91475,1,0,0:0:0:0:
329,192,91598,128,0,91721:0:0:0:0:
182,192,91598,1,0,0:0:0:0:
256,192,91598,1,0,0:0:0:0:
402,192,91598,1,0,0:0:0:0:
36,192,91598,1,0,0:0:0:0:
36,192,91721,128,0,91844:0:0:0:0:
475,192,91721,1,0,0:0:0:0:
109,192,91721,1,0,0:0:0:0:
256,192,91721,1,0,0:0:0:0:
182,192,91844,1,0,0:0:0:0:
256,192,91844,128,0,92089:0:0:0:0:
402,192,91844,1,0,0:0:0:0:
475,192,91844,1,0,0:0:0:0:
329,192,91844,1,0,0:0:0:0:
36,192,91966,1,0,0:0:0:0:
182,192,91966,1,0,0:0:0:0:
402,192,91966,1,0,0:0:0:0:
402,192,92089,128,0,92335:0:0:0:0:
329,192,92089,1,0,0:0:0:0:
109,192,92089,1,0,0:0:0:0:
36,192,92089,1,0,0:0:0:0:
475,192,92089,1,0,0:0:0:0:
109,192,92212,1,0,0:0:0:0:
329,192,92212,1,0,0:0:0:0:
36,192,92212,1,0,0:0:0:0:
475,192,92335,128,0,92581:0:0:0:0:
329,192,92335,1,0,0:0:0:0:
36,192,92335,1,0,0:0:0:0:
182,192,92335,1,0,0:0:0:0:
109,192,92335,1,0,0:0:0:0:
109,192,92458,1,0,0:0:0:0:
329,192,92458,1,0,0:0:0:0:
256,192,92458,1,0,0:0:0:0:
109,192,92581,128,0,92704:0:0:0:0:
402,192,92581,1,0,0:0:0:0:
182,192,92581,1,0,0:0:0:0:
36,192,92581,1,0,0:0:0:0:
256,192,92581,1,0,0:0:0:0:
36,192,92704,128,0,92827:0:0:0:0:
475,192,92704,1,0,0:0:0:0:
182,192,92704,1,0,0:0:0:0:
329,192,92704,1,0,0:0:0:0:
329,192,92827,128,0,93073:0:0:0:0:
256,192,92827,1,0,0:0:0:0:
182,192,92827,1,0,0:0:0:0:
475,192,92827,1,0,0:0:0:0:
109,192,92827,1,0,0:0:0:0:
36,192,92950,1,0,0:0:0:0:
182,192,92950,1,0,0:0:0:0:
475,192,92950,1,0,0:0:0:0:
475,192,93073,128,0,93196:0:0:0:0:
402,192,93073,1,0,0:0:0:0:
182,192,93073,1,0,0:0:0:0:
109,192,93073,1,0,0:0:0:0:
36,192,93073,1,0,0:0:0:0:
256,192,93196,128,0,93319:0:0:0:0:
36,192,93196,1,0,0:0:0:0:
182,192,93196,1,0,0:0:0:0:
182,192,93319,128,0,93565:0:0:0:0:
36,192,93319,1,0,0:0:0:0:
109,192,93319,1,0,0:0:0:0:
402,192,93319,1,0,0:0:0:0:
329,192,93319,1,0,0:0:0:0:
329,192,93442,1,0,0:0:0:0:
475,192,93442,1,0,0:0:0:0:
36,192,93442,1,0,0:0:0:0:
329,192,93565,128,0,93688:0:0:0:0:
475,192,93565,1,0,0:0:0:0:
256,192,93565,1,0,0:0:0:0:
36,192,93565,1,0,0:0:0:0:
109,192,93565,1,0,0:0:0:0:
182,192,93688,128,0,93811:0:0:0:0:
36,192,93688,1,0,0:0:0:0:
402,192,93688,1,0,0:0:0:0:
475,192,93688,1,0,0:0:0:0:
402,192,93811,128,0,94057:0:0:0:0:
256,192,93811,1,0,0:0:0:0:
329,192,93811,1,0,0:0:0:0:
36,192,93811,1,0,0:0:0:0:
475,192,93811,1,0,0:0:0:0:
182,192,93934,1,0,0:0:0:0:
329,192,93934,1,0,0:0:0:0:
36,192,93934,1,0,0:0:0:0:
36,192,94057,128,0,94303:0:0:0:0:
109,192,94057,1,0,0:0:0:0:
475,192,94057,1,0,0:0:0:0:
256,192,94057,1,0,0:0:0:0:
329,192,94057,1,0,0:0:0:0:
256,192,94180,1,0,0:0:0:0:
475,192,94180,1,0,0:0:0:0:
109,192,94180,1,0,0:0:0:0:
182,192,94303,128,0,94548:0:0:0:0:
329,192,94303,1,0,0:0:0:0:
109,192,94303,1,0,0:0:0:0:
475,192,94303,1,0,0:0:0:0:
256,192,94303,1,0,0:0:0:0:
36,192,94425,1,0,0:0:0:0:
109,192,94425,1,0,0:0:0:0:
402,192,94425,1,0,0:0:0:0:
402,192,94548,128,0,94671:0:0:0:0:
109,192,94548,1,0,0:0:0:0:
475,192,94548,1,0,0:0:0:0:
256,192,94548,1,0,0:0:0:0:
329,192,94548,1,0,0:0:0:0:
256,192,94671,128,0,94794:0:0:0:0:
36,192,94671,1,0,0:0:0:0:
182,192,94671,1,0,0:0:0:0:
329,192,94671,1,0,0:0:0:0:
475,192,94794,128,0,95040:0:0:0:0:
36,192,94794,1,0,0:0:0:0:
329,192,94794,1,0,0:0:0:0:
402,192,94794,1,0,0:0:0:0:
182,192,94794,1,0,0:0:0:0:
402,192,94917,1,0,0:0:0:0:
182,192,94917,1,0,0:0:0:0:
36,192,94917,1,0,0:0:0:0:
182,192,95040,128,0,95163:0:0:0:0:
402,192,95040,1,0,0:0:0:0:
109,192,95040,1,0,0:0:0:0:
256,192,95040,1,0,0:0:0:0:
36,192,95040,1,0,0:0:0:0:
402,192,95163,128,0,95286:0:0:0:0:
109,192,95163,1,0,0:0:0:0:
329,192,95163,1,0,0:0:0:0:
475,192,95163,1,0,0:0:0:0:
36,192,95286,1,0,0:0:0:0:
475,192,95286,1,0,0:0:0:0:
256,192,95286,128,0,95532:0:0:0:0:
182,192,95286,1,0,0:0:0:0:
109,192,95286,1,0,0:0:0:0:
475,192,95409,1,0,0:0:0:0:
36,192,95409,1,0,0:0:0:0:
109,192,95409,1,0,0:0:0:0:
109,192,95532,128,0,95655:0:0:0:0:
36,192,95532,1,0,0:0:0:0:
402,192,95532,1,0,0:0:0:0:
475,192,95532,1,0,0:0:0:0:
329,192,95532,1,0,0:0:0:0:
402,192,95655,128,0,95778:0:0:0:0:
182,192,95655,1,0,0:0:0:0:
329,192,95655,1,0,0:0:0:0:
475,192,95655,1,0,0:0:0:0:
256,192,95778,128,0,96024:0:0:0:0:
36,192,95778,1,0,0:0:0:0:
182,192,95778,1,0,0:0:0:0:
329,192,95778,1,0,0:0:0:0:
475,192,95778,1,0,0:0:0:0:
109,192,95901,1,0,0:0:0:0:
36,192,95901,1,0,0:0:0:0:
402,192,95901,1,0,0:0:0:0:
109,192,96024,128,0,96270:0:0:0:0:
36,192,96024,1,0,0:0:0:0:
329,192,96024,1,0,0:0:0:0:
475,192,96024,1,0,0:0:0:0:
182,192,96024,1,0,0:0:0:0:
36,192,96147,1,0,0:0:0:0:
475,192,96147,1,0,0:0:0:0:
329,192,96147,1,0,0:0:0:0:
402,192,96270,128,0,96516:0:0:0:0:
182,192,96270,1,0,0:0:0:0:
329,192,96270,1,0,0:0:0:0:
475,192,96270,1,0,0:0:0:0:
182,192,96393,1,0,0:0:0:0:
475,192,96393,1,0,0:0:0:0:
329,192,96393,1,0,0:0:0:0:
182,192,96516,128,0,96639:0:0:0:0:
256,192,96516,1,0,0:0:0:0:
36,192,96516,1,0,0:0:0:0:
475,192,96516,1,0,0:0:0:0:
329,192,96516,1,0,0:0:0:0:
329,192,96639,128,0,96762:0:0:0:0:
256,192,96639,1,0,0:0:0:0:
475,192,96639,1,0,0:0:0:0:
36,192,96639,1,0,0:0:0:0:
475,192,96762,128,0,97007:0:0:0:0:
36,192,96762,1,0,0:0:0:0:
182,192,96762,1,0,0:0:0:0:
402,192,96762,1,0,0:0:0:0:
109,192,96762,1,0,0:0:0:0:
182,192,96885,1,0,0:0:0:0:
329,192,96885,1,0,0:0:0:0:
36,192,96885,1,0,0:0:0:0:
402,192,96946,1,0,0:0:0:0:
109,192,97007,128,0,97130:0:0:0:0:
36,192,97007,1,0,0:0:0:0:
256,192,97007,1,0,0:0:0:0:
402,192,97007,1,0,0:0:0:0:
182,192,97007,1,0,0:0:0:0:
256,192,97130,128,0,97253:0:0:0:0:
402,192,97130,1,0,0:0:0:0:
329,192,97130,1,0,0:0:0:0:
182,192,97130,1,0,0:0:0:0:
109,192,97253,128,0,97499:0:0:0:0:
182,192,97253,1,0,0:0:0:0:
36,192,97253,1,0,0:0:0:0:
402,192,97253,1,0,0:0:0:0:
329,192,97253,1,0,0:0:0:0:
402,192,97376,1,0,0:0:0:0:
182,192,97376,1,0,0:0:0:0:
329,192,97376,1,0,0:0:0:0:
36,192,97499,1,0,0:0:0:0:
182,192,97499,1,0,0:0:0:0:
256,192,97499,1,0,0:0:0:0:
329,192,97499,1,0,0:0:0:0:
402,192,97499,1,0,0:0:0:0:
475,192,97499,1,0,0:0:0:0:
