osu file format v14

[General]
AudioFilename: audio145.mp3
AudioLeadIn: 0
PreviewTime: 35177
Countdown: 0
SampleSet: Normal
StackLeniency: 0.7
Mode: 3
LetterboxInBreaks: 0
SpecialStyle: 0
WidescreenStoryboard: 0

[Editor]
DistanceSpacing: 0.8
BeatDivisor: 6
GridSize: 32
TimelineZoom: 2

[Metadata]
Title:Wait Another Day
TitleUnicode:Wait Another Day
Artist:Mike Williams x Mesto
ArtistUnicode:Mike Williams x Mesto
Creator:HikariNayo
Version:I'll be back before you know 1.45x
Source:
Tags:Mike Williams Mesto Wait another day BEST EDM 2019 dance electronic jack cj chordjack rates
BeatmapID:4566848
BeatmapSetID:2164994

[Difficulty]
HPDrainRate:8
CircleSize:4
OverallDifficulty:8
ApproachRate:5
SliderMultiplier:1.4
SliderTickRate:1

[Events]
//Background and Video events
0,0,"969814.jpg",0,0
//Break Periods
//Storyboard Layer 0 (Background)
//Storyboard Layer 1 (Fail)
//Storyboard Layer 2 (Pass)
//Storyboard Layer 3 (Foreground)
//Storyboard Layer 4 (Overlay)
//Storyboard Sound Samples

[TimingPoints]
77,328.407224958949,4,1,1,100,1,0
36859,-100,4,1,1,100,0,1
46054,-100,4,1,1,100,0,0
47368,-100,4,1,1,100,0,1
57877,-100,4,1,1,100,0,0
89403,-100,4,1,1,100,0,1
98599,-100,4,1,1,100,0,0
99912,-100,4,1,1,100,0,1
110421,-100,4,1,1,100,0,0

[HitObjects]
448,192,77,5,0,0:0:0:0:
320,192,77,1,0,0:0:0:0:
192,192,77,1,0,0:0:0:0:
448,192,241,1,0,0:0:0:0:
320,192,241,1,0,0:0:0:0:
448,192,406,1,0,0:0:0:0:
192,192,406,1,0,0:0:0:0:
64,192,406,1,0,0:0:0:0:
64,192,570,1,0,0:0:0:0:
192,192,570,1,0,0:0:0:0:
448,192,734,1,0,0:0:0:0:
320,192,734,1,0,0:0:0:0:
64,192,734,1,0,0:0:0:0:
192,192,898,1,0,0:0:0:0:
320,192,898,1,0,0:0:0:0:
448,192,898,1,0,0:0:0:0:
320,192,1062,1,0,0:0:0:0:
192,192,1062,1,0,0:0:0:0:
64,192,1062,1,0,0:0:0:0:
64,192,1226,1,0,0:0:0:0:
192,192,1226,1,0,0:0:0:0:
448,192,1226,1,0,0:0:0:0:
320,192,1390,1,0,0:0:0:0:
448,192,1390,1,0,0:0:0:0:
64,192,1390,1,0,0:0:0:0:
448,192,1554,1,0,0:0:0:0:
320,192,1554,1,0,0:0:0:0:
192,192,1719,1,0,0:0:0:0:
64,192,1719,1,0,0:0:0:0:
448,192,1719,1,0,0:0:0:0:
320,192,1883,1,0,0:0:0:0:
192,192,1883,1,0,0:0:0:0:
64,192,1883,1,0,0:0:0:0:
64,192,2048,128,0,2704:0:0:0:0:
320,192,2048,1,0,0:0:0:0:
448,192,2048,1,0,0:0:0:0:
192,192,2212,1,0,0:0:0:0:
448,192,2376,1,0,0:0:0:0:
320,192,2540,1,0,0:0:0:0:
448,192,2540,1,0,0:0:0:0:
192,192,2704,1,0,0:0:0:0:
320,192,2704,1,0,0:0:0:0:
448,192,2704,1,0,0:0:0:0:
448,192,2868,1,0,0:0:0:0:
320,192,2868,1,0,0:0:0:0:
192,192,2868,1,0,0:0:0:0:
320,192,3032,1,0,0:0:0:0:
192,192,3032,1,0,0:0:0:0:
64,192,3032,1,0,0:0:0:0:
320,192,3197,1,0,0:0:0:0:
64,192,3197,1,0,0:0:0:0:
192,192,3197,1,0,0:0:0:0:
192,192,3361,1,0,0:0:0:0:
64,192,3361,1,0,0:0:0:0:
448,192,3361,128,0,4018:0:0:0:0:
320,192,3525,1,0,0:0:0:0:
192,192,3690,1,0,0:0:0:0:
64,192,3854,1,0,0:0:0:0:
320,192,3854,1,0,0:0:0:0:
320,192,4018,1,0,0:0:0:0:
192,192,4018,1,0,0:0:0:0:
64,192,4018,1,0,0:0:0:0:
192,192,4182,1,0,0:0:0:0:
320,192,4182,1,0,0:0:0:0:
448,192,4182,1,0,0:0:0:0:
64,192,4346,1,0,0:0:0:0:
320,192,4346,1,0,0:0:0:0:
448,192,4346,1,0,0:0:0:0:
64,192,4510,1,0,0:0:0:0:
192,192,4510,1,0,0:0:0:0:
448,192,4510,1,0,0:0:0:0:
320,192,4674,1,0,0:0:0:0:
192,192,4674,1,0,0:0:0:0:
448,192,4674,1,0,0:0:0:0:
64,192,4839,1,0,0:0:0:0:
448,192,4921,1,0,0:0:0:0:
320,192,4962,1,0,0:0:0:0:
192,192,5003,1,0,0:0:0:0:
64,192,5003,1,0,0:0:0:0:
448,192,5167,1,0,0:0:0:0:
320,192,5332,1,0,0:0:0:0:
192,192,5332,1,0,0:0:0:0:
64,192,5332,1,0,0:0:0:0:
192,192,5496,1,0,0:0:0:0:
64,192,5496,1,0,0:0:0:0:
448,192,5660,1,0,0:0:0:0:
320,192,5660,1,0,0:0:0:0:
64,192,5660,1,0,0:0:0:0:
320,192,5824,1,0,0:0:0:0:
448,192,5824,1,0,0:0:0:0:
448,192,5988,1,0,0:0:0:0:
192,192,5988,1,0,0:0:0:0:
64,192,5988,1,0,0:0:0:0:
64,192,6152,1,0,0:0:0:0:
192,192,6152,1,0,0:0:0:0:
320,192,6152,1,0,0:0:0:0:
192,192,6317,1,0,0:0:0:0:
320,192,6317,1,0,0:0:0:0:
448,192,6317,1,0,0:0:0:0:
448,192,6481,1,0,0:0:0:0:
320,192,6481,1,0,0:0:0:0:
64,192,6481,1,0,0:0:0:0:
192,192,6645,1,0,0:0:0:0:
64,192,6645,1,0,0:0:0:0:
448,192,6645,1,0,0:0:0:0:
320,192,6809,1,0,0:0:0:0:
192,192,6809,1,0,0:0:0:0:
64,192,6809,1,0,0:0:0:0:
320,192,6973,1,0,0:0:0:0:
448,192,6973,1,0,0:0:0:0:
64,192,6973,1,0,0:0:0:0:
192,192,7138,1,0,0:0:0:0:
320,192,7138,1,0,0:0:0:0:
448,192,7138,1,0,0:0:0:0:
320,192,7302,1,0,0:0:0:0:
192,192,7302,1,0,0:0:0:0:
64,192,7302,1,0,0:0:0:0:
64,192,7466,1,0,0:0:0:0:
192,192,7466,1,0,0:0:0:0:
448,192,7630,1,0,0:0:0:0:
320,192,7630,1,0,0:0:0:0:
192,192,7794,1,0,0:0:0:0:
448,192,7794,1,0,0:0:0:0:
320,192,7794,1,0,0:0:0:0:
320,192,7959,1,0,0:0:0:0:
192,192,7959,1,0,0:0:0:0:
64,192,7959,1,0,0:0:0:0:
192,192,8123,1,0,0:0:0:0:
64,192,8123,1,0,0:0:0:0:
448,192,8123,1,0,0:0:0:0:
320,192,8287,1,0,0:0:0:0:
448,192,8287,1,0,0:0:0:0:
64,192,8287,1,0,0:0:0:0:
320,192,8451,1,0,0:0:0:0:
192,192,8451,1,0,0:0:0:0:
64,192,8451,1,0,0:0:0:0:
192,192,8615,1,0,0:0:0:0:
320,192,8615,1,0,0:0:0:0:
448,192,8615,1,0,0:0:0:0:
192,192,8780,1,0,0:0:0:0:
64,192,8780,1,0,0:0:0:0:
320,192,8944,1,0,0:0:0:0:
448,192,8944,1,0,0:0:0:0:
448,192,9108,1,0,0:0:0:0:
320,192,9108,1,0,0:0:0:0:
192,192,9108,1,0,0:0:0:0:
320,192,9272,1,0,0:0:0:0:
64,192,9272,1,0,0:0:0:0:
192,192,9272,1,0,0:0:0:0:
448,192,9437,1,0,0:0:0:0:
64,192,9437,1,0,0:0:0:0:
192,192,9437,1,0,0:0:0:0:
448,192,9601,1,0,0:0:0:0:
320,192,9601,1,0,0:0:0:0:
64,192,9601,1,0,0:0:0:0:
192,192,9765,1,0,0:0:0:0:
320,192,9765,1,0,0:0:0:0:
448,192,9765,1,0,0:0:0:0:
320,192,9929,1,0,0:0:0:0:
192,192,9929,1,0,0:0:0:0:
64,192,9929,1,0,0:0:0:0:
448,192,10093,1,0,0:0:0:0:
320,192,10257,1,0,0:0:0:0:
64,192,10257,1,0,0:0:0:0:
192,192,10421,1,0,0:0:0:0:
320,192,10586,1,0,0:0:0:0:
448,192,10586,1,0,0:0:0:0:
192,192,10586,1,0,0:0:0:0:
64,192,10586,1,0,0:0:0:0:
448,192,10750,1,0,0:0:0:0:
192,192,10914,1,0,0:0:0:0:
64,192,10914,1,0,0:0:0:0:
320,192,10914,1,0,0:0:0:0:
192,192,11079,1,0,0:0:0:0:
64,192,11243,1,0,0:0:0:0:
448,192,11243,1,0,0:0:0:0:
320,192,11407,1,0,0:0:0:0:
192,192,11571,1,0,0:0:0:0:
64,192,11571,1,0,0:0:0:0:
448,192,11571,1,0,0:0:0:0:
320,192,11735,1,0,0:0:0:0:
192,192,11899,1,0,0:0:0:0:
64,192,11899,1,0,0:0:0:0:
448,192,12063,1,0,0:0:0:0:
320,192,12228,1,0,0:0:0:0:
192,192,12228,1,0,0:0:0:0:
64,192,12228,1,0,0:0:0:0:
448,192,12392,1,0,0:0:0:0:
64,192,12557,1,0,0:0:0:0:
320,192,12557,1,0,0:0:0:0:
192,192,12721,1,0,0:0:0:0:
320,192,12885,1,0,0:0:0:0:
448,192,12885,1,0,0:0:0:0:
64,192,12885,1,0,0:0:0:0:
192,192,13049,1,0,0:0:0:0:
64,192,13213,1,0,0:0:0:0:
192,192,13213,1,0,0:0:0:0:
448,192,13213,1,0,0:0:0:0:
320,192,13377,1,0,0:0:0:0:
448,192,13541,1,0,0:0:0:0:
320,192,13541,1,0,0:0:0:0:
192,192,13541,1,0,0:0:0:0:
64,192,13706,1,0,0:0:0:0:
448,192,13870,1,0,0:0:0:0:
320,192,13870,1,0,0:0:0:0:
192,192,14034,1,0,0:0:0:0:
64,192,14199,1,0,0:0:0:0:
448,192,14199,1,0,0:0:0:0:
320,192,14199,1,0,0:0:0:0:
192,192,14363,1,0,0:0:0:0:
320,192,14527,1,0,0:0:0:0:
448,192,14527,1,0,0:0:0:0:
64,192,14691,1,0,0:0:0:0:
192,192,14855,1,0,0:0:0:0:
320,192,14855,1,0,0:0:0:0:
448,192,14855,1,0,0:0:0:0:
64,192,15019,1,0,0:0:0:0:
192,192,15183,1,0,0:0:0:0:
320,192,15183,1,0,0:0:0:0:
448,192,15348,1,0,0:0:0:0:
192,192,15512,1,0,0:0:0:0:
320,192,15512,1,0,0:0:0:0:
64,192,15512,1,0,0:0:0:0:
448,192,15677,1,0,0:0:0:0:
192,192,15841,1,0,0:0:0:0:
64,192,15841,1,0,0:0:0:0:
320,192,16005,1,0,0:0:0:0:
448,192,16169,1,0,0:0:0:0:
192,192,16169,1,0,0:0:0:0:
64,192,16169,1,0,0:0:0:0:
320,192,16333,1,0,0:0:0:0:
448,192,16497,1,0,0:0:0:0:
64,192,16497,1,0,0:0:0:0:
192,192,16661,1,0,0:0:0:0:
320,192,16826,1,0,0:0:0:0:
448,192,16826,1,0,0:0:0:0:
64,192,16826,1,0,0:0:0:0:
192,192,16990,1,0,0:0:0:0:
320,192,17154,1,0,0:0:0:0:
448,192,17154,1,0,0:0:0:0:
64,192,17318,1,0,0:0:0:0:
192,192,17483,1,0,0:0:0:0:
320,192,17483,1,0,0:0:0:0:
448,192,17483,1,0,0:0:0:0:
64,192,17647,1,0,0:0:0:0:
320,192,17811,1,0,0:0:0:0:
192,192,17811,1,0,0:0:0:0:
448,192,17975,1,0,0:0:0:0:
320,192,18139,1,0,0:0:0:0:
192,192,18139,1,0,0:0:0:0:
64,192,18139,1,0,0:0:0:0:
448,192,18303,1,0,0:0:0:0:
64,192,18468,128,0,18796:0:0:0:0:
192,192,18468,1,0,0:0:0:0:
448,192,18632,1,0,0:0:0:0:
448,192,18796,1,0,0:0:0:0:
320,192,18796,1,0,0:0:0:0:
192,192,18796,1,0,0:0:0:0:
320,192,18960,1,0,0:0:0:0:
448,192,19125,128,0,19453:0:0:0:0:
192,192,19125,1,0,0:0:0:0:
64,192,19289,1,0,0:0:0:0:
320,192,19453,1,0,0:0:0:0:
192,192,19453,1,0,0:0:0:0:
64,192,19453,1,0,0:0:0:0:
192,192,19617,1,0,0:0:0:0:
64,192,19781,128,0,20438:0:0:0:0:
448,192,19781,1,0,0:0:0:0:
320,192,19946,1,0,0:0:0:0:
448,192,20110,1,0,0:0:0:0:
320,192,20110,1,0,0:0:0:0:
192,192,20110,1,0,0:0:0:0:
192,192,20274,1,0,0:0:0:0:
448,192,20438,1,0,0:0:0:0:
320,192,20766,128,0,20931:0:0:0:0:
192,192,20931,128,0,21095:0:0:0:0:
64,192,21095,1,0,0:0:0:0:
320,192,21095,1,0,0:0:0:0:
448,192,21095,1,0,0:0:0:0:
448,192,21259,1,0,0:0:0:0:
320,192,21423,1,0,0:0:0:0:
192,192,21423,1,0,0:0:0:0:
64,192,21423,1,0,0:0:0:0:
448,192,21423,1,0,0:0:0:0:
64,192,21588,1,0,0:0:0:0:
192,192,21752,1,0,0:0:0:0:
320,192,21752,1,0,0:0:0:0:
448,192,21752,1,0,0:0:0:0:
320,192,21916,1,0,0:0:0:0:
448,192,21916,1,0,0:0:0:0:
448,192,22080,1,0,0:0:0:0:
320,192,22080,1,0,0:0:0:0:
192,192,22080,1,0,0:0:0:0:
64,192,22080,1,0,0:0:0:0:
192,192,22244,1,0,0:0:0:0:
64,192,22244,1,0,0:0:0:0:
320,192,22408,1,0,0:0:0:0:
448,192,22408,1,0,0:0:0:0:
64,192,22408,1,0,0:0:0:0:
448,192,22573,1,0,0:0:0:0:
192,192,22573,1,0,0:0:0:0:
448,192,22737,1,0,0:0:0:0:
320,192,22737,1,0,0:0:0:0:
192,192,22737,1,0,0:0:0:0:
64,192,22737,1,0,0:0:0:0:
64,192,22901,1,0,0:0:0:0:
320,192,22901,1,0,0:0:0:0:
192,192,23066,1,0,0:0:0:0:
448,192,23066,1,0,0:0:0:0:
320,192,23066,1,0,0:0:0:0:
64,192,23230,1,0,0:0:0:0:
448,192,23394,1,0,0:0:0:0:
320,192,23394,1,0,0:0:0:0:
64,192,23394,1,0,0:0:0:0:
192,192,23394,1,0,0:0:0:0:
320,192,23558,1,0,0:0:0:0:
448,192,23558,1,0,0:0:0:0:
64,192,23722,1,0,0:0:0:0:
448,192,23722,1,0,0:0:0:0:
192,192,23722,1,0,0:0:0:0:
192,192,23886,1,0,0:0:0:0:
64,192,23886,1,0,0:0:0:0:
320,192,24050,1,0,0:0:0:0:
192,192,24050,1,0,0:0:0:0:
64,192,24050,1,0,0:0:0:0:
448,192,24050,1,0,0:0:0:0:
192,192,24214,1,0,0:0:0:0:
320,192,24214,1,0,0:0:0:0:
64,192,24379,1,0,0:0:0:0:
320,192,24379,1,0,0:0:0:0:
448,192,24379,1,0,0:0:0:0:
192,192,24543,1,0,0:0:0:0:
320,192,24708,1,0,0:0:0:0:
64,192,24708,1,0,0:0:0:0:
192,192,24708,1,0,0:0:0:0:
448,192,24708,1,0,0:0:0:0:
64,192,24872,1,0,0:0:0:0:
320,192,24872,1,0,0:0:0:0:
64,192,25036,1,0,0:0:0:0:
320,192,25036,1,0,0:0:0:0:
448,192,25036,1,0,0:0:0:0:
192,192,25036,1,0,0:0:0:0:
448,192,25200,1,0,0:0:0:0:
192,192,25200,1,0,0:0:0:0:
448,192,25364,1,0,0:0:0:0:
320,192,25364,1,0,0:0:0:0:
192,192,25364,1,0,0:0:0:0:
64,192,25364,1,0,0:0:0:0:
320,192,25528,1,0,0:0:0:0:
448,192,25528,1,0,0:0:0:0:
64,192,25692,1,0,0:0:0:0:
320,192,25692,1,0,0:0:0:0:
192,192,25692,1,0,0:0:0:0:
192,192,25857,1,0,0:0:0:0:
192,192,26021,1,0,0:0:0:0:
64,192,26021,1,0,0:0:0:0:
448,192,26021,1,0,0:0:0:0:
320,192,26021,1,0,0:0:0:0:
64,192,26186,1,0,0:0:0:0:
320,192,26186,1,0,0:0:0:0:
64,192,26350,1,0,0:0:0:0:
192,192,26350,1,0,0:0:0:0:
320,192,26350,1,0,0:0:0:0:
448,192,26350,1,0,0:0:0:0:
448,192,26514,1,0,0:0:0:0:
320,192,26514,1,0,0:0:0:0:
448,192,26678,1,0,0:0:0:0:
320,192,26678,1,0,0:0:0:0:
192,192,26678,1,0,0:0:0:0:
64,192,26678,1,0,0:0:0:0:
64,192,26842,1,0,0:0:0:0:
320,192,26842,1,0,0:0:0:0:
192,192,27006,1,0,0:0:0:0:
64,192,27006,1,0,0:0:0:0:
320,192,27006,1,0,0:0:0:0:
448,192,27170,1,0,0:0:0:0:
192,192,27170,1,0,0:0:0:0:
448,192,27334,1,0,0:0:0:0:
320,192,27334,1,0,0:0:0:0:
192,192,27334,1,0,0:0:0:0:
64,192,27334,1,0,0:0:0:0:
320,192,27499,1,0,0:0:0:0:
448,192,27499,1,0,0:0:0:0:
320,192,27663,1,0,0:0:0:0:
64,192,27663,1,0,0:0:0:0:
192,192,27663,1,0,0:0:0:0:
192,192,27828,1,0,0:0:0:0:
64,192,27828,1,0,0:0:0:0:
448,192,27992,1,0,0:0:0:0:
320,192,27992,1,0,0:0:0:0:
192,192,27992,1,0,0:0:0:0:
64,192,27992,1,0,0:0:0:0:
320,192,28156,1,0,0:0:0:0:
448,192,28156,1,0,0:0:0:0:
448,192,28320,1,0,0:0:0:0:
192,192,28320,1,0,0:0:0:0:
64,192,28320,1,0,0:0:0:0:
320,192,28484,1,0,0:0:0:0:
64,192,28648,1,0,0:0:0:0:
192,192,28648,1,0,0:0:0:0:
448,192,28648,1,0,0:0:0:0:
320,192,28648,1,0,0:0:0:0:
192,192,28812,1,0,0:0:0:0:
448,192,28812,1,0,0:0:0:0:
320,192,28977,1,0,0:0:0:0:
64,192,28977,1,0,0:0:0:0:
192,192,28977,1,0,0:0:0:0:
320,192,29141,1,0,0:0:0:0:
448,192,29141,1,0,0:0:0:0:
64,192,29305,1,0,0:0:0:0:
320,192,29305,1,0,0:0:0:0:
192,192,29305,1,0,0:0:0:0:
448,192,29305,1,0,0:0:0:0:
192,192,29470,1,0,0:0:0:0:
64,192,29470,1,0,0:0:0:0:
320,192,29634,1,0,0:0:0:0:
448,192,29634,1,0,0:0:0:0:
192,192,29634,1,0,0:0:0:0:
320,192,29798,1,0,0:0:0:0:
64,192,29962,1,0,0:0:0:0:
192,192,29962,1,0,0:0:0:0:
448,192,29962,1,0,0:0:0:0:
320,192,29962,1,0,0:0:0:0:
64,192,30126,1,0,0:0:0:0:
192,192,30290,1,0,0:0:0:0:
448,192,30290,1,0,0:0:0:0:
320,192,30290,1,0,0:0:0:0:
320,192,30454,1,0,0:0:0:0:
192,192,30619,1,0,0:0:0:0:
64,192,30619,1,0,0:0:0:0:
448,192,30783,1,0,0:0:0:0:
320,192,30947,1,0,0:0:0:0:
192,192,30947,1,0,0:0:0:0:
64,192,31111,1,0,0:0:0:0:
64,192,31276,1,0,0:0:0:0:
192,192,31276,1,0,0:0:0:0:
64,192,31440,1,0,0:0:0:0:
192,192,31440,1,0,0:0:0:0:
320,192,31440,1,0,0:0:0:0:
64,192,31604,1,0,0:0:0:0:
320,192,31604,1,0,0:0:0:0:
192,192,31604,1,0,0:0:0:0:
448,192,31604,1,0,0:0:0:0:
448,192,31932,1,0,0:0:0:0:
320,192,31932,1,0,0:0:0:0:
192,192,31932,1,0,0:0:0:0:
448,192,32261,1,0,0:0:0:0:
192,192,32261,1,0,0:0:0:0:
64,192,32261,1,0,0:0:0:0:
320,192,32425,1,0,0:0:0:0:
320,192,32589,1,0,0:0:0:0:
192,192,32589,1,0,0:0:0:0:
64,192,32589,1,0,0:0:0:0:
64,192,32753,1,0,0:0:0:0:
192,192,32918,1,0,0:0:0:0:
320,192,32918,1,0,0:0:0:0:
448,192,32918,1,0,0:0:0:0:
448,192,33246,1,0,0:0:0:0:
320,192,33246,1,0,0:0:0:0:
64,192,33246,1,0,0:0:0:0:
320,192,33410,1,0,0:0:0:0:
192,192,33574,1,0,0:0:0:0:
64,192,33574,1,0,0:0:0:0:
448,192,33574,1,0,0:0:0:0:
192,192,33903,1,0,0:0:0:0:
320,192,33903,1,0,0:0:0:0:
448,192,33903,1,0,0:0:0:0:
320,192,34067,1,0,0:0:0:0:
448,192,34067,1,0,0:0:0:0:
448,192,34231,1,0,0:0:0:0:
64,192,34231,1,0,0:0:0:0:
192,192,34231,1,0,0:0:0:0:
192,192,34395,1,0,0:0:0:0:
64,192,34395,1,0,0:0:0:0:
320,192,34395,1,0,0:0:0:0:
192,192,34559,1,0,0:0:0:0:
320,192,34559,1,0,0:0:0:0:
448,192,34559,1,0,0:0:0:0:
320,192,34724,1,0,0:0:0:0:
64,192,34724,1,0,0:0:0:0:
448,192,34724,1,0,0:0:0:0:
448,192,34888,1,0,0:0:0:0:
320,192,34888,1,0,0:0:0:0:
448,192,34970,1,0,0:0:0:0:
320,192,34970,1,0,0:0:0:0:
192,192,35052,1,0,0:0:0:0:
64,192,35052,1,0,0:0:0:0:
64,192,35134,1,0,0:0:0:0:
192,192,35134,1,0,0:0:0:0:
320,192,35217,1,0,0:0:0:0:
448,192,35217,1,0,0:0:0:0:
448,192,35299,1,0,0:0:0:0:
320,192,35299,1,0,0:0:0:0:
192,192,35381,1,0,0:0:0:0:
64,192,35381,1,0,0:0:0:0:
64,192,35463,1,0,0:0:0:0:
192,192,35463,1,0,0:0:0:0:
320,192,35545,1,0,0:0:0:0:
448,192,35545,1,0,0:0:0:0:
64,192,35545,1,0,0:0:0:0:
192,192,35709,1,0,0:0:0:0:
448,192,35873,1,0,0:0:0:0:
64,192,36037,1,0,0:0:0:0:
320,192,36201,1,0,0:0:0:0:
192,192,36530,1,0,0:0:0:0:
64,192,36530,1,0,0:0:0:0:
320,192,36694,1,0,0:0:0:0:
448,192,36694,1,0,0:0:0:0:
448,192,36859,1,0,0:0:0:0:
320,192,36859,1,0,0:0:0:0:
64,192,36859,1,0,0:0:0:0:
192,192,36859,1,0,0:0:0:0:
448,192,36941,1,0,0:0:0:0:
320,192,36941,1,0,0:0:0:0:
64,192,36941,1,0,0:0:0:0:
320,192,37023,1,0,0:0:0:0:
448,192,37023,1,0,0:0:0:0:
192,192,37023,1,0,0:0:0:0:
448,192,37105,1,0,0:0:0:0:
320,192,37105,1,0,0:0:0:0:
320,192,37187,1,0,0:0:0:0:
448,192,37187,1,0,0:0:0:0:
192,192,37187,1,0,0:0:0:0:
64,192,37187,1,0,0:0:0:0:
64,192,37269,1,0,0:0:0:0:
192,192,37269,1,0,0:0:0:0:
448,192,37269,1,0,0:0:0:0:
192,192,37351,1,0,0:0:0:0:
64,192,37351,1,0,0:0:0:0:
320,192,37351,1,0,0:0:0:0:
64,192,37433,1,0,0:0:0:0:
192,192,37433,1,0,0:0:0:0:
64,192,37515,1,0,0:0:0:0:
192,192,37515,1,0,0:0:0:0:
320,192,37515,1,0,0:0:0:0:
448,192,37515,1,0,0:0:0:0:
448,192,37597,1,0,0:0:0:0:
320,192,37597,1,0,0:0:0:0:
448,192,37679,1,0,0:0:0:0:
192,192,37679,1,0,0:0:0:0:
64,192,37679,1,0,0:0:0:0:
64,192,37761,1,0,0:0:0:0:
192,192,37761,1,0,0:0:0:0:
64,192,37843,1,0,0:0:0:0:
192,192,37843,1,0,0:0:0:0:
320,192,37843,1,0,0:0:0:0:
448,192,37843,1,0,0:0:0:0:
320,192,37926,1,0,0:0:0:0:
448,192,37926,1,0,0:0:0:0:
320,192,38008,1,0,0:0:0:0:
192,192,38008,1,0,0:0:0:0:
64,192,38008,1,0,0:0:0:0:
192,192,38090,1,0,0:0:0:0:
64,192,38090,1,0,0:0:0:0:
448,192,38172,1,0,0:0:0:0:
320,192,38172,1,0,0:0:0:0:
192,192,38172,1,0,0:0:0:0:
64,192,38172,1,0,0:0:0:0:
448,192,38254,1,0,0:0:0:0:
320,192,38254,1,0,0:0:0:0:
64,192,38254,1,0,0:0:0:0:
320,192,38337,1,0,0:0:0:0:
448,192,38337,1,0,0:0:0:0:
192,192,38337,1,0,0:0:0:0:
448,192,38419,1,0,0:0:0:0:
320,192,38419,1,0,0:0:0:0:
64,192,38501,1,0,0:0:0:0:
192,192,38501,1,0,0:0:0:0:
320,192,38501,1,0,0:0:0:0:
448,192,38501,1,0,0:0:0:0:
192,192,38583,1,0,0:0:0:0:
64,192,38583,1,0,0:0:0:0:
448,192,38665,1,0,0:0:0:0:
64,192,38665,1,0,0:0:0:0:
320,192,38665,1,0,0:0:0:0:
320,192,38747,1,0,0:0:0:0:
448,192,38747,1,0,0:0:0:0:
64,192,38829,1,0,0:0:0:0:
192,192,38829,1,0,0:0:0:0:
448,192,38829,1,0,0:0:0:0:
320,192,38829,1,0,0:0:0:0:
192,192,38911,1,0,0:0:0:0:
64,192,38911,1,0,0:0:0:0:
448,192,38911,1,0,0:0:0:0:
192,192,38993,1,0,0:0:0:0:
64,192,38993,1,0,0:0:0:0:
320,192,38993,1,0,0:0:0:0:
192,192,39075,1,0,0:0:0:0:
64,192,39075,1,0,0:0:0:0:
448,192,39157,1,0,0:0:0:0:
320,192,39157,1,0,0:0:0:0:
192,192,39157,1,0,0:0:0:0:
64,192,39157,1,0,0:0:0:0:
320,192,39239,1,0,0:0:0:0:
64,192,39321,1,0,0:0:0:0:
192,192,39321,1,0,0:0:0:0:
448,192,39321,1,0,0:0:0:0:
192,192,39403,1,0,0:0:0:0:
64,192,39486,1,0,0:0:0:0:
192,192,39486,1,0,0:0:0:0:
448,192,39486,1,0,0:0:0:0:
320,192,39486,1,0,0:0:0:0:
448,192,39568,1,0,0:0:0:0:
320,192,39568,1,0,0:0:0:0:
448,192,39650,1,0,0:0:0:0:
192,192,39650,1,0,0:0:0:0:
64,192,39650,1,0,0:0:0:0:
192,192,39732,1,0,0:0:0:0:
64,192,39732,1,0,0:0:0:0:
448,192,39814,1,0,0:0:0:0:
320,192,39814,1,0,0:0:0:0:
192,192,39814,1,0,0:0:0:0:
64,192,39814,1,0,0:0:0:0:
320,192,39897,1,0,0:0:0:0:
448,192,39897,1,0,0:0:0:0:
192,192,39979,1,0,0:0:0:0:
64,192,39979,1,0,0:0:0:0:
320,192,39979,1,0,0:0:0:0:
192,192,40061,1,0,0:0:0:0:
64,192,40061,1,0,0:0:0:0:
64,192,40143,1,0,0:0:0:0:
192,192,40143,1,0,0:0:0:0:
448,192,40143,1,0,0:0:0:0:
320,192,40143,1,0,0:0:0:0:
448,192,40225,1,0,0:0:0:0:
320,192,40225,1,0,0:0:0:0:
64,192,40225,1,0,0:0:0:0:
320,192,40307,1,0,0:0:0:0:
448,192,40307,1,0,0:0:0:0:
192,192,40307,1,0,0:0:0:0:
448,192,40389,1,0,0:0:0:0:
320,192,40389,1,0,0:0:0:0:
320,192,40471,1,0,0:0:0:0:
448,192,40471,1,0,0:0:0:0:
192,192,40471,1,0,0:0:0:0:
64,192,40471,1,0,0:0:0:0:
64,192,40553,1,0,0:0:0:0:
192,192,40553,1,0,0:0:0:0:
64,192,40635,1,0,0:0:0:0:
320,192,40635,1,0,0:0:0:0:
448,192,40635,1,0,0:0:0:0:
448,192,40717,1,0,0:0:0:0:
320,192,40717,1,0,0:0:0:0:
448,192,40799,1,0,0:0:0:0:
320,192,40799,1,0,0:0:0:0:
192,192,40799,1,0,0:0:0:0:
64,192,40799,1,0,0:0:0:0:
192,192,40881,1,0,0:0:0:0:
64,192,40881,1,0,0:0:0:0:
192,192,40963,1,0,0:0:0:0:
320,192,40963,1,0,0:0:0:0:
448,192,40963,1,0,0:0:0:0:
448,192,41046,1,0,0:0:0:0:
320,192,41046,1,0,0:0:0:0:
448,192,41128,1,0,0:0:0:0:
320,192,41128,1,0,0:0:0:0:
192,192,41128,1,0,0:0:0:0:
64,192,41128,1,0,0:0:0:0:
192,192,41210,1,0,0:0:0:0:
64,192,41210,1,0,0:0:0:0:
64,192,41292,1,0,0:0:0:0:
320,192,41292,1,0,0:0:0:0:
448,192,41292,1,0,0:0:0:0:
448,192,41374,1,0,0:0:0:0:
320,192,41374,1,0,0:0:0:0:
448,192,41456,1,0,0:0:0:0:
320,192,41456,1,0,0:0:0:0:
64,192,41456,1,0,0:0:0:0:
192,192,41456,1,0,0:0:0:0:
64,192,41539,1,0,0:0:0:0:
192,192,41539,1,0,0:0:0:0:
192,192,41621,1,0,0:0:0:0:
64,192,41621,1,0,0:0:0:0:
320,192,41621,1,0,0:0:0:0:
192,192,41703,1,0,0:0:0:0:
64,192,41703,1,0,0:0:0:0:
320,192,41703,1,0,0:0:0:0:
192,192,41785,1,0,0:0:0:0:
64,192,41785,1,0,0:0:0:0:
448,192,41785,1,0,0:0:0:0:
320,192,41785,1,0,0:0:0:0:
192,192,41867,1,0,0:0:0:0:
64,192,41867,1,0,0:0:0:0:
64,192,41949,1,0,0:0:0:0:
320,192,41949,1,0,0:0:0:0:
448,192,41949,1,0,0:0:0:0:
448,192,42031,1,0,0:0:0:0:
320,192,42031,1,0,0:0:0:0:
64,192,42113,1,0,0:0:0:0:
192,192,42113,1,0,0:0:0:0:
320,192,42113,1,0,0:0:0:0:
448,192,42113,1,0,0:0:0:0:
192,192,42195,1,0,0:0:0:0:
64,192,42195,1,0,0:0:0:0:
320,192,42195,1,0,0:0:0:0:
64,192,42277,1,0,0:0:0:0:
192,192,42277,1,0,0:0:0:0:
320,192,42277,1,0,0:0:0:0:
192,192,42359,1,0,0:0:0:0:
64,192,42359,1,0,0:0:0:0:
64,192,42441,1,0,0:0:0:0:
192,192,42441,1,0,0:0:0:0:
320,192,42441,1,0,0:0:0:0:
448,192,42441,1,0,0:0:0:0:
320,192,42523,1,0,0:0:0:0:
448,192,42523,1,0,0:0:0:0:
192,192,42523,1,0,0:0:0:0:
448,192,42606,1,0,0:0:0:0:
320,192,42606,1,0,0:0:0:0:
192,192,42606,1,0,0:0:0:0:
320,192,42688,1,0,0:0:0:0:
448,192,42688,1,0,0:0:0:0:
448,192,42770,1,0,0:0:0:0:
320,192,42770,1,0,0:0:0:0:
192,192,42770,1,0,0:0:0:0:
64,192,42770,1,0,0:0:0:0:
64,192,42852,1,0,0:0:0:0:
192,192,42852,1,0,0:0:0:0:
64,192,42934,1,0,0:0:0:0:
320,192,42934,1,0,0:0:0:0:
448,192,42934,1,0,0:0:0:0:
448,192,43016,1,0,0:0:0:0:
320,192,43016,1,0,0:0:0:0:
448,192,43098,1,0,0:0:0:0:
320,192,43098,1,0,0:0:0:0:
192,192,43098,1,0,0:0:0:0:
64,192,43098,1,0,0:0:0:0:
64,192,43180,1,0,0:0:0:0:
192,192,43180,1,0,0:0:0:0:
192,192,43263,1,0,0:0:0:0:
320,192,43263,1,0,0:0:0:0:
448,192,43263,1,0,0:0:0:0:
448,192,43345,1,0,0:0:0:0:
320,192,43345,1,0,0:0:0:0:
448,192,43427,1,0,0:0:0:0:
320,192,43427,1,0,0:0:0:0:
192,192,43427,1,0,0:0:0:0:
64,192,43427,1,0,0:0:0:0:
64,192,43509,1,0,0:0:0:0:
192,192,43509,1,0,0:0:0:0:
64,192,43591,1,0,0:0:0:0:
320,192,43591,1,0,0:0:0:0:
448,192,43591,1,0,0:0:0:0:
192,192,43591,1,0,0:0:0:0:
320,192,43673,1,0,0:0:0:0:
448,192,43673,1,0,0:0:0:0:
64,192,43755,1,0,0:0:0:0:
192,192,43755,1,0,0:0:0:0:
320,192,43755,1,0,0:0:0:0:
448,192,43755,1,0,0:0:0:0:
192,192,43837,1,0,0:0:0:0:
64,192,43837,1,0,0:0:0:0:
64,192,43919,1,0,0:0:0:0:
192,192,43919,1,0,0:0:0:0:
320,192,43919,1,0,0:0:0:0:
448,192,43919,1,0,0:0:0:0:
320,192,44001,1,0,0:0:0:0:
448,192,44001,1,0,0:0:0:0:
64,192,44083,1,0,0:0:0:0:
192,192,44083,1,0,0:0:0:0:
320,192,44083,1,0,0:0:0:0:
448,192,44083,1,0,0:0:0:0:
192,192,44166,1,0,0:0:0:0:
64,192,44166,1,0,0:0:0:0:
320,192,44166,1,0,0:0:0:0:
64,192,44248,1,0,0:0:0:0:
192,192,44248,1,0,0:0:0:0:
320,192,44248,1,0,0:0:0:0:
192,192,44330,1,0,0:0:0:0:
64,192,44330,1,0,0:0:0:0:
448,192,44412,1,0,0:0:0:0:
192,192,44412,1,0,0:0:0:0:
320,192,44412,1,0,0:0:0:0:
64,192,44412,1,0,0:0:0:0:
320,192,44494,1,0,0:0:0:0:
448,192,44494,1,0,0:0:0:0:
448,192,44576,1,0,0:0:0:0:
192,192,44576,1,0,0:0:0:0:
64,192,44576,1,0,0:0:0:0:
64,192,44658,1,0,0:0:0:0:
192,192,44658,1,0,0:0:0:0:
64,192,44740,1,0,0:0:0:0:
192,192,44740,1,0,0:0:0:0:
320,192,44740,1,0,0:0:0:0:
448,192,44740,1,0,0:0:0:0:
320,192,44822,1,0,0:0:0:0:
448,192,44822,1,0,0:0:0:0:
320,192,44904,1,0,0:0:0:0:
192,192,44904,1,0,0:0:0:0:
64,192,44904,1,0,0:0:0:0:
192,192,44987,1,0,0:0:0:0:
64,192,44987,1,0,0:0:0:0:
64,192,45069,1,0,0:0:0:0:
192,192,45069,1,0,0:0:0:0:
320,192,45069,1,0,0:0:0:0:
448,192,45069,1,0,0:0:0:0:
320,192,45151,1,0,0:0:0:0:
448,192,45151,1,0,0:0:0:0:
448,192,45233,1,0,0:0:0:0:
192,192,45233,1,0,0:0:0:0:
64,192,45233,1,0,0:0:0:0:
192,192,45315,1,0,0:0:0:0:
64,192,45315,1,0,0:0:0:0:
64,192,45397,1,0,0:0:0:0:
192,192,45397,1,0,0:0:0:0:
320,192,45397,1,0,0:0:0:0:
448,192,45397,1,0,0:0:0:0:
320,192,45479,1,0,0:0:0:0:
448,192,45479,1,0,0:0:0:0:
192,192,45479,1,0,0:0:0:0:
448,192,45561,1,0,0:0:0:0:
320,192,45561,1,0,0:0:0:0:
192,192,45561,1,0,0:0:0:0:
320,192,45643,1,0,0:0:0:0:
448,192,45643,1,0,0:0:0:0:
448,192,45726,1,0,0:0:0:0:
320,192,45726,1,0,0:0:0:0:
64,192,45726,1,0,0:0:0:0:
192,192,45726,1,0,0:0:0:0:
64,192,45890,1,0,0:0:0:0:
192,192,46054,1,0,0:0:0:0:
320,192,46054,1,0,0:0:0:0:
448,192,46054,1,0,0:0:0:0:
64,192,46218,1,0,0:0:0:0:
448,192,46382,1,0,0:0:0:0:
320,192,46546,1,0,0:0:0:0:
192,192,46711,1,0,0:0:0:0:
448,192,46875,1,0,0:0:0:0:
448,192,47039,1,0,0:0:0:0:
320,192,47039,1,0,0:0:0:0:
448,192,47203,1,0,0:0:0:0:
320,192,47203,1,0,0:0:0:0:
192,192,47203,1,0,0:0:0:0:
64,192,47368,1,0,0:0:0:0:
192,192,47368,1,0,0:0:0:0:
320,192,47368,1,0,0:0:0:0:
448,192,47368,1,0,0:0:0:0:
192,192,47450,1,0,0:0:0:0:
64,192,47450,1,0,0:0:0:0:
320,192,47450,1,0,0:0:0:0:
64,192,47532,1,0,0:0:0:0:
192,192,47532,1,0,0:0:0:0:
320,192,47532,1,0,0:0:0:0:
192,192,47614,1,0,0:0:0:0:
64,192,47614,1,0,0:0:0:0:
64,192,47696,1,0,0:0:0:0:
320,192,47696,1,0,0:0:0:0:
192,192,47696,1,0,0:0:0:0:
448,192,47696,1,0,0:0:0:0:
448,192,47778,1,0,0:0:0:0:
320,192,47778,1,0,0:0:0:0:
192,192,47778,1,0,0:0:0:0:
320,192,47860,1,0,0:0:0:0:
448,192,47860,1,0,0:0:0:0:
192,192,47860,1,0,0:0:0:0:
448,192,47942,1,0,0:0:0:0:
320,192,47942,1,0,0:0:0:0:
320,192,48024,1,0,0:0:0:0:
448,192,48024,1,0,0:0:0:0:
192,192,48024,1,0,0:0:0:0:
64,192,48024,1,0,0:0:0:0:
64,192,48106,1,0,0:0:0:0:
192,192,48106,1,0,0:0:0:0:
64,192,48188,1,0,0:0:0:0:
320,192,48188,1,0,0:0:0:0:
448,192,48188,1,0,0:0:0:0:
448,192,48270,1,0,0:0:0:0:
320,192,48270,1,0,0:0:0:0:
320,192,48352,1,0,0:0:0:0:
448,192,48352,1,0,0:0:0:0:
192,192,48352,1,0,0:0:0:0:
64,192,48352,1,0,0:0:0:0:
192,192,48435,1,0,0:0:0:0:
64,192,48435,1,0,0:0:0:0:
192,192,48517,1,0,0:0:0:0:
320,192,48517,1,0,0:0:0:0:
448,192,48517,1,0,0:0:0:0:
448,192,48599,1,0,0:0:0:0:
320,192,48599,1,0,0:0:0:0:
320,192,48681,1,0,0:0:0:0:
448,192,48681,1,0,0:0:0:0:
192,192,48681,1,0,0:0:0:0:
64,192,48681,1,0,0:0:0:0:
64,192,48763,1,0,0:0:0:0:
192,192,48763,1,0,0:0:0:0:
320,192,48763,1,0,0:0:0:0:
64,192,48846,1,0,0:0:0:0:
192,192,48846,1,0,0:0:0:0:
320,192,48846,1,0,0:0:0:0:
192,192,48928,1,0,0:0:0:0:
64,192,48928,1,0,0:0:0:0:
64,192,49010,1,0,0:0:0:0:
192,192,49010,1,0,0:0:0:0:
320,192,49010,1,0,0:0:0:0:
448,192,49010,1,0,0:0:0:0:
448,192,49092,1,0,0:0:0:0:
320,192,49092,1,0,0:0:0:0:
448,192,49174,1,0,0:0:0:0:
192,192,49174,1,0,0:0:0:0:
64,192,49174,1,0,0:0:0:0:
64,192,49256,1,0,0:0:0:0:
192,192,49256,1,0,0:0:0:0:
64,192,49338,1,0,0:0:0:0:
192,192,49338,1,0,0:0:0:0:
320,192,49338,1,0,0:0:0:0:
448,192,49338,1,0,0:0:0:0:
448,192,49420,1,0,0:0:0:0:
320,192,49420,1,0,0:0:0:0:
192,192,49420,1,0,0:0:0:0:
320,192,49502,1,0,0:0:0:0:
448,192,49502,1,0,0:0:0:0:
192,192,49502,1,0,0:0:0:0:
448,192,49584,1,0,0:0:0:0:
320,192,49584,1,0,0:0:0:0:
320,192,49666,1,0,0:0:0:0:
448,192,49666,1,0,0:0:0:0:
192,192,49666,1,0,0:0:0:0:
64,192,49666,1,0,0:0:0:0:
64,192,49748,1,0,0:0:0:0:
192,192,49830,1,0,0:0:0:0:
320,192,49830,1,0,0:0:0:0:
448,192,49830,1,0,0:0:0:0:
320,192,49912,1,0,0:0:0:0:
448,192,49994,1,0,0:0:0:0:
320,192,49994,1,0,0:0:0:0:
192,192,49994,1,0,0:0:0:0:
64,192,49994,1,0,0:0:0:0:
192,192,50077,1,0,0:0:0:0:
64,192,50077,1,0,0:0:0:0:
64,192,50159,1,0,0:0:0:0:
320,192,50159,1,0,0:0:0:0:
448,192,50159,1,0,0:0:0:0:
448,192,50241,1,0,0:0:0:0:
320,192,50241,1,0,0:0:0:0:
448,192,50323,1,0,0:0:0:0:
320,192,50323,1,0,0:0:0:0:
192,192,50323,1,0,0:0:0:0:
64,192,50323,1,0,0:0:0:0:
192,192,50406,1,0,0:0:0:0:
64,192,50406,1,0,0:0:0:0:
192,192,50488,1,0,0:0:0:0:
448,192,50488,1,0,0:0:0:0:
320,192,50488,1,0,0:0:0:0:
320,192,50570,1,0,0:0:0:0:
448,192,50570,1,0,0:0:0:0:
448,192,50652,1,0,0:0:0:0:
320,192,50652,1,0,0:0:0:0:
192,192,50652,1,0,0:0:0:0:
64,192,50652,1,0,0:0:0:0:
192,192,50734,1,0,0:0:0:0:
64,192,50734,1,0,0:0:0:0:
448,192,50734,1,0,0:0:0:0:
64,192,50816,1,0,0:0:0:0:
192,192,50816,1,0,0:0:0:0:
320,192,50816,1,0,0:0:0:0:
192,192,50898,1,0,0:0:0:0:
64,192,50898,1,0,0:0:0:0:
64,192,50980,1,0,0:0:0:0:
192,192,50980,1,0,0:0:0:0:
320,192,50980,1,0,0:0:0:0:
448,192,50980,1,0,0:0:0:0:
320,192,51062,1,0,0:0:0:0:
192,192,51144,1,0,0:0:0:0:
64,192,51144,1,0,0:0:0:0:
448,192,51144,1,0,0:0:0:0:
192,192,51226,1,0,0:0:0:0:
64,192,51308,1,0,0:0:0:0:
320,192,51308,1,0,0:0:0:0:
192,192,51308,1,0,0:0:0:0:
448,192,51308,1,0,0:0:0:0:
448,192,51390,1,0,0:0:0:0:
320,192,51390,1,0,0:0:0:0:
448,192,51472,1,0,0:0:0:0:
192,192,51472,1,0,0:0:0:0:
64,192,51472,1,0,0:0:0:0:
64,192,51554,1,0,0:0:0:0:
192,192,51554,1,0,0:0:0:0:
64,192,51637,1,0,0:0:0:0:
192,192,51637,1,0,0:0:0:0:
320,192,51637,1,0,0:0:0:0:
448,192,51637,1,0,0:0:0:0:
448,192,51719,1,0,0:0:0:0:
320,192,51719,1,0,0:0:0:0:
320,192,51801,1,0,0:0:0:0:
192,192,51801,1,0,0:0:0:0:
64,192,51801,1,0,0:0:0:0:
64,192,51883,1,0,0:0:0:0:
192,192,51883,1,0,0:0:0:0:
64,192,51966,1,0,0:0:0:0:
192,192,51966,1,0,0:0:0:0:
448,192,51966,1,0,0:0:0:0:
320,192,51966,1,0,0:0:0:0:
448,192,52048,1,0,0:0:0:0:
320,192,52048,1,0,0:0:0:0:
320,192,52130,1,0,0:0:0:0:
448,192,52130,1,0,0:0:0:0:
192,192,52130,1,0,0:0:0:0:
448,192,52212,1,0,0:0:0:0:
320,192,52212,1,0,0:0:0:0:
192,192,52212,1,0,0:0:0:0:
320,192,52294,1,0,0:0:0:0:
448,192,52294,1,0,0:0:0:0:
192,192,52294,1,0,0:0:0:0:
64,192,52294,1,0,0:0:0:0:
320,192,52376,1,0,0:0:0:0:
448,192,52376,1,0,0:0:0:0:
448,192,52458,1,0,0:0:0:0:
192,192,52458,1,0,0:0:0:0:
64,192,52458,1,0,0:0:0:0:
192,192,52540,1,0,0:0:0:0:
64,192,52540,1,0,0:0:0:0:
448,192,52622,1,0,0:0:0:0:
320,192,52622,1,0,0:0:0:0:
192,192,52622,1,0,0:0:0:0:
64,192,52622,1,0,0:0:0:0:
320,192,52704,1,0,0:0:0:0:
448,192,52704,1,0,0:0:0:0:
64,192,52704,1,0,0:0:0:0:
448,192,52786,1,0,0:0:0:0:
320,192,52786,1,0,0:0:0:0:
192,192,52786,1,0,0:0:0:0:
320,192,52868,1,0,0:0:0:0:
448,192,52868,1,0,0:0:0:0:
448,192,52950,1,0,0:0:0:0:
320,192,52950,1,0,0:0:0:0:
192,192,52950,1,0,0:0:0:0:
64,192,52950,1,0,0:0:0:0:
64,192,53032,1,0,0:0:0:0:
192,192,53032,1,0,0:0:0:0:
448,192,53032,1,0,0:0:0:0:
192,192,53114,1,0,0:0:0:0:
64,192,53114,1,0,0:0:0:0:
320,192,53114,1,0,0:0:0:0:
64,192,53197,1,0,0:0:0:0:
192,192,53197,1,0,0:0:0:0:
64,192,53279,1,0,0:0:0:0:
192,192,53279,1,0,0:0:0:0:
320,192,53279,1,0,0:0:0:0:
448,192,53279,1,0,0:0:0:0:
448,192,53361,1,0,0:0:0:0:
320,192,53361,1,0,0:0:0:0:
448,192,53443,1,0,0:0:0:0:
192,192,53443,1,0,0:0:0:0:
64,192,53443,1,0,0:0:0:0:
192,192,53525,1,0,0:0:0:0:
64,192,53525,1,0,0:0:0:0:
64,192,53608,1,0,0:0:0:0:
320,192,53608,1,0,0:0:0:0:
192,192,53608,1,0,0:0:0:0:
448,192,53608,1,0,0:0:0:0:
448,192,53690,1,0,0:0:0:0:
320,192,53690,1,0,0:0:0:0:
320,192,53772,1,0,0:0:0:0:
192,192,53772,1,0,0:0:0:0:
64,192,53772,1,0,0:0:0:0:
64,192,53854,1,0,0:0:0:0:
192,192,53854,1,0,0:0:0:0:
64,192,53936,1,0,0:0:0:0:
192,192,53936,1,0,0:0:0:0:
320,192,53936,1,0,0:0:0:0:
448,192,53936,1,0,0:0:0:0:
448,192,54018,1,0,0:0:0:0:
320,192,54018,1,0,0:0:0:0:
320,192,54100,1,0,0:0:0:0:
448,192,54100,1,0,0:0:0:0:
192,192,54100,1,0,0:0:0:0:
64,192,54100,1,0,0:0:0:0:
64,192,54182,1,0,0:0:0:0:
192,192,54182,1,0,0:0:0:0:
64,192,54264,1,0,0:0:0:0:
192,192,54264,1,0,0:0:0:0:
320,192,54264,1,0,0:0:0:0:
448,192,54264,1,0,0:0:0:0:
448,192,54346,1,0,0:0:0:0:
320,192,54346,1,0,0:0:0:0:
320,192,54428,1,0,0:0:0:0:
448,192,54428,1,0,0:0:0:0:
192,192,54428,1,0,0:0:0:0:
64,192,54428,1,0,0:0:0:0:
64,192,54510,1,0,0:0:0:0:
192,192,54510,1,0,0:0:0:0:
64,192,54592,1,0,0:0:0:0:
192,192,54592,1,0,0:0:0:0:
448,192,54592,1,0,0:0:0:0:
320,192,54592,1,0,0:0:0:0:
448,192,54674,1,0,0:0:0:0:
320,192,54674,1,0,0:0:0:0:
64,192,54674,1,0,0:0:0:0:
320,192,54757,1,0,0:0:0:0:
448,192,54757,1,0,0:0:0:0:
192,192,54757,1,0,0:0:0:0:
448,192,54839,1,0,0:0:0:0:
320,192,54839,1,0,0:0:0:0:
320,192,54921,1,0,0:0:0:0:
448,192,54921,1,0,0:0:0:0:
192,192,54921,1,0,0:0:0:0:
64,192,54921,1,0,0:0:0:0:
192,192,55003,1,0,0:0:0:0:
64,192,55003,1,0,0:0:0:0:
64,192,55085,1,0,0:0:0:0:
320,192,55085,1,0,0:0:0:0:
448,192,55085,1,0,0:0:0:0:
448,192,55167,1,0,0:0:0:0:
320,192,55167,1,0,0:0:0:0:
448,192,55249,1,0,0:0:0:0:
320,192,55249,1,0,0:0:0:0:
192,192,55249,1,0,0:0:0:0:
64,192,55249,1,0,0:0:0:0:
192,192,55332,1,0,0:0:0:0:
64,192,55332,1,0,0:0:0:0:
192,192,55414,1,0,0:0:0:0:
320,192,55414,1,0,0:0:0:0:
448,192,55414,1,0,0:0:0:0:
448,192,55496,1,0,0:0:0:0:
320,192,55496,1,0,0:0:0:0:
64,192,55578,1,0,0:0:0:0:
192,192,55578,1,0,0:0:0:0:
320,192,55578,1,0,0:0:0:0:
448,192,55578,1,0,0:0:0:0:
192,192,55660,1,0,0:0:0:0:
64,192,55660,1,0,0:0:0:0:
64,192,55742,1,0,0:0:0:0:
320,192,55742,1,0,0:0:0:0:
448,192,55742,1,0,0:0:0:0:
448,192,55824,1,0,0:0:0:0:
320,192,55824,1,0,0:0:0:0:
448,192,55906,1,0,0:0:0:0:
320,192,55906,1,0,0:0:0:0:
192,192,55906,1,0,0:0:0:0:
64,192,55906,1,0,0:0:0:0:
192,192,55988,1,0,0:0:0:0:
64,192,55988,1,0,0:0:0:0:
448,192,55988,1,0,0:0:0:0:
64,192,56070,1,0,0:0:0:0:
192,192,56070,1,0,0:0:0:0:
320,192,56070,1,0,0:0:0:0:
192,192,56152,1,0,0:0:0:0:
64,192,56152,1,0,0:0:0:0:
64,192,56234,1,0,0:0:0:0:
192,192,56234,1,0,0:0:0:0:
320,192,56234,1,0,0:0:0:0:
448,192,56234,1,0,0:0:0:0:
448,192,56399,1,0,0:0:0:0:
320,192,56563,1,0,0:0:0:0:
192,192,56563,1,0,0:0:0:0:
64,192,56563,1,0,0:0:0:0:
448,192,56727,1,0,0:0:0:0:
64,192,56891,1,0,0:0:0:0:
192,192,57056,1,0,0:0:0:0:
320,192,57220,1,0,0:0:0:0:
64,192,57384,1,0,0:0:0:0:
64,192,57548,1,0,0:0:0:0:
192,192,57548,1,0,0:0:0:0:
64,192,57712,1,0,0:0:0:0:
192,192,57712,1,0,0:0:0:0:
320,192,57712,1,0,0:0:0:0:
64,192,57877,1,0,0:0:0:0:
448,192,57877,1,0,0:0:0:0:
192,192,57877,1,0,0:0:0:0:
320,192,57877,1,0,0:0:0:0:
320,192,58041,1,0,0:0:0:0:
192,192,58205,1,0,0:0:0:0:
64,192,58369,1,0,0:0:0:0:
320,192,58533,1,0,0:0:0:0:
448,192,58533,1,0,0:0:0:0:
192,192,58697,1,0,0:0:0:0:
320,192,58862,1,0,0:0:0:0:
448,192,59026,1,0,0:0:0:0:
64,192,59190,1,0,0:0:0:0:
192,192,59190,1,0,0:0:0:0:
320,192,59354,1,0,0:0:0:0:
192,192,59519,1,0,0:0:0:0:
64,192,59683,1,0,0:0:0:0:
448,192,59847,1,0,0:0:0:0:
320,192,59847,1,0,0:0:0:0:
192,192,60011,1,0,0:0:0:0:
448,192,60175,1,0,0:0:0:0:
64,192,60339,1,0,0:0:0:0:
320,192,60504,1,0,0:0:0:0:
192,192,60504,1,0,0:0:0:0:
448,192,60668,1,0,0:0:0:0:
64,192,60832,1,0,0:0:0:0:
192,192,60997,1,0,0:0:0:0:
320,192,61161,1,0,0:0:0:0:
448,192,61161,1,0,0:0:0:0:
192,192,61325,1,0,0:0:0:0:
64,192,61489,1,0,0:0:0:0:
320,192,61653,1,0,0:0:0:0:
448,192,61817,1,0,0:0:0:0:
64,192,61817,1,0,0:0:0:0:
320,192,61981,1,0,0:0:0:0:
192,192,62146,1,0,0:0:0:0:
64,192,62310,1,0,0:0:0:0:
448,192,62474,1,0,0:0:0:0:
320,192,62474,1,0,0:0:0:0:
64,192,62639,1,0,0:0:0:0:
64,192,62803,1,0,0:0:0:0:
192,192,62803,1,0,0:0:0:0:
64,192,62967,1,0,0:0:0:0:
192,192,62967,1,0,0:0:0:0:
320,192,62967,1,0,0:0:0:0:
448,192,63131,1,0,0:0:0:0:
320,192,63131,1,0,0:0:0:0:
192,192,63131,1,0,0:0:0:0:
64,192,63131,1,0,0:0:0:0:
192,192,63295,1,0,0:0:0:0:
448,192,63459,1,0,0:0:0:0:
320,192,63459,1,0,0:0:0:0:
64,192,63459,1,0,0:0:0:0:
192,192,63623,1,0,0:0:0:0:
64,192,63788,1,0,0:0:0:0:
448,192,63788,1,0,0:0:0:0:
320,192,63952,1,0,0:0:0:0:
192,192,64117,1,0,0:0:0:0:
64,192,64117,1,0,0:0:0:0:
448,192,64117,1,0,0:0:0:0:
320,192,64281,1,0,0:0:0:0:
448,192,64445,1,0,0:0:0:0:
64,192,64445,1,0,0:0:0:0:
192,192,64609,1,0,0:0:0:0:
64,192,64773,1,0,0:0:0:0:
320,192,64773,1,0,0:0:0:0:
448,192,64773,1,0,0:0:0:0:
192,192,64937,1,0,0:0:0:0:
320,192,65101,1,0,0:0:0:0:
64,192,65101,1,0,0:0:0:0:
448,192,65266,1,0,0:0:0:0:
320,192,65430,1,0,0:0:0:0:
192,192,65430,1,0,0:0:0:0:
64,192,65430,1,0,0:0:0:0:
448,192,65594,1,0,0:0:0:0:
192,192,65759,1,0,0:0:0:0:
64,192,65759,1,0,0:0:0:0:
320,192,65923,1,0,0:0:0:0:
448,192,66087,1,0,0:0:0:0:
192,192,66087,1,0,0:0:0:0:
64,192,66087,1,0,0:0:0:0:
320,192,66251,1,0,0:0:0:0:
64,192,66415,1,0,0:0:0:0:
448,192,66415,1,0,0:0:0:0:
192,192,66579,1,0,0:0:0:0:
320,192,66743,1,0,0:0:0:0:
448,192,66743,1,0,0:0:0:0:
64,192,66743,1,0,0:0:0:0:
192,192,66908,1,0,0:0:0:0:
320,192,67072,1,0,0:0:0:0:
448,192,67072,1,0,0:0:0:0:
64,192,67236,1,0,0:0:0:0:
192,192,67401,1,0,0:0:0:0:
320,192,67401,1,0,0:0:0:0:
448,192,67401,1,0,0:0:0:0:
64,192,67565,1,0,0:0:0:0:
448,192,67729,1,0,0:0:0:0:
320,192,67729,1,0,0:0:0:0:
192,192,67893,1,0,0:0:0:0:
64,192,68057,1,0,0:0:0:0:
320,192,68057,1,0,0:0:0:0:
448,192,68057,1,0,0:0:0:0:
192,192,68221,1,0,0:0:0:0:
64,192,68386,1,0,0:0:0:0:
448,192,68386,1,0,0:0:0:0:
320,192,68550,1,0,0:0:0:0:
448,192,68714,1,0,0:0:0:0:
192,192,68714,1,0,0:0:0:0:
64,192,68714,1,0,0:0:0:0:
320,192,68878,1,0,0:0:0:0:
448,192,69042,1,0,0:0:0:0:
64,192,69042,1,0,0:0:0:0:
192,192,69207,1,0,0:0:0:0:
64,192,69371,1,0,0:0:0:0:
448,192,69371,1,0,0:0:0:0:
320,192,69371,1,0,0:0:0:0:
192,192,69535,1,0,0:0:0:0:
64,192,69699,1,0,0:0:0:0:
192,192,69699,1,0,0:0:0:0:
448,192,69863,1,0,0:0:0:0:
320,192,70028,1,0,0:0:0:0:
192,192,70028,1,0,0:0:0:0:
64,192,70028,1,0,0:0:0:0:
448,192,70192,1,0,0:0:0:0:
320,192,70356,1,0,0:0:0:0:
192,192,70356,1,0,0:0:0:0:
64,192,70520,1,0,0:0:0:0:
448,192,70684,1,0,0:0:0:0:
320,192,70684,1,0,0:0:0:0:
192,192,70684,1,0,0:0:0:0:
64,192,70849,1,0,0:0:0:0:
192,192,71013,1,0,0:0:0:0:
448,192,71013,128,0,71341:0:0:0:0:
320,192,71177,1,0,0:0:0:0:
320,192,71341,1,0,0:0:0:0:
192,192,71341,1,0,0:0:0:0:
64,192,71341,1,0,0:0:0:0:
192,192,71506,1,0,0:0:0:0:
64,192,71670,128,0,71998:0:0:0:0:
448,192,71670,1,0,0:0:0:0:
320,192,71834,1,0,0:0:0:0:
320,192,71998,1,0,0:0:0:0:
448,192,71998,1,0,0:0:0:0:
192,192,71998,1,0,0:0:0:0:
192,192,72162,1,0,0:0:0:0:
448,192,72326,128,0,73312:0:0:0:0:
64,192,72326,1,0,0:0:0:0:
64,192,73312,128,0,73476:0:0:0:0:
192,192,73476,128,0,73640:0:0:0:0:
64,192,73640,1,0,0:0:0:0:
320,192,73640,1,0,0:0:0:0:
448,192,73640,1,0,0:0:0:0:
448,192,73804,1,0,0:0:0:0:
320,192,73968,1,0,0:0:0:0:
192,192,73968,1,0,0:0:0:0:
64,192,73968,1,0,0:0:0:0:
448,192,73968,1,0,0:0:0:0:
192,192,74132,1,0,0:0:0:0:
64,192,74297,1,0,0:0:0:0:
320,192,74297,1,0,0:0:0:0:
448,192,74297,1,0,0:0:0:0:
192,192,74461,1,0,0:0:0:0:
448,192,74461,1,0,0:0:0:0:
448,192,74626,1,0,0:0:0:0:
320,192,74626,1,0,0:0:0:0:
192,192,74626,1,0,0:0:0:0:
64,192,74626,1,0,0:0:0:0:
64,192,74790,1,0,0:0:0:0:
320,192,74790,1,0,0:0:0:0:
320,192,74954,1,0,0:0:0:0:
448,192,74954,1,0,0:0:0:0:
192,192,74954,1,0,0:0:0:0:
192,192,75118,1,0,0:0:0:0:
64,192,75118,1,0,0:0:0:0:
448,192,75282,1,0,0:0:0:0:
320,192,75282,1,0,0:0:0:0:
192,192,75282,1,0,0:0:0:0:
64,192,75282,1,0,0:0:0:0:
320,192,75446,1,0,0:0:0:0:
448,192,75446,1,0,0:0:0:0:
64,192,75610,1,0,0:0:0:0:
448,192,75610,1,0,0:0:0:0:
192,192,75610,1,0,0:0:0:0:
320,192,75774,1,0,0:0:0:0:
448,192,75939,1,0,0:0:0:0:
320,192,75939,1,0,0:0:0:0:
64,192,75939,1,0,0:0:0:0:
192,192,75939,1,0,0:0:0:0:
64,192,76103,1,0,0:0:0:0:
192,192,76103,1,0,0:0:0:0:
448,192,76268,1,0,0:0:0:0:
192,192,76268,1,0,0:0:0:0:
320,192,76268,1,0,0:0:0:0:
320,192,76432,1,0,0:0:0:0:
448,192,76432,1,0,0:0:0:0:
320,192,76596,1,0,0:0:0:0:
192,192,76596,1,0,0:0:0:0:
64,192,76596,1,0,0:0:0:0:
448,192,76596,1,0,0:0:0:0:
192,192,76760,1,0,0:0:0:0:
64,192,76760,1,0,0:0:0:0:
64,192,76924,1,0,0:0:0:0:
320,192,76924,1,0,0:0:0:0:
448,192,76924,1,0,0:0:0:0:
192,192,77088,1,0,0:0:0:0:
320,192,77252,1,0,0:0:0:0:
64,192,77252,1,0,0:0:0:0:
192,192,77252,1,0,0:0:0:0:
448,192,77252,1,0,0:0:0:0:
64,192,77417,1,0,0:0:0:0:
320,192,77417,1,0,0:0:0:0:
64,192,77581,1,0,0:0:0:0:
320,192,77581,1,0,0:0:0:0:
448,192,77581,1,0,0:0:0:0:
192,192,77581,1,0,0:0:0:0:
448,192,77746,1,0,0:0:0:0:
320,192,77746,1,0,0:0:0:0:
448,192,77910,1,0,0:0:0:0:
320,192,77910,1,0,0:0:0:0:
192,192,77910,1,0,0:0:0:0:
64,192,77910,1,0,0:0:0:0:
64,192,78074,1,0,0:0:0:0:
192,192,78074,1,0,0:0:0:0:
64,192,78238,1,0,0:0:0:0:
320,192,78238,1,0,0:0:0:0:
448,192,78238,1,0,0:0:0:0:
192,192,78402,1,0,0:0:0:0:
192,192,78566,1,0,0:0:0:0:
64,192,78566,1,0,0:0:0:0:
448,192,78566,1,0,0:0:0:0:
320,192,78566,1,0,0:0:0:0:
448,192,78730,1,0,0:0:0:0:
320,192,78730,1,0,0:0:0:0:
64,192,78894,1,0,0:0:0:0:
192,192,78894,1,0,0:0:0:0:
320,192,78894,1,0,0:0:0:0:
448,192,78894,1,0,0:0:0:0:
192,192,79059,1,0,0:0:0:0:
448,192,79223,1,0,0:0:0:0:
320,192,79223,1,0,0:0:0:0:
192,192,79223,1,0,0:0:0:0:
64,192,79223,1,0,0:0:0:0:
64,192,79387,1,0,0:0:0:0:
320,192,79387,1,0,0:0:0:0:
192,192,79552,1,0,0:0:0:0:
64,192,79552,1,0,0:0:0:0:
320,192,79552,1,0,0:0:0:0:
448,192,79716,1,0,0:0:0:0:
192,192,79716,1,0,0:0:0:0:
448,192,79880,1,0,0:0:0:0:
320,192,79880,1,0,0:0:0:0:
192,192,79880,1,0,0:0:0:0:
64,192,79880,1,0,0:0:0:0:
320,192,80044,1,0,0:0:0:0:
448,192,80044,1,0,0:0:0:0:
320,192,80208,1,0,0:0:0:0:
64,192,80208,1,0,0:0:0:0:
192,192,80208,1,0,0:0:0:0:
192,192,80372,1,0,0:0:0:0:
64,192,80372,1,0,0:0:0:0:
448,192,80537,1,0,0:0:0:0:
320,192,80537,1,0,0:0:0:0:
192,192,80537,1,0,0:0:0:0:
64,192,80537,1,0,0:0:0:0:
320,192,80701,1,0,0:0:0:0:
448,192,80701,1,0,0:0:0:0:
448,192,80865,1,0,0:0:0:0:
192,192,80865,1,0,0:0:0:0:
64,192,80865,1,0,0:0:0:0:
192,192,81029,1,0,0:0:0:0:
64,192,81194,1,0,0:0:0:0:
192,192,81194,1,0,0:0:0:0:
448,192,81194,1,0,0:0:0:0:
320,192,81194,1,0,0:0:0:0:
320,192,81358,1,0,0:0:0:0:
448,192,81358,1,0,0:0:0:0:
448,192,81522,1,0,0:0:0:0:
64,192,81522,1,0,0:0:0:0:
192,192,81522,1,0,0:0:0:0:
320,192,81686,1,0,0:0:0:0:
64,192,81686,1,0,0:0:0:0:
64,192,81850,1,0,0:0:0:0:
320,192,81850,1,0,0:0:0:0:
192,192,81850,1,0,0:0:0:0:
448,192,81850,1,0,0:0:0:0:
448,192,82014,1,0,0:0:0:0:
192,192,82014,1,0,0:0:0:0:
320,192,82179,1,0,0:0:0:0:
64,192,82179,1,0,0:0:0:0:
192,192,82179,1,0,0:0:0:0:
320,192,82343,1,0,0:0:0:0:
64,192,82507,1,0,0:0:0:0:
192,192,82507,1,0,0:0:0:0:
448,192,82507,1,0,0:0:0:0:
320,192,82507,1,0,0:0:0:0:
64,192,82671,1,0,0:0:0:0:
192,192,82835,1,0,0:0:0:0:
448,192,82835,1,0,0:0:0:0:
320,192,83000,1,0,0:0:0:0:
192,192,83164,1,0,0:0:0:0:
64,192,83164,1,0,0:0:0:0:
448,192,83328,1,0,0:0:0:0:
320,192,83492,1,0,0:0:0:0:
192,192,83492,1,0,0:0:0:0:
64,192,83657,1,0,0:0:0:0:
64,192,83821,1,0,0:0:0:0:
192,192,83821,1,0,0:0:0:0:
64,192,83985,1,0,0:0:0:0:
192,192,83985,1,0,0:0:0:0:
320,192,83985,1,0,0:0:0:0:
64,192,84149,1,0,0:0:0:0:
320,192,84149,1,0,0:0:0:0:
192,192,84149,1,0,0:0:0:0:
448,192,84149,1,0,0:0:0:0:
320,192,84477,1,0,0:0:0:0:
192,192,84477,1,0,0:0:0:0:
448,192,84477,1,0,0:0:0:0:
320,192,84806,1,0,0:0:0:0:
448,192,84806,1,0,0:0:0:0:
64,192,84806,1,0,0:0:0:0:
192,192,84970,1,0,0:0:0:0:
64,192,85134,1,0,0:0:0:0:
192,192,85134,1,0,0:0:0:0:
448,192,85134,1,0,0:0:0:0:
320,192,85299,1,0,0:0:0:0:
448,192,85463,1,0,0:0:0:0:
192,192,85463,1,0,0:0:0:0:
320,192,85463,1,0,0:0:0:0:
320,192,85791,1,0,0:0:0:0:
192,192,85791,1,0,0:0:0:0:
64,192,85791,1,0,0:0:0:0:
64,192,85955,1,0,0:0:0:0:
192,192,86119,1,0,0:0:0:0:
320,192,86119,1,0,0:0:0:0:
448,192,86119,1,0,0:0:0:0:
192,192,86448,1,0,0:0:0:0:
64,192,86448,1,0,0:0:0:0:
448,192,86448,1,0,0:0:0:0:
320,192,86612,1,0,0:0:0:0:
192,192,86777,1,0,0:0:0:0:
64,192,86777,1,0,0:0:0:0:
448,192,86777,1,0,0:0:0:0:
320,192,86941,1,0,0:0:0:0:
448,192,86941,1,0,0:0:0:0:
64,192,86941,1,0,0:0:0:0:
192,192,87105,1,0,0:0:0:0:
320,192,87105,1,0,0:0:0:0:
448,192,87105,1,0,0:0:0:0:
320,192,87269,1,0,0:0:0:0:
192,192,87269,1,0,0:0:0:0:
64,192,87269,1,0,0:0:0:0:
64,192,87433,1,0,0:0:0:0:
192,192,87433,1,0,0:0:0:0:
64,192,87515,1,0,0:0:0:0:
192,192,87515,1,0,0:0:0:0:
320,192,87597,1,0,0:0:0:0:
448,192,87597,1,0,0:0:0:0:
448,192,87679,1,0,0:0:0:0:
320,192,87679,1,0,0:0:0:0:
192,192,87761,1,0,0:0:0:0:
64,192,87761,1,0,0:0:0:0:
64,192,87843,1,0,0:0:0:0:
192,192,87843,1,0,0:0:0:0:
320,192,87926,1,0,0:0:0:0:
448,192,87926,1,0,0:0:0:0:
448,192,88008,1,0,0:0:0:0:
320,192,88008,1,0,0:0:0:0:
192,192,88090,1,0,0:0:0:0:
64,192,88090,1,0,0:0:0:0:
448,192,88090,1,0,0:0:0:0:
320,192,88254,1,0,0:0:0:0:
64,192,88419,1,0,0:0:0:0:
448,192,88583,1,0,0:0:0:0:
192,192,88747,1,0,0:0:0:0:
320,192,89075,1,0,0:0:0:0:
448,192,89075,1,0,0:0:0:0:
192,192,89239,1,0,0:0:0:0:
64,192,89239,1,0,0:0:0:0:
64,192,89403,1,0,0:0:0:0:
192,192,89403,1,0,0:0:0:0:
448,192,89403,1,0,0:0:0:0:
320,192,89403,1,0,0:0:0:0:
64,192,89486,1,0,0:0:0:0:
192,192,89486,1,0,0:0:0:0:
448,192,89486,1,0,0:0:0:0:
192,192,89568,1,0,0:0:0:0:
64,192,89568,1,0,0:0:0:0:
320,192,89568,1,0,0:0:0:0:
64,192,89650,1,0,0:0:0:0:
192,192,89650,1,0,0:0:0:0:
192,192,89732,1,0,0:0:0:0:
64,192,89732,1,0,0:0:0:0:
320,192,89732,1,0,0:0:0:0:
448,192,89732,1,0,0:0:0:0:
448,192,89814,1,0,0:0:0:0:
320,192,89814,1,0,0:0:0:0:
64,192,89814,1,0,0:0:0:0:
320,192,89897,1,0,0:0:0:0:
448,192,89897,1,0,0:0:0:0:
192,192,89897,1,0,0:0:0:0:
448,192,89979,1,0,0:0:0:0:
320,192,89979,1,0,0:0:0:0:
448,192,90061,1,0,0:0:0:0:
320,192,90061,1,0,0:0:0:0:
192,192,90061,1,0,0:0:0:0:
64,192,90061,1,0,0:0:0:0:
64,192,90143,1,0,0:0:0:0:
192,192,90143,1,0,0:0:0:0:
64,192,90225,1,0,0:0:0:0:
320,192,90225,1,0,0:0:0:0:
448,192,90225,1,0,0:0:0:0:
448,192,90307,1,0,0:0:0:0:
320,192,90307,1,0,0:0:0:0:
448,192,90389,1,0,0:0:0:0:
320,192,90389,1,0,0:0:0:0:
192,192,90389,1,0,0:0:0:0:
64,192,90389,1,0,0:0:0:0:
192,192,90471,1,0,0:0:0:0:
64,192,90471,1,0,0:0:0:0:
192,192,90553,1,0,0:0:0:0:
320,192,90553,1,0,0:0:0:0:
448,192,90553,1,0,0:0:0:0:
320,192,90635,1,0,0:0:0:0:
448,192,90635,1,0,0:0:0:0:
64,192,90717,1,0,0:0:0:0:
192,192,90717,1,0,0:0:0:0:
320,192,90717,1,0,0:0:0:0:
448,192,90717,1,0,0:0:0:0:
64,192,90799,1,0,0:0:0:0:
192,192,90799,1,0,0:0:0:0:
448,192,90799,1,0,0:0:0:0:
192,192,90881,1,0,0:0:0:0:
64,192,90881,1,0,0:0:0:0:
320,192,90881,1,0,0:0:0:0:
64,192,90963,1,0,0:0:0:0:
192,192,90963,1,0,0:0:0:0:
448,192,91046,1,0,0:0:0:0:
320,192,91046,1,0,0:0:0:0:
192,192,91046,1,0,0:0:0:0:
64,192,91046,1,0,0:0:0:0:
320,192,91128,1,0,0:0:0:0:
448,192,91128,1,0,0:0:0:0:
64,192,91210,1,0,0:0:0:0:
448,192,91210,1,0,0:0:0:0:
192,192,91210,1,0,0:0:0:0:
192,192,91292,1,0,0:0:0:0:
64,192,91292,1,0,0:0:0:0:
448,192,91374,1,0,0:0:0:0:
320,192,91374,1,0,0:0:0:0:
64,192,91374,1,0,0:0:0:0:
192,192,91374,1,0,0:0:0:0:
320,192,91456,1,0,0:0:0:0:
448,192,91456,1,0,0:0:0:0:
64,192,91456,1,0,0:0:0:0:
320,192,91539,1,0,0:0:0:0:
448,192,91539,1,0,0:0:0:0:
192,192,91539,1,0,0:0:0:0:
320,192,91621,1,0,0:0:0:0:
448,192,91621,1,0,0:0:0:0:
64,192,91703,1,0,0:0:0:0:
192,192,91703,1,0,0:0:0:0:
320,192,91703,1,0,0:0:0:0:
448,192,91703,1,0,0:0:0:0:
192,192,91785,1,0,0:0:0:0:
448,192,91867,1,0,0:0:0:0:
320,192,91867,1,0,0:0:0:0:
64,192,91867,1,0,0:0:0:0:
320,192,91949,1,0,0:0:0:0:
448,192,92031,1,0,0:0:0:0:
320,192,92031,1,0,0:0:0:0:
64,192,92031,1,0,0:0:0:0:
192,192,92031,1,0,0:0:0:0:
64,192,92113,1,0,0:0:0:0:
192,192,92113,1,0,0:0:0:0:
64,192,92195,1,0,0:0:0:0:
320,192,92195,1,0,0:0:0:0:
448,192,92195,1,0,0:0:0:0:
320,192,92277,1,0,0:0:0:0:
448,192,92277,1,0,0:0:0:0:
64,192,92359,1,0,0:0:0:0:
192,192,92359,1,0,0:0:0:0:
320,192,92359,1,0,0:0:0:0:
448,192,92359,1,0,0:0:0:0:
192,192,92441,1,0,0:0:0:0:
64,192,92441,1,0,0:0:0:0:
320,192,92523,1,0,0:0:0:0:
448,192,92523,1,0,0:0:0:0:
192,192,92523,1,0,0:0:0:0:
320,192,92606,1,0,0:0:0:0:
448,192,92606,1,0,0:0:0:0:
448,192,92688,1,0,0:0:0:0:
320,192,92688,1,0,0:0:0:0:
64,192,92688,1,0,0:0:0:0:
192,192,92688,1,0,0:0:0:0:
64,192,92770,1,0,0:0:0:0:
192,192,92770,1,0,0:0:0:0:
448,192,92770,1,0,0:0:0:0:
192,192,92852,1,0,0:0:0:0:
64,192,92852,1,0,0:0:0:0:
320,192,92852,1,0,0:0:0:0:
64,192,92934,1,0,0:0:0:0:
192,192,92934,1,0,0:0:0:0:
192,192,93016,1,0,0:0:0:0:
64,192,93016,1,0,0:0:0:0:
320,192,93016,1,0,0:0:0:0:
448,192,93016,1,0,0:0:0:0:
448,192,93098,1,0,0:0:0:0:
320,192,93098,1,0,0:0:0:0:
448,192,93180,1,0,0:0:0:0:
192,192,93180,1,0,0:0:0:0:
64,192,93180,1,0,0:0:0:0:
64,192,93263,1,0,0:0:0:0:
192,192,93263,1,0,0:0:0:0:
64,192,93345,1,0,0:0:0:0:
192,192,93345,1,0,0:0:0:0:
320,192,93345,1,0,0:0:0:0:
448,192,93345,1,0,0:0:0:0:
320,192,93427,1,0,0:0:0:0:
448,192,93427,1,0,0:0:0:0:
320,192,93509,1,0,0:0:0:0:
192,192,93509,1,0,0:0:0:0:
64,192,93509,1,0,0:0:0:0:
64,192,93591,1,0,0:0:0:0:
192,192,93591,1,0,0:0:0:0:
64,192,93673,1,0,0:0:0:0:
192,192,93673,1,0,0:0:0:0:
320,192,93673,1,0,0:0:0:0:
448,192,93673,1,0,0:0:0:0:
320,192,93755,1,0,0:0:0:0:
448,192,93755,1,0,0:0:0:0:
448,192,93837,1,0,0:0:0:0:
192,192,93837,1,0,0:0:0:0:
64,192,93837,1,0,0:0:0:0:
64,192,93919,1,0,0:0:0:0:
192,192,93919,1,0,0:0:0:0:
64,192,94001,1,0,0:0:0:0:
192,192,94001,1,0,0:0:0:0:
448,192,94001,1,0,0:0:0:0:
320,192,94001,1,0,0:0:0:0:
448,192,94083,1,0,0:0:0:0:
320,192,94083,1,0,0:0:0:0:
320,192,94166,1,0,0:0:0:0:
448,192,94166,1,0,0:0:0:0:
192,192,94166,1,0,0:0:0:0:
320,192,94248,1,0,0:0:0:0:
448,192,94248,1,0,0:0:0:0:
192,192,94248,1,0,0:0:0:0:
320,192,94330,1,0,0:0:0:0:
448,192,94330,1,0,0:0:0:0:
64,192,94330,1,0,0:0:0:0:
192,192,94330,1,0,0:0:0:0:
320,192,94412,1,0,0:0:0:0:
448,192,94412,1,0,0:0:0:0:
448,192,94494,1,0,0:0:0:0:
192,192,94494,1,0,0:0:0:0:
64,192,94494,1,0,0:0:0:0:
64,192,94576,1,0,0:0:0:0:
192,192,94576,1,0,0:0:0:0:
448,192,94658,1,0,0:0:0:0:
320,192,94658,1,0,0:0:0:0:
192,192,94658,1,0,0:0:0:0:
64,192,94658,1,0,0:0:0:0:
320,192,94740,1,0,0:0:0:0:
448,192,94740,1,0,0:0:0:0:
192,192,94740,1,0,0:0:0:0:
448,192,94822,1,0,0:0:0:0:
320,192,94822,1,0,0:0:0:0:
192,192,94822,1,0,0:0:0:0:
320,192,94904,1,0,0:0:0:0:
448,192,94904,1,0,0:0:0:0:
448,192,94987,1,0,0:0:0:0:
320,192,94987,1,0,0:0:0:0:
192,192,94987,1,0,0:0:0:0:
64,192,94987,1,0,0:0:0:0:
192,192,95069,1,0,0:0:0:0:
64,192,95069,1,0,0:0:0:0:
320,192,95069,1,0,0:0:0:0:
64,192,95151,1,0,0:0:0:0:
192,192,95151,1,0,0:0:0:0:
320,192,95151,1,0,0:0:0:0:
192,192,95233,1,0,0:0:0:0:
64,192,95233,1,0,0:0:0:0:
64,192,95315,1,0,0:0:0:0:
192,192,95315,1,0,0:0:0:0:
320,192,95315,1,0,0:0:0:0:
448,192,95315,1,0,0:0:0:0:
448,192,95397,1,0,0:0:0:0:
320,192,95397,1,0,0:0:0:0:
448,192,95479,1,0,0:0:0:0:
192,192,95479,1,0,0:0:0:0:
64,192,95479,1,0,0:0:0:0:
64,192,95561,1,0,0:0:0:0:
192,192,95561,1,0,0:0:0:0:
64,192,95643,1,0,0:0:0:0:
192,192,95643,1,0,0:0:0:0:
320,192,95643,1,0,0:0:0:0:
448,192,95643,1,0,0:0:0:0:
448,192,95726,1,0,0:0:0:0:
320,192,95726,1,0,0:0:0:0:
320,192,95808,1,0,0:0:0:0:
192,192,95808,1,0,0:0:0:0:
64,192,95808,1,0,0:0:0:0:
64,192,95890,1,0,0:0:0:0:
192,192,95890,1,0,0:0:0:0:
64,192,95972,1,0,0:0:0:0:
192,192,95972,1,0,0:0:0:0:
320,192,95972,1,0,0:0:0:0:
448,192,95972,1,0,0:0:0:0:
448,192,96054,1,0,0:0:0:0:
320,192,96054,1,0,0:0:0:0:
448,192,96136,1,0,0:0:0:0:
192,192,96136,1,0,0:0:0:0:
64,192,96136,1,0,0:0:0:0:
320,192,96136,1,0,0:0:0:0:
192,192,96218,1,0,0:0:0:0:
64,192,96218,1,0,0:0:0:0:
448,192,96300,1,0,0:0:0:0:
320,192,96300,1,0,0:0:0:0:
192,192,96300,1,0,0:0:0:0:
64,192,96300,1,0,0:0:0:0:
320,192,96382,1,0,0:0:0:0:
448,192,96382,1,0,0:0:0:0:
448,192,96464,1,0,0:0:0:0:
320,192,96464,1,0,0:0:0:0:
192,192,96464,1,0,0:0:0:0:
64,192,96464,1,0,0:0:0:0:
192,192,96546,1,0,0:0:0:0:
64,192,96546,1,0,0:0:0:0:
448,192,96628,1,0,0:0:0:0:
320,192,96628,1,0,0:0:0:0:
192,192,96628,1,0,0:0:0:0:
64,192,96628,1,0,0:0:0:0:
320,192,96711,1,0,0:0:0:0:
448,192,96711,1,0,0:0:0:0:
192,192,96711,1,0,0:0:0:0:
448,192,96793,1,0,0:0:0:0:
320,192,96793,1,0,0:0:0:0:
192,192,96793,1,0,0:0:0:0:
320,192,96875,1,0,0:0:0:0:
448,192,96875,1,0,0:0:0:0:
64,192,96957,1,0,0:0:0:0:
320,192,96957,1,0,0:0:0:0:
192,192,96957,1,0,0:0:0:0:
448,192,96957,1,0,0:0:0:0:
192,192,97039,1,0,0:0:0:0:
64,192,97039,1,0,0:0:0:0:
64,192,97121,1,0,0:0:0:0:
320,192,97121,1,0,0:0:0:0:
448,192,97121,1,0,0:0:0:0:
448,192,97203,1,0,0:0:0:0:
320,192,97203,1,0,0:0:0:0:
448,192,97286,1,0,0:0:0:0:
320,192,97286,1,0,0:0:0:0:
192,192,97286,1,0,0:0:0:0:
64,192,97286,1,0,0:0:0:0:
192,192,97368,1,0,0:0:0:0:
64,192,97368,1,0,0:0:0:0:
192,192,97450,1,0,0:0:0:0:
320,192,97450,1,0,0:0:0:0:
448,192,97450,1,0,0:0:0:0:
320,192,97532,1,0,0:0:0:0:
448,192,97532,1,0,0:0:0:0:
448,192,97614,1,0,0:0:0:0:
320,192,97614,1,0,0:0:0:0:
192,192,97614,1,0,0:0:0:0:
64,192,97614,1,0,0:0:0:0:
192,192,97696,1,0,0:0:0:0:
64,192,97696,1,0,0:0:0:0:
64,192,97778,1,0,0:0:0:0:
320,192,97778,1,0,0:0:0:0:
448,192,97778,1,0,0:0:0:0:
320,192,97860,1,0,0:0:0:0:
448,192,97860,1,0,0:0:0:0:
448,192,97942,1,0,0:0:0:0:
320,192,97942,1,0,0:0:0:0:
192,192,97942,1,0,0:0:0:0:
64,192,97942,1,0,0:0:0:0:
192,192,98024,1,0,0:0:0:0:
64,192,98024,1,0,0:0:0:0:
320,192,98024,1,0,0:0:0:0:
64,192,98106,1,0,0:0:0:0:
192,192,98106,1,0,0:0:0:0:
320,192,98106,1,0,0:0:0:0:
192,192,98188,1,0,0:0:0:0:
64,192,98188,1,0,0:0:0:0:
64,192,98270,1,0,0:0:0:0:
192,192,98270,1,0,0:0:0:0:
448,192,98270,1,0,0:0:0:0:
320,192,98270,1,0,0:0:0:0:
448,192,98435,1,0,0:0:0:0:
320,192,98599,1,0,0:0:0:0:
192,192,98599,1,0,0:0:0:0:
64,192,98599,1,0,0:0:0:0:
448,192,98763,1,0,0:0:0:0:
64,192,98928,1,0,0:0:0:0:
192,192,99092,1,0,0:0:0:0:
320,192,99256,1,0,0:0:0:0:
64,192,99420,1,0,0:0:0:0:
64,192,99584,1,0,0:0:0:0:
192,192,99584,1,0,0:0:0:0:
64,192,99748,1,0,0:0:0:0:
192,192,99748,1,0,0:0:0:0:
320,192,99748,1,0,0:0:0:0:
448,192,99912,1,0,0:0:0:0:
320,192,99912,1,0,0:0:0:0:
192,192,99912,1,0,0:0:0:0:
64,192,99912,1,0,0:0:0:0:
320,192,99994,1,0,0:0:0:0:
448,192,99994,1,0,0:0:0:0:
192,192,99994,1,0,0:0:0:0:
448,192,100077,1,0,0:0:0:0:
320,192,100077,1,0,0:0:0:0:
192,192,100077,1,0,0:0:0:0:
320,192,100159,1,0,0:0:0:0:
448,192,100159,1,0,0:0:0:0:
448,192,100241,1,0,0:0:0:0:
192,192,100241,1,0,0:0:0:0:
320,192,100241,1,0,0:0:0:0:
64,192,100241,1,0,0:0:0:0:
64,192,100323,1,0,0:0:0:0:
192,192,100323,1,0,0:0:0:0:
320,192,100323,1,0,0:0:0:0:
192,192,100406,1,0,0:0:0:0:
64,192,100406,1,0,0:0:0:0:
320,192,100406,1,0,0:0:0:0:
64,192,100488,1,0,0:0:0:0:
192,192,100488,1,0,0:0:0:0:
192,192,100570,1,0,0:0:0:0:
64,192,100570,1,0,0:0:0:0:
320,192,100570,1,0,0:0:0:0:
448,192,100570,1,0,0:0:0:0:
448,192,100652,1,0,0:0:0:0:
320,192,100652,1,0,0:0:0:0:
448,192,100734,1,0,0:0:0:0:
192,192,100734,1,0,0:0:0:0:
64,192,100734,1,0,0:0:0:0:
64,192,100816,1,0,0:0:0:0:
192,192,100816,1,0,0:0:0:0:
192,192,100898,1,0,0:0:0:0:
64,192,100898,1,0,0:0:0:0:
320,192,100898,1,0,0:0:0:0:
448,192,100898,1,0,0:0:0:0:
320,192,100980,1,0,0:0:0:0:
448,192,100980,1,0,0:0:0:0:
320,192,101062,1,0,0:0:0:0:
192,192,101062,1,0,0:0:0:0:
64,192,101062,1,0,0:0:0:0:
64,192,101144,1,0,0:0:0:0:
192,192,101144,1,0,0:0:0:0:
192,192,101226,1,0,0:0:0:0:
64,192,101226,1,0,0:0:0:0:
320,192,101226,1,0,0:0:0:0:
448,192,101226,1,0,0:0:0:0:
448,192,101308,1,0,0:0:0:0:
320,192,101308,1,0,0:0:0:0:
192,192,101308,1,0,0:0:0:0:
448,192,101390,1,0,0:0:0:0:
320,192,101390,1,0,0:0:0:0:
192,192,101390,1,0,0:0:0:0:
320,192,101472,1,0,0:0:0:0:
448,192,101472,1,0,0:0:0:0:
448,192,101554,1,0,0:0:0:0:
320,192,101554,1,0,0:0:0:0:
192,192,101554,1,0,0:0:0:0:
64,192,101554,1,0,0:0:0:0:
64,192,101637,1,0,0:0:0:0:
192,192,101637,1,0,0:0:0:0:
64,192,101719,1,0,0:0:0:0:
320,192,101719,1,0,0:0:0:0:
448,192,101719,1,0,0:0:0:0:
448,192,101801,1,0,0:0:0:0:
320,192,101801,1,0,0:0:0:0:
448,192,101883,1,0,0:0:0:0:
320,192,101883,1,0,0:0:0:0:
192,192,101883,1,0,0:0:0:0:
64,192,101883,1,0,0:0:0:0:
64,192,101966,1,0,0:0:0:0:
192,192,101966,1,0,0:0:0:0:
320,192,101966,1,0,0:0:0:0:
192,192,102048,1,0,0:0:0:0:
64,192,102048,1,0,0:0:0:0:
320,192,102048,1,0,0:0:0:0:
64,192,102130,1,0,0:0:0:0:
192,192,102130,1,0,0:0:0:0:
192,192,102212,1,0,0:0:0:0:
64,192,102212,1,0,0:0:0:0:
320,192,102212,1,0,0:0:0:0:
448,192,102212,1,0,0:0:0:0:
448,192,102294,1,0,0:0:0:0:
320,192,102376,1,0,0:0:0:0:
192,192,102376,1,0,0:0:0:0:
64,192,102376,1,0,0:0:0:0:
192,192,102458,1,0,0:0:0:0:
64,192,102540,1,0,0:0:0:0:
192,192,102540,1,0,0:0:0:0:
320,192,102540,1,0,0:0:0:0:
448,192,102540,1,0,0:0:0:0:
320,192,102622,1,0,0:0:0:0:
448,192,102622,1,0,0:0:0:0:
448,192,102704,1,0,0:0:0:0:
192,192,102704,1,0,0:0:0:0:
64,192,102704,1,0,0:0:0:0:
64,192,102786,1,0,0:0:0:0:
192,192,102786,1,0,0:0:0:0:
64,192,102868,1,0,0:0:0:0:
192,192,102868,1,0,0:0:0:0:
320,192,102868,1,0,0:0:0:0:
448,192,102868,1,0,0:0:0:0:
320,192,102950,1,0,0:0:0:0:
448,192,102950,1,0,0:0:0:0:
320,192,103032,1,0,0:0:0:0:
64,192,103032,1,0,0:0:0:0:
192,192,103032,1,0,0:0:0:0:
192,192,103114,1,0,0:0:0:0:
64,192,103114,1,0,0:0:0:0:
64,192,103197,1,0,0:0:0:0:
192,192,103197,1,0,0:0:0:0:
320,192,103197,1,0,0:0:0:0:
448,192,103197,1,0,0:0:0:0:
320,192,103279,1,0,0:0:0:0:
448,192,103279,1,0,0:0:0:0:
64,192,103279,1,0,0:0:0:0:
448,192,103361,1,0,0:0:0:0:
320,192,103361,1,0,0:0:0:0:
192,192,103361,1,0,0:0:0:0:
320,192,103443,1,0,0:0:0:0:
448,192,103443,1,0,0:0:0:0:
448,192,103525,1,0,0:0:0:0:
320,192,103525,1,0,0:0:0:0:
192,192,103525,1,0,0:0:0:0:
64,192,103525,1,0,0:0:0:0:
192,192,103608,1,0,0:0:0:0:
320,192,103690,1,0,0:0:0:0:
448,192,103690,1,0,0:0:0:0:
64,192,103690,1,0,0:0:0:0:
320,192,103772,1,0,0:0:0:0:
448,192,103854,1,0,0:0:0:0:
192,192,103854,1,0,0:0:0:0:
320,192,103854,1,0,0:0:0:0:
64,192,103854,1,0,0:0:0:0:
64,192,103936,1,0,0:0:0:0:
192,192,103936,1,0,0:0:0:0:
64,192,104018,1,0,0:0:0:0:
320,192,104018,1,0,0:0:0:0:
448,192,104018,1,0,0:0:0:0:
448,192,104100,1,0,0:0:0:0:
320,192,104100,1,0,0:0:0:0:
448,192,104182,1,0,0:0:0:0:
320,192,104182,1,0,0:0:0:0:
192,192,104182,1,0,0:0:0:0:
64,192,104182,1,0,0:0:0:0:
64,192,104264,1,0,0:0:0:0:
192,192,104264,1,0,0:0:0:0:
192,192,104346,1,0,0:0:0:0:
320,192,104346,1,0,0:0:0:0:
448,192,104346,1,0,0:0:0:0:
448,192,104428,1,0,0:0:0:0:
320,192,104428,1,0,0:0:0:0:
448,192,104510,1,0,0:0:0:0:
320,192,104510,1,0,0:0:0:0:
64,192,104510,1,0,0:0:0:0:
192,192,104510,1,0,0:0:0:0:
64,192,104592,1,0,0:0:0:0:
192,192,104592,1,0,0:0:0:0:
192,192,104674,1,0,0:0:0:0:
64,192,104674,1,0,0:0:0:0:
320,192,104674,1,0,0:0:0:0:
64,192,104757,1,0,0:0:0:0:
192,192,104757,1,0,0:0:0:0:
320,192,104757,1,0,0:0:0:0:
192,192,104839,1,0,0:0:0:0:
64,192,104839,1,0,0:0:0:0:
320,192,104839,1,0,0:0:0:0:
448,192,104839,1,0,0:0:0:0:
192,192,104921,1,0,0:0:0:0:
64,192,104921,1,0,0:0:0:0:
64,192,105003,1,0,0:0:0:0:
320,192,105003,1,0,0:0:0:0:
448,192,105003,1,0,0:0:0:0:
320,192,105085,1,0,0:0:0:0:
448,192,105085,1,0,0:0:0:0:
64,192,105167,1,0,0:0:0:0:
192,192,105167,1,0,0:0:0:0:
320,192,105167,1,0,0:0:0:0:
448,192,105167,1,0,0:0:0:0:
192,192,105249,1,0,0:0:0:0:
64,192,105249,1,0,0:0:0:0:
448,192,105249,1,0,0:0:0:0:
64,192,105332,1,0,0:0:0:0:
192,192,105332,1,0,0:0:0:0:
320,192,105332,1,0,0:0:0:0:
192,192,105414,1,0,0:0:0:0:
64,192,105414,1,0,0:0:0:0:
64,192,105496,1,0,0:0:0:0:
192,192,105496,1,0,0:0:0:0:
320,192,105496,1,0,0:0:0:0:
448,192,105496,1,0,0:0:0:0:
448,192,105578,1,0,0:0:0:0:
320,192,105578,1,0,0:0:0:0:
64,192,105578,1,0,0:0:0:0:
320,192,105660,1,0,0:0:0:0:
448,192,105660,1,0,0:0:0:0:
192,192,105660,1,0,0:0:0:0:
448,192,105742,1,0,0:0:0:0:
320,192,105742,1,0,0:0:0:0:
448,192,105824,1,0,0:0:0:0:
320,192,105824,1,0,0:0:0:0:
192,192,105824,1,0,0:0:0:0:
64,192,105824,1,0,0:0:0:0:
64,192,105906,1,0,0:0:0:0:
192,192,105906,1,0,0:0:0:0:
64,192,105988,1,0,0:0:0:0:
320,192,105988,1,0,0:0:0:0:
448,192,105988,1,0,0:0:0:0:
320,192,106070,1,0,0:0:0:0:
448,192,106070,1,0,0:0:0:0:
448,192,106152,1,0,0:0:0:0:
192,192,106152,1,0,0:0:0:0:
320,192,106152,1,0,0:0:0:0:
64,192,106152,1,0,0:0:0:0:
64,192,106234,1,0,0:0:0:0:
192,192,106234,1,0,0:0:0:0:
192,192,106317,1,0,0:0:0:0:
320,192,106317,1,0,0:0:0:0:
448,192,106317,1,0,0:0:0:0:
448,192,106399,1,0,0:0:0:0:
320,192,106399,1,0,0:0:0:0:
448,192,106481,1,0,0:0:0:0:
320,192,106481,1,0,0:0:0:0:
192,192,106481,1,0,0:0:0:0:
64,192,106481,1,0,0:0:0:0:
64,192,106563,1,0,0:0:0:0:
192,192,106563,1,0,0:0:0:0:
192,192,106645,1,0,0:0:0:0:
64,192,106645,1,0,0:0:0:0:
320,192,106645,1,0,0:0:0:0:
448,192,106645,1,0,0:0:0:0:
448,192,106727,1,0,0:0:0:0:
320,192,106727,1,0,0:0:0:0:
448,192,106809,1,0,0:0:0:0:
320,192,106809,1,0,0:0:0:0:
192,192,106809,1,0,0:0:0:0:
64,192,106809,1,0,0:0:0:0:
64,192,106891,1,0,0:0:0:0:
192,192,106891,1,0,0:0:0:0:
192,192,106973,1,0,0:0:0:0:
64,192,106973,1,0,0:0:0:0:
320,192,106973,1,0,0:0:0:0:
448,192,106973,1,0,0:0:0:0:
448,192,107056,1,0,0:0:0:0:
320,192,107056,1,0,0:0:0:0:
448,192,107138,1,0,0:0:0:0:
320,192,107138,1,0,0:0:0:0:
64,192,107138,1,0,0:0:0:0:
192,192,107138,1,0,0:0:0:0:
64,192,107220,1,0,0:0:0:0:
192,192,107220,1,0,0:0:0:0:
448,192,107220,1,0,0:0:0:0:
192,192,107302,1,0,0:0:0:0:
64,192,107302,1,0,0:0:0:0:
320,192,107302,1,0,0:0:0:0:
64,192,107384,1,0,0:0:0:0:
192,192,107384,1,0,0:0:0:0:
192,192,107466,1,0,0:0:0:0:
64,192,107466,1,0,0:0:0:0:
320,192,107466,1,0,0:0:0:0:
448,192,107466,1,0,0:0:0:0:
320,192,107548,1,0,0:0:0:0:
448,192,107548,1,0,0:0:0:0:
448,192,107630,1,0,0:0:0:0:
192,192,107630,1,0,0:0:0:0:
64,192,107630,1,0,0:0:0:0:
64,192,107712,1,0,0:0:0:0:
192,192,107712,1,0,0:0:0:0:
64,192,107794,1,0,0:0:0:0:
192,192,107794,1,0,0:0:0:0:
320,192,107794,1,0,0:0:0:0:
448,192,107794,1,0,0:0:0:0:
320,192,107877,1,0,0:0:0:0:
448,192,107877,1,0,0:0:0:0:
320,192,107959,1,0,0:0:0:0:
192,192,107959,1,0,0:0:0:0:
64,192,107959,1,0,0:0:0:0:
64,192,108041,1,0,0:0:0:0:
192,192,108041,1,0,0:0:0:0:
448,192,108123,1,0,0:0:0:0:
320,192,108123,1,0,0:0:0:0:
192,192,108123,1,0,0:0:0:0:
64,192,108123,1,0,0:0:0:0:
320,192,108205,1,0,0:0:0:0:
448,192,108205,1,0,0:0:0:0:
448,192,108287,1,0,0:0:0:0:
192,192,108287,1,0,0:0:0:0:
64,192,108287,1,0,0:0:0:0:
64,192,108369,1,0,0:0:0:0:
192,192,108369,1,0,0:0:0:0:
64,192,108451,1,0,0:0:0:0:
192,192,108451,1,0,0:0:0:0:
320,192,108451,1,0,0:0:0:0:
448,192,108451,1,0,0:0:0:0:
320,192,108533,1,0,0:0:0:0:
448,192,108533,1,0,0:0:0:0:
64,192,108533,1,0,0:0:0:0:
448,192,108615,1,0,0:0:0:0:
320,192,108615,1,0,0:0:0:0:
192,192,108615,1,0,0:0:0:0:
320,192,108697,1,0,0:0:0:0:
448,192,108697,1,0,0:0:0:0:
448,192,108780,1,0,0:0:0:0:
320,192,108780,1,0,0:0:0:0:
192,192,108780,1,0,0:0:0:0:
64,192,108780,1,0,0:0:0:0:
64,192,108944,1,0,0:0:0:0:
192,192,109108,1,0,0:0:0:0:
320,192,109108,1,0,0:0:0:0:
448,192,109108,1,0,0:0:0:0:
64,192,109272,1,0,0:0:0:0:
448,192,109437,1,0,0:0:0:0:
320,192,109601,1,0,0:0:0:0:
192,192,109765,1,0,0:0:0:0:
448,192,109929,1,0,0:0:0:0:
448,192,110093,1,0,0:0:0:0:
320,192,110093,1,0,0:0:0:0:
448,192,110257,1,0,0:0:0:0:
320,192,110257,1,0,0:0:0:0:
192,192,110257,1,0,0:0:0:0:
192,192,110421,1,0,0:0:0:0:
64,192,110421,1,0,0:0:0:0:
320,192,110421,1,0,0:0:0:0:
448,192,110421,1,0,0:0:0:0:
448,192,110586,1,0,0:0:0:0:
320,192,110750,1,0,0:0:0:0:
64,192,110750,1,0,0:0:0:0:
192,192,110914,1,0,0:0:0:0:
320,192,111079,1,0,0:0:0:0:
448,192,111079,1,0,0:0:0:0:
64,192,111243,1,0,0:0:0:0:
192,192,111243,1,0,0:0:0:0:
192,192,111407,1,0,0:0:0:0:
320,192,111407,1,0,0:0:0:0:
448,192,111571,1,0,0:0:0:0:
320,192,111571,1,0,0:0:0:0:
192,192,111735,1,0,0:0:0:0:
64,192,111735,1,0,0:0:0:0:
448,192,111899,1,0,0:0:0:0:
320,192,112063,1,0,0:0:0:0:
192,192,112063,1,0,0:0:0:0:
64,192,112228,1,0,0:0:0:0:
192,192,112228,1,0,0:0:0:0:
320,192,112392,1,0,0:0:0:0:
448,192,112392,128,0,112885:0:0:0:0:
192,192,112557,1,0,0:0:0:0:
320,192,112721,1,0,0:0:0:0:
192,192,112885,1,0,0:0:0:0:
64,192,112885,1,0,0:0:0:0:
320,192,113049,1,0,0:0:0:0:
448,192,113049,1,0,0:0:0:0:
320,192,113213,1,0,0:0:0:0:
192,192,113213,1,0,0:0:0:0:
192,192,113377,1,0,0:0:0:0:
64,192,113377,1,0,0:0:0:0:
448,192,113541,1,0,0:0:0:0:
320,192,113541,1,0,0:0:0:0:
192,192,113706,1,0,0:0:0:0:
64,192,113706,128,0,114199:0:0:0:0:
448,192,113870,1,0,0:0:0:0:
192,192,114034,1,0,0:0:0:0:
448,192,114199,1,0,0:0:0:0:
320,192,114199,1,0,0:0:0:0:
192,192,114363,1,0,0:0:0:0:
320,192,114363,1,0,0:0:0:0:
192,192,114527,1,0,0:0:0:0:
64,192,114527,1,0,0:0:0:0:
448,192,114691,1,0,0:0:0:0:
320,192,114691,1,0,0:0:0:0:
192,192,114855,1,0,0:0:0:0:
320,192,114855,1,0,0:0:0:0:
448,192,115019,128,0,115348:0:0:0:0:
64,192,115019,1,0,0:0:0:0:
192,192,115348,1,0,0:0:0:0:
320,192,115512,1,0,0:0:0:0:
64,192,115677,1,0,0:0:0:0:
64,192,116005,1,0,0:0:0:0:
64,192,116333,1,0,0:0:0:0:
192,192,116497,1,0,0:0:0:0:
320,192,116661,1,0,0:0:0:0:
448,192,116826,1,0,0:0:0:0:
192,192,116990,1,0,0:0:0:0:
64,192,116990,1,0,0:0:0:0:
64,192,117154,1,0,0:0:0:0:
320,192,117154,1,0,0:0:0:0:
448,192,117318,1,0,0:0:0:0:
192,192,117318,1,0,0:0:0:0:
320,192,117483,1,0,0:0:0:0:
448,192,117483,1,0,0:0:0:0:
64,192,117647,128,0,117975:0:0:0:0:
192,192,117647,1,0,0:0:0:0:
448,192,117975,1,0,0:0:0:0:
448,192,118139,1,0,0:0:0:0:
320,192,118303,1,0,0:0:0:0:
192,192,118303,1,0,0:0:0:0:
64,192,118468,1,0,0:0:0:0:
192,192,118468,1,0,0:0:0:0:
320,192,118632,1,0,0:0:0:0:
448,192,118632,1,0,0:0:0:0:
448,192,118796,1,0,0:0:0:0:
192,192,118796,1,0,0:0:0:0:
64,192,119001,128,0,119576:0:0:0:0:
320,192,119371,1,0,0:0:0:0:
448,192,119576,1,0,0:0:0:0:
320,192,119781,1,0,0:0:0:0:
64,192,119987,1,0,0:0:0:0:
192,192,120192,1,0,0:0:0:0:
320,192,120397,1,0,0:0:0:0:
448,192,120602,128,0,123558:0:0:0:0:
64,192,121642,1,0,0:0:0:0:
192,192,121697,1,0,0:0:0:0:
320,192,121751,1,0,0:0:0:0:
