osu file format v14

[General]
AudioFilename: audio120.mp3
AudioLeadIn: 0
PreviewTime: 42505
Countdown: 0
SampleSet: Normal
StackLeniency: 0.7
Mode: 3
LetterboxInBreaks: 0
SpecialStyle: 0
WidescreenStoryboard: 0

[Editor]
DistanceSpacing: 0.8
BeatDivisor: 6
GridSize: 32
TimelineZoom: 2

[Metadata]
Title:Wait Another Day
TitleUnicode:Wait Another Day
Artist:Mike Williams x Mesto
ArtistUnicode:Mike Williams x Mesto
Creator:HikariNayo
Version:I'll be back before you know 1.2x
Source:
Tags:Mike Williams Mesto Wait another day BEST EDM 2019 dance electronic jack cj chordjack rates
BeatmapID:4566845
BeatmapSetID:2164994

[Difficulty]
HPDrainRate:8
CircleSize:4
OverallDifficulty:8
ApproachRate:5
SliderMultiplier:1.4
SliderTickRate:1

[Events]
//Background and Video events
0,0,"969814.jpg",0,0
//Break Periods
//Storyboard Layer 0 (Background)
//Storyboard Layer 1 (Fail)
//Storyboard Layer 2 (Pass)
//Storyboard Layer 3 (Foreground)
//Storyboard Layer 4 (Overlay)
//Storyboard Sound Samples

[TimingPoints]
85,396.825396825397,4,1,1,100,1,0
44529,-100,4,1,1,100,0,1
55640,-100,4,1,1,100,0,0
57228,-100,4,1,1,100,0,1
69926,-100,4,1,1,100,0,0
108021,-100,4,1,1,100,0,1
119132,-100,4,1,1,100,0,0
120719,-100,4,1,1,100,0,1
133418,-100,4,1,1,100,0,0

[HitObjects]
448,192,85,5,0,0:0:0:0:
320,192,85,1,0,0:0:0:0:
192,192,85,1,0,0:0:0:0:
448,192,283,1,0,0:0:0:0:
320,192,283,1,0,0:0:0:0:
448,192,482,1,0,0:0:0:0:
192,192,482,1,0,0:0:0:0:
64,192,482,1,0,0:0:0:0:
64,192,680,1,0,0:0:0:0:
192,192,680,1,0,0:0:0:0:
448,192,878,1,0,0:0:0:0:
320,192,878,1,0,0:0:0:0:
64,192,878,1,0,0:0:0:0:
192,192,1077,1,0,0:0:0:0:
320,192,1077,1,0,0:0:0:0:
448,192,1077,1,0,0:0:0:0:
320,192,1275,1,0,0:0:0:0:
192,192,1275,1,0,0:0:0:0:
64,192,1275,1,0,0:0:0:0:
64,192,1473,1,0,0:0:0:0:
192,192,1473,1,0,0:0:0:0:
448,192,1473,1,0,0:0:0:0:
320,192,1672,1,0,0:0:0:0:
448,192,1672,1,0,0:0:0:0:
64,192,1672,1,0,0:0:0:0:
448,192,1870,1,0,0:0:0:0:
320,192,1870,1,0,0:0:0:0:
192,192,2068,1,0,0:0:0:0:
64,192,2068,1,0,0:0:0:0:
448,192,2068,1,0,0:0:0:0:
320,192,2268,1,0,0:0:0:0:
192,192,2268,1,0,0:0:0:0:
64,192,2268,1,0,0:0:0:0:
64,192,2466,128,0,3259:0:0:0:0:
320,192,2466,1,0,0:0:0:0:
448,192,2466,1,0,0:0:0:0:
192,192,2664,1,0,0:0:0:0:
448,192,2862,1,0,0:0:0:0:
320,192,3061,1,0,0:0:0:0:
448,192,3061,1,0,0:0:0:0:
192,192,3259,1,0,0:0:0:0:
320,192,3259,1,0,0:0:0:0:
448,192,3259,1,0,0:0:0:0:
448,192,3458,1,0,0:0:0:0:
320,192,3458,1,0,0:0:0:0:
192,192,3458,1,0,0:0:0:0:
320,192,3656,1,0,0:0:0:0:
192,192,3656,1,0,0:0:0:0:
64,192,3656,1,0,0:0:0:0:
320,192,3854,1,0,0:0:0:0:
64,192,3854,1,0,0:0:0:0:
192,192,3854,1,0,0:0:0:0:
192,192,4052,1,0,0:0:0:0:
64,192,4052,1,0,0:0:0:0:
448,192,4052,128,0,4847:0:0:0:0:
320,192,4251,1,0,0:0:0:0:
192,192,4450,1,0,0:0:0:0:
64,192,4648,1,0,0:0:0:0:
320,192,4648,1,0,0:0:0:0:
320,192,4847,1,0,0:0:0:0:
192,192,4847,1,0,0:0:0:0:
64,192,4847,1,0,0:0:0:0:
192,192,5045,1,0,0:0:0:0:
320,192,5045,1,0,0:0:0:0:
448,192,5045,1,0,0:0:0:0:
64,192,5243,1,0,0:0:0:0:
320,192,5243,1,0,0:0:0:0:
448,192,5243,1,0,0:0:0:0:
64,192,5442,1,0,0:0:0:0:
192,192,5442,1,0,0:0:0:0:
448,192,5442,1,0,0:0:0:0:
320,192,5640,1,0,0:0:0:0:
192,192,5640,1,0,0:0:0:0:
448,192,5640,1,0,0:0:0:0:
64,192,5838,1,0,0:0:0:0:
448,192,5938,1,0,0:0:0:0:
320,192,5988,1,0,0:0:0:0:
192,192,6037,1,0,0:0:0:0:
64,192,6037,1,0,0:0:0:0:
448,192,6235,1,0,0:0:0:0:
320,192,6434,1,0,0:0:0:0:
192,192,6434,1,0,0:0:0:0:
64,192,6434,1,0,0:0:0:0:
192,192,6632,1,0,0:0:0:0:
64,192,6632,1,0,0:0:0:0:
448,192,6831,1,0,0:0:0:0:
320,192,6831,1,0,0:0:0:0:
64,192,6831,1,0,0:0:0:0:
320,192,7029,1,0,0:0:0:0:
448,192,7029,1,0,0:0:0:0:
448,192,7228,1,0,0:0:0:0:
192,192,7228,1,0,0:0:0:0:
64,192,7228,1,0,0:0:0:0:
64,192,7426,1,0,0:0:0:0:
192,192,7426,1,0,0:0:0:0:
320,192,7426,1,0,0:0:0:0:
192,192,7624,1,0,0:0:0:0:
320,192,7624,1,0,0:0:0:0:
448,192,7624,1,0,0:0:0:0:
448,192,7822,1,0,0:0:0:0:
320,192,7822,1,0,0:0:0:0:
64,192,7822,1,0,0:0:0:0:
192,192,8021,1,0,0:0:0:0:
64,192,8021,1,0,0:0:0:0:
448,192,8021,1,0,0:0:0:0:
320,192,8219,1,0,0:0:0:0:
192,192,8219,1,0,0:0:0:0:
64,192,8219,1,0,0:0:0:0:
320,192,8418,1,0,0:0:0:0:
448,192,8418,1,0,0:0:0:0:
64,192,8418,1,0,0:0:0:0:
192,192,8617,1,0,0:0:0:0:
320,192,8617,1,0,0:0:0:0:
448,192,8617,1,0,0:0:0:0:
320,192,8815,1,0,0:0:0:0:
192,192,8815,1,0,0:0:0:0:
64,192,8815,1,0,0:0:0:0:
64,192,9013,1,0,0:0:0:0:
192,192,9013,1,0,0:0:0:0:
448,192,9212,1,0,0:0:0:0:
320,192,9212,1,0,0:0:0:0:
192,192,9410,1,0,0:0:0:0:
448,192,9410,1,0,0:0:0:0:
320,192,9410,1,0,0:0:0:0:
320,192,9608,1,0,0:0:0:0:
192,192,9608,1,0,0:0:0:0:
64,192,9608,1,0,0:0:0:0:
192,192,9807,1,0,0:0:0:0:
64,192,9807,1,0,0:0:0:0:
448,192,9807,1,0,0:0:0:0:
320,192,10005,1,0,0:0:0:0:
448,192,10005,1,0,0:0:0:0:
64,192,10005,1,0,0:0:0:0:
320,192,10203,1,0,0:0:0:0:
192,192,10203,1,0,0:0:0:0:
64,192,10203,1,0,0:0:0:0:
192,192,10402,1,0,0:0:0:0:
320,192,10402,1,0,0:0:0:0:
448,192,10402,1,0,0:0:0:0:
192,192,10601,1,0,0:0:0:0:
64,192,10601,1,0,0:0:0:0:
320,192,10799,1,0,0:0:0:0:
448,192,10799,1,0,0:0:0:0:
448,192,10998,1,0,0:0:0:0:
320,192,10998,1,0,0:0:0:0:
192,192,10998,1,0,0:0:0:0:
320,192,11196,1,0,0:0:0:0:
64,192,11196,1,0,0:0:0:0:
192,192,11196,1,0,0:0:0:0:
448,192,11394,1,0,0:0:0:0:
64,192,11394,1,0,0:0:0:0:
192,192,11394,1,0,0:0:0:0:
448,192,11592,1,0,0:0:0:0:
320,192,11592,1,0,0:0:0:0:
64,192,11592,1,0,0:0:0:0:
192,192,11791,1,0,0:0:0:0:
320,192,11791,1,0,0:0:0:0:
448,192,11791,1,0,0:0:0:0:
320,192,11989,1,0,0:0:0:0:
192,192,11989,1,0,0:0:0:0:
64,192,11989,1,0,0:0:0:0:
448,192,12188,1,0,0:0:0:0:
320,192,12386,1,0,0:0:0:0:
64,192,12386,1,0,0:0:0:0:
192,192,12584,1,0,0:0:0:0:
320,192,12783,1,0,0:0:0:0:
448,192,12783,1,0,0:0:0:0:
192,192,12783,1,0,0:0:0:0:
64,192,12783,1,0,0:0:0:0:
448,192,12982,1,0,0:0:0:0:
192,192,13180,1,0,0:0:0:0:
64,192,13180,1,0,0:0:0:0:
320,192,13180,1,0,0:0:0:0:
192,192,13378,1,0,0:0:0:0:
64,192,13577,1,0,0:0:0:0:
448,192,13577,1,0,0:0:0:0:
320,192,13775,1,0,0:0:0:0:
192,192,13973,1,0,0:0:0:0:
64,192,13973,1,0,0:0:0:0:
448,192,13973,1,0,0:0:0:0:
320,192,14172,1,0,0:0:0:0:
192,192,14370,1,0,0:0:0:0:
64,192,14370,1,0,0:0:0:0:
448,192,14568,1,0,0:0:0:0:
320,192,14768,1,0,0:0:0:0:
192,192,14768,1,0,0:0:0:0:
64,192,14768,1,0,0:0:0:0:
448,192,14966,1,0,0:0:0:0:
64,192,15164,1,0,0:0:0:0:
320,192,15164,1,0,0:0:0:0:
192,192,15362,1,0,0:0:0:0:
320,192,15561,1,0,0:0:0:0:
448,192,15561,1,0,0:0:0:0:
64,192,15561,1,0,0:0:0:0:
192,192,15759,1,0,0:0:0:0:
64,192,15958,1,0,0:0:0:0:
192,192,15958,1,0,0:0:0:0:
448,192,15958,1,0,0:0:0:0:
320,192,16156,1,0,0:0:0:0:
448,192,16354,1,0,0:0:0:0:
320,192,16354,1,0,0:0:0:0:
192,192,16354,1,0,0:0:0:0:
64,192,16552,1,0,0:0:0:0:
448,192,16751,1,0,0:0:0:0:
320,192,16751,1,0,0:0:0:0:
192,192,16950,1,0,0:0:0:0:
64,192,17148,1,0,0:0:0:0:
448,192,17148,1,0,0:0:0:0:
320,192,17148,1,0,0:0:0:0:
192,192,17347,1,0,0:0:0:0:
320,192,17545,1,0,0:0:0:0:
448,192,17545,1,0,0:0:0:0:
64,192,17743,1,0,0:0:0:0:
192,192,17942,1,0,0:0:0:0:
320,192,17942,1,0,0:0:0:0:
448,192,17942,1,0,0:0:0:0:
64,192,18140,1,0,0:0:0:0:
192,192,18338,1,0,0:0:0:0:
320,192,18338,1,0,0:0:0:0:
448,192,18537,1,0,0:0:0:0:
192,192,18735,1,0,0:0:0:0:
320,192,18735,1,0,0:0:0:0:
64,192,18735,1,0,0:0:0:0:
448,192,18934,1,0,0:0:0:0:
192,192,19132,1,0,0:0:0:0:
64,192,19132,1,0,0:0:0:0:
320,192,19331,1,0,0:0:0:0:
448,192,19529,1,0,0:0:0:0:
192,192,19529,1,0,0:0:0:0:
64,192,19529,1,0,0:0:0:0:
320,192,19728,1,0,0:0:0:0:
448,192,19926,1,0,0:0:0:0:
64,192,19926,1,0,0:0:0:0:
192,192,20124,1,0,0:0:0:0:
320,192,20322,1,0,0:0:0:0:
448,192,20322,1,0,0:0:0:0:
64,192,20322,1,0,0:0:0:0:
192,192,20521,1,0,0:0:0:0:
320,192,20719,1,0,0:0:0:0:
448,192,20719,1,0,0:0:0:0:
64,192,20918,1,0,0:0:0:0:
192,192,21117,1,0,0:0:0:0:
320,192,21117,1,0,0:0:0:0:
448,192,21117,1,0,0:0:0:0:
64,192,21315,1,0,0:0:0:0:
320,192,21513,1,0,0:0:0:0:
192,192,21513,1,0,0:0:0:0:
448,192,21712,1,0,0:0:0:0:
320,192,21910,1,0,0:0:0:0:
192,192,21910,1,0,0:0:0:0:
64,192,21910,1,0,0:0:0:0:
448,192,22108,1,0,0:0:0:0:
64,192,22307,128,0,22703:0:0:0:0:
192,192,22307,1,0,0:0:0:0:
448,192,22505,1,0,0:0:0:0:
448,192,22703,1,0,0:0:0:0:
320,192,22703,1,0,0:0:0:0:
192,192,22703,1,0,0:0:0:0:
320,192,22902,1,0,0:0:0:0:
448,192,23101,128,0,23498:0:0:0:0:
192,192,23101,1,0,0:0:0:0:
64,192,23299,1,0,0:0:0:0:
320,192,23498,1,0,0:0:0:0:
192,192,23498,1,0,0:0:0:0:
64,192,23498,1,0,0:0:0:0:
192,192,23696,1,0,0:0:0:0:
64,192,23894,128,0,24688:0:0:0:0:
448,192,23894,1,0,0:0:0:0:
320,192,24092,1,0,0:0:0:0:
448,192,24291,1,0,0:0:0:0:
320,192,24291,1,0,0:0:0:0:
192,192,24291,1,0,0:0:0:0:
192,192,24489,1,0,0:0:0:0:
448,192,24688,1,0,0:0:0:0:
320,192,25084,128,0,25283:0:0:0:0:
192,192,25283,128,0,25482:0:0:0:0:
64,192,25482,1,0,0:0:0:0:
320,192,25482,1,0,0:0:0:0:
448,192,25482,1,0,0:0:0:0:
448,192,25680,1,0,0:0:0:0:
320,192,25878,1,0,0:0:0:0:
192,192,25878,1,0,0:0:0:0:
64,192,25878,1,0,0:0:0:0:
448,192,25878,1,0,0:0:0:0:
64,192,26077,1,0,0:0:0:0:
192,192,26275,1,0,0:0:0:0:
320,192,26275,1,0,0:0:0:0:
448,192,26275,1,0,0:0:0:0:
320,192,26473,1,0,0:0:0:0:
448,192,26473,1,0,0:0:0:0:
448,192,26672,1,0,0:0:0:0:
320,192,26672,1,0,0:0:0:0:
192,192,26672,1,0,0:0:0:0:
64,192,26672,1,0,0:0:0:0:
192,192,26870,1,0,0:0:0:0:
64,192,26870,1,0,0:0:0:0:
320,192,27068,1,0,0:0:0:0:
448,192,27068,1,0,0:0:0:0:
64,192,27068,1,0,0:0:0:0:
448,192,27268,1,0,0:0:0:0:
192,192,27268,1,0,0:0:0:0:
448,192,27466,1,0,0:0:0:0:
320,192,27466,1,0,0:0:0:0:
192,192,27466,1,0,0:0:0:0:
64,192,27466,1,0,0:0:0:0:
64,192,27664,1,0,0:0:0:0:
320,192,27664,1,0,0:0:0:0:
192,192,27862,1,0,0:0:0:0:
448,192,27862,1,0,0:0:0:0:
320,192,27862,1,0,0:0:0:0:
64,192,28061,1,0,0:0:0:0:
448,192,28259,1,0,0:0:0:0:
320,192,28259,1,0,0:0:0:0:
64,192,28259,1,0,0:0:0:0:
192,192,28259,1,0,0:0:0:0:
320,192,28458,1,0,0:0:0:0:
448,192,28458,1,0,0:0:0:0:
64,192,28656,1,0,0:0:0:0:
448,192,28656,1,0,0:0:0:0:
192,192,28656,1,0,0:0:0:0:
192,192,28854,1,0,0:0:0:0:
64,192,28854,1,0,0:0:0:0:
320,192,29052,1,0,0:0:0:0:
192,192,29052,1,0,0:0:0:0:
64,192,29052,1,0,0:0:0:0:
448,192,29052,1,0,0:0:0:0:
192,192,29251,1,0,0:0:0:0:
320,192,29251,1,0,0:0:0:0:
64,192,29450,1,0,0:0:0:0:
320,192,29450,1,0,0:0:0:0:
448,192,29450,1,0,0:0:0:0:
192,192,29648,1,0,0:0:0:0:
320,192,29847,1,0,0:0:0:0:
64,192,29847,1,0,0:0:0:0:
192,192,29847,1,0,0:0:0:0:
448,192,29847,1,0,0:0:0:0:
64,192,30045,1,0,0:0:0:0:
320,192,30045,1,0,0:0:0:0:
64,192,30243,1,0,0:0:0:0:
320,192,30243,1,0,0:0:0:0:
448,192,30243,1,0,0:0:0:0:
192,192,30243,1,0,0:0:0:0:
448,192,30442,1,0,0:0:0:0:
192,192,30442,1,0,0:0:0:0:
448,192,30640,1,0,0:0:0:0:
320,192,30640,1,0,0:0:0:0:
192,192,30640,1,0,0:0:0:0:
64,192,30640,1,0,0:0:0:0:
320,192,30838,1,0,0:0:0:0:
448,192,30838,1,0,0:0:0:0:
64,192,31037,1,0,0:0:0:0:
320,192,31037,1,0,0:0:0:0:
192,192,31037,1,0,0:0:0:0:
192,192,31235,1,0,0:0:0:0:
192,192,31434,1,0,0:0:0:0:
64,192,31434,1,0,0:0:0:0:
448,192,31434,1,0,0:0:0:0:
320,192,31434,1,0,0:0:0:0:
64,192,31632,1,0,0:0:0:0:
320,192,31632,1,0,0:0:0:0:
64,192,31831,1,0,0:0:0:0:
192,192,31831,1,0,0:0:0:0:
320,192,31831,1,0,0:0:0:0:
448,192,31831,1,0,0:0:0:0:
448,192,32029,1,0,0:0:0:0:
320,192,32029,1,0,0:0:0:0:
448,192,32228,1,0,0:0:0:0:
320,192,32228,1,0,0:0:0:0:
192,192,32228,1,0,0:0:0:0:
64,192,32228,1,0,0:0:0:0:
64,192,32426,1,0,0:0:0:0:
320,192,32426,1,0,0:0:0:0:
192,192,32624,1,0,0:0:0:0:
64,192,32624,1,0,0:0:0:0:
320,192,32624,1,0,0:0:0:0:
448,192,32822,1,0,0:0:0:0:
192,192,32822,1,0,0:0:0:0:
448,192,33021,1,0,0:0:0:0:
320,192,33021,1,0,0:0:0:0:
192,192,33021,1,0,0:0:0:0:
64,192,33021,1,0,0:0:0:0:
320,192,33219,1,0,0:0:0:0:
448,192,33219,1,0,0:0:0:0:
320,192,33418,1,0,0:0:0:0:
64,192,33418,1,0,0:0:0:0:
192,192,33418,1,0,0:0:0:0:
192,192,33617,1,0,0:0:0:0:
64,192,33617,1,0,0:0:0:0:
448,192,33815,1,0,0:0:0:0:
320,192,33815,1,0,0:0:0:0:
192,192,33815,1,0,0:0:0:0:
64,192,33815,1,0,0:0:0:0:
320,192,34013,1,0,0:0:0:0:
448,192,34013,1,0,0:0:0:0:
448,192,34212,1,0,0:0:0:0:
192,192,34212,1,0,0:0:0:0:
64,192,34212,1,0,0:0:0:0:
320,192,34410,1,0,0:0:0:0:
64,192,34608,1,0,0:0:0:0:
192,192,34608,1,0,0:0:0:0:
448,192,34608,1,0,0:0:0:0:
320,192,34608,1,0,0:0:0:0:
192,192,34807,1,0,0:0:0:0:
448,192,34807,1,0,0:0:0:0:
320,192,35005,1,0,0:0:0:0:
64,192,35005,1,0,0:0:0:0:
192,192,35005,1,0,0:0:0:0:
320,192,35203,1,0,0:0:0:0:
448,192,35203,1,0,0:0:0:0:
64,192,35402,1,0,0:0:0:0:
320,192,35402,1,0,0:0:0:0:
192,192,35402,1,0,0:0:0:0:
448,192,35402,1,0,0:0:0:0:
192,192,35601,1,0,0:0:0:0:
64,192,35601,1,0,0:0:0:0:
320,192,35799,1,0,0:0:0:0:
448,192,35799,1,0,0:0:0:0:
192,192,35799,1,0,0:0:0:0:
320,192,35998,1,0,0:0:0:0:
64,192,36196,1,0,0:0:0:0:
192,192,36196,1,0,0:0:0:0:
448,192,36196,1,0,0:0:0:0:
320,192,36196,1,0,0:0:0:0:
64,192,36394,1,0,0:0:0:0:
192,192,36592,1,0,0:0:0:0:
448,192,36592,1,0,0:0:0:0:
320,192,36592,1,0,0:0:0:0:
320,192,36791,1,0,0:0:0:0:
192,192,36989,1,0,0:0:0:0:
64,192,36989,1,0,0:0:0:0:
448,192,37188,1,0,0:0:0:0:
320,192,37386,1,0,0:0:0:0:
192,192,37386,1,0,0:0:0:0:
64,192,37584,1,0,0:0:0:0:
64,192,37783,1,0,0:0:0:0:
192,192,37783,1,0,0:0:0:0:
64,192,37982,1,0,0:0:0:0:
192,192,37982,1,0,0:0:0:0:
320,192,37982,1,0,0:0:0:0:
64,192,38180,1,0,0:0:0:0:
320,192,38180,1,0,0:0:0:0:
192,192,38180,1,0,0:0:0:0:
448,192,38180,1,0,0:0:0:0:
448,192,38577,1,0,0:0:0:0:
320,192,38577,1,0,0:0:0:0:
192,192,38577,1,0,0:0:0:0:
448,192,38973,1,0,0:0:0:0:
192,192,38973,1,0,0:0:0:0:
64,192,38973,1,0,0:0:0:0:
320,192,39172,1,0,0:0:0:0:
320,192,39370,1,0,0:0:0:0:
192,192,39370,1,0,0:0:0:0:
64,192,39370,1,0,0:0:0:0:
64,192,39568,1,0,0:0:0:0:
192,192,39768,1,0,0:0:0:0:
320,192,39768,1,0,0:0:0:0:
448,192,39768,1,0,0:0:0:0:
448,192,40164,1,0,0:0:0:0:
320,192,40164,1,0,0:0:0:0:
64,192,40164,1,0,0:0:0:0:
320,192,40362,1,0,0:0:0:0:
192,192,40561,1,0,0:0:0:0:
64,192,40561,1,0,0:0:0:0:
448,192,40561,1,0,0:0:0:0:
192,192,40958,1,0,0:0:0:0:
320,192,40958,1,0,0:0:0:0:
448,192,40958,1,0,0:0:0:0:
320,192,41156,1,0,0:0:0:0:
448,192,41156,1,0,0:0:0:0:
448,192,41354,1,0,0:0:0:0:
64,192,41354,1,0,0:0:0:0:
192,192,41354,1,0,0:0:0:0:
192,192,41552,1,0,0:0:0:0:
64,192,41552,1,0,0:0:0:0:
320,192,41552,1,0,0:0:0:0:
192,192,41751,1,0,0:0:0:0:
320,192,41751,1,0,0:0:0:0:
448,192,41751,1,0,0:0:0:0:
320,192,41950,1,0,0:0:0:0:
64,192,41950,1,0,0:0:0:0:
448,192,41950,1,0,0:0:0:0:
448,192,42148,1,0,0:0:0:0:
320,192,42148,1,0,0:0:0:0:
448,192,42248,1,0,0:0:0:0:
320,192,42248,1,0,0:0:0:0:
192,192,42347,1,0,0:0:0:0:
64,192,42347,1,0,0:0:0:0:
64,192,42446,1,0,0:0:0:0:
192,192,42446,1,0,0:0:0:0:
320,192,42545,1,0,0:0:0:0:
448,192,42545,1,0,0:0:0:0:
448,192,42644,1,0,0:0:0:0:
320,192,42644,1,0,0:0:0:0:
192,192,42743,1,0,0:0:0:0:
64,192,42743,1,0,0:0:0:0:
64,192,42842,1,0,0:0:0:0:
192,192,42842,1,0,0:0:0:0:
320,192,42942,1,0,0:0:0:0:
448,192,42942,1,0,0:0:0:0:
64,192,42942,1,0,0:0:0:0:
192,192,43140,1,0,0:0:0:0:
448,192,43338,1,0,0:0:0:0:
64,192,43537,1,0,0:0:0:0:
320,192,43735,1,0,0:0:0:0:
192,192,44132,1,0,0:0:0:0:
64,192,44132,1,0,0:0:0:0:
320,192,44331,1,0,0:0:0:0:
448,192,44331,1,0,0:0:0:0:
448,192,44529,1,0,0:0:0:0:
320,192,44529,1,0,0:0:0:0:
64,192,44529,1,0,0:0:0:0:
192,192,44529,1,0,0:0:0:0:
448,192,44628,1,0,0:0:0:0:
320,192,44628,1,0,0:0:0:0:
64,192,44628,1,0,0:0:0:0:
320,192,44728,1,0,0:0:0:0:
448,192,44728,1,0,0:0:0:0:
192,192,44728,1,0,0:0:0:0:
448,192,44827,1,0,0:0:0:0:
320,192,44827,1,0,0:0:0:0:
320,192,44926,1,0,0:0:0:0:
448,192,44926,1,0,0:0:0:0:
192,192,44926,1,0,0:0:0:0:
64,192,44926,1,0,0:0:0:0:
64,192,45025,1,0,0:0:0:0:
192,192,45025,1,0,0:0:0:0:
448,192,45025,1,0,0:0:0:0:
192,192,45124,1,0,0:0:0:0:
64,192,45124,1,0,0:0:0:0:
320,192,45124,1,0,0:0:0:0:
64,192,45223,1,0,0:0:0:0:
192,192,45223,1,0,0:0:0:0:
64,192,45322,1,0,0:0:0:0:
192,192,45322,1,0,0:0:0:0:
320,192,45322,1,0,0:0:0:0:
448,192,45322,1,0,0:0:0:0:
448,192,45422,1,0,0:0:0:0:
320,192,45422,1,0,0:0:0:0:
448,192,45521,1,0,0:0:0:0:
192,192,45521,1,0,0:0:0:0:
64,192,45521,1,0,0:0:0:0:
64,192,45620,1,0,0:0:0:0:
192,192,45620,1,0,0:0:0:0:
64,192,45719,1,0,0:0:0:0:
192,192,45719,1,0,0:0:0:0:
320,192,45719,1,0,0:0:0:0:
448,192,45719,1,0,0:0:0:0:
320,192,45818,1,0,0:0:0:0:
448,192,45818,1,0,0:0:0:0:
320,192,45918,1,0,0:0:0:0:
192,192,45918,1,0,0:0:0:0:
64,192,45918,1,0,0:0:0:0:
192,192,46018,1,0,0:0:0:0:
64,192,46018,1,0,0:0:0:0:
448,192,46117,1,0,0:0:0:0:
320,192,46117,1,0,0:0:0:0:
192,192,46117,1,0,0:0:0:0:
64,192,46117,1,0,0:0:0:0:
448,192,46216,1,0,0:0:0:0:
320,192,46216,1,0,0:0:0:0:
64,192,46216,1,0,0:0:0:0:
320,192,46315,1,0,0:0:0:0:
448,192,46315,1,0,0:0:0:0:
192,192,46315,1,0,0:0:0:0:
448,192,46414,1,0,0:0:0:0:
320,192,46414,1,0,0:0:0:0:
64,192,46513,1,0,0:0:0:0:
192,192,46513,1,0,0:0:0:0:
320,192,46513,1,0,0:0:0:0:
448,192,46513,1,0,0:0:0:0:
192,192,46612,1,0,0:0:0:0:
64,192,46612,1,0,0:0:0:0:
448,192,46712,1,0,0:0:0:0:
64,192,46712,1,0,0:0:0:0:
320,192,46712,1,0,0:0:0:0:
320,192,46811,1,0,0:0:0:0:
448,192,46811,1,0,0:0:0:0:
64,192,46910,1,0,0:0:0:0:
192,192,46910,1,0,0:0:0:0:
448,192,46910,1,0,0:0:0:0:
320,192,46910,1,0,0:0:0:0:
192,192,47009,1,0,0:0:0:0:
64,192,47009,1,0,0:0:0:0:
448,192,47009,1,0,0:0:0:0:
192,192,47108,1,0,0:0:0:0:
64,192,47108,1,0,0:0:0:0:
320,192,47108,1,0,0:0:0:0:
192,192,47208,1,0,0:0:0:0:
64,192,47208,1,0,0:0:0:0:
448,192,47307,1,0,0:0:0:0:
320,192,47307,1,0,0:0:0:0:
192,192,47307,1,0,0:0:0:0:
64,192,47307,1,0,0:0:0:0:
320,192,47406,1,0,0:0:0:0:
64,192,47505,1,0,0:0:0:0:
192,192,47505,1,0,0:0:0:0:
448,192,47505,1,0,0:0:0:0:
192,192,47604,1,0,0:0:0:0:
64,192,47703,1,0,0:0:0:0:
192,192,47703,1,0,0:0:0:0:
448,192,47703,1,0,0:0:0:0:
320,192,47703,1,0,0:0:0:0:
448,192,47802,1,0,0:0:0:0:
320,192,47802,1,0,0:0:0:0:
448,192,47902,1,0,0:0:0:0:
192,192,47902,1,0,0:0:0:0:
64,192,47902,1,0,0:0:0:0:
192,192,48001,1,0,0:0:0:0:
64,192,48001,1,0,0:0:0:0:
448,192,48101,1,0,0:0:0:0:
320,192,48101,1,0,0:0:0:0:
192,192,48101,1,0,0:0:0:0:
64,192,48101,1,0,0:0:0:0:
320,192,48200,1,0,0:0:0:0:
448,192,48200,1,0,0:0:0:0:
192,192,48299,1,0,0:0:0:0:
64,192,48299,1,0,0:0:0:0:
320,192,48299,1,0,0:0:0:0:
192,192,48398,1,0,0:0:0:0:
64,192,48398,1,0,0:0:0:0:
64,192,48498,1,0,0:0:0:0:
192,192,48498,1,0,0:0:0:0:
448,192,48498,1,0,0:0:0:0:
320,192,48498,1,0,0:0:0:0:
448,192,48597,1,0,0:0:0:0:
320,192,48597,1,0,0:0:0:0:
64,192,48597,1,0,0:0:0:0:
320,192,48696,1,0,0:0:0:0:
448,192,48696,1,0,0:0:0:0:
192,192,48696,1,0,0:0:0:0:
448,192,48795,1,0,0:0:0:0:
320,192,48795,1,0,0:0:0:0:
320,192,48894,1,0,0:0:0:0:
448,192,48894,1,0,0:0:0:0:
192,192,48894,1,0,0:0:0:0:
64,192,48894,1,0,0:0:0:0:
64,192,48993,1,0,0:0:0:0:
192,192,48993,1,0,0:0:0:0:
64,192,49092,1,0,0:0:0:0:
320,192,49092,1,0,0:0:0:0:
448,192,49092,1,0,0:0:0:0:
448,192,49192,1,0,0:0:0:0:
320,192,49192,1,0,0:0:0:0:
448,192,49291,1,0,0:0:0:0:
320,192,49291,1,0,0:0:0:0:
192,192,49291,1,0,0:0:0:0:
64,192,49291,1,0,0:0:0:0:
192,192,49390,1,0,0:0:0:0:
64,192,49390,1,0,0:0:0:0:
192,192,49489,1,0,0:0:0:0:
320,192,49489,1,0,0:0:0:0:
448,192,49489,1,0,0:0:0:0:
448,192,49588,1,0,0:0:0:0:
320,192,49588,1,0,0:0:0:0:
448,192,49688,1,0,0:0:0:0:
320,192,49688,1,0,0:0:0:0:
192,192,49688,1,0,0:0:0:0:
64,192,49688,1,0,0:0:0:0:
192,192,49787,1,0,0:0:0:0:
64,192,49787,1,0,0:0:0:0:
64,192,49886,1,0,0:0:0:0:
320,192,49886,1,0,0:0:0:0:
448,192,49886,1,0,0:0:0:0:
448,192,49985,1,0,0:0:0:0:
320,192,49985,1,0,0:0:0:0:
448,192,50084,1,0,0:0:0:0:
320,192,50084,1,0,0:0:0:0:
64,192,50084,1,0,0:0:0:0:
192,192,50084,1,0,0:0:0:0:
64,192,50184,1,0,0:0:0:0:
192,192,50184,1,0,0:0:0:0:
192,192,50283,1,0,0:0:0:0:
64,192,50283,1,0,0:0:0:0:
320,192,50283,1,0,0:0:0:0:
192,192,50382,1,0,0:0:0:0:
64,192,50382,1,0,0:0:0:0:
320,192,50382,1,0,0:0:0:0:
192,192,50482,1,0,0:0:0:0:
64,192,50482,1,0,0:0:0:0:
448,192,50482,1,0,0:0:0:0:
320,192,50482,1,0,0:0:0:0:
192,192,50581,1,0,0:0:0:0:
64,192,50581,1,0,0:0:0:0:
64,192,50680,1,0,0:0:0:0:
320,192,50680,1,0,0:0:0:0:
448,192,50680,1,0,0:0:0:0:
448,192,50779,1,0,0:0:0:0:
320,192,50779,1,0,0:0:0:0:
64,192,50878,1,0,0:0:0:0:
192,192,50878,1,0,0:0:0:0:
320,192,50878,1,0,0:0:0:0:
448,192,50878,1,0,0:0:0:0:
192,192,50978,1,0,0:0:0:0:
64,192,50978,1,0,0:0:0:0:
320,192,50978,1,0,0:0:0:0:
64,192,51077,1,0,0:0:0:0:
192,192,51077,1,0,0:0:0:0:
320,192,51077,1,0,0:0:0:0:
192,192,51176,1,0,0:0:0:0:
64,192,51176,1,0,0:0:0:0:
64,192,51275,1,0,0:0:0:0:
192,192,51275,1,0,0:0:0:0:
320,192,51275,1,0,0:0:0:0:
448,192,51275,1,0,0:0:0:0:
320,192,51374,1,0,0:0:0:0:
448,192,51374,1,0,0:0:0:0:
192,192,51374,1,0,0:0:0:0:
448,192,51473,1,0,0:0:0:0:
320,192,51473,1,0,0:0:0:0:
192,192,51473,1,0,0:0:0:0:
320,192,51572,1,0,0:0:0:0:
448,192,51572,1,0,0:0:0:0:
448,192,51672,1,0,0:0:0:0:
320,192,51672,1,0,0:0:0:0:
192,192,51672,1,0,0:0:0:0:
64,192,51672,1,0,0:0:0:0:
64,192,51771,1,0,0:0:0:0:
192,192,51771,1,0,0:0:0:0:
64,192,51870,1,0,0:0:0:0:
320,192,51870,1,0,0:0:0:0:
448,192,51870,1,0,0:0:0:0:
448,192,51969,1,0,0:0:0:0:
320,192,51969,1,0,0:0:0:0:
448,192,52068,1,0,0:0:0:0:
320,192,52068,1,0,0:0:0:0:
192,192,52068,1,0,0:0:0:0:
64,192,52068,1,0,0:0:0:0:
64,192,52168,1,0,0:0:0:0:
192,192,52168,1,0,0:0:0:0:
192,192,52268,1,0,0:0:0:0:
320,192,52268,1,0,0:0:0:0:
448,192,52268,1,0,0:0:0:0:
448,192,52367,1,0,0:0:0:0:
320,192,52367,1,0,0:0:0:0:
448,192,52466,1,0,0:0:0:0:
320,192,52466,1,0,0:0:0:0:
192,192,52466,1,0,0:0:0:0:
64,192,52466,1,0,0:0:0:0:
64,192,52565,1,0,0:0:0:0:
192,192,52565,1,0,0:0:0:0:
64,192,52664,1,0,0:0:0:0:
320,192,52664,1,0,0:0:0:0:
448,192,52664,1,0,0:0:0:0:
192,192,52664,1,0,0:0:0:0:
320,192,52763,1,0,0:0:0:0:
448,192,52763,1,0,0:0:0:0:
64,192,52862,1,0,0:0:0:0:
192,192,52862,1,0,0:0:0:0:
320,192,52862,1,0,0:0:0:0:
448,192,52862,1,0,0:0:0:0:
192,192,52962,1,0,0:0:0:0:
64,192,52962,1,0,0:0:0:0:
64,192,53061,1,0,0:0:0:0:
192,192,53061,1,0,0:0:0:0:
320,192,53061,1,0,0:0:0:0:
448,192,53061,1,0,0:0:0:0:
320,192,53160,1,0,0:0:0:0:
448,192,53160,1,0,0:0:0:0:
64,192,53259,1,0,0:0:0:0:
192,192,53259,1,0,0:0:0:0:
320,192,53259,1,0,0:0:0:0:
448,192,53259,1,0,0:0:0:0:
192,192,53358,1,0,0:0:0:0:
64,192,53358,1,0,0:0:0:0:
320,192,53358,1,0,0:0:0:0:
64,192,53458,1,0,0:0:0:0:
192,192,53458,1,0,0:0:0:0:
320,192,53458,1,0,0:0:0:0:
192,192,53557,1,0,0:0:0:0:
64,192,53557,1,0,0:0:0:0:
448,192,53656,1,0,0:0:0:0:
192,192,53656,1,0,0:0:0:0:
320,192,53656,1,0,0:0:0:0:
64,192,53656,1,0,0:0:0:0:
320,192,53755,1,0,0:0:0:0:
448,192,53755,1,0,0:0:0:0:
448,192,53854,1,0,0:0:0:0:
192,192,53854,1,0,0:0:0:0:
64,192,53854,1,0,0:0:0:0:
64,192,53953,1,0,0:0:0:0:
192,192,53953,1,0,0:0:0:0:
64,192,54052,1,0,0:0:0:0:
192,192,54052,1,0,0:0:0:0:
320,192,54052,1,0,0:0:0:0:
448,192,54052,1,0,0:0:0:0:
320,192,54152,1,0,0:0:0:0:
448,192,54152,1,0,0:0:0:0:
320,192,54251,1,0,0:0:0:0:
192,192,54251,1,0,0:0:0:0:
64,192,54251,1,0,0:0:0:0:
192,192,54351,1,0,0:0:0:0:
64,192,54351,1,0,0:0:0:0:
64,192,54450,1,0,0:0:0:0:
192,192,54450,1,0,0:0:0:0:
320,192,54450,1,0,0:0:0:0:
448,192,54450,1,0,0:0:0:0:
320,192,54549,1,0,0:0:0:0:
448,192,54549,1,0,0:0:0:0:
448,192,54648,1,0,0:0:0:0:
192,192,54648,1,0,0:0:0:0:
64,192,54648,1,0,0:0:0:0:
192,192,54748,1,0,0:0:0:0:
64,192,54748,1,0,0:0:0:0:
64,192,54847,1,0,0:0:0:0:
192,192,54847,1,0,0:0:0:0:
320,192,54847,1,0,0:0:0:0:
448,192,54847,1,0,0:0:0:0:
320,192,54946,1,0,0:0:0:0:
448,192,54946,1,0,0:0:0:0:
192,192,54946,1,0,0:0:0:0:
448,192,55045,1,0,0:0:0:0:
320,192,55045,1,0,0:0:0:0:
192,192,55045,1,0,0:0:0:0:
320,192,55144,1,0,0:0:0:0:
448,192,55144,1,0,0:0:0:0:
448,192,55243,1,0,0:0:0:0:
320,192,55243,1,0,0:0:0:0:
64,192,55243,1,0,0:0:0:0:
192,192,55243,1,0,0:0:0:0:
64,192,55442,1,0,0:0:0:0:
192,192,55640,1,0,0:0:0:0:
320,192,55640,1,0,0:0:0:0:
448,192,55640,1,0,0:0:0:0:
64,192,55838,1,0,0:0:0:0:
448,192,56037,1,0,0:0:0:0:
320,192,56235,1,0,0:0:0:0:
192,192,56434,1,0,0:0:0:0:
448,192,56632,1,0,0:0:0:0:
448,192,56831,1,0,0:0:0:0:
320,192,56831,1,0,0:0:0:0:
448,192,57029,1,0,0:0:0:0:
320,192,57029,1,0,0:0:0:0:
192,192,57029,1,0,0:0:0:0:
64,192,57228,1,0,0:0:0:0:
192,192,57228,1,0,0:0:0:0:
320,192,57228,1,0,0:0:0:0:
448,192,57228,1,0,0:0:0:0:
192,192,57327,1,0,0:0:0:0:
64,192,57327,1,0,0:0:0:0:
320,192,57327,1,0,0:0:0:0:
64,192,57426,1,0,0:0:0:0:
192,192,57426,1,0,0:0:0:0:
320,192,57426,1,0,0:0:0:0:
192,192,57525,1,0,0:0:0:0:
64,192,57525,1,0,0:0:0:0:
64,192,57624,1,0,0:0:0:0:
320,192,57624,1,0,0:0:0:0:
192,192,57624,1,0,0:0:0:0:
448,192,57624,1,0,0:0:0:0:
448,192,57723,1,0,0:0:0:0:
320,192,57723,1,0,0:0:0:0:
192,192,57723,1,0,0:0:0:0:
320,192,57822,1,0,0:0:0:0:
448,192,57822,1,0,0:0:0:0:
192,192,57822,1,0,0:0:0:0:
448,192,57922,1,0,0:0:0:0:
320,192,57922,1,0,0:0:0:0:
320,192,58021,1,0,0:0:0:0:
448,192,58021,1,0,0:0:0:0:
192,192,58021,1,0,0:0:0:0:
64,192,58021,1,0,0:0:0:0:
64,192,58120,1,0,0:0:0:0:
192,192,58120,1,0,0:0:0:0:
64,192,58219,1,0,0:0:0:0:
320,192,58219,1,0,0:0:0:0:
448,192,58219,1,0,0:0:0:0:
448,192,58318,1,0,0:0:0:0:
320,192,58318,1,0,0:0:0:0:
320,192,58418,1,0,0:0:0:0:
448,192,58418,1,0,0:0:0:0:
192,192,58418,1,0,0:0:0:0:
64,192,58418,1,0,0:0:0:0:
192,192,58518,1,0,0:0:0:0:
64,192,58518,1,0,0:0:0:0:
192,192,58617,1,0,0:0:0:0:
320,192,58617,1,0,0:0:0:0:
448,192,58617,1,0,0:0:0:0:
448,192,58716,1,0,0:0:0:0:
320,192,58716,1,0,0:0:0:0:
320,192,58815,1,0,0:0:0:0:
448,192,58815,1,0,0:0:0:0:
192,192,58815,1,0,0:0:0:0:
64,192,58815,1,0,0:0:0:0:
64,192,58914,1,0,0:0:0:0:
192,192,58914,1,0,0:0:0:0:
320,192,58914,1,0,0:0:0:0:
64,192,59013,1,0,0:0:0:0:
192,192,59013,1,0,0:0:0:0:
320,192,59013,1,0,0:0:0:0:
192,192,59112,1,0,0:0:0:0:
64,192,59112,1,0,0:0:0:0:
64,192,59212,1,0,0:0:0:0:
192,192,59212,1,0,0:0:0:0:
320,192,59212,1,0,0:0:0:0:
448,192,59212,1,0,0:0:0:0:
448,192,59311,1,0,0:0:0:0:
320,192,59311,1,0,0:0:0:0:
448,192,59410,1,0,0:0:0:0:
192,192,59410,1,0,0:0:0:0:
64,192,59410,1,0,0:0:0:0:
64,192,59509,1,0,0:0:0:0:
192,192,59509,1,0,0:0:0:0:
64,192,59608,1,0,0:0:0:0:
192,192,59608,1,0,0:0:0:0:
320,192,59608,1,0,0:0:0:0:
448,192,59608,1,0,0:0:0:0:
448,192,59708,1,0,0:0:0:0:
320,192,59708,1,0,0:0:0:0:
192,192,59708,1,0,0:0:0:0:
320,192,59807,1,0,0:0:0:0:
448,192,59807,1,0,0:0:0:0:
192,192,59807,1,0,0:0:0:0:
448,192,59906,1,0,0:0:0:0:
320,192,59906,1,0,0:0:0:0:
320,192,60005,1,0,0:0:0:0:
448,192,60005,1,0,0:0:0:0:
192,192,60005,1,0,0:0:0:0:
64,192,60005,1,0,0:0:0:0:
64,192,60104,1,0,0:0:0:0:
192,192,60203,1,0,0:0:0:0:
320,192,60203,1,0,0:0:0:0:
448,192,60203,1,0,0:0:0:0:
320,192,60302,1,0,0:0:0:0:
448,192,60402,1,0,0:0:0:0:
320,192,60402,1,0,0:0:0:0:
192,192,60402,1,0,0:0:0:0:
64,192,60402,1,0,0:0:0:0:
192,192,60501,1,0,0:0:0:0:
64,192,60501,1,0,0:0:0:0:
64,192,60601,1,0,0:0:0:0:
320,192,60601,1,0,0:0:0:0:
448,192,60601,1,0,0:0:0:0:
448,192,60700,1,0,0:0:0:0:
320,192,60700,1,0,0:0:0:0:
448,192,60799,1,0,0:0:0:0:
320,192,60799,1,0,0:0:0:0:
192,192,60799,1,0,0:0:0:0:
64,192,60799,1,0,0:0:0:0:
192,192,60898,1,0,0:0:0:0:
64,192,60898,1,0,0:0:0:0:
192,192,60998,1,0,0:0:0:0:
448,192,60998,1,0,0:0:0:0:
320,192,60998,1,0,0:0:0:0:
320,192,61097,1,0,0:0:0:0:
448,192,61097,1,0,0:0:0:0:
448,192,61196,1,0,0:0:0:0:
320,192,61196,1,0,0:0:0:0:
192,192,61196,1,0,0:0:0:0:
64,192,61196,1,0,0:0:0:0:
192,192,61295,1,0,0:0:0:0:
64,192,61295,1,0,0:0:0:0:
448,192,61295,1,0,0:0:0:0:
64,192,61394,1,0,0:0:0:0:
192,192,61394,1,0,0:0:0:0:
320,192,61394,1,0,0:0:0:0:
192,192,61493,1,0,0:0:0:0:
64,192,61493,1,0,0:0:0:0:
64,192,61592,1,0,0:0:0:0:
192,192,61592,1,0,0:0:0:0:
320,192,61592,1,0,0:0:0:0:
448,192,61592,1,0,0:0:0:0:
320,192,61692,1,0,0:0:0:0:
192,192,61791,1,0,0:0:0:0:
64,192,61791,1,0,0:0:0:0:
448,192,61791,1,0,0:0:0:0:
192,192,61890,1,0,0:0:0:0:
64,192,61989,1,0,0:0:0:0:
320,192,61989,1,0,0:0:0:0:
192,192,61989,1,0,0:0:0:0:
448,192,61989,1,0,0:0:0:0:
448,192,62088,1,0,0:0:0:0:
320,192,62088,1,0,0:0:0:0:
448,192,62188,1,0,0:0:0:0:
192,192,62188,1,0,0:0:0:0:
64,192,62188,1,0,0:0:0:0:
64,192,62287,1,0,0:0:0:0:
192,192,62287,1,0,0:0:0:0:
64,192,62386,1,0,0:0:0:0:
192,192,62386,1,0,0:0:0:0:
320,192,62386,1,0,0:0:0:0:
448,192,62386,1,0,0:0:0:0:
448,192,62485,1,0,0:0:0:0:
320,192,62485,1,0,0:0:0:0:
320,192,62584,1,0,0:0:0:0:
192,192,62584,1,0,0:0:0:0:
64,192,62584,1,0,0:0:0:0:
64,192,62684,1,0,0:0:0:0:
192,192,62684,1,0,0:0:0:0:
64,192,62783,1,0,0:0:0:0:
192,192,62783,1,0,0:0:0:0:
448,192,62783,1,0,0:0:0:0:
320,192,62783,1,0,0:0:0:0:
448,192,62882,1,0,0:0:0:0:
320,192,62882,1,0,0:0:0:0:
320,192,62982,1,0,0:0:0:0:
448,192,62982,1,0,0:0:0:0:
192,192,62982,1,0,0:0:0:0:
448,192,63081,1,0,0:0:0:0:
320,192,63081,1,0,0:0:0:0:
192,192,63081,1,0,0:0:0:0:
320,192,63180,1,0,0:0:0:0:
448,192,63180,1,0,0:0:0:0:
192,192,63180,1,0,0:0:0:0:
64,192,63180,1,0,0:0:0:0:
320,192,63279,1,0,0:0:0:0:
448,192,63279,1,0,0:0:0:0:
448,192,63378,1,0,0:0:0:0:
192,192,63378,1,0,0:0:0:0:
64,192,63378,1,0,0:0:0:0:
192,192,63478,1,0,0:0:0:0:
64,192,63478,1,0,0:0:0:0:
448,192,63577,1,0,0:0:0:0:
320,192,63577,1,0,0:0:0:0:
192,192,63577,1,0,0:0:0:0:
64,192,63577,1,0,0:0:0:0:
320,192,63676,1,0,0:0:0:0:
448,192,63676,1,0,0:0:0:0:
64,192,63676,1,0,0:0:0:0:
448,192,63775,1,0,0:0:0:0:
320,192,63775,1,0,0:0:0:0:
192,192,63775,1,0,0:0:0:0:
320,192,63874,1,0,0:0:0:0:
448,192,63874,1,0,0:0:0:0:
448,192,63973,1,0,0:0:0:0:
320,192,63973,1,0,0:0:0:0:
192,192,63973,1,0,0:0:0:0:
64,192,63973,1,0,0:0:0:0:
64,192,64072,1,0,0:0:0:0:
192,192,64072,1,0,0:0:0:0:
448,192,64072,1,0,0:0:0:0:
192,192,64172,1,0,0:0:0:0:
64,192,64172,1,0,0:0:0:0:
320,192,64172,1,0,0:0:0:0:
64,192,64271,1,0,0:0:0:0:
192,192,64271,1,0,0:0:0:0:
64,192,64370,1,0,0:0:0:0:
192,192,64370,1,0,0:0:0:0:
320,192,64370,1,0,0:0:0:0:
448,192,64370,1,0,0:0:0:0:
448,192,64469,1,0,0:0:0:0:
320,192,64469,1,0,0:0:0:0:
448,192,64568,1,0,0:0:0:0:
192,192,64568,1,0,0:0:0:0:
64,192,64568,1,0,0:0:0:0:
192,192,64668,1,0,0:0:0:0:
64,192,64668,1,0,0:0:0:0:
64,192,64768,1,0,0:0:0:0:
320,192,64768,1,0,0:0:0:0:
192,192,64768,1,0,0:0:0:0:
448,192,64768,1,0,0:0:0:0:
448,192,64867,1,0,0:0:0:0:
320,192,64867,1,0,0:0:0:0:
320,192,64966,1,0,0:0:0:0:
192,192,64966,1,0,0:0:0:0:
64,192,64966,1,0,0:0:0:0:
64,192,65065,1,0,0:0:0:0:
192,192,65065,1,0,0:0:0:0:
64,192,65164,1,0,0:0:0:0:
192,192,65164,1,0,0:0:0:0:
320,192,65164,1,0,0:0:0:0:
448,192,65164,1,0,0:0:0:0:
448,192,65263,1,0,0:0:0:0:
320,192,65263,1,0,0:0:0:0:
320,192,65362,1,0,0:0:0:0:
448,192,65362,1,0,0:0:0:0:
192,192,65362,1,0,0:0:0:0:
64,192,65362,1,0,0:0:0:0:
64,192,65462,1,0,0:0:0:0:
192,192,65462,1,0,0:0:0:0:
64,192,65561,1,0,0:0:0:0:
192,192,65561,1,0,0:0:0:0:
320,192,65561,1,0,0:0:0:0:
448,192,65561,1,0,0:0:0:0:
448,192,65660,1,0,0:0:0:0:
320,192,65660,1,0,0:0:0:0:
320,192,65759,1,0,0:0:0:0:
448,192,65759,1,0,0:0:0:0:
192,192,65759,1,0,0:0:0:0:
64,192,65759,1,0,0:0:0:0:
64,192,65858,1,0,0:0:0:0:
192,192,65858,1,0,0:0:0:0:
64,192,65958,1,0,0:0:0:0:
192,192,65958,1,0,0:0:0:0:
448,192,65958,1,0,0:0:0:0:
320,192,65958,1,0,0:0:0:0:
448,192,66057,1,0,0:0:0:0:
320,192,66057,1,0,0:0:0:0:
64,192,66057,1,0,0:0:0:0:
320,192,66156,1,0,0:0:0:0:
448,192,66156,1,0,0:0:0:0:
192,192,66156,1,0,0:0:0:0:
448,192,66255,1,0,0:0:0:0:
320,192,66255,1,0,0:0:0:0:
320,192,66354,1,0,0:0:0:0:
448,192,66354,1,0,0:0:0:0:
192,192,66354,1,0,0:0:0:0:
64,192,66354,1,0,0:0:0:0:
192,192,66453,1,0,0:0:0:0:
64,192,66453,1,0,0:0:0:0:
64,192,66552,1,0,0:0:0:0:
320,192,66552,1,0,0:0:0:0:
448,192,66552,1,0,0:0:0:0:
448,192,66652,1,0,0:0:0:0:
320,192,66652,1,0,0:0:0:0:
448,192,66751,1,0,0:0:0:0:
320,192,66751,1,0,0:0:0:0:
192,192,66751,1,0,0:0:0:0:
64,192,66751,1,0,0:0:0:0:
192,192,66851,1,0,0:0:0:0:
64,192,66851,1,0,0:0:0:0:
192,192,66950,1,0,0:0:0:0:
320,192,66950,1,0,0:0:0:0:
448,192,66950,1,0,0:0:0:0:
448,192,67049,1,0,0:0:0:0:
320,192,67049,1,0,0:0:0:0:
64,192,67148,1,0,0:0:0:0:
192,192,67148,1,0,0:0:0:0:
320,192,67148,1,0,0:0:0:0:
448,192,67148,1,0,0:0:0:0:
192,192,67248,1,0,0:0:0:0:
64,192,67248,1,0,0:0:0:0:
64,192,67347,1,0,0:0:0:0:
320,192,67347,1,0,0:0:0:0:
448,192,67347,1,0,0:0:0:0:
448,192,67446,1,0,0:0:0:0:
320,192,67446,1,0,0:0:0:0:
448,192,67545,1,0,0:0:0:0:
320,192,67545,1,0,0:0:0:0:
192,192,67545,1,0,0:0:0:0:
64,192,67545,1,0,0:0:0:0:
192,192,67644,1,0,0:0:0:0:
64,192,67644,1,0,0:0:0:0:
448,192,67644,1,0,0:0:0:0:
64,192,67743,1,0,0:0:0:0:
192,192,67743,1,0,0:0:0:0:
320,192,67743,1,0,0:0:0:0:
192,192,67842,1,0,0:0:0:0:
64,192,67842,1,0,0:0:0:0:
64,192,67942,1,0,0:0:0:0:
192,192,67942,1,0,0:0:0:0:
320,192,67942,1,0,0:0:0:0:
448,192,67942,1,0,0:0:0:0:
448,192,68140,1,0,0:0:0:0:
320,192,68338,1,0,0:0:0:0:
192,192,68338,1,0,0:0:0:0:
64,192,68338,1,0,0:0:0:0:
448,192,68537,1,0,0:0:0:0:
64,192,68735,1,0,0:0:0:0:
192,192,68934,1,0,0:0:0:0:
320,192,69132,1,0,0:0:0:0:
64,192,69331,1,0,0:0:0:0:
64,192,69529,1,0,0:0:0:0:
192,192,69529,1,0,0:0:0:0:
64,192,69728,1,0,0:0:0:0:
192,192,69728,1,0,0:0:0:0:
320,192,69728,1,0,0:0:0:0:
64,192,69926,1,0,0:0:0:0:
448,192,69926,1,0,0:0:0:0:
192,192,69926,1,0,0:0:0:0:
320,192,69926,1,0,0:0:0:0:
320,192,70124,1,0,0:0:0:0:
192,192,70322,1,0,0:0:0:0:
64,192,70521,1,0,0:0:0:0:
320,192,70719,1,0,0:0:0:0:
448,192,70719,1,0,0:0:0:0:
192,192,70918,1,0,0:0:0:0:
320,192,71117,1,0,0:0:0:0:
448,192,71315,1,0,0:0:0:0:
64,192,71513,1,0,0:0:0:0:
192,192,71513,1,0,0:0:0:0:
320,192,71712,1,0,0:0:0:0:
192,192,71910,1,0,0:0:0:0:
64,192,72108,1,0,0:0:0:0:
448,192,72307,1,0,0:0:0:0:
320,192,72307,1,0,0:0:0:0:
192,192,72505,1,0,0:0:0:0:
448,192,72703,1,0,0:0:0:0:
64,192,72902,1,0,0:0:0:0:
320,192,73101,1,0,0:0:0:0:
192,192,73101,1,0,0:0:0:0:
448,192,73299,1,0,0:0:0:0:
64,192,73498,1,0,0:0:0:0:
192,192,73696,1,0,0:0:0:0:
320,192,73894,1,0,0:0:0:0:
448,192,73894,1,0,0:0:0:0:
192,192,74092,1,0,0:0:0:0:
64,192,74291,1,0,0:0:0:0:
320,192,74489,1,0,0:0:0:0:
448,192,74688,1,0,0:0:0:0:
64,192,74688,1,0,0:0:0:0:
320,192,74886,1,0,0:0:0:0:
192,192,75084,1,0,0:0:0:0:
64,192,75283,1,0,0:0:0:0:
448,192,75482,1,0,0:0:0:0:
320,192,75482,1,0,0:0:0:0:
64,192,75680,1,0,0:0:0:0:
64,192,75878,1,0,0:0:0:0:
192,192,75878,1,0,0:0:0:0:
64,192,76077,1,0,0:0:0:0:
192,192,76077,1,0,0:0:0:0:
320,192,76077,1,0,0:0:0:0:
448,192,76275,1,0,0:0:0:0:
320,192,76275,1,0,0:0:0:0:
192,192,76275,1,0,0:0:0:0:
64,192,76275,1,0,0:0:0:0:
192,192,76473,1,0,0:0:0:0:
448,192,76672,1,0,0:0:0:0:
320,192,76672,1,0,0:0:0:0:
64,192,76672,1,0,0:0:0:0:
192,192,76870,1,0,0:0:0:0:
64,192,77068,1,0,0:0:0:0:
448,192,77068,1,0,0:0:0:0:
320,192,77268,1,0,0:0:0:0:
192,192,77466,1,0,0:0:0:0:
64,192,77466,1,0,0:0:0:0:
448,192,77466,1,0,0:0:0:0:
320,192,77664,1,0,0:0:0:0:
448,192,77862,1,0,0:0:0:0:
64,192,77862,1,0,0:0:0:0:
192,192,78061,1,0,0:0:0:0:
64,192,78259,1,0,0:0:0:0:
320,192,78259,1,0,0:0:0:0:
448,192,78259,1,0,0:0:0:0:
192,192,78458,1,0,0:0:0:0:
320,192,78656,1,0,0:0:0:0:
64,192,78656,1,0,0:0:0:0:
448,192,78854,1,0,0:0:0:0:
320,192,79052,1,0,0:0:0:0:
192,192,79052,1,0,0:0:0:0:
64,192,79052,1,0,0:0:0:0:
448,192,79251,1,0,0:0:0:0:
192,192,79450,1,0,0:0:0:0:
64,192,79450,1,0,0:0:0:0:
320,192,79648,1,0,0:0:0:0:
448,192,79847,1,0,0:0:0:0:
192,192,79847,1,0,0:0:0:0:
64,192,79847,1,0,0:0:0:0:
320,192,80045,1,0,0:0:0:0:
64,192,80243,1,0,0:0:0:0:
448,192,80243,1,0,0:0:0:0:
192,192,80442,1,0,0:0:0:0:
320,192,80640,1,0,0:0:0:0:
448,192,80640,1,0,0:0:0:0:
64,192,80640,1,0,0:0:0:0:
192,192,80838,1,0,0:0:0:0:
320,192,81037,1,0,0:0:0:0:
448,192,81037,1,0,0:0:0:0:
64,192,81235,1,0,0:0:0:0:
192,192,81434,1,0,0:0:0:0:
320,192,81434,1,0,0:0:0:0:
448,192,81434,1,0,0:0:0:0:
64,192,81632,1,0,0:0:0:0:
448,192,81831,1,0,0:0:0:0:
320,192,81831,1,0,0:0:0:0:
192,192,82029,1,0,0:0:0:0:
64,192,82228,1,0,0:0:0:0:
320,192,82228,1,0,0:0:0:0:
448,192,82228,1,0,0:0:0:0:
192,192,82426,1,0,0:0:0:0:
64,192,82624,1,0,0:0:0:0:
448,192,82624,1,0,0:0:0:0:
320,192,82822,1,0,0:0:0:0:
448,192,83021,1,0,0:0:0:0:
192,192,83021,1,0,0:0:0:0:
64,192,83021,1,0,0:0:0:0:
320,192,83219,1,0,0:0:0:0:
448,192,83418,1,0,0:0:0:0:
64,192,83418,1,0,0:0:0:0:
192,192,83617,1,0,0:0:0:0:
64,192,83815,1,0,0:0:0:0:
448,192,83815,1,0,0:0:0:0:
320,192,83815,1,0,0:0:0:0:
192,192,84013,1,0,0:0:0:0:
64,192,84212,1,0,0:0:0:0:
192,192,84212,1,0,0:0:0:0:
448,192,84410,1,0,0:0:0:0:
320,192,84608,1,0,0:0:0:0:
192,192,84608,1,0,0:0:0:0:
64,192,84608,1,0,0:0:0:0:
448,192,84807,1,0,0:0:0:0:
320,192,85005,1,0,0:0:0:0:
192,192,85005,1,0,0:0:0:0:
64,192,85203,1,0,0:0:0:0:
448,192,85402,1,0,0:0:0:0:
320,192,85402,1,0,0:0:0:0:
192,192,85402,1,0,0:0:0:0:
64,192,85601,1,0,0:0:0:0:
192,192,85799,1,0,0:0:0:0:
448,192,85799,128,0,86196:0:0:0:0:
320,192,85998,1,0,0:0:0:0:
320,192,86196,1,0,0:0:0:0:
192,192,86196,1,0,0:0:0:0:
64,192,86196,1,0,0:0:0:0:
192,192,86394,1,0,0:0:0:0:
64,192,86592,128,0,86989:0:0:0:0:
448,192,86592,1,0,0:0:0:0:
320,192,86791,1,0,0:0:0:0:
320,192,86989,1,0,0:0:0:0:
448,192,86989,1,0,0:0:0:0:
192,192,86989,1,0,0:0:0:0:
192,192,87188,1,0,0:0:0:0:
448,192,87386,128,0,88577:0:0:0:0:
64,192,87386,1,0,0:0:0:0:
64,192,88577,128,0,88775:0:0:0:0:
192,192,88775,128,0,88973:0:0:0:0:
64,192,88973,1,0,0:0:0:0:
320,192,88973,1,0,0:0:0:0:
448,192,88973,1,0,0:0:0:0:
448,192,89172,1,0,0:0:0:0:
320,192,89370,1,0,0:0:0:0:
192,192,89370,1,0,0:0:0:0:
64,192,89370,1,0,0:0:0:0:
448,192,89370,1,0,0:0:0:0:
192,192,89568,1,0,0:0:0:0:
64,192,89768,1,0,0:0:0:0:
320,192,89768,1,0,0:0:0:0:
448,192,89768,1,0,0:0:0:0:
192,192,89966,1,0,0:0:0:0:
448,192,89966,1,0,0:0:0:0:
448,192,90164,1,0,0:0:0:0:
320,192,90164,1,0,0:0:0:0:
192,192,90164,1,0,0:0:0:0:
64,192,90164,1,0,0:0:0:0:
64,192,90362,1,0,0:0:0:0:
320,192,90362,1,0,0:0:0:0:
320,192,90561,1,0,0:0:0:0:
448,192,90561,1,0,0:0:0:0:
192,192,90561,1,0,0:0:0:0:
192,192,90759,1,0,0:0:0:0:
64,192,90759,1,0,0:0:0:0:
448,192,90958,1,0,0:0:0:0:
320,192,90958,1,0,0:0:0:0:
192,192,90958,1,0,0:0:0:0:
64,192,90958,1,0,0:0:0:0:
320,192,91156,1,0,0:0:0:0:
448,192,91156,1,0,0:0:0:0:
64,192,91354,1,0,0:0:0:0:
448,192,91354,1,0,0:0:0:0:
192,192,91354,1,0,0:0:0:0:
320,192,91552,1,0,0:0:0:0:
448,192,91751,1,0,0:0:0:0:
320,192,91751,1,0,0:0:0:0:
64,192,91751,1,0,0:0:0:0:
192,192,91751,1,0,0:0:0:0:
64,192,91950,1,0,0:0:0:0:
192,192,91950,1,0,0:0:0:0:
448,192,92148,1,0,0:0:0:0:
192,192,92148,1,0,0:0:0:0:
320,192,92148,1,0,0:0:0:0:
320,192,92347,1,0,0:0:0:0:
448,192,92347,1,0,0:0:0:0:
320,192,92545,1,0,0:0:0:0:
192,192,92545,1,0,0:0:0:0:
64,192,92545,1,0,0:0:0:0:
448,192,92545,1,0,0:0:0:0:
192,192,92743,1,0,0:0:0:0:
64,192,92743,1,0,0:0:0:0:
64,192,92942,1,0,0:0:0:0:
320,192,92942,1,0,0:0:0:0:
448,192,92942,1,0,0:0:0:0:
192,192,93140,1,0,0:0:0:0:
320,192,93338,1,0,0:0:0:0:
64,192,93338,1,0,0:0:0:0:
192,192,93338,1,0,0:0:0:0:
448,192,93338,1,0,0:0:0:0:
64,192,93537,1,0,0:0:0:0:
320,192,93537,1,0,0:0:0:0:
64,192,93735,1,0,0:0:0:0:
320,192,93735,1,0,0:0:0:0:
448,192,93735,1,0,0:0:0:0:
192,192,93735,1,0,0:0:0:0:
448,192,93934,1,0,0:0:0:0:
320,192,93934,1,0,0:0:0:0:
448,192,94132,1,0,0:0:0:0:
320,192,94132,1,0,0:0:0:0:
192,192,94132,1,0,0:0:0:0:
64,192,94132,1,0,0:0:0:0:
64,192,94331,1,0,0:0:0:0:
192,192,94331,1,0,0:0:0:0:
64,192,94529,1,0,0:0:0:0:
320,192,94529,1,0,0:0:0:0:
448,192,94529,1,0,0:0:0:0:
192,192,94728,1,0,0:0:0:0:
192,192,94926,1,0,0:0:0:0:
64,192,94926,1,0,0:0:0:0:
448,192,94926,1,0,0:0:0:0:
320,192,94926,1,0,0:0:0:0:
448,192,95124,1,0,0:0:0:0:
320,192,95124,1,0,0:0:0:0:
64,192,95322,1,0,0:0:0:0:
192,192,95322,1,0,0:0:0:0:
320,192,95322,1,0,0:0:0:0:
448,192,95322,1,0,0:0:0:0:
192,192,95521,1,0,0:0:0:0:
448,192,95719,1,0,0:0:0:0:
320,192,95719,1,0,0:0:0:0:
192,192,95719,1,0,0:0:0:0:
64,192,95719,1,0,0:0:0:0:
64,192,95918,1,0,0:0:0:0:
320,192,95918,1,0,0:0:0:0:
192,192,96117,1,0,0:0:0:0:
64,192,96117,1,0,0:0:0:0:
320,192,96117,1,0,0:0:0:0:
448,192,96315,1,0,0:0:0:0:
192,192,96315,1,0,0:0:0:0:
448,192,96513,1,0,0:0:0:0:
320,192,96513,1,0,0:0:0:0:
192,192,96513,1,0,0:0:0:0:
64,192,96513,1,0,0:0:0:0:
320,192,96712,1,0,0:0:0:0:
448,192,96712,1,0,0:0:0:0:
320,192,96910,1,0,0:0:0:0:
64,192,96910,1,0,0:0:0:0:
192,192,96910,1,0,0:0:0:0:
192,192,97108,1,0,0:0:0:0:
64,192,97108,1,0,0:0:0:0:
448,192,97307,1,0,0:0:0:0:
320,192,97307,1,0,0:0:0:0:
192,192,97307,1,0,0:0:0:0:
64,192,97307,1,0,0:0:0:0:
320,192,97505,1,0,0:0:0:0:
448,192,97505,1,0,0:0:0:0:
448,192,97703,1,0,0:0:0:0:
192,192,97703,1,0,0:0:0:0:
64,192,97703,1,0,0:0:0:0:
192,192,97902,1,0,0:0:0:0:
64,192,98101,1,0,0:0:0:0:
192,192,98101,1,0,0:0:0:0:
448,192,98101,1,0,0:0:0:0:
320,192,98101,1,0,0:0:0:0:
320,192,98299,1,0,0:0:0:0:
448,192,98299,1,0,0:0:0:0:
448,192,98498,1,0,0:0:0:0:
64,192,98498,1,0,0:0:0:0:
192,192,98498,1,0,0:0:0:0:
320,192,98696,1,0,0:0:0:0:
64,192,98696,1,0,0:0:0:0:
64,192,98894,1,0,0:0:0:0:
320,192,98894,1,0,0:0:0:0:
192,192,98894,1,0,0:0:0:0:
448,192,98894,1,0,0:0:0:0:
448,192,99092,1,0,0:0:0:0:
192,192,99092,1,0,0:0:0:0:
320,192,99291,1,0,0:0:0:0:
64,192,99291,1,0,0:0:0:0:
192,192,99291,1,0,0:0:0:0:
320,192,99489,1,0,0:0:0:0:
64,192,99688,1,0,0:0:0:0:
192,192,99688,1,0,0:0:0:0:
448,192,99688,1,0,0:0:0:0:
320,192,99688,1,0,0:0:0:0:
64,192,99886,1,0,0:0:0:0:
192,192,100084,1,0,0:0:0:0:
448,192,100084,1,0,0:0:0:0:
320,192,100283,1,0,0:0:0:0:
192,192,100482,1,0,0:0:0:0:
64,192,100482,1,0,0:0:0:0:
448,192,100680,1,0,0:0:0:0:
320,192,100878,1,0,0:0:0:0:
192,192,100878,1,0,0:0:0:0:
64,192,101077,1,0,0:0:0:0:
64,192,101275,1,0,0:0:0:0:
192,192,101275,1,0,0:0:0:0:
64,192,101473,1,0,0:0:0:0:
192,192,101473,1,0,0:0:0:0:
320,192,101473,1,0,0:0:0:0:
64,192,101672,1,0,0:0:0:0:
320,192,101672,1,0,0:0:0:0:
192,192,101672,1,0,0:0:0:0:
448,192,101672,1,0,0:0:0:0:
320,192,102068,1,0,0:0:0:0:
192,192,102068,1,0,0:0:0:0:
448,192,102068,1,0,0:0:0:0:
320,192,102466,1,0,0:0:0:0:
448,192,102466,1,0,0:0:0:0:
64,192,102466,1,0,0:0:0:0:
192,192,102664,1,0,0:0:0:0:
64,192,102862,1,0,0:0:0:0:
192,192,102862,1,0,0:0:0:0:
448,192,102862,1,0,0:0:0:0:
320,192,103061,1,0,0:0:0:0:
448,192,103259,1,0,0:0:0:0:
192,192,103259,1,0,0:0:0:0:
320,192,103259,1,0,0:0:0:0:
320,192,103656,1,0,0:0:0:0:
192,192,103656,1,0,0:0:0:0:
64,192,103656,1,0,0:0:0:0:
64,192,103854,1,0,0:0:0:0:
192,192,104052,1,0,0:0:0:0:
320,192,104052,1,0,0:0:0:0:
448,192,104052,1,0,0:0:0:0:
192,192,104450,1,0,0:0:0:0:
64,192,104450,1,0,0:0:0:0:
448,192,104450,1,0,0:0:0:0:
320,192,104648,1,0,0:0:0:0:
192,192,104847,1,0,0:0:0:0:
64,192,104847,1,0,0:0:0:0:
448,192,104847,1,0,0:0:0:0:
320,192,105045,1,0,0:0:0:0:
448,192,105045,1,0,0:0:0:0:
64,192,105045,1,0,0:0:0:0:
192,192,105243,1,0,0:0:0:0:
320,192,105243,1,0,0:0:0:0:
448,192,105243,1,0,0:0:0:0:
320,192,105442,1,0,0:0:0:0:
192,192,105442,1,0,0:0:0:0:
64,192,105442,1,0,0:0:0:0:
64,192,105640,1,0,0:0:0:0:
192,192,105640,1,0,0:0:0:0:
64,192,105739,1,0,0:0:0:0:
192,192,105739,1,0,0:0:0:0:
320,192,105838,1,0,0:0:0:0:
448,192,105838,1,0,0:0:0:0:
448,192,105938,1,0,0:0:0:0:
320,192,105938,1,0,0:0:0:0:
192,192,106037,1,0,0:0:0:0:
64,192,106037,1,0,0:0:0:0:
64,192,106136,1,0,0:0:0:0:
192,192,106136,1,0,0:0:0:0:
320,192,106235,1,0,0:0:0:0:
448,192,106235,1,0,0:0:0:0:
448,192,106334,1,0,0:0:0:0:
320,192,106334,1,0,0:0:0:0:
192,192,106434,1,0,0:0:0:0:
64,192,106434,1,0,0:0:0:0:
448,192,106434,1,0,0:0:0:0:
320,192,106632,1,0,0:0:0:0:
64,192,106831,1,0,0:0:0:0:
448,192,107029,1,0,0:0:0:0:
192,192,107228,1,0,0:0:0:0:
320,192,107624,1,0,0:0:0:0:
448,192,107624,1,0,0:0:0:0:
192,192,107822,1,0,0:0:0:0:
64,192,107822,1,0,0:0:0:0:
64,192,108021,1,0,0:0:0:0:
192,192,108021,1,0,0:0:0:0:
448,192,108021,1,0,0:0:0:0:
320,192,108021,1,0,0:0:0:0:
64,192,108120,1,0,0:0:0:0:
192,192,108120,1,0,0:0:0:0:
448,192,108120,1,0,0:0:0:0:
192,192,108219,1,0,0:0:0:0:
64,192,108219,1,0,0:0:0:0:
320,192,108219,1,0,0:0:0:0:
64,192,108318,1,0,0:0:0:0:
192,192,108318,1,0,0:0:0:0:
192,192,108418,1,0,0:0:0:0:
64,192,108418,1,0,0:0:0:0:
320,192,108418,1,0,0:0:0:0:
448,192,108418,1,0,0:0:0:0:
448,192,108518,1,0,0:0:0:0:
320,192,108518,1,0,0:0:0:0:
64,192,108518,1,0,0:0:0:0:
320,192,108617,1,0,0:0:0:0:
448,192,108617,1,0,0:0:0:0:
192,192,108617,1,0,0:0:0:0:
448,192,108716,1,0,0:0:0:0:
320,192,108716,1,0,0:0:0:0:
448,192,108815,1,0,0:0:0:0:
320,192,108815,1,0,0:0:0:0:
192,192,108815,1,0,0:0:0:0:
64,192,108815,1,0,0:0:0:0:
64,192,108914,1,0,0:0:0:0:
192,192,108914,1,0,0:0:0:0:
64,192,109013,1,0,0:0:0:0:
320,192,109013,1,0,0:0:0:0:
448,192,109013,1,0,0:0:0:0:
448,192,109112,1,0,0:0:0:0:
320,192,109112,1,0,0:0:0:0:
448,192,109212,1,0,0:0:0:0:
320,192,109212,1,0,0:0:0:0:
192,192,109212,1,0,0:0:0:0:
64,192,109212,1,0,0:0:0:0:
192,192,109311,1,0,0:0:0:0:
64,192,109311,1,0,0:0:0:0:
192,192,109410,1,0,0:0:0:0:
320,192,109410,1,0,0:0:0:0:
448,192,109410,1,0,0:0:0:0:
320,192,109509,1,0,0:0:0:0:
448,192,109509,1,0,0:0:0:0:
64,192,109608,1,0,0:0:0:0:
192,192,109608,1,0,0:0:0:0:
320,192,109608,1,0,0:0:0:0:
448,192,109608,1,0,0:0:0:0:
64,192,109708,1,0,0:0:0:0:
192,192,109708,1,0,0:0:0:0:
448,192,109708,1,0,0:0:0:0:
192,192,109807,1,0,0:0:0:0:
64,192,109807,1,0,0:0:0:0:
320,192,109807,1,0,0:0:0:0:
64,192,109906,1,0,0:0:0:0:
192,192,109906,1,0,0:0:0:0:
448,192,110005,1,0,0:0:0:0:
320,192,110005,1,0,0:0:0:0:
192,192,110005,1,0,0:0:0:0:
64,192,110005,1,0,0:0:0:0:
320,192,110104,1,0,0:0:0:0:
448,192,110104,1,0,0:0:0:0:
64,192,110203,1,0,0:0:0:0:
448,192,110203,1,0,0:0:0:0:
192,192,110203,1,0,0:0:0:0:
192,192,110302,1,0,0:0:0:0:
64,192,110302,1,0,0:0:0:0:
448,192,110402,1,0,0:0:0:0:
320,192,110402,1,0,0:0:0:0:
64,192,110402,1,0,0:0:0:0:
192,192,110402,1,0,0:0:0:0:
320,192,110501,1,0,0:0:0:0:
448,192,110501,1,0,0:0:0:0:
64,192,110501,1,0,0:0:0:0:
320,192,110601,1,0,0:0:0:0:
448,192,110601,1,0,0:0:0:0:
192,192,110601,1,0,0:0:0:0:
320,192,110700,1,0,0:0:0:0:
448,192,110700,1,0,0:0:0:0:
64,192,110799,1,0,0:0:0:0:
192,192,110799,1,0,0:0:0:0:
320,192,110799,1,0,0:0:0:0:
448,192,110799,1,0,0:0:0:0:
192,192,110898,1,0,0:0:0:0:
448,192,110998,1,0,0:0:0:0:
320,192,110998,1,0,0:0:0:0:
64,192,110998,1,0,0:0:0:0:
320,192,111097,1,0,0:0:0:0:
448,192,111196,1,0,0:0:0:0:
320,192,111196,1,0,0:0:0:0:
64,192,111196,1,0,0:0:0:0:
192,192,111196,1,0,0:0:0:0:
64,192,111295,1,0,0:0:0:0:
192,192,111295,1,0,0:0:0:0:
64,192,111394,1,0,0:0:0:0:
320,192,111394,1,0,0:0:0:0:
448,192,111394,1,0,0:0:0:0:
320,192,111493,1,0,0:0:0:0:
448,192,111493,1,0,0:0:0:0:
64,192,111592,1,0,0:0:0:0:
192,192,111592,1,0,0:0:0:0:
320,192,111592,1,0,0:0:0:0:
448,192,111592,1,0,0:0:0:0:
192,192,111692,1,0,0:0:0:0:
64,192,111692,1,0,0:0:0:0:
320,192,111791,1,0,0:0:0:0:
448,192,111791,1,0,0:0:0:0:
192,192,111791,1,0,0:0:0:0:
320,192,111890,1,0,0:0:0:0:
448,192,111890,1,0,0:0:0:0:
448,192,111989,1,0,0:0:0:0:
320,192,111989,1,0,0:0:0:0:
64,192,111989,1,0,0:0:0:0:
192,192,111989,1,0,0:0:0:0:
64,192,112088,1,0,0:0:0:0:
192,192,112088,1,0,0:0:0:0:
448,192,112088,1,0,0:0:0:0:
192,192,112188,1,0,0:0:0:0:
64,192,112188,1,0,0:0:0:0:
320,192,112188,1,0,0:0:0:0:
64,192,112287,1,0,0:0:0:0:
192,192,112287,1,0,0:0:0:0:
192,192,112386,1,0,0:0:0:0:
64,192,112386,1,0,0:0:0:0:
320,192,112386,1,0,0:0:0:0:
448,192,112386,1,0,0:0:0:0:
448,192,112485,1,0,0:0:0:0:
320,192,112485,1,0,0:0:0:0:
448,192,112584,1,0,0:0:0:0:
192,192,112584,1,0,0:0:0:0:
64,192,112584,1,0,0:0:0:0:
64,192,112684,1,0,0:0:0:0:
192,192,112684,1,0,0:0:0:0:
64,192,112783,1,0,0:0:0:0:
192,192,112783,1,0,0:0:0:0:
320,192,112783,1,0,0:0:0:0:
448,192,112783,1,0,0:0:0:0:
320,192,112882,1,0,0:0:0:0:
448,192,112882,1,0,0:0:0:0:
320,192,112982,1,0,0:0:0:0:
192,192,112982,1,0,0:0:0:0:
64,192,112982,1,0,0:0:0:0:
64,192,113081,1,0,0:0:0:0:
192,192,113081,1,0,0:0:0:0:
64,192,113180,1,0,0:0:0:0:
192,192,113180,1,0,0:0:0:0:
320,192,113180,1,0,0:0:0:0:
448,192,113180,1,0,0:0:0:0:
320,192,113279,1,0,0:0:0:0:
448,192,113279,1,0,0:0:0:0:
448,192,113378,1,0,0:0:0:0:
192,192,113378,1,0,0:0:0:0:
64,192,113378,1,0,0:0:0:0:
64,192,113478,1,0,0:0:0:0:
192,192,113478,1,0,0:0:0:0:
64,192,113577,1,0,0:0:0:0:
192,192,113577,1,0,0:0:0:0:
448,192,113577,1,0,0:0:0:0:
320,192,113577,1,0,0:0:0:0:
448,192,113676,1,0,0:0:0:0:
320,192,113676,1,0,0:0:0:0:
320,192,113775,1,0,0:0:0:0:
448,192,113775,1,0,0:0:0:0:
192,192,113775,1,0,0:0:0:0:
320,192,113874,1,0,0:0:0:0:
448,192,113874,1,0,0:0:0:0:
192,192,113874,1,0,0:0:0:0:
320,192,113973,1,0,0:0:0:0:
448,192,113973,1,0,0:0:0:0:
64,192,113973,1,0,0:0:0:0:
192,192,113973,1,0,0:0:0:0:
320,192,114072,1,0,0:0:0:0:
448,192,114072,1,0,0:0:0:0:
448,192,114172,1,0,0:0:0:0:
192,192,114172,1,0,0:0:0:0:
64,192,114172,1,0,0:0:0:0:
64,192,114271,1,0,0:0:0:0:
192,192,114271,1,0,0:0:0:0:
448,192,114370,1,0,0:0:0:0:
320,192,114370,1,0,0:0:0:0:
192,192,114370,1,0,0:0:0:0:
64,192,114370,1,0,0:0:0:0:
320,192,114469,1,0,0:0:0:0:
448,192,114469,1,0,0:0:0:0:
192,192,114469,1,0,0:0:0:0:
448,192,114568,1,0,0:0:0:0:
320,192,114568,1,0,0:0:0:0:
192,192,114568,1,0,0:0:0:0:
320,192,114668,1,0,0:0:0:0:
448,192,114668,1,0,0:0:0:0:
448,192,114768,1,0,0:0:0:0:
320,192,114768,1,0,0:0:0:0:
192,192,114768,1,0,0:0:0:0:
64,192,114768,1,0,0:0:0:0:
192,192,114867,1,0,0:0:0:0:
64,192,114867,1,0,0:0:0:0:
320,192,114867,1,0,0:0:0:0:
64,192,114966,1,0,0:0:0:0:
192,192,114966,1,0,0:0:0:0:
320,192,114966,1,0,0:0:0:0:
192,192,115065,1,0,0:0:0:0:
64,192,115065,1,0,0:0:0:0:
64,192,115164,1,0,0:0:0:0:
192,192,115164,1,0,0:0:0:0:
320,192,115164,1,0,0:0:0:0:
448,192,115164,1,0,0:0:0:0:
448,192,115263,1,0,0:0:0:0:
320,192,115263,1,0,0:0:0:0:
448,192,115362,1,0,0:0:0:0:
192,192,115362,1,0,0:0:0:0:
64,192,115362,1,0,0:0:0:0:
64,192,115462,1,0,0:0:0:0:
192,192,115462,1,0,0:0:0:0:
64,192,115561,1,0,0:0:0:0:
192,192,115561,1,0,0:0:0:0:
320,192,115561,1,0,0:0:0:0:
448,192,115561,1,0,0:0:0:0:
448,192,115660,1,0,0:0:0:0:
320,192,115660,1,0,0:0:0:0:
320,192,115759,1,0,0:0:0:0:
192,192,115759,1,0,0:0:0:0:
64,192,115759,1,0,0:0:0:0:
64,192,115858,1,0,0:0:0:0:
192,192,115858,1,0,0:0:0:0:
64,192,115958,1,0,0:0:0:0:
192,192,115958,1,0,0:0:0:0:
320,192,115958,1,0,0:0:0:0:
448,192,115958,1,0,0:0:0:0:
448,192,116057,1,0,0:0:0:0:
320,192,116057,1,0,0:0:0:0:
448,192,116156,1,0,0:0:0:0:
192,192,116156,1,0,0:0:0:0:
64,192,116156,1,0,0:0:0:0:
320,192,116156,1,0,0:0:0:0:
192,192,116255,1,0,0:0:0:0:
64,192,116255,1,0,0:0:0:0:
448,192,116354,1,0,0:0:0:0:
320,192,116354,1,0,0:0:0:0:
192,192,116354,1,0,0:0:0:0:
64,192,116354,1,0,0:0:0:0:
320,192,116453,1,0,0:0:0:0:
448,192,116453,1,0,0:0:0:0:
448,192,116552,1,0,0:0:0:0:
320,192,116552,1,0,0:0:0:0:
192,192,116552,1,0,0:0:0:0:
64,192,116552,1,0,0:0:0:0:
192,192,116652,1,0,0:0:0:0:
64,192,116652,1,0,0:0:0:0:
448,192,116751,1,0,0:0:0:0:
320,192,116751,1,0,0:0:0:0:
192,192,116751,1,0,0:0:0:0:
64,192,116751,1,0,0:0:0:0:
320,192,116851,1,0,0:0:0:0:
448,192,116851,1,0,0:0:0:0:
192,192,116851,1,0,0:0:0:0:
448,192,116950,1,0,0:0:0:0:
320,192,116950,1,0,0:0:0:0:
192,192,116950,1,0,0:0:0:0:
320,192,117049,1,0,0:0:0:0:
448,192,117049,1,0,0:0:0:0:
64,192,117148,1,0,0:0:0:0:
320,192,117148,1,0,0:0:0:0:
192,192,117148,1,0,0:0:0:0:
448,192,117148,1,0,0:0:0:0:
192,192,117248,1,0,0:0:0:0:
64,192,117248,1,0,0:0:0:0:
64,192,117347,1,0,0:0:0:0:
320,192,117347,1,0,0:0:0:0:
448,192,117347,1,0,0:0:0:0:
448,192,117446,1,0,0:0:0:0:
320,192,117446,1,0,0:0:0:0:
448,192,117545,1,0,0:0:0:0:
320,192,117545,1,0,0:0:0:0:
192,192,117545,1,0,0:0:0:0:
64,192,117545,1,0,0:0:0:0:
192,192,117644,1,0,0:0:0:0:
64,192,117644,1,0,0:0:0:0:
192,192,117743,1,0,0:0:0:0:
320,192,117743,1,0,0:0:0:0:
448,192,117743,1,0,0:0:0:0:
320,192,117842,1,0,0:0:0:0:
448,192,117842,1,0,0:0:0:0:
448,192,117942,1,0,0:0:0:0:
320,192,117942,1,0,0:0:0:0:
192,192,117942,1,0,0:0:0:0:
64,192,117942,1,0,0:0:0:0:
192,192,118041,1,0,0:0:0:0:
64,192,118041,1,0,0:0:0:0:
64,192,118140,1,0,0:0:0:0:
320,192,118140,1,0,0:0:0:0:
448,192,118140,1,0,0:0:0:0:
320,192,118239,1,0,0:0:0:0:
448,192,118239,1,0,0:0:0:0:
448,192,118338,1,0,0:0:0:0:
320,192,118338,1,0,0:0:0:0:
192,192,118338,1,0,0:0:0:0:
64,192,118338,1,0,0:0:0:0:
192,192,118438,1,0,0:0:0:0:
64,192,118438,1,0,0:0:0:0:
320,192,118438,1,0,0:0:0:0:
64,192,118537,1,0,0:0:0:0:
192,192,118537,1,0,0:0:0:0:
320,192,118537,1,0,0:0:0:0:
192,192,118636,1,0,0:0:0:0:
64,192,118636,1,0,0:0:0:0:
64,192,118735,1,0,0:0:0:0:
192,192,118735,1,0,0:0:0:0:
448,192,118735,1,0,0:0:0:0:
320,192,118735,1,0,0:0:0:0:
448,192,118934,1,0,0:0:0:0:
320,192,119132,1,0,0:0:0:0:
192,192,119132,1,0,0:0:0:0:
64,192,119132,1,0,0:0:0:0:
448,192,119331,1,0,0:0:0:0:
64,192,119529,1,0,0:0:0:0:
192,192,119728,1,0,0:0:0:0:
320,192,119926,1,0,0:0:0:0:
64,192,120124,1,0,0:0:0:0:
64,192,120322,1,0,0:0:0:0:
192,192,120322,1,0,0:0:0:0:
64,192,120521,1,0,0:0:0:0:
192,192,120521,1,0,0:0:0:0:
320,192,120521,1,0,0:0:0:0:
448,192,120719,1,0,0:0:0:0:
320,192,120719,1,0,0:0:0:0:
192,192,120719,1,0,0:0:0:0:
64,192,120719,1,0,0:0:0:0:
320,192,120818,1,0,0:0:0:0:
448,192,120818,1,0,0:0:0:0:
192,192,120818,1,0,0:0:0:0:
448,192,120918,1,0,0:0:0:0:
320,192,120918,1,0,0:0:0:0:
192,192,120918,1,0,0:0:0:0:
320,192,121018,1,0,0:0:0:0:
448,192,121018,1,0,0:0:0:0:
448,192,121117,1,0,0:0:0:0:
192,192,121117,1,0,0:0:0:0:
320,192,121117,1,0,0:0:0:0:
64,192,121117,1,0,0:0:0:0:
64,192,121216,1,0,0:0:0:0:
192,192,121216,1,0,0:0:0:0:
320,192,121216,1,0,0:0:0:0:
192,192,121315,1,0,0:0:0:0:
64,192,121315,1,0,0:0:0:0:
320,192,121315,1,0,0:0:0:0:
64,192,121414,1,0,0:0:0:0:
192,192,121414,1,0,0:0:0:0:
192,192,121513,1,0,0:0:0:0:
64,192,121513,1,0,0:0:0:0:
320,192,121513,1,0,0:0:0:0:
448,192,121513,1,0,0:0:0:0:
448,192,121612,1,0,0:0:0:0:
320,192,121612,1,0,0:0:0:0:
448,192,121712,1,0,0:0:0:0:
192,192,121712,1,0,0:0:0:0:
64,192,121712,1,0,0:0:0:0:
64,192,121811,1,0,0:0:0:0:
192,192,121811,1,0,0:0:0:0:
192,192,121910,1,0,0:0:0:0:
64,192,121910,1,0,0:0:0:0:
320,192,121910,1,0,0:0:0:0:
448,192,121910,1,0,0:0:0:0:
320,192,122009,1,0,0:0:0:0:
448,192,122009,1,0,0:0:0:0:
320,192,122108,1,0,0:0:0:0:
192,192,122108,1,0,0:0:0:0:
64,192,122108,1,0,0:0:0:0:
64,192,122208,1,0,0:0:0:0:
192,192,122208,1,0,0:0:0:0:
192,192,122307,1,0,0:0:0:0:
64,192,122307,1,0,0:0:0:0:
320,192,122307,1,0,0:0:0:0:
448,192,122307,1,0,0:0:0:0:
448,192,122406,1,0,0:0:0:0:
320,192,122406,1,0,0:0:0:0:
192,192,122406,1,0,0:0:0:0:
448,192,122505,1,0,0:0:0:0:
320,192,122505,1,0,0:0:0:0:
192,192,122505,1,0,0:0:0:0:
320,192,122604,1,0,0:0:0:0:
448,192,122604,1,0,0:0:0:0:
448,192,122703,1,0,0:0:0:0:
320,192,122703,1,0,0:0:0:0:
192,192,122703,1,0,0:0:0:0:
64,192,122703,1,0,0:0:0:0:
64,192,122802,1,0,0:0:0:0:
192,192,122802,1,0,0:0:0:0:
64,192,122902,1,0,0:0:0:0:
320,192,122902,1,0,0:0:0:0:
448,192,122902,1,0,0:0:0:0:
448,192,123001,1,0,0:0:0:0:
320,192,123001,1,0,0:0:0:0:
448,192,123101,1,0,0:0:0:0:
320,192,123101,1,0,0:0:0:0:
192,192,123101,1,0,0:0:0:0:
64,192,123101,1,0,0:0:0:0:
64,192,123200,1,0,0:0:0:0:
192,192,123200,1,0,0:0:0:0:
320,192,123200,1,0,0:0:0:0:
192,192,123299,1,0,0:0:0:0:
64,192,123299,1,0,0:0:0:0:
320,192,123299,1,0,0:0:0:0:
64,192,123398,1,0,0:0:0:0:
192,192,123398,1,0,0:0:0:0:
192,192,123498,1,0,0:0:0:0:
64,192,123498,1,0,0:0:0:0:
320,192,123498,1,0,0:0:0:0:
448,192,123498,1,0,0:0:0:0:
448,192,123597,1,0,0:0:0:0:
320,192,123696,1,0,0:0:0:0:
192,192,123696,1,0,0:0:0:0:
64,192,123696,1,0,0:0:0:0:
192,192,123795,1,0,0:0:0:0:
64,192,123894,1,0,0:0:0:0:
192,192,123894,1,0,0:0:0:0:
320,192,123894,1,0,0:0:0:0:
448,192,123894,1,0,0:0:0:0:
320,192,123993,1,0,0:0:0:0:
448,192,123993,1,0,0:0:0:0:
448,192,124092,1,0,0:0:0:0:
192,192,124092,1,0,0:0:0:0:
64,192,124092,1,0,0:0:0:0:
64,192,124192,1,0,0:0:0:0:
192,192,124192,1,0,0:0:0:0:
64,192,124291,1,0,0:0:0:0:
192,192,124291,1,0,0:0:0:0:
320,192,124291,1,0,0:0:0:0:
448,192,124291,1,0,0:0:0:0:
320,192,124390,1,0,0:0:0:0:
448,192,124390,1,0,0:0:0:0:
320,192,124489,1,0,0:0:0:0:
64,192,124489,1,0,0:0:0:0:
192,192,124489,1,0,0:0:0:0:
192,192,124588,1,0,0:0:0:0:
64,192,124588,1,0,0:0:0:0:
64,192,124688,1,0,0:0:0:0:
192,192,124688,1,0,0:0:0:0:
320,192,124688,1,0,0:0:0:0:
448,192,124688,1,0,0:0:0:0:
320,192,124787,1,0,0:0:0:0:
448,192,124787,1,0,0:0:0:0:
64,192,124787,1,0,0:0:0:0:
448,192,124886,1,0,0:0:0:0:
320,192,124886,1,0,0:0:0:0:
192,192,124886,1,0,0:0:0:0:
320,192,124985,1,0,0:0:0:0:
448,192,124985,1,0,0:0:0:0:
448,192,125084,1,0,0:0:0:0:
320,192,125084,1,0,0:0:0:0:
192,192,125084,1,0,0:0:0:0:
64,192,125084,1,0,0:0:0:0:
192,192,125184,1,0,0:0:0:0:
320,192,125283,1,0,0:0:0:0:
448,192,125283,1,0,0:0:0:0:
64,192,125283,1,0,0:0:0:0:
320,192,125382,1,0,0:0:0:0:
448,192,125482,1,0,0:0:0:0:
192,192,125482,1,0,0:0:0:0:
320,192,125482,1,0,0:0:0:0:
64,192,125482,1,0,0:0:0:0:
64,192,125581,1,0,0:0:0:0:
192,192,125581,1,0,0:0:0:0:
64,192,125680,1,0,0:0:0:0:
320,192,125680,1,0,0:0:0:0:
448,192,125680,1,0,0:0:0:0:
448,192,125779,1,0,0:0:0:0:
320,192,125779,1,0,0:0:0:0:
448,192,125878,1,0,0:0:0:0:
320,192,125878,1,0,0:0:0:0:
192,192,125878,1,0,0:0:0:0:
64,192,125878,1,0,0:0:0:0:
64,192,125978,1,0,0:0:0:0:
192,192,125978,1,0,0:0:0:0:
192,192,126077,1,0,0:0:0:0:
320,192,126077,1,0,0:0:0:0:
448,192,126077,1,0,0:0:0:0:
448,192,126176,1,0,0:0:0:0:
320,192,126176,1,0,0:0:0:0:
448,192,126275,1,0,0:0:0:0:
320,192,126275,1,0,0:0:0:0:
64,192,126275,1,0,0:0:0:0:
192,192,126275,1,0,0:0:0:0:
64,192,126374,1,0,0:0:0:0:
192,192,126374,1,0,0:0:0:0:
192,192,126473,1,0,0:0:0:0:
64,192,126473,1,0,0:0:0:0:
320,192,126473,1,0,0:0:0:0:
64,192,126572,1,0,0:0:0:0:
192,192,126572,1,0,0:0:0:0:
320,192,126572,1,0,0:0:0:0:
192,192,126672,1,0,0:0:0:0:
64,192,126672,1,0,0:0:0:0:
320,192,126672,1,0,0:0:0:0:
448,192,126672,1,0,0:0:0:0:
192,192,126771,1,0,0:0:0:0:
64,192,126771,1,0,0:0:0:0:
64,192,126870,1,0,0:0:0:0:
320,192,126870,1,0,0:0:0:0:
448,192,126870,1,0,0:0:0:0:
320,192,126969,1,0,0:0:0:0:
448,192,126969,1,0,0:0:0:0:
64,192,127068,1,0,0:0:0:0:
192,192,127068,1,0,0:0:0:0:
320,192,127068,1,0,0:0:0:0:
448,192,127068,1,0,0:0:0:0:
192,192,127168,1,0,0:0:0:0:
64,192,127168,1,0,0:0:0:0:
448,192,127168,1,0,0:0:0:0:
64,192,127268,1,0,0:0:0:0:
192,192,127268,1,0,0:0:0:0:
320,192,127268,1,0,0:0:0:0:
192,192,127367,1,0,0:0:0:0:
64,192,127367,1,0,0:0:0:0:
64,192,127466,1,0,0:0:0:0:
192,192,127466,1,0,0:0:0:0:
320,192,127466,1,0,0:0:0:0:
448,192,127466,1,0,0:0:0:0:
448,192,127565,1,0,0:0:0:0:
320,192,127565,1,0,0:0:0:0:
64,192,127565,1,0,0:0:0:0:
320,192,127664,1,0,0:0:0:0:
448,192,127664,1,0,0:0:0:0:
192,192,127664,1,0,0:0:0:0:
448,192,127763,1,0,0:0:0:0:
320,192,127763,1,0,0:0:0:0:
448,192,127862,1,0,0:0:0:0:
320,192,127862,1,0,0:0:0:0:
192,192,127862,1,0,0:0:0:0:
64,192,127862,1,0,0:0:0:0:
64,192,127962,1,0,0:0:0:0:
192,192,127962,1,0,0:0:0:0:
64,192,128061,1,0,0:0:0:0:
320,192,128061,1,0,0:0:0:0:
448,192,128061,1,0,0:0:0:0:
320,192,128160,1,0,0:0:0:0:
448,192,128160,1,0,0:0:0:0:
448,192,128259,1,0,0:0:0:0:
192,192,128259,1,0,0:0:0:0:
320,192,128259,1,0,0:0:0:0:
64,192,128259,1,0,0:0:0:0:
64,192,128358,1,0,0:0:0:0:
192,192,128358,1,0,0:0:0:0:
192,192,128458,1,0,0:0:0:0:
320,192,128458,1,0,0:0:0:0:
448,192,128458,1,0,0:0:0:0:
448,192,128557,1,0,0:0:0:0:
320,192,128557,1,0,0:0:0:0:
448,192,128656,1,0,0:0:0:0:
320,192,128656,1,0,0:0:0:0:
192,192,128656,1,0,0:0:0:0:
64,192,128656,1,0,0:0:0:0:
64,192,128755,1,0,0:0:0:0:
192,192,128755,1,0,0:0:0:0:
192,192,128854,1,0,0:0:0:0:
64,192,128854,1,0,0:0:0:0:
320,192,128854,1,0,0:0:0:0:
448,192,128854,1,0,0:0:0:0:
448,192,128953,1,0,0:0:0:0:
320,192,128953,1,0,0:0:0:0:
448,192,129052,1,0,0:0:0:0:
320,192,129052,1,0,0:0:0:0:
192,192,129052,1,0,0:0:0:0:
64,192,129052,1,0,0:0:0:0:
64,192,129152,1,0,0:0:0:0:
192,192,129152,1,0,0:0:0:0:
192,192,129251,1,0,0:0:0:0:
64,192,129251,1,0,0:0:0:0:
320,192,129251,1,0,0:0:0:0:
448,192,129251,1,0,0:0:0:0:
448,192,129351,1,0,0:0:0:0:
320,192,129351,1,0,0:0:0:0:
448,192,129450,1,0,0:0:0:0:
320,192,129450,1,0,0:0:0:0:
64,192,129450,1,0,0:0:0:0:
192,192,129450,1,0,0:0:0:0:
64,192,129549,1,0,0:0:0:0:
192,192,129549,1,0,0:0:0:0:
448,192,129549,1,0,0:0:0:0:
192,192,129648,1,0,0:0:0:0:
64,192,129648,1,0,0:0:0:0:
320,192,129648,1,0,0:0:0:0:
64,192,129748,1,0,0:0:0:0:
192,192,129748,1,0,0:0:0:0:
192,192,129847,1,0,0:0:0:0:
64,192,129847,1,0,0:0:0:0:
320,192,129847,1,0,0:0:0:0:
448,192,129847,1,0,0:0:0:0:
320,192,129946,1,0,0:0:0:0:
448,192,129946,1,0,0:0:0:0:
448,192,130045,1,0,0:0:0:0:
192,192,130045,1,0,0:0:0:0:
64,192,130045,1,0,0:0:0:0:
64,192,130144,1,0,0:0:0:0:
192,192,130144,1,0,0:0:0:0:
64,192,130243,1,0,0:0:0:0:
192,192,130243,1,0,0:0:0:0:
320,192,130243,1,0,0:0:0:0:
448,192,130243,1,0,0:0:0:0:
320,192,130342,1,0,0:0:0:0:
448,192,130342,1,0,0:0:0:0:
320,192,130442,1,0,0:0:0:0:
192,192,130442,1,0,0:0:0:0:
64,192,130442,1,0,0:0:0:0:
64,192,130541,1,0,0:0:0:0:
192,192,130541,1,0,0:0:0:0:
448,192,130640,1,0,0:0:0:0:
320,192,130640,1,0,0:0:0:0:
192,192,130640,1,0,0:0:0:0:
64,192,130640,1,0,0:0:0:0:
320,192,130739,1,0,0:0:0:0:
448,192,130739,1,0,0:0:0:0:
448,192,130838,1,0,0:0:0:0:
192,192,130838,1,0,0:0:0:0:
64,192,130838,1,0,0:0:0:0:
64,192,130938,1,0,0:0:0:0:
192,192,130938,1,0,0:0:0:0:
64,192,131037,1,0,0:0:0:0:
192,192,131037,1,0,0:0:0:0:
320,192,131037,1,0,0:0:0:0:
448,192,131037,1,0,0:0:0:0:
320,192,131136,1,0,0:0:0:0:
448,192,131136,1,0,0:0:0:0:
64,192,131136,1,0,0:0:0:0:
448,192,131235,1,0,0:0:0:0:
320,192,131235,1,0,0:0:0:0:
192,192,131235,1,0,0:0:0:0:
320,192,131334,1,0,0:0:0:0:
448,192,131334,1,0,0:0:0:0:
448,192,131434,1,0,0:0:0:0:
320,192,131434,1,0,0:0:0:0:
192,192,131434,1,0,0:0:0:0:
64,192,131434,1,0,0:0:0:0:
64,192,131632,1,0,0:0:0:0:
192,192,131831,1,0,0:0:0:0:
320,192,131831,1,0,0:0:0:0:
448,192,131831,1,0,0:0:0:0:
64,192,132029,1,0,0:0:0:0:
448,192,132228,1,0,0:0:0:0:
320,192,132426,1,0,0:0:0:0:
192,192,132624,1,0,0:0:0:0:
448,192,132822,1,0,0:0:0:0:
448,192,133021,1,0,0:0:0:0:
320,192,133021,1,0,0:0:0:0:
448,192,133219,1,0,0:0:0:0:
320,192,133219,1,0,0:0:0:0:
192,192,133219,1,0,0:0:0:0:
192,192,133418,1,0,0:0:0:0:
64,192,133418,1,0,0:0:0:0:
320,192,133418,1,0,0:0:0:0:
448,192,133418,1,0,0:0:0:0:
448,192,133617,1,0,0:0:0:0:
320,192,133815,1,0,0:0:0:0:
64,192,133815,1,0,0:0:0:0:
192,192,134013,1,0,0:0:0:0:
320,192,134212,1,0,0:0:0:0:
448,192,134212,1,0,0:0:0:0:
64,192,134410,1,0,0:0:0:0:
192,192,134410,1,0,0:0:0:0:
192,192,134608,1,0,0:0:0:0:
320,192,134608,1,0,0:0:0:0:
448,192,134807,1,0,0:0:0:0:
320,192,134807,1,0,0:0:0:0:
192,192,135005,1,0,0:0:0:0:
64,192,135005,1,0,0:0:0:0:
448,192,135203,1,0,0:0:0:0:
320,192,135402,1,0,0:0:0:0:
192,192,135402,1,0,0:0:0:0:
64,192,135601,1,0,0:0:0:0:
192,192,135601,1,0,0:0:0:0:
320,192,135799,1,0,0:0:0:0:
448,192,135799,128,0,136394:0:0:0:0:
192,192,135998,1,0,0:0:0:0:
320,192,136196,1,0,0:0:0:0:
192,192,136394,1,0,0:0:0:0:
64,192,136394,1,0,0:0:0:0:
320,192,136592,1,0,0:0:0:0:
448,192,136592,1,0,0:0:0:0:
320,192,136791,1,0,0:0:0:0:
192,192,136791,1,0,0:0:0:0:
192,192,136989,1,0,0:0:0:0:
64,192,136989,1,0,0:0:0:0:
448,192,137188,1,0,0:0:0:0:
320,192,137188,1,0,0:0:0:0:
192,192,137386,1,0,0:0:0:0:
64,192,137386,128,0,137982:0:0:0:0:
448,192,137584,1,0,0:0:0:0:
192,192,137783,1,0,0:0:0:0:
448,192,137982,1,0,0:0:0:0:
320,192,137982,1,0,0:0:0:0:
192,192,138180,1,0,0:0:0:0:
320,192,138180,1,0,0:0:0:0:
192,192,138378,1,0,0:0:0:0:
64,192,138378,1,0,0:0:0:0:
448,192,138577,1,0,0:0:0:0:
320,192,138577,1,0,0:0:0:0:
192,192,138775,1,0,0:0:0:0:
320,192,138775,1,0,0:0:0:0:
448,192,138973,128,0,139370:0:0:0:0:
64,192,138973,1,0,0:0:0:0:
192,192,139370,1,0,0:0:0:0:
320,192,139568,1,0,0:0:0:0:
64,192,139768,1,0,0:0:0:0:
64,192,140164,1,0,0:0:0:0:
64,192,140561,1,0,0:0:0:0:
192,192,140759,1,0,0:0:0:0:
320,192,140958,1,0,0:0:0:0:
448,192,141156,1,0,0:0:0:0:
192,192,141354,1,0,0:0:0:0:
64,192,141354,1,0,0:0:0:0:
64,192,141552,1,0,0:0:0:0:
320,192,141552,1,0,0:0:0:0:
448,192,141751,1,0,0:0:0:0:
192,192,141751,1,0,0:0:0:0:
320,192,141950,1,0,0:0:0:0:
448,192,141950,1,0,0:0:0:0:
64,192,142148,128,0,142545:0:0:0:0:
192,192,142148,1,0,0:0:0:0:
448,192,142545,1,0,0:0:0:0:
448,192,142743,1,0,0:0:0:0:
320,192,142942,1,0,0:0:0:0:
192,192,142942,1,0,0:0:0:0:
64,192,143140,1,0,0:0:0:0:
192,192,143140,1,0,0:0:0:0:
320,192,143338,1,0,0:0:0:0:
448,192,143338,1,0,0:0:0:0:
448,192,143537,1,0,0:0:0:0:
192,192,143537,1,0,0:0:0:0:
64,192,143785,128,0,144479:0:0:0:0:
320,192,144232,1,0,0:0:0:0:
448,192,144479,1,0,0:0:0:0:
320,192,144728,1,0,0:0:0:0:
64,192,144976,1,0,0:0:0:0:
192,192,145223,1,0,0:0:0:0:
320,192,145472,1,0,0:0:0:0:
448,192,145719,128,0,149291:0:0:0:0:
64,192,146976,1,0,0:0:0:0:
192,192,147042,1,0,0:0:0:0:
320,192,147108,1,0,0:0:0:0:
