osu file format v14

[General]
AudioFilename: audio110.mp3
AudioLeadIn: 0
PreviewTime: 46369
Countdown: 0
SampleSet: Normal
StackLeniency: 0.7
Mode: 3
LetterboxInBreaks: 0
SpecialStyle: 0
WidescreenStoryboard: 0

[Editor]
DistanceSpacing: 0.8
BeatDivisor: 6
GridSize: 32
TimelineZoom: 2

[Metadata]
Title:Wait Another Day
TitleUnicode:Wait Another Day
Artist:Mike Williams x Mesto
ArtistUnicode:Mike Williams x Mesto
Creator:HikariNayo
Version:I'll be back before you know 1.1x
Source:
Tags:Mike Williams Mesto Wait another day BEST EDM 2019 dance electronic jack cj chordjack rates
BeatmapID:4566843
BeatmapSetID:2164994

[Difficulty]
HPDrainRate:8
CircleSize:4
OverallDifficulty:8
ApproachRate:5
SliderMultiplier:1.4
SliderTickRate:1

[Events]
//Background and Video events
0,0,"969814.jpg",0,0
//Break Periods
//Storyboard Layer 0 (Background)
//Storyboard Layer 1 (Fail)
//Storyboard Layer 2 (Pass)
//Storyboard Layer 3 (Foreground)
//Storyboard Layer 4 (Overlay)
//Storyboard Sound Samples

[TimingPoints]
89,432.900432900433,4,1,1,100,1,0
48574,-100,4,1,1,100,0,1
60695,-100,4,1,1,100,0,0
62426,-100,4,1,1,100,0,1
76279,-100,4,1,1,100,0,0
117837,-100,4,1,1,100,0,1
129959,-100,4,1,1,100,0,0
131690,-100,4,1,1,100,0,1
145543,-100,4,1,1,100,0,0

[HitObjects]
448,192,89,5,0,0:0:0:0:
320,192,89,1,0,0:0:0:0:
192,192,89,1,0,0:0:0:0:
448,192,305,1,0,0:0:0:0:
320,192,305,1,0,0:0:0:0:
448,192,522,1,0,0:0:0:0:
192,192,522,1,0,0:0:0:0:
64,192,522,1,0,0:0:0:0:
64,192,738,1,0,0:0:0:0:
192,192,738,1,0,0:0:0:0:
448,192,955,1,0,0:0:0:0:
320,192,955,1,0,0:0:0:0:
64,192,955,1,0,0:0:0:0:
192,192,1171,1,0,0:0:0:0:
320,192,1171,1,0,0:0:0:0:
448,192,1171,1,0,0:0:0:0:
320,192,1387,1,0,0:0:0:0:
192,192,1387,1,0,0:0:0:0:
64,192,1387,1,0,0:0:0:0:
64,192,1604,1,0,0:0:0:0:
192,192,1604,1,0,0:0:0:0:
448,192,1604,1,0,0:0:0:0:
320,192,1820,1,0,0:0:0:0:
448,192,1820,1,0,0:0:0:0:
64,192,1820,1,0,0:0:0:0:
448,192,2036,1,0,0:0:0:0:
320,192,2036,1,0,0:0:0:0:
192,192,2253,1,0,0:0:0:0:
64,192,2253,1,0,0:0:0:0:
448,192,2253,1,0,0:0:0:0:
320,192,2470,1,0,0:0:0:0:
192,192,2470,1,0,0:0:0:0:
64,192,2470,1,0,0:0:0:0:
64,192,2686,128,0,3552:0:0:0:0:
320,192,2686,1,0,0:0:0:0:
448,192,2686,1,0,0:0:0:0:
192,192,2903,1,0,0:0:0:0:
448,192,3119,1,0,0:0:0:0:
320,192,3335,1,0,0:0:0:0:
448,192,3335,1,0,0:0:0:0:
192,192,3552,1,0,0:0:0:0:
320,192,3552,1,0,0:0:0:0:
448,192,3552,1,0,0:0:0:0:
448,192,3768,1,0,0:0:0:0:
320,192,3768,1,0,0:0:0:0:
192,192,3768,1,0,0:0:0:0:
320,192,3985,1,0,0:0:0:0:
192,192,3985,1,0,0:0:0:0:
64,192,3985,1,0,0:0:0:0:
320,192,4201,1,0,0:0:0:0:
64,192,4201,1,0,0:0:0:0:
192,192,4201,1,0,0:0:0:0:
192,192,4417,1,0,0:0:0:0:
64,192,4417,1,0,0:0:0:0:
448,192,4417,128,0,5284:0:0:0:0:
320,192,4634,1,0,0:0:0:0:
192,192,4851,1,0,0:0:0:0:
64,192,5067,1,0,0:0:0:0:
320,192,5067,1,0,0:0:0:0:
320,192,5284,1,0,0:0:0:0:
192,192,5284,1,0,0:0:0:0:
64,192,5284,1,0,0:0:0:0:
192,192,5500,1,0,0:0:0:0:
320,192,5500,1,0,0:0:0:0:
448,192,5500,1,0,0:0:0:0:
64,192,5716,1,0,0:0:0:0:
320,192,5716,1,0,0:0:0:0:
448,192,5716,1,0,0:0:0:0:
64,192,5933,1,0,0:0:0:0:
192,192,5933,1,0,0:0:0:0:
448,192,5933,1,0,0:0:0:0:
320,192,6149,1,0,0:0:0:0:
192,192,6149,1,0,0:0:0:0:
448,192,6149,1,0,0:0:0:0:
64,192,6365,1,0,0:0:0:0:
448,192,6474,1,0,0:0:0:0:
320,192,6528,1,0,0:0:0:0:
192,192,6582,1,0,0:0:0:0:
64,192,6582,1,0,0:0:0:0:
448,192,6798,1,0,0:0:0:0:
320,192,7015,1,0,0:0:0:0:
192,192,7015,1,0,0:0:0:0:
64,192,7015,1,0,0:0:0:0:
192,192,7232,1,0,0:0:0:0:
64,192,7232,1,0,0:0:0:0:
448,192,7448,1,0,0:0:0:0:
320,192,7448,1,0,0:0:0:0:
64,192,7448,1,0,0:0:0:0:
320,192,7665,1,0,0:0:0:0:
448,192,7665,1,0,0:0:0:0:
448,192,7881,1,0,0:0:0:0:
192,192,7881,1,0,0:0:0:0:
64,192,7881,1,0,0:0:0:0:
64,192,8097,1,0,0:0:0:0:
192,192,8097,1,0,0:0:0:0:
320,192,8097,1,0,0:0:0:0:
192,192,8314,1,0,0:0:0:0:
320,192,8314,1,0,0:0:0:0:
448,192,8314,1,0,0:0:0:0:
448,192,8530,1,0,0:0:0:0:
320,192,8530,1,0,0:0:0:0:
64,192,8530,1,0,0:0:0:0:
192,192,8746,1,0,0:0:0:0:
64,192,8746,1,0,0:0:0:0:
448,192,8746,1,0,0:0:0:0:
320,192,8963,1,0,0:0:0:0:
192,192,8963,1,0,0:0:0:0:
64,192,8963,1,0,0:0:0:0:
320,192,9179,1,0,0:0:0:0:
448,192,9179,1,0,0:0:0:0:
64,192,9179,1,0,0:0:0:0:
192,192,9396,1,0,0:0:0:0:
320,192,9396,1,0,0:0:0:0:
448,192,9396,1,0,0:0:0:0:
320,192,9613,1,0,0:0:0:0:
192,192,9613,1,0,0:0:0:0:
64,192,9613,1,0,0:0:0:0:
64,192,9829,1,0,0:0:0:0:
192,192,9829,1,0,0:0:0:0:
448,192,10045,1,0,0:0:0:0:
320,192,10045,1,0,0:0:0:0:
192,192,10262,1,0,0:0:0:0:
448,192,10262,1,0,0:0:0:0:
320,192,10262,1,0,0:0:0:0:
320,192,10478,1,0,0:0:0:0:
192,192,10478,1,0,0:0:0:0:
64,192,10478,1,0,0:0:0:0:
192,192,10695,1,0,0:0:0:0:
64,192,10695,1,0,0:0:0:0:
448,192,10695,1,0,0:0:0:0:
320,192,10911,1,0,0:0:0:0:
448,192,10911,1,0,0:0:0:0:
64,192,10911,1,0,0:0:0:0:
320,192,11127,1,0,0:0:0:0:
192,192,11127,1,0,0:0:0:0:
64,192,11127,1,0,0:0:0:0:
192,192,11344,1,0,0:0:0:0:
320,192,11344,1,0,0:0:0:0:
448,192,11344,1,0,0:0:0:0:
192,192,11561,1,0,0:0:0:0:
64,192,11561,1,0,0:0:0:0:
320,192,11777,1,0,0:0:0:0:
448,192,11777,1,0,0:0:0:0:
448,192,11994,1,0,0:0:0:0:
320,192,11994,1,0,0:0:0:0:
192,192,11994,1,0,0:0:0:0:
320,192,12210,1,0,0:0:0:0:
64,192,12210,1,0,0:0:0:0:
192,192,12210,1,0,0:0:0:0:
448,192,12426,1,0,0:0:0:0:
64,192,12426,1,0,0:0:0:0:
192,192,12426,1,0,0:0:0:0:
448,192,12643,1,0,0:0:0:0:
320,192,12643,1,0,0:0:0:0:
64,192,12643,1,0,0:0:0:0:
192,192,12859,1,0,0:0:0:0:
320,192,12859,1,0,0:0:0:0:
448,192,12859,1,0,0:0:0:0:
320,192,13075,1,0,0:0:0:0:
192,192,13075,1,0,0:0:0:0:
64,192,13075,1,0,0:0:0:0:
448,192,13292,1,0,0:0:0:0:
320,192,13508,1,0,0:0:0:0:
64,192,13508,1,0,0:0:0:0:
192,192,13725,1,0,0:0:0:0:
320,192,13942,1,0,0:0:0:0:
448,192,13942,1,0,0:0:0:0:
192,192,13942,1,0,0:0:0:0:
64,192,13942,1,0,0:0:0:0:
448,192,14158,1,0,0:0:0:0:
192,192,14375,1,0,0:0:0:0:
64,192,14375,1,0,0:0:0:0:
320,192,14375,1,0,0:0:0:0:
192,192,14591,1,0,0:0:0:0:
64,192,14807,1,0,0:0:0:0:
448,192,14807,1,0,0:0:0:0:
320,192,15024,1,0,0:0:0:0:
192,192,15240,1,0,0:0:0:0:
64,192,15240,1,0,0:0:0:0:
448,192,15240,1,0,0:0:0:0:
320,192,15456,1,0,0:0:0:0:
192,192,15673,1,0,0:0:0:0:
64,192,15673,1,0,0:0:0:0:
448,192,15889,1,0,0:0:0:0:
320,192,16106,1,0,0:0:0:0:
192,192,16106,1,0,0:0:0:0:
64,192,16106,1,0,0:0:0:0:
448,192,16323,1,0,0:0:0:0:
64,192,16539,1,0,0:0:0:0:
320,192,16539,1,0,0:0:0:0:
192,192,16755,1,0,0:0:0:0:
320,192,16972,1,0,0:0:0:0:
448,192,16972,1,0,0:0:0:0:
64,192,16972,1,0,0:0:0:0:
192,192,17188,1,0,0:0:0:0:
64,192,17405,1,0,0:0:0:0:
192,192,17405,1,0,0:0:0:0:
448,192,17405,1,0,0:0:0:0:
320,192,17621,1,0,0:0:0:0:
448,192,17837,1,0,0:0:0:0:
320,192,17837,1,0,0:0:0:0:
192,192,17837,1,0,0:0:0:0:
64,192,18054,1,0,0:0:0:0:
448,192,18270,1,0,0:0:0:0:
320,192,18270,1,0,0:0:0:0:
192,192,18487,1,0,0:0:0:0:
64,192,18704,1,0,0:0:0:0:
448,192,18704,1,0,0:0:0:0:
320,192,18704,1,0,0:0:0:0:
192,192,18920,1,0,0:0:0:0:
320,192,19136,1,0,0:0:0:0:
448,192,19136,1,0,0:0:0:0:
64,192,19353,1,0,0:0:0:0:
192,192,19569,1,0,0:0:0:0:
320,192,19569,1,0,0:0:0:0:
448,192,19569,1,0,0:0:0:0:
64,192,19785,1,0,0:0:0:0:
192,192,20002,1,0,0:0:0:0:
320,192,20002,1,0,0:0:0:0:
448,192,20218,1,0,0:0:0:0:
192,192,20435,1,0,0:0:0:0:
320,192,20435,1,0,0:0:0:0:
64,192,20435,1,0,0:0:0:0:
448,192,20652,1,0,0:0:0:0:
192,192,20868,1,0,0:0:0:0:
64,192,20868,1,0,0:0:0:0:
320,192,21085,1,0,0:0:0:0:
448,192,21301,1,0,0:0:0:0:
192,192,21301,1,0,0:0:0:0:
64,192,21301,1,0,0:0:0:0:
320,192,21517,1,0,0:0:0:0:
448,192,21734,1,0,0:0:0:0:
64,192,21734,1,0,0:0:0:0:
192,192,21950,1,0,0:0:0:0:
320,192,22166,1,0,0:0:0:0:
448,192,22166,1,0,0:0:0:0:
64,192,22166,1,0,0:0:0:0:
192,192,22383,1,0,0:0:0:0:
320,192,22599,1,0,0:0:0:0:
448,192,22599,1,0,0:0:0:0:
64,192,22815,1,0,0:0:0:0:
192,192,23033,1,0,0:0:0:0:
320,192,23033,1,0,0:0:0:0:
448,192,23033,1,0,0:0:0:0:
64,192,23249,1,0,0:0:0:0:
320,192,23465,1,0,0:0:0:0:
192,192,23465,1,0,0:0:0:0:
448,192,23682,1,0,0:0:0:0:
320,192,23898,1,0,0:0:0:0:
192,192,23898,1,0,0:0:0:0:
64,192,23898,1,0,0:0:0:0:
448,192,24115,1,0,0:0:0:0:
64,192,24331,128,0,24764:0:0:0:0:
192,192,24331,1,0,0:0:0:0:
448,192,24547,1,0,0:0:0:0:
448,192,24764,1,0,0:0:0:0:
320,192,24764,1,0,0:0:0:0:
192,192,24764,1,0,0:0:0:0:
320,192,24980,1,0,0:0:0:0:
448,192,25197,128,0,25630:0:0:0:0:
192,192,25197,1,0,0:0:0:0:
64,192,25414,1,0,0:0:0:0:
320,192,25630,1,0,0:0:0:0:
192,192,25630,1,0,0:0:0:0:
64,192,25630,1,0,0:0:0:0:
192,192,25846,1,0,0:0:0:0:
64,192,26063,128,0,26928:0:0:0:0:
448,192,26063,1,0,0:0:0:0:
320,192,26279,1,0,0:0:0:0:
448,192,26495,1,0,0:0:0:0:
320,192,26495,1,0,0:0:0:0:
192,192,26495,1,0,0:0:0:0:
192,192,26712,1,0,0:0:0:0:
448,192,26928,1,0,0:0:0:0:
320,192,27361,128,0,27578:0:0:0:0:
192,192,27578,128,0,27795:0:0:0:0:
64,192,27795,1,0,0:0:0:0:
320,192,27795,1,0,0:0:0:0:
448,192,27795,1,0,0:0:0:0:
448,192,28011,1,0,0:0:0:0:
320,192,28227,1,0,0:0:0:0:
192,192,28227,1,0,0:0:0:0:
64,192,28227,1,0,0:0:0:0:
448,192,28227,1,0,0:0:0:0:
64,192,28444,1,0,0:0:0:0:
192,192,28660,1,0,0:0:0:0:
320,192,28660,1,0,0:0:0:0:
448,192,28660,1,0,0:0:0:0:
320,192,28876,1,0,0:0:0:0:
448,192,28876,1,0,0:0:0:0:
448,192,29093,1,0,0:0:0:0:
320,192,29093,1,0,0:0:0:0:
192,192,29093,1,0,0:0:0:0:
64,192,29093,1,0,0:0:0:0:
192,192,29309,1,0,0:0:0:0:
64,192,29309,1,0,0:0:0:0:
320,192,29525,1,0,0:0:0:0:
448,192,29525,1,0,0:0:0:0:
64,192,29525,1,0,0:0:0:0:
448,192,29743,1,0,0:0:0:0:
192,192,29743,1,0,0:0:0:0:
448,192,29959,1,0,0:0:0:0:
320,192,29959,1,0,0:0:0:0:
192,192,29959,1,0,0:0:0:0:
64,192,29959,1,0,0:0:0:0:
64,192,30175,1,0,0:0:0:0:
320,192,30175,1,0,0:0:0:0:
192,192,30392,1,0,0:0:0:0:
448,192,30392,1,0,0:0:0:0:
320,192,30392,1,0,0:0:0:0:
64,192,30608,1,0,0:0:0:0:
448,192,30825,1,0,0:0:0:0:
320,192,30825,1,0,0:0:0:0:
64,192,30825,1,0,0:0:0:0:
192,192,30825,1,0,0:0:0:0:
320,192,31041,1,0,0:0:0:0:
448,192,31041,1,0,0:0:0:0:
64,192,31257,1,0,0:0:0:0:
448,192,31257,1,0,0:0:0:0:
192,192,31257,1,0,0:0:0:0:
192,192,31474,1,0,0:0:0:0:
64,192,31474,1,0,0:0:0:0:
320,192,31690,1,0,0:0:0:0:
192,192,31690,1,0,0:0:0:0:
64,192,31690,1,0,0:0:0:0:
448,192,31690,1,0,0:0:0:0:
192,192,31906,1,0,0:0:0:0:
320,192,31906,1,0,0:0:0:0:
64,192,32124,1,0,0:0:0:0:
320,192,32124,1,0,0:0:0:0:
448,192,32124,1,0,0:0:0:0:
192,192,32340,1,0,0:0:0:0:
320,192,32556,1,0,0:0:0:0:
64,192,32556,1,0,0:0:0:0:
192,192,32556,1,0,0:0:0:0:
448,192,32556,1,0,0:0:0:0:
64,192,32773,1,0,0:0:0:0:
320,192,32773,1,0,0:0:0:0:
64,192,32989,1,0,0:0:0:0:
320,192,32989,1,0,0:0:0:0:
448,192,32989,1,0,0:0:0:0:
192,192,32989,1,0,0:0:0:0:
448,192,33205,1,0,0:0:0:0:
192,192,33205,1,0,0:0:0:0:
448,192,33422,1,0,0:0:0:0:
320,192,33422,1,0,0:0:0:0:
192,192,33422,1,0,0:0:0:0:
64,192,33422,1,0,0:0:0:0:
320,192,33638,1,0,0:0:0:0:
448,192,33638,1,0,0:0:0:0:
64,192,33855,1,0,0:0:0:0:
320,192,33855,1,0,0:0:0:0:
192,192,33855,1,0,0:0:0:0:
192,192,34071,1,0,0:0:0:0:
192,192,34288,1,0,0:0:0:0:
64,192,34288,1,0,0:0:0:0:
448,192,34288,1,0,0:0:0:0:
320,192,34288,1,0,0:0:0:0:
64,192,34505,1,0,0:0:0:0:
320,192,34505,1,0,0:0:0:0:
64,192,34721,1,0,0:0:0:0:
192,192,34721,1,0,0:0:0:0:
320,192,34721,1,0,0:0:0:0:
448,192,34721,1,0,0:0:0:0:
448,192,34937,1,0,0:0:0:0:
320,192,34937,1,0,0:0:0:0:
448,192,35154,1,0,0:0:0:0:
320,192,35154,1,0,0:0:0:0:
192,192,35154,1,0,0:0:0:0:
64,192,35154,1,0,0:0:0:0:
64,192,35370,1,0,0:0:0:0:
320,192,35370,1,0,0:0:0:0:
192,192,35586,1,0,0:0:0:0:
64,192,35586,1,0,0:0:0:0:
320,192,35586,1,0,0:0:0:0:
448,192,35803,1,0,0:0:0:0:
192,192,35803,1,0,0:0:0:0:
448,192,36019,1,0,0:0:0:0:
320,192,36019,1,0,0:0:0:0:
192,192,36019,1,0,0:0:0:0:
64,192,36019,1,0,0:0:0:0:
320,192,36235,1,0,0:0:0:0:
448,192,36235,1,0,0:0:0:0:
320,192,36452,1,0,0:0:0:0:
64,192,36452,1,0,0:0:0:0:
192,192,36452,1,0,0:0:0:0:
192,192,36669,1,0,0:0:0:0:
64,192,36669,1,0,0:0:0:0:
448,192,36885,1,0,0:0:0:0:
320,192,36885,1,0,0:0:0:0:
192,192,36885,1,0,0:0:0:0:
64,192,36885,1,0,0:0:0:0:
320,192,37102,1,0,0:0:0:0:
448,192,37102,1,0,0:0:0:0:
448,192,37318,1,0,0:0:0:0:
192,192,37318,1,0,0:0:0:0:
64,192,37318,1,0,0:0:0:0:
320,192,37535,1,0,0:0:0:0:
64,192,37751,1,0,0:0:0:0:
192,192,37751,1,0,0:0:0:0:
448,192,37751,1,0,0:0:0:0:
320,192,37751,1,0,0:0:0:0:
192,192,37967,1,0,0:0:0:0:
448,192,37967,1,0,0:0:0:0:
320,192,38184,1,0,0:0:0:0:
64,192,38184,1,0,0:0:0:0:
192,192,38184,1,0,0:0:0:0:
320,192,38400,1,0,0:0:0:0:
448,192,38400,1,0,0:0:0:0:
64,192,38616,1,0,0:0:0:0:
320,192,38616,1,0,0:0:0:0:
192,192,38616,1,0,0:0:0:0:
448,192,38616,1,0,0:0:0:0:
192,192,38834,1,0,0:0:0:0:
64,192,38834,1,0,0:0:0:0:
320,192,39050,1,0,0:0:0:0:
448,192,39050,1,0,0:0:0:0:
192,192,39050,1,0,0:0:0:0:
320,192,39266,1,0,0:0:0:0:
64,192,39483,1,0,0:0:0:0:
192,192,39483,1,0,0:0:0:0:
448,192,39483,1,0,0:0:0:0:
320,192,39483,1,0,0:0:0:0:
64,192,39699,1,0,0:0:0:0:
192,192,39915,1,0,0:0:0:0:
448,192,39915,1,0,0:0:0:0:
320,192,39915,1,0,0:0:0:0:
320,192,40132,1,0,0:0:0:0:
192,192,40348,1,0,0:0:0:0:
64,192,40348,1,0,0:0:0:0:
448,192,40565,1,0,0:0:0:0:
320,192,40781,1,0,0:0:0:0:
192,192,40781,1,0,0:0:0:0:
64,192,40997,1,0,0:0:0:0:
64,192,41215,1,0,0:0:0:0:
192,192,41215,1,0,0:0:0:0:
64,192,41431,1,0,0:0:0:0:
192,192,41431,1,0,0:0:0:0:
320,192,41431,1,0,0:0:0:0:
64,192,41647,1,0,0:0:0:0:
320,192,41647,1,0,0:0:0:0:
192,192,41647,1,0,0:0:0:0:
448,192,41647,1,0,0:0:0:0:
448,192,42080,1,0,0:0:0:0:
320,192,42080,1,0,0:0:0:0:
192,192,42080,1,0,0:0:0:0:
448,192,42513,1,0,0:0:0:0:
192,192,42513,1,0,0:0:0:0:
64,192,42513,1,0,0:0:0:0:
320,192,42729,1,0,0:0:0:0:
320,192,42945,1,0,0:0:0:0:
192,192,42945,1,0,0:0:0:0:
64,192,42945,1,0,0:0:0:0:
64,192,43162,1,0,0:0:0:0:
192,192,43379,1,0,0:0:0:0:
320,192,43379,1,0,0:0:0:0:
448,192,43379,1,0,0:0:0:0:
448,192,43812,1,0,0:0:0:0:
320,192,43812,1,0,0:0:0:0:
64,192,43812,1,0,0:0:0:0:
320,192,44028,1,0,0:0:0:0:
192,192,44245,1,0,0:0:0:0:
64,192,44245,1,0,0:0:0:0:
448,192,44245,1,0,0:0:0:0:
192,192,44677,1,0,0:0:0:0:
320,192,44677,1,0,0:0:0:0:
448,192,44677,1,0,0:0:0:0:
320,192,44894,1,0,0:0:0:0:
448,192,44894,1,0,0:0:0:0:
448,192,45110,1,0,0:0:0:0:
64,192,45110,1,0,0:0:0:0:
192,192,45110,1,0,0:0:0:0:
192,192,45326,1,0,0:0:0:0:
64,192,45326,1,0,0:0:0:0:
320,192,45326,1,0,0:0:0:0:
192,192,45543,1,0,0:0:0:0:
320,192,45543,1,0,0:0:0:0:
448,192,45543,1,0,0:0:0:0:
320,192,45760,1,0,0:0:0:0:
64,192,45760,1,0,0:0:0:0:
448,192,45760,1,0,0:0:0:0:
448,192,45976,1,0,0:0:0:0:
320,192,45976,1,0,0:0:0:0:
448,192,46085,1,0,0:0:0:0:
320,192,46085,1,0,0:0:0:0:
192,192,46193,1,0,0:0:0:0:
64,192,46193,1,0,0:0:0:0:
64,192,46301,1,0,0:0:0:0:
192,192,46301,1,0,0:0:0:0:
320,192,46409,1,0,0:0:0:0:
448,192,46409,1,0,0:0:0:0:
448,192,46517,1,0,0:0:0:0:
320,192,46517,1,0,0:0:0:0:
192,192,46625,1,0,0:0:0:0:
64,192,46625,1,0,0:0:0:0:
64,192,46734,1,0,0:0:0:0:
192,192,46734,1,0,0:0:0:0:
320,192,46842,1,0,0:0:0:0:
448,192,46842,1,0,0:0:0:0:
64,192,46842,1,0,0:0:0:0:
192,192,47058,1,0,0:0:0:0:
448,192,47275,1,0,0:0:0:0:
64,192,47491,1,0,0:0:0:0:
320,192,47707,1,0,0:0:0:0:
192,192,48141,1,0,0:0:0:0:
64,192,48141,1,0,0:0:0:0:
320,192,48357,1,0,0:0:0:0:
448,192,48357,1,0,0:0:0:0:
448,192,48574,1,0,0:0:0:0:
320,192,48574,1,0,0:0:0:0:
64,192,48574,1,0,0:0:0:0:
192,192,48574,1,0,0:0:0:0:
448,192,48682,1,0,0:0:0:0:
320,192,48682,1,0,0:0:0:0:
64,192,48682,1,0,0:0:0:0:
320,192,48790,1,0,0:0:0:0:
448,192,48790,1,0,0:0:0:0:
192,192,48790,1,0,0:0:0:0:
448,192,48898,1,0,0:0:0:0:
320,192,48898,1,0,0:0:0:0:
320,192,49006,1,0,0:0:0:0:
448,192,49006,1,0,0:0:0:0:
192,192,49006,1,0,0:0:0:0:
64,192,49006,1,0,0:0:0:0:
64,192,49115,1,0,0:0:0:0:
192,192,49115,1,0,0:0:0:0:
448,192,49115,1,0,0:0:0:0:
192,192,49223,1,0,0:0:0:0:
64,192,49223,1,0,0:0:0:0:
320,192,49223,1,0,0:0:0:0:
64,192,49331,1,0,0:0:0:0:
192,192,49331,1,0,0:0:0:0:
64,192,49439,1,0,0:0:0:0:
192,192,49439,1,0,0:0:0:0:
320,192,49439,1,0,0:0:0:0:
448,192,49439,1,0,0:0:0:0:
448,192,49547,1,0,0:0:0:0:
320,192,49547,1,0,0:0:0:0:
448,192,49655,1,0,0:0:0:0:
192,192,49655,1,0,0:0:0:0:
64,192,49655,1,0,0:0:0:0:
64,192,49764,1,0,0:0:0:0:
192,192,49764,1,0,0:0:0:0:
64,192,49872,1,0,0:0:0:0:
192,192,49872,1,0,0:0:0:0:
320,192,49872,1,0,0:0:0:0:
448,192,49872,1,0,0:0:0:0:
320,192,49980,1,0,0:0:0:0:
448,192,49980,1,0,0:0:0:0:
320,192,50088,1,0,0:0:0:0:
192,192,50088,1,0,0:0:0:0:
64,192,50088,1,0,0:0:0:0:
192,192,50197,1,0,0:0:0:0:
64,192,50197,1,0,0:0:0:0:
448,192,50305,1,0,0:0:0:0:
320,192,50305,1,0,0:0:0:0:
192,192,50305,1,0,0:0:0:0:
64,192,50305,1,0,0:0:0:0:
448,192,50414,1,0,0:0:0:0:
320,192,50414,1,0,0:0:0:0:
64,192,50414,1,0,0:0:0:0:
320,192,50522,1,0,0:0:0:0:
448,192,50522,1,0,0:0:0:0:
192,192,50522,1,0,0:0:0:0:
448,192,50630,1,0,0:0:0:0:
320,192,50630,1,0,0:0:0:0:
64,192,50738,1,0,0:0:0:0:
192,192,50738,1,0,0:0:0:0:
320,192,50738,1,0,0:0:0:0:
448,192,50738,1,0,0:0:0:0:
192,192,50846,1,0,0:0:0:0:
64,192,50846,1,0,0:0:0:0:
448,192,50955,1,0,0:0:0:0:
64,192,50955,1,0,0:0:0:0:
320,192,50955,1,0,0:0:0:0:
320,192,51063,1,0,0:0:0:0:
448,192,51063,1,0,0:0:0:0:
64,192,51171,1,0,0:0:0:0:
192,192,51171,1,0,0:0:0:0:
448,192,51171,1,0,0:0:0:0:
320,192,51171,1,0,0:0:0:0:
192,192,51279,1,0,0:0:0:0:
64,192,51279,1,0,0:0:0:0:
448,192,51279,1,0,0:0:0:0:
192,192,51387,1,0,0:0:0:0:
64,192,51387,1,0,0:0:0:0:
320,192,51387,1,0,0:0:0:0:
192,192,51495,1,0,0:0:0:0:
64,192,51495,1,0,0:0:0:0:
448,192,51604,1,0,0:0:0:0:
320,192,51604,1,0,0:0:0:0:
192,192,51604,1,0,0:0:0:0:
64,192,51604,1,0,0:0:0:0:
320,192,51712,1,0,0:0:0:0:
64,192,51820,1,0,0:0:0:0:
192,192,51820,1,0,0:0:0:0:
448,192,51820,1,0,0:0:0:0:
192,192,51928,1,0,0:0:0:0:
64,192,52036,1,0,0:0:0:0:
192,192,52036,1,0,0:0:0:0:
448,192,52036,1,0,0:0:0:0:
320,192,52036,1,0,0:0:0:0:
448,192,52145,1,0,0:0:0:0:
320,192,52145,1,0,0:0:0:0:
448,192,52253,1,0,0:0:0:0:
192,192,52253,1,0,0:0:0:0:
64,192,52253,1,0,0:0:0:0:
192,192,52361,1,0,0:0:0:0:
64,192,52361,1,0,0:0:0:0:
448,192,52470,1,0,0:0:0:0:
320,192,52470,1,0,0:0:0:0:
192,192,52470,1,0,0:0:0:0:
64,192,52470,1,0,0:0:0:0:
320,192,52578,1,0,0:0:0:0:
448,192,52578,1,0,0:0:0:0:
192,192,52686,1,0,0:0:0:0:
64,192,52686,1,0,0:0:0:0:
320,192,52686,1,0,0:0:0:0:
192,192,52795,1,0,0:0:0:0:
64,192,52795,1,0,0:0:0:0:
64,192,52903,1,0,0:0:0:0:
192,192,52903,1,0,0:0:0:0:
448,192,52903,1,0,0:0:0:0:
320,192,52903,1,0,0:0:0:0:
448,192,53011,1,0,0:0:0:0:
320,192,53011,1,0,0:0:0:0:
64,192,53011,1,0,0:0:0:0:
320,192,53119,1,0,0:0:0:0:
448,192,53119,1,0,0:0:0:0:
192,192,53119,1,0,0:0:0:0:
448,192,53227,1,0,0:0:0:0:
320,192,53227,1,0,0:0:0:0:
320,192,53335,1,0,0:0:0:0:
448,192,53335,1,0,0:0:0:0:
192,192,53335,1,0,0:0:0:0:
64,192,53335,1,0,0:0:0:0:
64,192,53444,1,0,0:0:0:0:
192,192,53444,1,0,0:0:0:0:
64,192,53552,1,0,0:0:0:0:
320,192,53552,1,0,0:0:0:0:
448,192,53552,1,0,0:0:0:0:
448,192,53660,1,0,0:0:0:0:
320,192,53660,1,0,0:0:0:0:
448,192,53768,1,0,0:0:0:0:
320,192,53768,1,0,0:0:0:0:
192,192,53768,1,0,0:0:0:0:
64,192,53768,1,0,0:0:0:0:
192,192,53876,1,0,0:0:0:0:
64,192,53876,1,0,0:0:0:0:
192,192,53985,1,0,0:0:0:0:
320,192,53985,1,0,0:0:0:0:
448,192,53985,1,0,0:0:0:0:
448,192,54093,1,0,0:0:0:0:
320,192,54093,1,0,0:0:0:0:
448,192,54201,1,0,0:0:0:0:
320,192,54201,1,0,0:0:0:0:
192,192,54201,1,0,0:0:0:0:
64,192,54201,1,0,0:0:0:0:
192,192,54309,1,0,0:0:0:0:
64,192,54309,1,0,0:0:0:0:
64,192,54417,1,0,0:0:0:0:
320,192,54417,1,0,0:0:0:0:
448,192,54417,1,0,0:0:0:0:
448,192,54525,1,0,0:0:0:0:
320,192,54525,1,0,0:0:0:0:
448,192,54634,1,0,0:0:0:0:
320,192,54634,1,0,0:0:0:0:
64,192,54634,1,0,0:0:0:0:
192,192,54634,1,0,0:0:0:0:
64,192,54743,1,0,0:0:0:0:
192,192,54743,1,0,0:0:0:0:
192,192,54851,1,0,0:0:0:0:
64,192,54851,1,0,0:0:0:0:
320,192,54851,1,0,0:0:0:0:
192,192,54959,1,0,0:0:0:0:
64,192,54959,1,0,0:0:0:0:
320,192,54959,1,0,0:0:0:0:
192,192,55067,1,0,0:0:0:0:
64,192,55067,1,0,0:0:0:0:
448,192,55067,1,0,0:0:0:0:
320,192,55067,1,0,0:0:0:0:
192,192,55175,1,0,0:0:0:0:
64,192,55175,1,0,0:0:0:0:
64,192,55284,1,0,0:0:0:0:
320,192,55284,1,0,0:0:0:0:
448,192,55284,1,0,0:0:0:0:
448,192,55392,1,0,0:0:0:0:
320,192,55392,1,0,0:0:0:0:
64,192,55500,1,0,0:0:0:0:
192,192,55500,1,0,0:0:0:0:
320,192,55500,1,0,0:0:0:0:
448,192,55500,1,0,0:0:0:0:
192,192,55608,1,0,0:0:0:0:
64,192,55608,1,0,0:0:0:0:
320,192,55608,1,0,0:0:0:0:
64,192,55716,1,0,0:0:0:0:
192,192,55716,1,0,0:0:0:0:
320,192,55716,1,0,0:0:0:0:
192,192,55825,1,0,0:0:0:0:
64,192,55825,1,0,0:0:0:0:
64,192,55933,1,0,0:0:0:0:
192,192,55933,1,0,0:0:0:0:
320,192,55933,1,0,0:0:0:0:
448,192,55933,1,0,0:0:0:0:
320,192,56041,1,0,0:0:0:0:
448,192,56041,1,0,0:0:0:0:
192,192,56041,1,0,0:0:0:0:
448,192,56149,1,0,0:0:0:0:
320,192,56149,1,0,0:0:0:0:
192,192,56149,1,0,0:0:0:0:
320,192,56257,1,0,0:0:0:0:
448,192,56257,1,0,0:0:0:0:
448,192,56365,1,0,0:0:0:0:
320,192,56365,1,0,0:0:0:0:
192,192,56365,1,0,0:0:0:0:
64,192,56365,1,0,0:0:0:0:
64,192,56474,1,0,0:0:0:0:
192,192,56474,1,0,0:0:0:0:
64,192,56582,1,0,0:0:0:0:
320,192,56582,1,0,0:0:0:0:
448,192,56582,1,0,0:0:0:0:
448,192,56690,1,0,0:0:0:0:
320,192,56690,1,0,0:0:0:0:
448,192,56798,1,0,0:0:0:0:
320,192,56798,1,0,0:0:0:0:
192,192,56798,1,0,0:0:0:0:
64,192,56798,1,0,0:0:0:0:
64,192,56906,1,0,0:0:0:0:
192,192,56906,1,0,0:0:0:0:
192,192,57015,1,0,0:0:0:0:
320,192,57015,1,0,0:0:0:0:
448,192,57015,1,0,0:0:0:0:
448,192,57124,1,0,0:0:0:0:
320,192,57124,1,0,0:0:0:0:
448,192,57232,1,0,0:0:0:0:
320,192,57232,1,0,0:0:0:0:
192,192,57232,1,0,0:0:0:0:
64,192,57232,1,0,0:0:0:0:
64,192,57340,1,0,0:0:0:0:
192,192,57340,1,0,0:0:0:0:
64,192,57448,1,0,0:0:0:0:
320,192,57448,1,0,0:0:0:0:
448,192,57448,1,0,0:0:0:0:
192,192,57448,1,0,0:0:0:0:
320,192,57556,1,0,0:0:0:0:
448,192,57556,1,0,0:0:0:0:
64,192,57665,1,0,0:0:0:0:
192,192,57665,1,0,0:0:0:0:
320,192,57665,1,0,0:0:0:0:
448,192,57665,1,0,0:0:0:0:
192,192,57773,1,0,0:0:0:0:
64,192,57773,1,0,0:0:0:0:
64,192,57881,1,0,0:0:0:0:
192,192,57881,1,0,0:0:0:0:
320,192,57881,1,0,0:0:0:0:
448,192,57881,1,0,0:0:0:0:
320,192,57989,1,0,0:0:0:0:
448,192,57989,1,0,0:0:0:0:
64,192,58097,1,0,0:0:0:0:
192,192,58097,1,0,0:0:0:0:
320,192,58097,1,0,0:0:0:0:
448,192,58097,1,0,0:0:0:0:
192,192,58205,1,0,0:0:0:0:
64,192,58205,1,0,0:0:0:0:
320,192,58205,1,0,0:0:0:0:
64,192,58314,1,0,0:0:0:0:
192,192,58314,1,0,0:0:0:0:
320,192,58314,1,0,0:0:0:0:
192,192,58422,1,0,0:0:0:0:
64,192,58422,1,0,0:0:0:0:
448,192,58530,1,0,0:0:0:0:
192,192,58530,1,0,0:0:0:0:
320,192,58530,1,0,0:0:0:0:
64,192,58530,1,0,0:0:0:0:
320,192,58638,1,0,0:0:0:0:
448,192,58638,1,0,0:0:0:0:
448,192,58746,1,0,0:0:0:0:
192,192,58746,1,0,0:0:0:0:
64,192,58746,1,0,0:0:0:0:
64,192,58855,1,0,0:0:0:0:
192,192,58855,1,0,0:0:0:0:
64,192,58963,1,0,0:0:0:0:
192,192,58963,1,0,0:0:0:0:
320,192,58963,1,0,0:0:0:0:
448,192,58963,1,0,0:0:0:0:
320,192,59071,1,0,0:0:0:0:
448,192,59071,1,0,0:0:0:0:
320,192,59179,1,0,0:0:0:0:
192,192,59179,1,0,0:0:0:0:
64,192,59179,1,0,0:0:0:0:
192,192,59288,1,0,0:0:0:0:
64,192,59288,1,0,0:0:0:0:
64,192,59396,1,0,0:0:0:0:
192,192,59396,1,0,0:0:0:0:
320,192,59396,1,0,0:0:0:0:
448,192,59396,1,0,0:0:0:0:
320,192,59505,1,0,0:0:0:0:
448,192,59505,1,0,0:0:0:0:
448,192,59613,1,0,0:0:0:0:
192,192,59613,1,0,0:0:0:0:
64,192,59613,1,0,0:0:0:0:
192,192,59721,1,0,0:0:0:0:
64,192,59721,1,0,0:0:0:0:
64,192,59829,1,0,0:0:0:0:
192,192,59829,1,0,0:0:0:0:
320,192,59829,1,0,0:0:0:0:
448,192,59829,1,0,0:0:0:0:
320,192,59937,1,0,0:0:0:0:
448,192,59937,1,0,0:0:0:0:
192,192,59937,1,0,0:0:0:0:
448,192,60045,1,0,0:0:0:0:
320,192,60045,1,0,0:0:0:0:
192,192,60045,1,0,0:0:0:0:
320,192,60154,1,0,0:0:0:0:
448,192,60154,1,0,0:0:0:0:
448,192,60262,1,0,0:0:0:0:
320,192,60262,1,0,0:0:0:0:
64,192,60262,1,0,0:0:0:0:
192,192,60262,1,0,0:0:0:0:
64,192,60478,1,0,0:0:0:0:
192,192,60695,1,0,0:0:0:0:
320,192,60695,1,0,0:0:0:0:
448,192,60695,1,0,0:0:0:0:
64,192,60911,1,0,0:0:0:0:
448,192,61127,1,0,0:0:0:0:
320,192,61344,1,0,0:0:0:0:
192,192,61561,1,0,0:0:0:0:
448,192,61777,1,0,0:0:0:0:
448,192,61994,1,0,0:0:0:0:
320,192,61994,1,0,0:0:0:0:
448,192,62210,1,0,0:0:0:0:
320,192,62210,1,0,0:0:0:0:
192,192,62210,1,0,0:0:0:0:
64,192,62426,1,0,0:0:0:0:
192,192,62426,1,0,0:0:0:0:
320,192,62426,1,0,0:0:0:0:
448,192,62426,1,0,0:0:0:0:
192,192,62535,1,0,0:0:0:0:
64,192,62535,1,0,0:0:0:0:
320,192,62535,1,0,0:0:0:0:
64,192,62643,1,0,0:0:0:0:
192,192,62643,1,0,0:0:0:0:
320,192,62643,1,0,0:0:0:0:
192,192,62751,1,0,0:0:0:0:
64,192,62751,1,0,0:0:0:0:
64,192,62859,1,0,0:0:0:0:
320,192,62859,1,0,0:0:0:0:
192,192,62859,1,0,0:0:0:0:
448,192,62859,1,0,0:0:0:0:
448,192,62967,1,0,0:0:0:0:
320,192,62967,1,0,0:0:0:0:
192,192,62967,1,0,0:0:0:0:
320,192,63075,1,0,0:0:0:0:
448,192,63075,1,0,0:0:0:0:
192,192,63075,1,0,0:0:0:0:
448,192,63184,1,0,0:0:0:0:
320,192,63184,1,0,0:0:0:0:
320,192,63292,1,0,0:0:0:0:
448,192,63292,1,0,0:0:0:0:
192,192,63292,1,0,0:0:0:0:
64,192,63292,1,0,0:0:0:0:
64,192,63400,1,0,0:0:0:0:
192,192,63400,1,0,0:0:0:0:
64,192,63508,1,0,0:0:0:0:
320,192,63508,1,0,0:0:0:0:
448,192,63508,1,0,0:0:0:0:
448,192,63616,1,0,0:0:0:0:
320,192,63616,1,0,0:0:0:0:
320,192,63725,1,0,0:0:0:0:
448,192,63725,1,0,0:0:0:0:
192,192,63725,1,0,0:0:0:0:
64,192,63725,1,0,0:0:0:0:
192,192,63834,1,0,0:0:0:0:
64,192,63834,1,0,0:0:0:0:
192,192,63942,1,0,0:0:0:0:
320,192,63942,1,0,0:0:0:0:
448,192,63942,1,0,0:0:0:0:
448,192,64050,1,0,0:0:0:0:
320,192,64050,1,0,0:0:0:0:
320,192,64158,1,0,0:0:0:0:
448,192,64158,1,0,0:0:0:0:
192,192,64158,1,0,0:0:0:0:
64,192,64158,1,0,0:0:0:0:
64,192,64266,1,0,0:0:0:0:
192,192,64266,1,0,0:0:0:0:
320,192,64266,1,0,0:0:0:0:
64,192,64375,1,0,0:0:0:0:
192,192,64375,1,0,0:0:0:0:
320,192,64375,1,0,0:0:0:0:
192,192,64483,1,0,0:0:0:0:
64,192,64483,1,0,0:0:0:0:
64,192,64591,1,0,0:0:0:0:
192,192,64591,1,0,0:0:0:0:
320,192,64591,1,0,0:0:0:0:
448,192,64591,1,0,0:0:0:0:
448,192,64699,1,0,0:0:0:0:
320,192,64699,1,0,0:0:0:0:
448,192,64807,1,0,0:0:0:0:
192,192,64807,1,0,0:0:0:0:
64,192,64807,1,0,0:0:0:0:
64,192,64915,1,0,0:0:0:0:
192,192,64915,1,0,0:0:0:0:
64,192,65024,1,0,0:0:0:0:
192,192,65024,1,0,0:0:0:0:
320,192,65024,1,0,0:0:0:0:
448,192,65024,1,0,0:0:0:0:
448,192,65132,1,0,0:0:0:0:
320,192,65132,1,0,0:0:0:0:
192,192,65132,1,0,0:0:0:0:
320,192,65240,1,0,0:0:0:0:
448,192,65240,1,0,0:0:0:0:
192,192,65240,1,0,0:0:0:0:
448,192,65348,1,0,0:0:0:0:
320,192,65348,1,0,0:0:0:0:
320,192,65456,1,0,0:0:0:0:
448,192,65456,1,0,0:0:0:0:
192,192,65456,1,0,0:0:0:0:
64,192,65456,1,0,0:0:0:0:
64,192,65565,1,0,0:0:0:0:
192,192,65673,1,0,0:0:0:0:
320,192,65673,1,0,0:0:0:0:
448,192,65673,1,0,0:0:0:0:
320,192,65781,1,0,0:0:0:0:
448,192,65889,1,0,0:0:0:0:
320,192,65889,1,0,0:0:0:0:
192,192,65889,1,0,0:0:0:0:
64,192,65889,1,0,0:0:0:0:
192,192,65997,1,0,0:0:0:0:
64,192,65997,1,0,0:0:0:0:
64,192,66106,1,0,0:0:0:0:
320,192,66106,1,0,0:0:0:0:
448,192,66106,1,0,0:0:0:0:
448,192,66215,1,0,0:0:0:0:
320,192,66215,1,0,0:0:0:0:
448,192,66323,1,0,0:0:0:0:
320,192,66323,1,0,0:0:0:0:
192,192,66323,1,0,0:0:0:0:
64,192,66323,1,0,0:0:0:0:
192,192,66431,1,0,0:0:0:0:
64,192,66431,1,0,0:0:0:0:
192,192,66539,1,0,0:0:0:0:
448,192,66539,1,0,0:0:0:0:
320,192,66539,1,0,0:0:0:0:
320,192,66647,1,0,0:0:0:0:
448,192,66647,1,0,0:0:0:0:
448,192,66755,1,0,0:0:0:0:
320,192,66755,1,0,0:0:0:0:
192,192,66755,1,0,0:0:0:0:
64,192,66755,1,0,0:0:0:0:
192,192,66864,1,0,0:0:0:0:
64,192,66864,1,0,0:0:0:0:
448,192,66864,1,0,0:0:0:0:
64,192,66972,1,0,0:0:0:0:
192,192,66972,1,0,0:0:0:0:
320,192,66972,1,0,0:0:0:0:
192,192,67080,1,0,0:0:0:0:
64,192,67080,1,0,0:0:0:0:
64,192,67188,1,0,0:0:0:0:
192,192,67188,1,0,0:0:0:0:
320,192,67188,1,0,0:0:0:0:
448,192,67188,1,0,0:0:0:0:
320,192,67296,1,0,0:0:0:0:
192,192,67405,1,0,0:0:0:0:
64,192,67405,1,0,0:0:0:0:
448,192,67405,1,0,0:0:0:0:
192,192,67513,1,0,0:0:0:0:
64,192,67621,1,0,0:0:0:0:
320,192,67621,1,0,0:0:0:0:
192,192,67621,1,0,0:0:0:0:
448,192,67621,1,0,0:0:0:0:
448,192,67729,1,0,0:0:0:0:
320,192,67729,1,0,0:0:0:0:
448,192,67837,1,0,0:0:0:0:
192,192,67837,1,0,0:0:0:0:
64,192,67837,1,0,0:0:0:0:
64,192,67945,1,0,0:0:0:0:
192,192,67945,1,0,0:0:0:0:
64,192,68054,1,0,0:0:0:0:
192,192,68054,1,0,0:0:0:0:
320,192,68054,1,0,0:0:0:0:
448,192,68054,1,0,0:0:0:0:
448,192,68162,1,0,0:0:0:0:
320,192,68162,1,0,0:0:0:0:
320,192,68270,1,0,0:0:0:0:
192,192,68270,1,0,0:0:0:0:
64,192,68270,1,0,0:0:0:0:
64,192,68379,1,0,0:0:0:0:
192,192,68379,1,0,0:0:0:0:
64,192,68487,1,0,0:0:0:0:
192,192,68487,1,0,0:0:0:0:
448,192,68487,1,0,0:0:0:0:
320,192,68487,1,0,0:0:0:0:
448,192,68595,1,0,0:0:0:0:
320,192,68595,1,0,0:0:0:0:
320,192,68704,1,0,0:0:0:0:
448,192,68704,1,0,0:0:0:0:
192,192,68704,1,0,0:0:0:0:
448,192,68812,1,0,0:0:0:0:
320,192,68812,1,0,0:0:0:0:
192,192,68812,1,0,0:0:0:0:
320,192,68920,1,0,0:0:0:0:
448,192,68920,1,0,0:0:0:0:
192,192,68920,1,0,0:0:0:0:
64,192,68920,1,0,0:0:0:0:
320,192,69028,1,0,0:0:0:0:
448,192,69028,1,0,0:0:0:0:
448,192,69136,1,0,0:0:0:0:
192,192,69136,1,0,0:0:0:0:
64,192,69136,1,0,0:0:0:0:
192,192,69245,1,0,0:0:0:0:
64,192,69245,1,0,0:0:0:0:
448,192,69353,1,0,0:0:0:0:
320,192,69353,1,0,0:0:0:0:
192,192,69353,1,0,0:0:0:0:
64,192,69353,1,0,0:0:0:0:
320,192,69461,1,0,0:0:0:0:
448,192,69461,1,0,0:0:0:0:
64,192,69461,1,0,0:0:0:0:
448,192,69569,1,0,0:0:0:0:
320,192,69569,1,0,0:0:0:0:
192,192,69569,1,0,0:0:0:0:
320,192,69677,1,0,0:0:0:0:
448,192,69677,1,0,0:0:0:0:
448,192,69785,1,0,0:0:0:0:
320,192,69785,1,0,0:0:0:0:
192,192,69785,1,0,0:0:0:0:
64,192,69785,1,0,0:0:0:0:
64,192,69894,1,0,0:0:0:0:
192,192,69894,1,0,0:0:0:0:
448,192,69894,1,0,0:0:0:0:
192,192,70002,1,0,0:0:0:0:
64,192,70002,1,0,0:0:0:0:
320,192,70002,1,0,0:0:0:0:
64,192,70110,1,0,0:0:0:0:
192,192,70110,1,0,0:0:0:0:
64,192,70218,1,0,0:0:0:0:
192,192,70218,1,0,0:0:0:0:
320,192,70218,1,0,0:0:0:0:
448,192,70218,1,0,0:0:0:0:
448,192,70326,1,0,0:0:0:0:
320,192,70326,1,0,0:0:0:0:
448,192,70435,1,0,0:0:0:0:
192,192,70435,1,0,0:0:0:0:
64,192,70435,1,0,0:0:0:0:
192,192,70543,1,0,0:0:0:0:
64,192,70543,1,0,0:0:0:0:
64,192,70652,1,0,0:0:0:0:
320,192,70652,1,0,0:0:0:0:
192,192,70652,1,0,0:0:0:0:
448,192,70652,1,0,0:0:0:0:
448,192,70760,1,0,0:0:0:0:
320,192,70760,1,0,0:0:0:0:
320,192,70868,1,0,0:0:0:0:
192,192,70868,1,0,0:0:0:0:
64,192,70868,1,0,0:0:0:0:
64,192,70976,1,0,0:0:0:0:
192,192,70976,1,0,0:0:0:0:
64,192,71085,1,0,0:0:0:0:
192,192,71085,1,0,0:0:0:0:
320,192,71085,1,0,0:0:0:0:
448,192,71085,1,0,0:0:0:0:
448,192,71193,1,0,0:0:0:0:
320,192,71193,1,0,0:0:0:0:
320,192,71301,1,0,0:0:0:0:
448,192,71301,1,0,0:0:0:0:
192,192,71301,1,0,0:0:0:0:
64,192,71301,1,0,0:0:0:0:
64,192,71409,1,0,0:0:0:0:
192,192,71409,1,0,0:0:0:0:
64,192,71517,1,0,0:0:0:0:
192,192,71517,1,0,0:0:0:0:
320,192,71517,1,0,0:0:0:0:
448,192,71517,1,0,0:0:0:0:
448,192,71625,1,0,0:0:0:0:
320,192,71625,1,0,0:0:0:0:
320,192,71734,1,0,0:0:0:0:
448,192,71734,1,0,0:0:0:0:
192,192,71734,1,0,0:0:0:0:
64,192,71734,1,0,0:0:0:0:
64,192,71842,1,0,0:0:0:0:
192,192,71842,1,0,0:0:0:0:
64,192,71950,1,0,0:0:0:0:
192,192,71950,1,0,0:0:0:0:
448,192,71950,1,0,0:0:0:0:
320,192,71950,1,0,0:0:0:0:
448,192,72058,1,0,0:0:0:0:
320,192,72058,1,0,0:0:0:0:
64,192,72058,1,0,0:0:0:0:
320,192,72166,1,0,0:0:0:0:
448,192,72166,1,0,0:0:0:0:
192,192,72166,1,0,0:0:0:0:
448,192,72275,1,0,0:0:0:0:
320,192,72275,1,0,0:0:0:0:
320,192,72383,1,0,0:0:0:0:
448,192,72383,1,0,0:0:0:0:
192,192,72383,1,0,0:0:0:0:
64,192,72383,1,0,0:0:0:0:
192,192,72491,1,0,0:0:0:0:
64,192,72491,1,0,0:0:0:0:
64,192,72599,1,0,0:0:0:0:
320,192,72599,1,0,0:0:0:0:
448,192,72599,1,0,0:0:0:0:
448,192,72707,1,0,0:0:0:0:
320,192,72707,1,0,0:0:0:0:
448,192,72815,1,0,0:0:0:0:
320,192,72815,1,0,0:0:0:0:
192,192,72815,1,0,0:0:0:0:
64,192,72815,1,0,0:0:0:0:
192,192,72925,1,0,0:0:0:0:
64,192,72925,1,0,0:0:0:0:
192,192,73033,1,0,0:0:0:0:
320,192,73033,1,0,0:0:0:0:
448,192,73033,1,0,0:0:0:0:
448,192,73141,1,0,0:0:0:0:
320,192,73141,1,0,0:0:0:0:
64,192,73249,1,0,0:0:0:0:
192,192,73249,1,0,0:0:0:0:
320,192,73249,1,0,0:0:0:0:
448,192,73249,1,0,0:0:0:0:
192,192,73357,1,0,0:0:0:0:
64,192,73357,1,0,0:0:0:0:
64,192,73465,1,0,0:0:0:0:
320,192,73465,1,0,0:0:0:0:
448,192,73465,1,0,0:0:0:0:
448,192,73574,1,0,0:0:0:0:
320,192,73574,1,0,0:0:0:0:
448,192,73682,1,0,0:0:0:0:
320,192,73682,1,0,0:0:0:0:
192,192,73682,1,0,0:0:0:0:
64,192,73682,1,0,0:0:0:0:
192,192,73790,1,0,0:0:0:0:
64,192,73790,1,0,0:0:0:0:
448,192,73790,1,0,0:0:0:0:
64,192,73898,1,0,0:0:0:0:
192,192,73898,1,0,0:0:0:0:
320,192,73898,1,0,0:0:0:0:
192,192,74006,1,0,0:0:0:0:
64,192,74006,1,0,0:0:0:0:
64,192,74115,1,0,0:0:0:0:
192,192,74115,1,0,0:0:0:0:
320,192,74115,1,0,0:0:0:0:
448,192,74115,1,0,0:0:0:0:
448,192,74331,1,0,0:0:0:0:
320,192,74547,1,0,0:0:0:0:
192,192,74547,1,0,0:0:0:0:
64,192,74547,1,0,0:0:0:0:
448,192,74764,1,0,0:0:0:0:
64,192,74980,1,0,0:0:0:0:
192,192,75197,1,0,0:0:0:0:
320,192,75414,1,0,0:0:0:0:
64,192,75630,1,0,0:0:0:0:
64,192,75846,1,0,0:0:0:0:
192,192,75846,1,0,0:0:0:0:
64,192,76063,1,0,0:0:0:0:
192,192,76063,1,0,0:0:0:0:
320,192,76063,1,0,0:0:0:0:
64,192,76279,1,0,0:0:0:0:
448,192,76279,1,0,0:0:0:0:
192,192,76279,1,0,0:0:0:0:
320,192,76279,1,0,0:0:0:0:
320,192,76495,1,0,0:0:0:0:
192,192,76712,1,0,0:0:0:0:
64,192,76928,1,0,0:0:0:0:
320,192,77145,1,0,0:0:0:0:
448,192,77145,1,0,0:0:0:0:
192,192,77361,1,0,0:0:0:0:
320,192,77578,1,0,0:0:0:0:
448,192,77795,1,0,0:0:0:0:
64,192,78011,1,0,0:0:0:0:
192,192,78011,1,0,0:0:0:0:
320,192,78227,1,0,0:0:0:0:
192,192,78444,1,0,0:0:0:0:
64,192,78660,1,0,0:0:0:0:
448,192,78876,1,0,0:0:0:0:
320,192,78876,1,0,0:0:0:0:
192,192,79093,1,0,0:0:0:0:
448,192,79309,1,0,0:0:0:0:
64,192,79525,1,0,0:0:0:0:
320,192,79743,1,0,0:0:0:0:
192,192,79743,1,0,0:0:0:0:
448,192,79959,1,0,0:0:0:0:
64,192,80175,1,0,0:0:0:0:
192,192,80392,1,0,0:0:0:0:
320,192,80608,1,0,0:0:0:0:
448,192,80608,1,0,0:0:0:0:
192,192,80825,1,0,0:0:0:0:
64,192,81041,1,0,0:0:0:0:
320,192,81257,1,0,0:0:0:0:
448,192,81474,1,0,0:0:0:0:
64,192,81474,1,0,0:0:0:0:
320,192,81690,1,0,0:0:0:0:
192,192,81906,1,0,0:0:0:0:
64,192,82124,1,0,0:0:0:0:
448,192,82340,1,0,0:0:0:0:
320,192,82340,1,0,0:0:0:0:
64,192,82556,1,0,0:0:0:0:
64,192,82773,1,0,0:0:0:0:
192,192,82773,1,0,0:0:0:0:
64,192,82989,1,0,0:0:0:0:
192,192,82989,1,0,0:0:0:0:
320,192,82989,1,0,0:0:0:0:
448,192,83205,1,0,0:0:0:0:
320,192,83205,1,0,0:0:0:0:
192,192,83205,1,0,0:0:0:0:
64,192,83205,1,0,0:0:0:0:
192,192,83422,1,0,0:0:0:0:
448,192,83638,1,0,0:0:0:0:
320,192,83638,1,0,0:0:0:0:
64,192,83638,1,0,0:0:0:0:
192,192,83855,1,0,0:0:0:0:
64,192,84071,1,0,0:0:0:0:
448,192,84071,1,0,0:0:0:0:
320,192,84288,1,0,0:0:0:0:
192,192,84505,1,0,0:0:0:0:
64,192,84505,1,0,0:0:0:0:
448,192,84505,1,0,0:0:0:0:
320,192,84721,1,0,0:0:0:0:
448,192,84937,1,0,0:0:0:0:
64,192,84937,1,0,0:0:0:0:
192,192,85154,1,0,0:0:0:0:
64,192,85370,1,0,0:0:0:0:
320,192,85370,1,0,0:0:0:0:
448,192,85370,1,0,0:0:0:0:
192,192,85586,1,0,0:0:0:0:
320,192,85803,1,0,0:0:0:0:
64,192,85803,1,0,0:0:0:0:
448,192,86019,1,0,0:0:0:0:
320,192,86235,1,0,0:0:0:0:
192,192,86235,1,0,0:0:0:0:
64,192,86235,1,0,0:0:0:0:
448,192,86452,1,0,0:0:0:0:
192,192,86669,1,0,0:0:0:0:
64,192,86669,1,0,0:0:0:0:
320,192,86885,1,0,0:0:0:0:
448,192,87102,1,0,0:0:0:0:
192,192,87102,1,0,0:0:0:0:
64,192,87102,1,0,0:0:0:0:
320,192,87318,1,0,0:0:0:0:
64,192,87535,1,0,0:0:0:0:
448,192,87535,1,0,0:0:0:0:
192,192,87751,1,0,0:0:0:0:
320,192,87967,1,0,0:0:0:0:
448,192,87967,1,0,0:0:0:0:
64,192,87967,1,0,0:0:0:0:
192,192,88184,1,0,0:0:0:0:
320,192,88400,1,0,0:0:0:0:
448,192,88400,1,0,0:0:0:0:
64,192,88616,1,0,0:0:0:0:
192,192,88834,1,0,0:0:0:0:
320,192,88834,1,0,0:0:0:0:
448,192,88834,1,0,0:0:0:0:
64,192,89050,1,0,0:0:0:0:
448,192,89266,1,0,0:0:0:0:
320,192,89266,1,0,0:0:0:0:
192,192,89483,1,0,0:0:0:0:
64,192,89699,1,0,0:0:0:0:
320,192,89699,1,0,0:0:0:0:
448,192,89699,1,0,0:0:0:0:
192,192,89915,1,0,0:0:0:0:
64,192,90132,1,0,0:0:0:0:
448,192,90132,1,0,0:0:0:0:
320,192,90348,1,0,0:0:0:0:
448,192,90565,1,0,0:0:0:0:
192,192,90565,1,0,0:0:0:0:
64,192,90565,1,0,0:0:0:0:
320,192,90781,1,0,0:0:0:0:
448,192,90997,1,0,0:0:0:0:
64,192,90997,1,0,0:0:0:0:
192,192,91215,1,0,0:0:0:0:
64,192,91431,1,0,0:0:0:0:
448,192,91431,1,0,0:0:0:0:
320,192,91431,1,0,0:0:0:0:
192,192,91647,1,0,0:0:0:0:
64,192,91864,1,0,0:0:0:0:
192,192,91864,1,0,0:0:0:0:
448,192,92080,1,0,0:0:0:0:
320,192,92296,1,0,0:0:0:0:
192,192,92296,1,0,0:0:0:0:
64,192,92296,1,0,0:0:0:0:
448,192,92513,1,0,0:0:0:0:
320,192,92729,1,0,0:0:0:0:
192,192,92729,1,0,0:0:0:0:
64,192,92945,1,0,0:0:0:0:
448,192,93162,1,0,0:0:0:0:
320,192,93162,1,0,0:0:0:0:
192,192,93162,1,0,0:0:0:0:
64,192,93379,1,0,0:0:0:0:
192,192,93595,1,0,0:0:0:0:
448,192,93595,128,0,94028:0:0:0:0:
320,192,93812,1,0,0:0:0:0:
320,192,94028,1,0,0:0:0:0:
192,192,94028,1,0,0:0:0:0:
64,192,94028,1,0,0:0:0:0:
192,192,94245,1,0,0:0:0:0:
64,192,94461,128,0,94894:0:0:0:0:
448,192,94461,1,0,0:0:0:0:
320,192,94677,1,0,0:0:0:0:
320,192,94894,1,0,0:0:0:0:
448,192,94894,1,0,0:0:0:0:
192,192,94894,1,0,0:0:0:0:
192,192,95110,1,0,0:0:0:0:
448,192,95326,128,0,96625:0:0:0:0:
64,192,95326,1,0,0:0:0:0:
64,192,96625,128,0,96842:0:0:0:0:
192,192,96842,128,0,97058:0:0:0:0:
64,192,97058,1,0,0:0:0:0:
320,192,97058,1,0,0:0:0:0:
448,192,97058,1,0,0:0:0:0:
448,192,97275,1,0,0:0:0:0:
320,192,97491,1,0,0:0:0:0:
192,192,97491,1,0,0:0:0:0:
64,192,97491,1,0,0:0:0:0:
448,192,97491,1,0,0:0:0:0:
192,192,97707,1,0,0:0:0:0:
64,192,97925,1,0,0:0:0:0:
320,192,97925,1,0,0:0:0:0:
448,192,97925,1,0,0:0:0:0:
192,192,98141,1,0,0:0:0:0:
448,192,98141,1,0,0:0:0:0:
448,192,98357,1,0,0:0:0:0:
320,192,98357,1,0,0:0:0:0:
192,192,98357,1,0,0:0:0:0:
64,192,98357,1,0,0:0:0:0:
64,192,98574,1,0,0:0:0:0:
320,192,98574,1,0,0:0:0:0:
320,192,98790,1,0,0:0:0:0:
448,192,98790,1,0,0:0:0:0:
192,192,98790,1,0,0:0:0:0:
192,192,99006,1,0,0:0:0:0:
64,192,99006,1,0,0:0:0:0:
448,192,99223,1,0,0:0:0:0:
320,192,99223,1,0,0:0:0:0:
192,192,99223,1,0,0:0:0:0:
64,192,99223,1,0,0:0:0:0:
320,192,99439,1,0,0:0:0:0:
448,192,99439,1,0,0:0:0:0:
64,192,99655,1,0,0:0:0:0:
448,192,99655,1,0,0:0:0:0:
192,192,99655,1,0,0:0:0:0:
320,192,99872,1,0,0:0:0:0:
448,192,100088,1,0,0:0:0:0:
320,192,100088,1,0,0:0:0:0:
64,192,100088,1,0,0:0:0:0:
192,192,100088,1,0,0:0:0:0:
64,192,100305,1,0,0:0:0:0:
192,192,100305,1,0,0:0:0:0:
448,192,100522,1,0,0:0:0:0:
192,192,100522,1,0,0:0:0:0:
320,192,100522,1,0,0:0:0:0:
320,192,100738,1,0,0:0:0:0:
448,192,100738,1,0,0:0:0:0:
320,192,100955,1,0,0:0:0:0:
192,192,100955,1,0,0:0:0:0:
64,192,100955,1,0,0:0:0:0:
448,192,100955,1,0,0:0:0:0:
192,192,101171,1,0,0:0:0:0:
64,192,101171,1,0,0:0:0:0:
64,192,101387,1,0,0:0:0:0:
320,192,101387,1,0,0:0:0:0:
448,192,101387,1,0,0:0:0:0:
192,192,101604,1,0,0:0:0:0:
320,192,101820,1,0,0:0:0:0:
64,192,101820,1,0,0:0:0:0:
192,192,101820,1,0,0:0:0:0:
448,192,101820,1,0,0:0:0:0:
64,192,102036,1,0,0:0:0:0:
320,192,102036,1,0,0:0:0:0:
64,192,102253,1,0,0:0:0:0:
320,192,102253,1,0,0:0:0:0:
448,192,102253,1,0,0:0:0:0:
192,192,102253,1,0,0:0:0:0:
448,192,102470,1,0,0:0:0:0:
320,192,102470,1,0,0:0:0:0:
448,192,102686,1,0,0:0:0:0:
320,192,102686,1,0,0:0:0:0:
192,192,102686,1,0,0:0:0:0:
64,192,102686,1,0,0:0:0:0:
64,192,102903,1,0,0:0:0:0:
192,192,102903,1,0,0:0:0:0:
64,192,103119,1,0,0:0:0:0:
320,192,103119,1,0,0:0:0:0:
448,192,103119,1,0,0:0:0:0:
192,192,103335,1,0,0:0:0:0:
192,192,103552,1,0,0:0:0:0:
64,192,103552,1,0,0:0:0:0:
448,192,103552,1,0,0:0:0:0:
320,192,103552,1,0,0:0:0:0:
448,192,103768,1,0,0:0:0:0:
320,192,103768,1,0,0:0:0:0:
64,192,103985,1,0,0:0:0:0:
192,192,103985,1,0,0:0:0:0:
320,192,103985,1,0,0:0:0:0:
448,192,103985,1,0,0:0:0:0:
192,192,104201,1,0,0:0:0:0:
448,192,104417,1,0,0:0:0:0:
320,192,104417,1,0,0:0:0:0:
192,192,104417,1,0,0:0:0:0:
64,192,104417,1,0,0:0:0:0:
64,192,104634,1,0,0:0:0:0:
320,192,104634,1,0,0:0:0:0:
192,192,104851,1,0,0:0:0:0:
64,192,104851,1,0,0:0:0:0:
320,192,104851,1,0,0:0:0:0:
448,192,105067,1,0,0:0:0:0:
192,192,105067,1,0,0:0:0:0:
448,192,105284,1,0,0:0:0:0:
320,192,105284,1,0,0:0:0:0:
192,192,105284,1,0,0:0:0:0:
64,192,105284,1,0,0:0:0:0:
320,192,105500,1,0,0:0:0:0:
448,192,105500,1,0,0:0:0:0:
320,192,105716,1,0,0:0:0:0:
64,192,105716,1,0,0:0:0:0:
192,192,105716,1,0,0:0:0:0:
192,192,105933,1,0,0:0:0:0:
64,192,105933,1,0,0:0:0:0:
448,192,106149,1,0,0:0:0:0:
320,192,106149,1,0,0:0:0:0:
192,192,106149,1,0,0:0:0:0:
64,192,106149,1,0,0:0:0:0:
320,192,106365,1,0,0:0:0:0:
448,192,106365,1,0,0:0:0:0:
448,192,106582,1,0,0:0:0:0:
192,192,106582,1,0,0:0:0:0:
64,192,106582,1,0,0:0:0:0:
192,192,106798,1,0,0:0:0:0:
64,192,107015,1,0,0:0:0:0:
192,192,107015,1,0,0:0:0:0:
448,192,107015,1,0,0:0:0:0:
320,192,107015,1,0,0:0:0:0:
320,192,107232,1,0,0:0:0:0:
448,192,107232,1,0,0:0:0:0:
448,192,107448,1,0,0:0:0:0:
64,192,107448,1,0,0:0:0:0:
192,192,107448,1,0,0:0:0:0:
320,192,107665,1,0,0:0:0:0:
64,192,107665,1,0,0:0:0:0:
64,192,107881,1,0,0:0:0:0:
320,192,107881,1,0,0:0:0:0:
192,192,107881,1,0,0:0:0:0:
448,192,107881,1,0,0:0:0:0:
448,192,108097,1,0,0:0:0:0:
192,192,108097,1,0,0:0:0:0:
320,192,108314,1,0,0:0:0:0:
64,192,108314,1,0,0:0:0:0:
192,192,108314,1,0,0:0:0:0:
320,192,108530,1,0,0:0:0:0:
64,192,108746,1,0,0:0:0:0:
192,192,108746,1,0,0:0:0:0:
448,192,108746,1,0,0:0:0:0:
320,192,108746,1,0,0:0:0:0:
64,192,108963,1,0,0:0:0:0:
192,192,109179,1,0,0:0:0:0:
448,192,109179,1,0,0:0:0:0:
320,192,109396,1,0,0:0:0:0:
192,192,109613,1,0,0:0:0:0:
64,192,109613,1,0,0:0:0:0:
448,192,109829,1,0,0:0:0:0:
320,192,110045,1,0,0:0:0:0:
192,192,110045,1,0,0:0:0:0:
64,192,110262,1,0,0:0:0:0:
64,192,110478,1,0,0:0:0:0:
192,192,110478,1,0,0:0:0:0:
64,192,110695,1,0,0:0:0:0:
192,192,110695,1,0,0:0:0:0:
320,192,110695,1,0,0:0:0:0:
64,192,110911,1,0,0:0:0:0:
320,192,110911,1,0,0:0:0:0:
192,192,110911,1,0,0:0:0:0:
448,192,110911,1,0,0:0:0:0:
320,192,111344,1,0,0:0:0:0:
192,192,111344,1,0,0:0:0:0:
448,192,111344,1,0,0:0:0:0:
320,192,111777,1,0,0:0:0:0:
448,192,111777,1,0,0:0:0:0:
64,192,111777,1,0,0:0:0:0:
192,192,111994,1,0,0:0:0:0:
64,192,112210,1,0,0:0:0:0:
192,192,112210,1,0,0:0:0:0:
448,192,112210,1,0,0:0:0:0:
320,192,112426,1,0,0:0:0:0:
448,192,112643,1,0,0:0:0:0:
192,192,112643,1,0,0:0:0:0:
320,192,112643,1,0,0:0:0:0:
320,192,113075,1,0,0:0:0:0:
192,192,113075,1,0,0:0:0:0:
64,192,113075,1,0,0:0:0:0:
64,192,113292,1,0,0:0:0:0:
192,192,113508,1,0,0:0:0:0:
320,192,113508,1,0,0:0:0:0:
448,192,113508,1,0,0:0:0:0:
192,192,113942,1,0,0:0:0:0:
64,192,113942,1,0,0:0:0:0:
448,192,113942,1,0,0:0:0:0:
320,192,114158,1,0,0:0:0:0:
192,192,114375,1,0,0:0:0:0:
64,192,114375,1,0,0:0:0:0:
448,192,114375,1,0,0:0:0:0:
320,192,114591,1,0,0:0:0:0:
448,192,114591,1,0,0:0:0:0:
64,192,114591,1,0,0:0:0:0:
192,192,114807,1,0,0:0:0:0:
320,192,114807,1,0,0:0:0:0:
448,192,114807,1,0,0:0:0:0:
320,192,115024,1,0,0:0:0:0:
192,192,115024,1,0,0:0:0:0:
64,192,115024,1,0,0:0:0:0:
64,192,115240,1,0,0:0:0:0:
192,192,115240,1,0,0:0:0:0:
64,192,115348,1,0,0:0:0:0:
192,192,115348,1,0,0:0:0:0:
320,192,115456,1,0,0:0:0:0:
448,192,115456,1,0,0:0:0:0:
448,192,115565,1,0,0:0:0:0:
320,192,115565,1,0,0:0:0:0:
192,192,115673,1,0,0:0:0:0:
64,192,115673,1,0,0:0:0:0:
64,192,115781,1,0,0:0:0:0:
192,192,115781,1,0,0:0:0:0:
320,192,115889,1,0,0:0:0:0:
448,192,115889,1,0,0:0:0:0:
448,192,115997,1,0,0:0:0:0:
320,192,115997,1,0,0:0:0:0:
192,192,116106,1,0,0:0:0:0:
64,192,116106,1,0,0:0:0:0:
448,192,116106,1,0,0:0:0:0:
320,192,116323,1,0,0:0:0:0:
64,192,116539,1,0,0:0:0:0:
448,192,116755,1,0,0:0:0:0:
192,192,116972,1,0,0:0:0:0:
320,192,117405,1,0,0:0:0:0:
448,192,117405,1,0,0:0:0:0:
192,192,117621,1,0,0:0:0:0:
64,192,117621,1,0,0:0:0:0:
64,192,117837,1,0,0:0:0:0:
192,192,117837,1,0,0:0:0:0:
448,192,117837,1,0,0:0:0:0:
320,192,117837,1,0,0:0:0:0:
64,192,117945,1,0,0:0:0:0:
192,192,117945,1,0,0:0:0:0:
448,192,117945,1,0,0:0:0:0:
192,192,118054,1,0,0:0:0:0:
64,192,118054,1,0,0:0:0:0:
320,192,118054,1,0,0:0:0:0:
64,192,118162,1,0,0:0:0:0:
192,192,118162,1,0,0:0:0:0:
192,192,118270,1,0,0:0:0:0:
64,192,118270,1,0,0:0:0:0:
320,192,118270,1,0,0:0:0:0:
448,192,118270,1,0,0:0:0:0:
448,192,118379,1,0,0:0:0:0:
320,192,118379,1,0,0:0:0:0:
64,192,118379,1,0,0:0:0:0:
320,192,118487,1,0,0:0:0:0:
448,192,118487,1,0,0:0:0:0:
192,192,118487,1,0,0:0:0:0:
448,192,118595,1,0,0:0:0:0:
320,192,118595,1,0,0:0:0:0:
448,192,118704,1,0,0:0:0:0:
320,192,118704,1,0,0:0:0:0:
192,192,118704,1,0,0:0:0:0:
64,192,118704,1,0,0:0:0:0:
64,192,118812,1,0,0:0:0:0:
192,192,118812,1,0,0:0:0:0:
64,192,118920,1,0,0:0:0:0:
320,192,118920,1,0,0:0:0:0:
448,192,118920,1,0,0:0:0:0:
448,192,119028,1,0,0:0:0:0:
320,192,119028,1,0,0:0:0:0:
448,192,119136,1,0,0:0:0:0:
320,192,119136,1,0,0:0:0:0:
192,192,119136,1,0,0:0:0:0:
64,192,119136,1,0,0:0:0:0:
192,192,119245,1,0,0:0:0:0:
64,192,119245,1,0,0:0:0:0:
192,192,119353,1,0,0:0:0:0:
320,192,119353,1,0,0:0:0:0:
448,192,119353,1,0,0:0:0:0:
320,192,119461,1,0,0:0:0:0:
448,192,119461,1,0,0:0:0:0:
64,192,119569,1,0,0:0:0:0:
192,192,119569,1,0,0:0:0:0:
320,192,119569,1,0,0:0:0:0:
448,192,119569,1,0,0:0:0:0:
64,192,119677,1,0,0:0:0:0:
192,192,119677,1,0,0:0:0:0:
448,192,119677,1,0,0:0:0:0:
192,192,119785,1,0,0:0:0:0:
64,192,119785,1,0,0:0:0:0:
320,192,119785,1,0,0:0:0:0:
64,192,119894,1,0,0:0:0:0:
192,192,119894,1,0,0:0:0:0:
448,192,120002,1,0,0:0:0:0:
320,192,120002,1,0,0:0:0:0:
192,192,120002,1,0,0:0:0:0:
64,192,120002,1,0,0:0:0:0:
320,192,120110,1,0,0:0:0:0:
448,192,120110,1,0,0:0:0:0:
64,192,120218,1,0,0:0:0:0:
448,192,120218,1,0,0:0:0:0:
192,192,120218,1,0,0:0:0:0:
192,192,120326,1,0,0:0:0:0:
64,192,120326,1,0,0:0:0:0:
448,192,120435,1,0,0:0:0:0:
320,192,120435,1,0,0:0:0:0:
64,192,120435,1,0,0:0:0:0:
192,192,120435,1,0,0:0:0:0:
320,192,120543,1,0,0:0:0:0:
448,192,120543,1,0,0:0:0:0:
64,192,120543,1,0,0:0:0:0:
320,192,120652,1,0,0:0:0:0:
448,192,120652,1,0,0:0:0:0:
192,192,120652,1,0,0:0:0:0:
320,192,120760,1,0,0:0:0:0:
448,192,120760,1,0,0:0:0:0:
64,192,120868,1,0,0:0:0:0:
192,192,120868,1,0,0:0:0:0:
320,192,120868,1,0,0:0:0:0:
448,192,120868,1,0,0:0:0:0:
192,192,120976,1,0,0:0:0:0:
448,192,121085,1,0,0:0:0:0:
320,192,121085,1,0,0:0:0:0:
64,192,121085,1,0,0:0:0:0:
320,192,121193,1,0,0:0:0:0:
448,192,121301,1,0,0:0:0:0:
320,192,121301,1,0,0:0:0:0:
64,192,121301,1,0,0:0:0:0:
192,192,121301,1,0,0:0:0:0:
64,192,121409,1,0,0:0:0:0:
192,192,121409,1,0,0:0:0:0:
64,192,121517,1,0,0:0:0:0:
320,192,121517,1,0,0:0:0:0:
448,192,121517,1,0,0:0:0:0:
320,192,121625,1,0,0:0:0:0:
448,192,121625,1,0,0:0:0:0:
64,192,121734,1,0,0:0:0:0:
192,192,121734,1,0,0:0:0:0:
320,192,121734,1,0,0:0:0:0:
448,192,121734,1,0,0:0:0:0:
192,192,121842,1,0,0:0:0:0:
64,192,121842,1,0,0:0:0:0:
320,192,121950,1,0,0:0:0:0:
448,192,121950,1,0,0:0:0:0:
192,192,121950,1,0,0:0:0:0:
320,192,122058,1,0,0:0:0:0:
448,192,122058,1,0,0:0:0:0:
448,192,122166,1,0,0:0:0:0:
320,192,122166,1,0,0:0:0:0:
64,192,122166,1,0,0:0:0:0:
192,192,122166,1,0,0:0:0:0:
64,192,122275,1,0,0:0:0:0:
192,192,122275,1,0,0:0:0:0:
448,192,122275,1,0,0:0:0:0:
192,192,122383,1,0,0:0:0:0:
64,192,122383,1,0,0:0:0:0:
320,192,122383,1,0,0:0:0:0:
64,192,122491,1,0,0:0:0:0:
192,192,122491,1,0,0:0:0:0:
192,192,122599,1,0,0:0:0:0:
64,192,122599,1,0,0:0:0:0:
320,192,122599,1,0,0:0:0:0:
448,192,122599,1,0,0:0:0:0:
448,192,122707,1,0,0:0:0:0:
320,192,122707,1,0,0:0:0:0:
448,192,122815,1,0,0:0:0:0:
192,192,122815,1,0,0:0:0:0:
64,192,122815,1,0,0:0:0:0:
64,192,122925,1,0,0:0:0:0:
192,192,122925,1,0,0:0:0:0:
64,192,123033,1,0,0:0:0:0:
192,192,123033,1,0,0:0:0:0:
320,192,123033,1,0,0:0:0:0:
448,192,123033,1,0,0:0:0:0:
320,192,123141,1,0,0:0:0:0:
448,192,123141,1,0,0:0:0:0:
320,192,123249,1,0,0:0:0:0:
192,192,123249,1,0,0:0:0:0:
64,192,123249,1,0,0:0:0:0:
64,192,123357,1,0,0:0:0:0:
192,192,123357,1,0,0:0:0:0:
64,192,123465,1,0,0:0:0:0:
192,192,123465,1,0,0:0:0:0:
320,192,123465,1,0,0:0:0:0:
448,192,123465,1,0,0:0:0:0:
320,192,123574,1,0,0:0:0:0:
448,192,123574,1,0,0:0:0:0:
448,192,123682,1,0,0:0:0:0:
192,192,123682,1,0,0:0:0:0:
64,192,123682,1,0,0:0:0:0:
64,192,123790,1,0,0:0:0:0:
192,192,123790,1,0,0:0:0:0:
64,192,123898,1,0,0:0:0:0:
192,192,123898,1,0,0:0:0:0:
448,192,123898,1,0,0:0:0:0:
320,192,123898,1,0,0:0:0:0:
448,192,124006,1,0,0:0:0:0:
320,192,124006,1,0,0:0:0:0:
320,192,124115,1,0,0:0:0:0:
448,192,124115,1,0,0:0:0:0:
192,192,124115,1,0,0:0:0:0:
320,192,124223,1,0,0:0:0:0:
448,192,124223,1,0,0:0:0:0:
192,192,124223,1,0,0:0:0:0:
320,192,124331,1,0,0:0:0:0:
448,192,124331,1,0,0:0:0:0:
64,192,124331,1,0,0:0:0:0:
192,192,124331,1,0,0:0:0:0:
320,192,124439,1,0,0:0:0:0:
448,192,124439,1,0,0:0:0:0:
448,192,124547,1,0,0:0:0:0:
192,192,124547,1,0,0:0:0:0:
64,192,124547,1,0,0:0:0:0:
64,192,124655,1,0,0:0:0:0:
192,192,124655,1,0,0:0:0:0:
448,192,124764,1,0,0:0:0:0:
320,192,124764,1,0,0:0:0:0:
192,192,124764,1,0,0:0:0:0:
64,192,124764,1,0,0:0:0:0:
320,192,124872,1,0,0:0:0:0:
448,192,124872,1,0,0:0:0:0:
192,192,124872,1,0,0:0:0:0:
448,192,124980,1,0,0:0:0:0:
320,192,124980,1,0,0:0:0:0:
192,192,124980,1,0,0:0:0:0:
320,192,125088,1,0,0:0:0:0:
448,192,125088,1,0,0:0:0:0:
448,192,125197,1,0,0:0:0:0:
320,192,125197,1,0,0:0:0:0:
192,192,125197,1,0,0:0:0:0:
64,192,125197,1,0,0:0:0:0:
192,192,125305,1,0,0:0:0:0:
64,192,125305,1,0,0:0:0:0:
320,192,125305,1,0,0:0:0:0:
64,192,125414,1,0,0:0:0:0:
192,192,125414,1,0,0:0:0:0:
320,192,125414,1,0,0:0:0:0:
192,192,125522,1,0,0:0:0:0:
64,192,125522,1,0,0:0:0:0:
64,192,125630,1,0,0:0:0:0:
192,192,125630,1,0,0:0:0:0:
320,192,125630,1,0,0:0:0:0:
448,192,125630,1,0,0:0:0:0:
448,192,125738,1,0,0:0:0:0:
320,192,125738,1,0,0:0:0:0:
448,192,125846,1,0,0:0:0:0:
192,192,125846,1,0,0:0:0:0:
64,192,125846,1,0,0:0:0:0:
64,192,125955,1,0,0:0:0:0:
192,192,125955,1,0,0:0:0:0:
64,192,126063,1,0,0:0:0:0:
192,192,126063,1,0,0:0:0:0:
320,192,126063,1,0,0:0:0:0:
448,192,126063,1,0,0:0:0:0:
448,192,126171,1,0,0:0:0:0:
320,192,126171,1,0,0:0:0:0:
320,192,126279,1,0,0:0:0:0:
192,192,126279,1,0,0:0:0:0:
64,192,126279,1,0,0:0:0:0:
64,192,126387,1,0,0:0:0:0:
192,192,126387,1,0,0:0:0:0:
64,192,126495,1,0,0:0:0:0:
192,192,126495,1,0,0:0:0:0:
320,192,126495,1,0,0:0:0:0:
448,192,126495,1,0,0:0:0:0:
448,192,126604,1,0,0:0:0:0:
320,192,126604,1,0,0:0:0:0:
448,192,126712,1,0,0:0:0:0:
192,192,126712,1,0,0:0:0:0:
64,192,126712,1,0,0:0:0:0:
320,192,126712,1,0,0:0:0:0:
192,192,126820,1,0,0:0:0:0:
64,192,126820,1,0,0:0:0:0:
448,192,126928,1,0,0:0:0:0:
320,192,126928,1,0,0:0:0:0:
192,192,126928,1,0,0:0:0:0:
64,192,126928,1,0,0:0:0:0:
320,192,127036,1,0,0:0:0:0:
448,192,127036,1,0,0:0:0:0:
448,192,127145,1,0,0:0:0:0:
320,192,127145,1,0,0:0:0:0:
192,192,127145,1,0,0:0:0:0:
64,192,127145,1,0,0:0:0:0:
192,192,127253,1,0,0:0:0:0:
64,192,127253,1,0,0:0:0:0:
448,192,127361,1,0,0:0:0:0:
320,192,127361,1,0,0:0:0:0:
192,192,127361,1,0,0:0:0:0:
64,192,127361,1,0,0:0:0:0:
320,192,127470,1,0,0:0:0:0:
448,192,127470,1,0,0:0:0:0:
192,192,127470,1,0,0:0:0:0:
448,192,127578,1,0,0:0:0:0:
320,192,127578,1,0,0:0:0:0:
192,192,127578,1,0,0:0:0:0:
320,192,127686,1,0,0:0:0:0:
448,192,127686,1,0,0:0:0:0:
64,192,127795,1,0,0:0:0:0:
320,192,127795,1,0,0:0:0:0:
192,192,127795,1,0,0:0:0:0:
448,192,127795,1,0,0:0:0:0:
192,192,127903,1,0,0:0:0:0:
64,192,127903,1,0,0:0:0:0:
64,192,128011,1,0,0:0:0:0:
320,192,128011,1,0,0:0:0:0:
448,192,128011,1,0,0:0:0:0:
448,192,128119,1,0,0:0:0:0:
320,192,128119,1,0,0:0:0:0:
448,192,128227,1,0,0:0:0:0:
320,192,128227,1,0,0:0:0:0:
192,192,128227,1,0,0:0:0:0:
64,192,128227,1,0,0:0:0:0:
192,192,128335,1,0,0:0:0:0:
64,192,128335,1,0,0:0:0:0:
192,192,128444,1,0,0:0:0:0:
320,192,128444,1,0,0:0:0:0:
448,192,128444,1,0,0:0:0:0:
320,192,128552,1,0,0:0:0:0:
448,192,128552,1,0,0:0:0:0:
448,192,128660,1,0,0:0:0:0:
320,192,128660,1,0,0:0:0:0:
192,192,128660,1,0,0:0:0:0:
64,192,128660,1,0,0:0:0:0:
192,192,128768,1,0,0:0:0:0:
64,192,128768,1,0,0:0:0:0:
64,192,128876,1,0,0:0:0:0:
320,192,128876,1,0,0:0:0:0:
448,192,128876,1,0,0:0:0:0:
320,192,128985,1,0,0:0:0:0:
448,192,128985,1,0,0:0:0:0:
448,192,129093,1,0,0:0:0:0:
320,192,129093,1,0,0:0:0:0:
192,192,129093,1,0,0:0:0:0:
64,192,129093,1,0,0:0:0:0:
192,192,129201,1,0,0:0:0:0:
64,192,129201,1,0,0:0:0:0:
320,192,129201,1,0,0:0:0:0:
64,192,129309,1,0,0:0:0:0:
192,192,129309,1,0,0:0:0:0:
320,192,129309,1,0,0:0:0:0:
192,192,129417,1,0,0:0:0:0:
64,192,129417,1,0,0:0:0:0:
64,192,129525,1,0,0:0:0:0:
192,192,129525,1,0,0:0:0:0:
448,192,129525,1,0,0:0:0:0:
320,192,129525,1,0,0:0:0:0:
448,192,129743,1,0,0:0:0:0:
320,192,129959,1,0,0:0:0:0:
192,192,129959,1,0,0:0:0:0:
64,192,129959,1,0,0:0:0:0:
448,192,130175,1,0,0:0:0:0:
64,192,130392,1,0,0:0:0:0:
192,192,130608,1,0,0:0:0:0:
320,192,130825,1,0,0:0:0:0:
64,192,131041,1,0,0:0:0:0:
64,192,131257,1,0,0:0:0:0:
192,192,131257,1,0,0:0:0:0:
64,192,131474,1,0,0:0:0:0:
192,192,131474,1,0,0:0:0:0:
320,192,131474,1,0,0:0:0:0:
448,192,131690,1,0,0:0:0:0:
320,192,131690,1,0,0:0:0:0:
192,192,131690,1,0,0:0:0:0:
64,192,131690,1,0,0:0:0:0:
320,192,131798,1,0,0:0:0:0:
448,192,131798,1,0,0:0:0:0:
192,192,131798,1,0,0:0:0:0:
448,192,131906,1,0,0:0:0:0:
320,192,131906,1,0,0:0:0:0:
192,192,131906,1,0,0:0:0:0:
320,192,132015,1,0,0:0:0:0:
448,192,132015,1,0,0:0:0:0:
448,192,132124,1,0,0:0:0:0:
192,192,132124,1,0,0:0:0:0:
320,192,132124,1,0,0:0:0:0:
64,192,132124,1,0,0:0:0:0:
64,192,132232,1,0,0:0:0:0:
192,192,132232,1,0,0:0:0:0:
320,192,132232,1,0,0:0:0:0:
192,192,132340,1,0,0:0:0:0:
64,192,132340,1,0,0:0:0:0:
320,192,132340,1,0,0:0:0:0:
64,192,132448,1,0,0:0:0:0:
192,192,132448,1,0,0:0:0:0:
192,192,132556,1,0,0:0:0:0:
64,192,132556,1,0,0:0:0:0:
320,192,132556,1,0,0:0:0:0:
448,192,132556,1,0,0:0:0:0:
448,192,132665,1,0,0:0:0:0:
320,192,132665,1,0,0:0:0:0:
448,192,132773,1,0,0:0:0:0:
192,192,132773,1,0,0:0:0:0:
64,192,132773,1,0,0:0:0:0:
64,192,132881,1,0,0:0:0:0:
192,192,132881,1,0,0:0:0:0:
192,192,132989,1,0,0:0:0:0:
64,192,132989,1,0,0:0:0:0:
320,192,132989,1,0,0:0:0:0:
448,192,132989,1,0,0:0:0:0:
320,192,133097,1,0,0:0:0:0:
448,192,133097,1,0,0:0:0:0:
320,192,133205,1,0,0:0:0:0:
192,192,133205,1,0,0:0:0:0:
64,192,133205,1,0,0:0:0:0:
64,192,133314,1,0,0:0:0:0:
192,192,133314,1,0,0:0:0:0:
192,192,133422,1,0,0:0:0:0:
64,192,133422,1,0,0:0:0:0:
320,192,133422,1,0,0:0:0:0:
448,192,133422,1,0,0:0:0:0:
448,192,133530,1,0,0:0:0:0:
320,192,133530,1,0,0:0:0:0:
192,192,133530,1,0,0:0:0:0:
448,192,133638,1,0,0:0:0:0:
320,192,133638,1,0,0:0:0:0:
192,192,133638,1,0,0:0:0:0:
320,192,133746,1,0,0:0:0:0:
448,192,133746,1,0,0:0:0:0:
448,192,133855,1,0,0:0:0:0:
320,192,133855,1,0,0:0:0:0:
192,192,133855,1,0,0:0:0:0:
64,192,133855,1,0,0:0:0:0:
64,192,133963,1,0,0:0:0:0:
192,192,133963,1,0,0:0:0:0:
64,192,134071,1,0,0:0:0:0:
320,192,134071,1,0,0:0:0:0:
448,192,134071,1,0,0:0:0:0:
448,192,134179,1,0,0:0:0:0:
320,192,134179,1,0,0:0:0:0:
448,192,134288,1,0,0:0:0:0:
320,192,134288,1,0,0:0:0:0:
192,192,134288,1,0,0:0:0:0:
64,192,134288,1,0,0:0:0:0:
64,192,134396,1,0,0:0:0:0:
192,192,134396,1,0,0:0:0:0:
320,192,134396,1,0,0:0:0:0:
192,192,134505,1,0,0:0:0:0:
64,192,134505,1,0,0:0:0:0:
320,192,134505,1,0,0:0:0:0:
64,192,134613,1,0,0:0:0:0:
192,192,134613,1,0,0:0:0:0:
192,192,134721,1,0,0:0:0:0:
64,192,134721,1,0,0:0:0:0:
320,192,134721,1,0,0:0:0:0:
448,192,134721,1,0,0:0:0:0:
448,192,134829,1,0,0:0:0:0:
320,192,134937,1,0,0:0:0:0:
192,192,134937,1,0,0:0:0:0:
64,192,134937,1,0,0:0:0:0:
192,192,135045,1,0,0:0:0:0:
64,192,135154,1,0,0:0:0:0:
192,192,135154,1,0,0:0:0:0:
320,192,135154,1,0,0:0:0:0:
448,192,135154,1,0,0:0:0:0:
320,192,135262,1,0,0:0:0:0:
448,192,135262,1,0,0:0:0:0:
448,192,135370,1,0,0:0:0:0:
192,192,135370,1,0,0:0:0:0:
64,192,135370,1,0,0:0:0:0:
64,192,135478,1,0,0:0:0:0:
192,192,135478,1,0,0:0:0:0:
64,192,135586,1,0,0:0:0:0:
192,192,135586,1,0,0:0:0:0:
320,192,135586,1,0,0:0:0:0:
448,192,135586,1,0,0:0:0:0:
320,192,135695,1,0,0:0:0:0:
448,192,135695,1,0,0:0:0:0:
320,192,135803,1,0,0:0:0:0:
64,192,135803,1,0,0:0:0:0:
192,192,135803,1,0,0:0:0:0:
192,192,135911,1,0,0:0:0:0:
64,192,135911,1,0,0:0:0:0:
64,192,136019,1,0,0:0:0:0:
192,192,136019,1,0,0:0:0:0:
320,192,136019,1,0,0:0:0:0:
448,192,136019,1,0,0:0:0:0:
320,192,136127,1,0,0:0:0:0:
448,192,136127,1,0,0:0:0:0:
64,192,136127,1,0,0:0:0:0:
448,192,136235,1,0,0:0:0:0:
320,192,136235,1,0,0:0:0:0:
192,192,136235,1,0,0:0:0:0:
320,192,136344,1,0,0:0:0:0:
448,192,136344,1,0,0:0:0:0:
448,192,136452,1,0,0:0:0:0:
320,192,136452,1,0,0:0:0:0:
192,192,136452,1,0,0:0:0:0:
64,192,136452,1,0,0:0:0:0:
192,192,136561,1,0,0:0:0:0:
320,192,136669,1,0,0:0:0:0:
448,192,136669,1,0,0:0:0:0:
64,192,136669,1,0,0:0:0:0:
320,192,136777,1,0,0:0:0:0:
448,192,136885,1,0,0:0:0:0:
192,192,136885,1,0,0:0:0:0:
320,192,136885,1,0,0:0:0:0:
64,192,136885,1,0,0:0:0:0:
64,192,136994,1,0,0:0:0:0:
192,192,136994,1,0,0:0:0:0:
64,192,137102,1,0,0:0:0:0:
320,192,137102,1,0,0:0:0:0:
448,192,137102,1,0,0:0:0:0:
448,192,137210,1,0,0:0:0:0:
320,192,137210,1,0,0:0:0:0:
448,192,137318,1,0,0:0:0:0:
320,192,137318,1,0,0:0:0:0:
192,192,137318,1,0,0:0:0:0:
64,192,137318,1,0,0:0:0:0:
64,192,137426,1,0,0:0:0:0:
192,192,137426,1,0,0:0:0:0:
192,192,137535,1,0,0:0:0:0:
320,192,137535,1,0,0:0:0:0:
448,192,137535,1,0,0:0:0:0:
448,192,137643,1,0,0:0:0:0:
320,192,137643,1,0,0:0:0:0:
448,192,137751,1,0,0:0:0:0:
320,192,137751,1,0,0:0:0:0:
64,192,137751,1,0,0:0:0:0:
192,192,137751,1,0,0:0:0:0:
64,192,137859,1,0,0:0:0:0:
192,192,137859,1,0,0:0:0:0:
192,192,137967,1,0,0:0:0:0:
64,192,137967,1,0,0:0:0:0:
320,192,137967,1,0,0:0:0:0:
64,192,138075,1,0,0:0:0:0:
192,192,138075,1,0,0:0:0:0:
320,192,138075,1,0,0:0:0:0:
192,192,138184,1,0,0:0:0:0:
64,192,138184,1,0,0:0:0:0:
320,192,138184,1,0,0:0:0:0:
448,192,138184,1,0,0:0:0:0:
192,192,138292,1,0,0:0:0:0:
64,192,138292,1,0,0:0:0:0:
64,192,138400,1,0,0:0:0:0:
320,192,138400,1,0,0:0:0:0:
448,192,138400,1,0,0:0:0:0:
320,192,138508,1,0,0:0:0:0:
448,192,138508,1,0,0:0:0:0:
64,192,138616,1,0,0:0:0:0:
192,192,138616,1,0,0:0:0:0:
320,192,138616,1,0,0:0:0:0:
448,192,138616,1,0,0:0:0:0:
192,192,138725,1,0,0:0:0:0:
64,192,138725,1,0,0:0:0:0:
448,192,138725,1,0,0:0:0:0:
64,192,138834,1,0,0:0:0:0:
192,192,138834,1,0,0:0:0:0:
320,192,138834,1,0,0:0:0:0:
192,192,138942,1,0,0:0:0:0:
64,192,138942,1,0,0:0:0:0:
64,192,139050,1,0,0:0:0:0:
192,192,139050,1,0,0:0:0:0:
320,192,139050,1,0,0:0:0:0:
448,192,139050,1,0,0:0:0:0:
448,192,139158,1,0,0:0:0:0:
320,192,139158,1,0,0:0:0:0:
64,192,139158,1,0,0:0:0:0:
320,192,139266,1,0,0:0:0:0:
448,192,139266,1,0,0:0:0:0:
192,192,139266,1,0,0:0:0:0:
448,192,139375,1,0,0:0:0:0:
320,192,139375,1,0,0:0:0:0:
448,192,139483,1,0,0:0:0:0:
320,192,139483,1,0,0:0:0:0:
192,192,139483,1,0,0:0:0:0:
64,192,139483,1,0,0:0:0:0:
64,192,139591,1,0,0:0:0:0:
192,192,139591,1,0,0:0:0:0:
64,192,139699,1,0,0:0:0:0:
320,192,139699,1,0,0:0:0:0:
448,192,139699,1,0,0:0:0:0:
320,192,139807,1,0,0:0:0:0:
448,192,139807,1,0,0:0:0:0:
448,192,139915,1,0,0:0:0:0:
192,192,139915,1,0,0:0:0:0:
320,192,139915,1,0,0:0:0:0:
64,192,139915,1,0,0:0:0:0:
64,192,140024,1,0,0:0:0:0:
192,192,140024,1,0,0:0:0:0:
192,192,140132,1,0,0:0:0:0:
320,192,140132,1,0,0:0:0:0:
448,192,140132,1,0,0:0:0:0:
448,192,140240,1,0,0:0:0:0:
320,192,140240,1,0,0:0:0:0:
448,192,140348,1,0,0:0:0:0:
320,192,140348,1,0,0:0:0:0:
192,192,140348,1,0,0:0:0:0:
64,192,140348,1,0,0:0:0:0:
64,192,140456,1,0,0:0:0:0:
192,192,140456,1,0,0:0:0:0:
192,192,140565,1,0,0:0:0:0:
64,192,140565,1,0,0:0:0:0:
320,192,140565,1,0,0:0:0:0:
448,192,140565,1,0,0:0:0:0:
448,192,140673,1,0,0:0:0:0:
320,192,140673,1,0,0:0:0:0:
448,192,140781,1,0,0:0:0:0:
320,192,140781,1,0,0:0:0:0:
192,192,140781,1,0,0:0:0:0:
64,192,140781,1,0,0:0:0:0:
64,192,140889,1,0,0:0:0:0:
192,192,140889,1,0,0:0:0:0:
192,192,140997,1,0,0:0:0:0:
64,192,140997,1,0,0:0:0:0:
320,192,140997,1,0,0:0:0:0:
448,192,140997,1,0,0:0:0:0:
448,192,141106,1,0,0:0:0:0:
320,192,141106,1,0,0:0:0:0:
448,192,141215,1,0,0:0:0:0:
320,192,141215,1,0,0:0:0:0:
64,192,141215,1,0,0:0:0:0:
192,192,141215,1,0,0:0:0:0:
64,192,141323,1,0,0:0:0:0:
192,192,141323,1,0,0:0:0:0:
448,192,141323,1,0,0:0:0:0:
192,192,141431,1,0,0:0:0:0:
64,192,141431,1,0,0:0:0:0:
320,192,141431,1,0,0:0:0:0:
64,192,141539,1,0,0:0:0:0:
192,192,141539,1,0,0:0:0:0:
192,192,141647,1,0,0:0:0:0:
64,192,141647,1,0,0:0:0:0:
320,192,141647,1,0,0:0:0:0:
448,192,141647,1,0,0:0:0:0:
320,192,141755,1,0,0:0:0:0:
448,192,141755,1,0,0:0:0:0:
448,192,141864,1,0,0:0:0:0:
192,192,141864,1,0,0:0:0:0:
64,192,141864,1,0,0:0:0:0:
64,192,141972,1,0,0:0:0:0:
192,192,141972,1,0,0:0:0:0:
64,192,142080,1,0,0:0:0:0:
192,192,142080,1,0,0:0:0:0:
320,192,142080,1,0,0:0:0:0:
448,192,142080,1,0,0:0:0:0:
320,192,142188,1,0,0:0:0:0:
448,192,142188,1,0,0:0:0:0:
320,192,142296,1,0,0:0:0:0:
192,192,142296,1,0,0:0:0:0:
64,192,142296,1,0,0:0:0:0:
64,192,142405,1,0,0:0:0:0:
192,192,142405,1,0,0:0:0:0:
448,192,142513,1,0,0:0:0:0:
320,192,142513,1,0,0:0:0:0:
192,192,142513,1,0,0:0:0:0:
64,192,142513,1,0,0:0:0:0:
320,192,142621,1,0,0:0:0:0:
448,192,142621,1,0,0:0:0:0:
448,192,142729,1,0,0:0:0:0:
192,192,142729,1,0,0:0:0:0:
64,192,142729,1,0,0:0:0:0:
64,192,142837,1,0,0:0:0:0:
192,192,142837,1,0,0:0:0:0:
64,192,142945,1,0,0:0:0:0:
192,192,142945,1,0,0:0:0:0:
320,192,142945,1,0,0:0:0:0:
448,192,142945,1,0,0:0:0:0:
320,192,143054,1,0,0:0:0:0:
448,192,143054,1,0,0:0:0:0:
64,192,143054,1,0,0:0:0:0:
448,192,143162,1,0,0:0:0:0:
320,192,143162,1,0,0:0:0:0:
192,192,143162,1,0,0:0:0:0:
320,192,143270,1,0,0:0:0:0:
448,192,143270,1,0,0:0:0:0:
448,192,143379,1,0,0:0:0:0:
320,192,143379,1,0,0:0:0:0:
192,192,143379,1,0,0:0:0:0:
64,192,143379,1,0,0:0:0:0:
64,192,143595,1,0,0:0:0:0:
192,192,143812,1,0,0:0:0:0:
320,192,143812,1,0,0:0:0:0:
448,192,143812,1,0,0:0:0:0:
64,192,144028,1,0,0:0:0:0:
448,192,144245,1,0,0:0:0:0:
320,192,144461,1,0,0:0:0:0:
192,192,144677,1,0,0:0:0:0:
448,192,144894,1,0,0:0:0:0:
448,192,145110,1,0,0:0:0:0:
320,192,145110,1,0,0:0:0:0:
448,192,145326,1,0,0:0:0:0:
320,192,145326,1,0,0:0:0:0:
192,192,145326,1,0,0:0:0:0:
192,192,145543,1,0,0:0:0:0:
64,192,145543,1,0,0:0:0:0:
320,192,145543,1,0,0:0:0:0:
448,192,145543,1,0,0:0:0:0:
448,192,145760,1,0,0:0:0:0:
320,192,145976,1,0,0:0:0:0:
64,192,145976,1,0,0:0:0:0:
192,192,146193,1,0,0:0:0:0:
320,192,146409,1,0,0:0:0:0:
448,192,146409,1,0,0:0:0:0:
64,192,146625,1,0,0:0:0:0:
192,192,146625,1,0,0:0:0:0:
192,192,146842,1,0,0:0:0:0:
320,192,146842,1,0,0:0:0:0:
448,192,147058,1,0,0:0:0:0:
320,192,147058,1,0,0:0:0:0:
192,192,147275,1,0,0:0:0:0:
64,192,147275,1,0,0:0:0:0:
448,192,147491,1,0,0:0:0:0:
320,192,147707,1,0,0:0:0:0:
192,192,147707,1,0,0:0:0:0:
64,192,147925,1,0,0:0:0:0:
192,192,147925,1,0,0:0:0:0:
320,192,148141,1,0,0:0:0:0:
448,192,148141,128,0,148790:0:0:0:0:
192,192,148357,1,0,0:0:0:0:
320,192,148574,1,0,0:0:0:0:
192,192,148790,1,0,0:0:0:0:
64,192,148790,1,0,0:0:0:0:
320,192,149006,1,0,0:0:0:0:
448,192,149006,1,0,0:0:0:0:
320,192,149223,1,0,0:0:0:0:
192,192,149223,1,0,0:0:0:0:
192,192,149439,1,0,0:0:0:0:
64,192,149439,1,0,0:0:0:0:
448,192,149655,1,0,0:0:0:0:
320,192,149655,1,0,0:0:0:0:
192,192,149872,1,0,0:0:0:0:
64,192,149872,128,0,150522:0:0:0:0:
448,192,150088,1,0,0:0:0:0:
192,192,150305,1,0,0:0:0:0:
448,192,150522,1,0,0:0:0:0:
320,192,150522,1,0,0:0:0:0:
192,192,150738,1,0,0:0:0:0:
320,192,150738,1,0,0:0:0:0:
192,192,150955,1,0,0:0:0:0:
64,192,150955,1,0,0:0:0:0:
448,192,151171,1,0,0:0:0:0:
320,192,151171,1,0,0:0:0:0:
192,192,151387,1,0,0:0:0:0:
320,192,151387,1,0,0:0:0:0:
448,192,151604,128,0,152036:0:0:0:0:
64,192,151604,1,0,0:0:0:0:
192,192,152036,1,0,0:0:0:0:
320,192,152253,1,0,0:0:0:0:
64,192,152470,1,0,0:0:0:0:
64,192,152903,1,0,0:0:0:0:
64,192,153335,1,0,0:0:0:0:
192,192,153552,1,0,0:0:0:0:
320,192,153768,1,0,0:0:0:0:
448,192,153985,1,0,0:0:0:0:
192,192,154201,1,0,0:0:0:0:
64,192,154201,1,0,0:0:0:0:
64,192,154417,1,0,0:0:0:0:
320,192,154417,1,0,0:0:0:0:
448,192,154634,1,0,0:0:0:0:
192,192,154634,1,0,0:0:0:0:
320,192,154851,1,0,0:0:0:0:
448,192,154851,1,0,0:0:0:0:
64,192,155067,128,0,155500:0:0:0:0:
192,192,155067,1,0,0:0:0:0:
448,192,155500,1,0,0:0:0:0:
448,192,155716,1,0,0:0:0:0:
320,192,155933,1,0,0:0:0:0:
192,192,155933,1,0,0:0:0:0:
64,192,156149,1,0,0:0:0:0:
192,192,156149,1,0,0:0:0:0:
320,192,156365,1,0,0:0:0:0:
448,192,156365,1,0,0:0:0:0:
448,192,156582,1,0,0:0:0:0:
192,192,156582,1,0,0:0:0:0:
64,192,156853,128,0,157610:0:0:0:0:
320,192,157340,1,0,0:0:0:0:
448,192,157610,1,0,0:0:0:0:
320,192,157881,1,0,0:0:0:0:
64,192,158152,1,0,0:0:0:0:
192,192,158422,1,0,0:0:0:0:
320,192,158693,1,0,0:0:0:0:
448,192,158963,128,0,162859:0:0:0:0:
64,192,160334,1,0,0:0:0:0:
192,192,160406,1,0,0:0:0:0:
320,192,160478,1,0,0:0:0:0:
