osu file format v14

[General]
AudioFilename: audio115.mp3
AudioLeadIn: 0
PreviewTime: 44353
Countdown: 0
SampleSet: Normal
StackLeniency: 0.7
Mode: 3
LetterboxInBreaks: 0
SpecialStyle: 0
WidescreenStoryboard: 0

[Editor]
DistanceSpacing: 0.8
BeatDivisor: 6
GridSize: 32
TimelineZoom: 2

[Metadata]
Title:Wait Another Day
TitleUnicode:Wait Another Day
Artist:Mike Williams x Mesto
ArtistUnicode:Mike Williams x Mesto
Creator:HikariNayo
Version:I'll be back before you know 1.15x
Source:
Tags:Mike Williams Mesto Wait another day BEST EDM 2019 dance electronic jack cj chordjack rates
BeatmapID:4566842
BeatmapSetID:2164994

[Difficulty]
HPDrainRate:8
CircleSize:4
OverallDifficulty:8
ApproachRate:5
SliderMultiplier:1.4
SliderTickRate:1

[Events]
//Background and Video events
0,0,"969814.jpg",0,0
//Break Periods
//Storyboard Layer 0 (Background)
//Storyboard Layer 1 (Fail)
//Storyboard Layer 2 (Pass)
//Storyboard Layer 3 (Foreground)
//Storyboard Layer 4 (Overlay)
//Storyboard Sound Samples

[TimingPoints]
87,414.07867494824,4,1,1,100,1,0
46463,-100,4,1,1,100,0,1
58057,-100,4,1,1,100,0,0
59714,-100,4,1,1,100,0,1
72964,-100,4,1,1,100,0,0
112716,-100,4,1,1,100,0,1
124310,-100,4,1,1,100,0,0
125966,-100,4,1,1,100,0,1
139217,-100,4,1,1,100,0,0

[HitObjects]
448,192,87,5,0,0:0:0:0:
320,192,87,1,0,0:0:0:0:
192,192,87,1,0,0:0:0:0:
448,192,294,1,0,0:0:0:0:
320,192,294,1,0,0:0:0:0:
448,192,501,1,0,0:0:0:0:
192,192,501,1,0,0:0:0:0:
64,192,501,1,0,0:0:0:0:
64,192,708,1,0,0:0:0:0:
192,192,708,1,0,0:0:0:0:
448,192,915,1,0,0:0:0:0:
320,192,915,1,0,0:0:0:0:
64,192,915,1,0,0:0:0:0:
192,192,1122,1,0,0:0:0:0:
320,192,1122,1,0,0:0:0:0:
448,192,1122,1,0,0:0:0:0:
320,192,1329,1,0,0:0:0:0:
192,192,1329,1,0,0:0:0:0:
64,192,1329,1,0,0:0:0:0:
64,192,1536,1,0,0:0:0:0:
192,192,1536,1,0,0:0:0:0:
448,192,1536,1,0,0:0:0:0:
320,192,1743,1,0,0:0:0:0:
448,192,1743,1,0,0:0:0:0:
64,192,1743,1,0,0:0:0:0:
448,192,1950,1,0,0:0:0:0:
320,192,1950,1,0,0:0:0:0:
192,192,2157,1,0,0:0:0:0:
64,192,2157,1,0,0:0:0:0:
448,192,2157,1,0,0:0:0:0:
320,192,2364,1,0,0:0:0:0:
192,192,2364,1,0,0:0:0:0:
64,192,2364,1,0,0:0:0:0:
64,192,2571,128,0,3399:0:0:0:0:
320,192,2571,1,0,0:0:0:0:
448,192,2571,1,0,0:0:0:0:
192,192,2778,1,0,0:0:0:0:
448,192,2985,1,0,0:0:0:0:
320,192,3192,1,0,0:0:0:0:
448,192,3192,1,0,0:0:0:0:
192,192,3399,1,0,0:0:0:0:
320,192,3399,1,0,0:0:0:0:
448,192,3399,1,0,0:0:0:0:
448,192,3606,1,0,0:0:0:0:
320,192,3606,1,0,0:0:0:0:
192,192,3606,1,0,0:0:0:0:
320,192,3813,1,0,0:0:0:0:
192,192,3813,1,0,0:0:0:0:
64,192,3813,1,0,0:0:0:0:
320,192,4020,1,0,0:0:0:0:
64,192,4020,1,0,0:0:0:0:
192,192,4020,1,0,0:0:0:0:
192,192,4227,1,0,0:0:0:0:
64,192,4227,1,0,0:0:0:0:
448,192,4227,128,0,5056:0:0:0:0:
320,192,4434,1,0,0:0:0:0:
192,192,4642,1,0,0:0:0:0:
64,192,4849,1,0,0:0:0:0:
320,192,4849,1,0,0:0:0:0:
320,192,5056,1,0,0:0:0:0:
192,192,5056,1,0,0:0:0:0:
64,192,5056,1,0,0:0:0:0:
192,192,5263,1,0,0:0:0:0:
320,192,5263,1,0,0:0:0:0:
448,192,5263,1,0,0:0:0:0:
64,192,5470,1,0,0:0:0:0:
320,192,5470,1,0,0:0:0:0:
448,192,5470,1,0,0:0:0:0:
64,192,5677,1,0,0:0:0:0:
192,192,5677,1,0,0:0:0:0:
448,192,5677,1,0,0:0:0:0:
320,192,5883,1,0,0:0:0:0:
192,192,5883,1,0,0:0:0:0:
448,192,5883,1,0,0:0:0:0:
64,192,6090,1,0,0:0:0:0:
448,192,6194,1,0,0:0:0:0:
320,192,6246,1,0,0:0:0:0:
192,192,6297,1,0,0:0:0:0:
64,192,6297,1,0,0:0:0:0:
448,192,6504,1,0,0:0:0:0:
320,192,6712,1,0,0:0:0:0:
192,192,6712,1,0,0:0:0:0:
64,192,6712,1,0,0:0:0:0:
192,192,6919,1,0,0:0:0:0:
64,192,6919,1,0,0:0:0:0:
448,192,7126,1,0,0:0:0:0:
320,192,7126,1,0,0:0:0:0:
64,192,7126,1,0,0:0:0:0:
320,192,7333,1,0,0:0:0:0:
448,192,7333,1,0,0:0:0:0:
448,192,7540,1,0,0:0:0:0:
192,192,7540,1,0,0:0:0:0:
64,192,7540,1,0,0:0:0:0:
64,192,7747,1,0,0:0:0:0:
192,192,7747,1,0,0:0:0:0:
320,192,7747,1,0,0:0:0:0:
192,192,7954,1,0,0:0:0:0:
320,192,7954,1,0,0:0:0:0:
448,192,7954,1,0,0:0:0:0:
448,192,8161,1,0,0:0:0:0:
320,192,8161,1,0,0:0:0:0:
64,192,8161,1,0,0:0:0:0:
192,192,8368,1,0,0:0:0:0:
64,192,8368,1,0,0:0:0:0:
448,192,8368,1,0,0:0:0:0:
320,192,8575,1,0,0:0:0:0:
192,192,8575,1,0,0:0:0:0:
64,192,8575,1,0,0:0:0:0:
320,192,8782,1,0,0:0:0:0:
448,192,8782,1,0,0:0:0:0:
64,192,8782,1,0,0:0:0:0:
192,192,8990,1,0,0:0:0:0:
320,192,8990,1,0,0:0:0:0:
448,192,8990,1,0,0:0:0:0:
320,192,9197,1,0,0:0:0:0:
192,192,9197,1,0,0:0:0:0:
64,192,9197,1,0,0:0:0:0:
64,192,9403,1,0,0:0:0:0:
192,192,9403,1,0,0:0:0:0:
448,192,9610,1,0,0:0:0:0:
320,192,9610,1,0,0:0:0:0:
192,192,9817,1,0,0:0:0:0:
448,192,9817,1,0,0:0:0:0:
320,192,9817,1,0,0:0:0:0:
320,192,10024,1,0,0:0:0:0:
192,192,10024,1,0,0:0:0:0:
64,192,10024,1,0,0:0:0:0:
192,192,10231,1,0,0:0:0:0:
64,192,10231,1,0,0:0:0:0:
448,192,10231,1,0,0:0:0:0:
320,192,10438,1,0,0:0:0:0:
448,192,10438,1,0,0:0:0:0:
64,192,10438,1,0,0:0:0:0:
320,192,10645,1,0,0:0:0:0:
192,192,10645,1,0,0:0:0:0:
64,192,10645,1,0,0:0:0:0:
192,192,10852,1,0,0:0:0:0:
320,192,10852,1,0,0:0:0:0:
448,192,10852,1,0,0:0:0:0:
192,192,11060,1,0,0:0:0:0:
64,192,11060,1,0,0:0:0:0:
320,192,11267,1,0,0:0:0:0:
448,192,11267,1,0,0:0:0:0:
448,192,11474,1,0,0:0:0:0:
320,192,11474,1,0,0:0:0:0:
192,192,11474,1,0,0:0:0:0:
320,192,11681,1,0,0:0:0:0:
64,192,11681,1,0,0:0:0:0:
192,192,11681,1,0,0:0:0:0:
448,192,11888,1,0,0:0:0:0:
64,192,11888,1,0,0:0:0:0:
192,192,11888,1,0,0:0:0:0:
448,192,12095,1,0,0:0:0:0:
320,192,12095,1,0,0:0:0:0:
64,192,12095,1,0,0:0:0:0:
192,192,12302,1,0,0:0:0:0:
320,192,12302,1,0,0:0:0:0:
448,192,12302,1,0,0:0:0:0:
320,192,12509,1,0,0:0:0:0:
192,192,12509,1,0,0:0:0:0:
64,192,12509,1,0,0:0:0:0:
448,192,12716,1,0,0:0:0:0:
320,192,12923,1,0,0:0:0:0:
64,192,12923,1,0,0:0:0:0:
192,192,13130,1,0,0:0:0:0:
320,192,13337,1,0,0:0:0:0:
448,192,13337,1,0,0:0:0:0:
192,192,13337,1,0,0:0:0:0:
64,192,13337,1,0,0:0:0:0:
448,192,13544,1,0,0:0:0:0:
192,192,13751,1,0,0:0:0:0:
64,192,13751,1,0,0:0:0:0:
320,192,13751,1,0,0:0:0:0:
192,192,13958,1,0,0:0:0:0:
64,192,14165,1,0,0:0:0:0:
448,192,14165,1,0,0:0:0:0:
320,192,14372,1,0,0:0:0:0:
192,192,14579,1,0,0:0:0:0:
64,192,14579,1,0,0:0:0:0:
448,192,14579,1,0,0:0:0:0:
320,192,14786,1,0,0:0:0:0:
192,192,14993,1,0,0:0:0:0:
64,192,14993,1,0,0:0:0:0:
448,192,15200,1,0,0:0:0:0:
320,192,15408,1,0,0:0:0:0:
192,192,15408,1,0,0:0:0:0:
64,192,15408,1,0,0:0:0:0:
448,192,15615,1,0,0:0:0:0:
64,192,15822,1,0,0:0:0:0:
320,192,15822,1,0,0:0:0:0:
192,192,16029,1,0,0:0:0:0:
320,192,16236,1,0,0:0:0:0:
448,192,16236,1,0,0:0:0:0:
64,192,16236,1,0,0:0:0:0:
192,192,16443,1,0,0:0:0:0:
64,192,16650,1,0,0:0:0:0:
192,192,16650,1,0,0:0:0:0:
448,192,16650,1,0,0:0:0:0:
320,192,16857,1,0,0:0:0:0:
448,192,17063,1,0,0:0:0:0:
320,192,17063,1,0,0:0:0:0:
192,192,17063,1,0,0:0:0:0:
64,192,17270,1,0,0:0:0:0:
448,192,17477,1,0,0:0:0:0:
320,192,17477,1,0,0:0:0:0:
192,192,17685,1,0,0:0:0:0:
64,192,17892,1,0,0:0:0:0:
448,192,17892,1,0,0:0:0:0:
320,192,17892,1,0,0:0:0:0:
192,192,18099,1,0,0:0:0:0:
320,192,18306,1,0,0:0:0:0:
448,192,18306,1,0,0:0:0:0:
64,192,18513,1,0,0:0:0:0:
192,192,18720,1,0,0:0:0:0:
320,192,18720,1,0,0:0:0:0:
448,192,18720,1,0,0:0:0:0:
64,192,18927,1,0,0:0:0:0:
192,192,19134,1,0,0:0:0:0:
320,192,19134,1,0,0:0:0:0:
448,192,19341,1,0,0:0:0:0:
192,192,19548,1,0,0:0:0:0:
320,192,19548,1,0,0:0:0:0:
64,192,19548,1,0,0:0:0:0:
448,192,19756,1,0,0:0:0:0:
192,192,19963,1,0,0:0:0:0:
64,192,19963,1,0,0:0:0:0:
320,192,20170,1,0,0:0:0:0:
448,192,20377,1,0,0:0:0:0:
192,192,20377,1,0,0:0:0:0:
64,192,20377,1,0,0:0:0:0:
320,192,20583,1,0,0:0:0:0:
448,192,20790,1,0,0:0:0:0:
64,192,20790,1,0,0:0:0:0:
192,192,20997,1,0,0:0:0:0:
320,192,21204,1,0,0:0:0:0:
448,192,21204,1,0,0:0:0:0:
64,192,21204,1,0,0:0:0:0:
192,192,21411,1,0,0:0:0:0:
320,192,21618,1,0,0:0:0:0:
448,192,21618,1,0,0:0:0:0:
64,192,21825,1,0,0:0:0:0:
192,192,22033,1,0,0:0:0:0:
320,192,22033,1,0,0:0:0:0:
448,192,22033,1,0,0:0:0:0:
64,192,22240,1,0,0:0:0:0:
320,192,22447,1,0,0:0:0:0:
192,192,22447,1,0,0:0:0:0:
448,192,22654,1,0,0:0:0:0:
320,192,22861,1,0,0:0:0:0:
192,192,22861,1,0,0:0:0:0:
64,192,22861,1,0,0:0:0:0:
448,192,23068,1,0,0:0:0:0:
64,192,23275,128,0,23689:0:0:0:0:
192,192,23275,1,0,0:0:0:0:
448,192,23482,1,0,0:0:0:0:
448,192,23689,1,0,0:0:0:0:
320,192,23689,1,0,0:0:0:0:
192,192,23689,1,0,0:0:0:0:
320,192,23896,1,0,0:0:0:0:
448,192,24103,128,0,24517:0:0:0:0:
192,192,24103,1,0,0:0:0:0:
64,192,24310,1,0,0:0:0:0:
320,192,24517,1,0,0:0:0:0:
192,192,24517,1,0,0:0:0:0:
64,192,24517,1,0,0:0:0:0:
192,192,24724,1,0,0:0:0:0:
64,192,24931,128,0,25759:0:0:0:0:
448,192,24931,1,0,0:0:0:0:
320,192,25138,1,0,0:0:0:0:
448,192,25345,1,0,0:0:0:0:
320,192,25345,1,0,0:0:0:0:
192,192,25345,1,0,0:0:0:0:
192,192,25552,1,0,0:0:0:0:
448,192,25759,1,0,0:0:0:0:
320,192,26173,128,0,26381:0:0:0:0:
192,192,26381,128,0,26588:0:0:0:0:
64,192,26588,1,0,0:0:0:0:
320,192,26588,1,0,0:0:0:0:
448,192,26588,1,0,0:0:0:0:
448,192,26795,1,0,0:0:0:0:
320,192,27002,1,0,0:0:0:0:
192,192,27002,1,0,0:0:0:0:
64,192,27002,1,0,0:0:0:0:
448,192,27002,1,0,0:0:0:0:
64,192,27209,1,0,0:0:0:0:
192,192,27416,1,0,0:0:0:0:
320,192,27416,1,0,0:0:0:0:
448,192,27416,1,0,0:0:0:0:
320,192,27623,1,0,0:0:0:0:
448,192,27623,1,0,0:0:0:0:
448,192,27830,1,0,0:0:0:0:
320,192,27830,1,0,0:0:0:0:
192,192,27830,1,0,0:0:0:0:
64,192,27830,1,0,0:0:0:0:
192,192,28037,1,0,0:0:0:0:
64,192,28037,1,0,0:0:0:0:
320,192,28243,1,0,0:0:0:0:
448,192,28243,1,0,0:0:0:0:
64,192,28243,1,0,0:0:0:0:
448,192,28451,1,0,0:0:0:0:
192,192,28451,1,0,0:0:0:0:
448,192,28658,1,0,0:0:0:0:
320,192,28658,1,0,0:0:0:0:
192,192,28658,1,0,0:0:0:0:
64,192,28658,1,0,0:0:0:0:
64,192,28865,1,0,0:0:0:0:
320,192,28865,1,0,0:0:0:0:
192,192,29072,1,0,0:0:0:0:
448,192,29072,1,0,0:0:0:0:
320,192,29072,1,0,0:0:0:0:
64,192,29279,1,0,0:0:0:0:
448,192,29486,1,0,0:0:0:0:
320,192,29486,1,0,0:0:0:0:
64,192,29486,1,0,0:0:0:0:
192,192,29486,1,0,0:0:0:0:
320,192,29693,1,0,0:0:0:0:
448,192,29693,1,0,0:0:0:0:
64,192,29900,1,0,0:0:0:0:
448,192,29900,1,0,0:0:0:0:
192,192,29900,1,0,0:0:0:0:
192,192,30107,1,0,0:0:0:0:
64,192,30107,1,0,0:0:0:0:
320,192,30314,1,0,0:0:0:0:
192,192,30314,1,0,0:0:0:0:
64,192,30314,1,0,0:0:0:0:
448,192,30314,1,0,0:0:0:0:
192,192,30521,1,0,0:0:0:0:
320,192,30521,1,0,0:0:0:0:
64,192,30729,1,0,0:0:0:0:
320,192,30729,1,0,0:0:0:0:
448,192,30729,1,0,0:0:0:0:
192,192,30936,1,0,0:0:0:0:
320,192,31143,1,0,0:0:0:0:
64,192,31143,1,0,0:0:0:0:
192,192,31143,1,0,0:0:0:0:
448,192,31143,1,0,0:0:0:0:
64,192,31350,1,0,0:0:0:0:
320,192,31350,1,0,0:0:0:0:
64,192,31557,1,0,0:0:0:0:
320,192,31557,1,0,0:0:0:0:
448,192,31557,1,0,0:0:0:0:
192,192,31557,1,0,0:0:0:0:
448,192,31763,1,0,0:0:0:0:
192,192,31763,1,0,0:0:0:0:
448,192,31970,1,0,0:0:0:0:
320,192,31970,1,0,0:0:0:0:
192,192,31970,1,0,0:0:0:0:
64,192,31970,1,0,0:0:0:0:
320,192,32177,1,0,0:0:0:0:
448,192,32177,1,0,0:0:0:0:
64,192,32384,1,0,0:0:0:0:
320,192,32384,1,0,0:0:0:0:
192,192,32384,1,0,0:0:0:0:
192,192,32591,1,0,0:0:0:0:
192,192,32799,1,0,0:0:0:0:
64,192,32799,1,0,0:0:0:0:
448,192,32799,1,0,0:0:0:0:
320,192,32799,1,0,0:0:0:0:
64,192,33006,1,0,0:0:0:0:
320,192,33006,1,0,0:0:0:0:
64,192,33213,1,0,0:0:0:0:
192,192,33213,1,0,0:0:0:0:
320,192,33213,1,0,0:0:0:0:
448,192,33213,1,0,0:0:0:0:
448,192,33420,1,0,0:0:0:0:
320,192,33420,1,0,0:0:0:0:
448,192,33627,1,0,0:0:0:0:
320,192,33627,1,0,0:0:0:0:
192,192,33627,1,0,0:0:0:0:
64,192,33627,1,0,0:0:0:0:
64,192,33834,1,0,0:0:0:0:
320,192,33834,1,0,0:0:0:0:
192,192,34041,1,0,0:0:0:0:
64,192,34041,1,0,0:0:0:0:
320,192,34041,1,0,0:0:0:0:
448,192,34248,1,0,0:0:0:0:
192,192,34248,1,0,0:0:0:0:
448,192,34455,1,0,0:0:0:0:
320,192,34455,1,0,0:0:0:0:
192,192,34455,1,0,0:0:0:0:
64,192,34455,1,0,0:0:0:0:
320,192,34662,1,0,0:0:0:0:
448,192,34662,1,0,0:0:0:0:
320,192,34869,1,0,0:0:0:0:
64,192,34869,1,0,0:0:0:0:
192,192,34869,1,0,0:0:0:0:
192,192,35077,1,0,0:0:0:0:
64,192,35077,1,0,0:0:0:0:
448,192,35283,1,0,0:0:0:0:
320,192,35283,1,0,0:0:0:0:
192,192,35283,1,0,0:0:0:0:
64,192,35283,1,0,0:0:0:0:
320,192,35490,1,0,0:0:0:0:
448,192,35490,1,0,0:0:0:0:
448,192,35697,1,0,0:0:0:0:
192,192,35697,1,0,0:0:0:0:
64,192,35697,1,0,0:0:0:0:
320,192,35904,1,0,0:0:0:0:
64,192,36111,1,0,0:0:0:0:
192,192,36111,1,0,0:0:0:0:
448,192,36111,1,0,0:0:0:0:
320,192,36111,1,0,0:0:0:0:
192,192,36318,1,0,0:0:0:0:
448,192,36318,1,0,0:0:0:0:
320,192,36525,1,0,0:0:0:0:
64,192,36525,1,0,0:0:0:0:
192,192,36525,1,0,0:0:0:0:
320,192,36732,1,0,0:0:0:0:
448,192,36732,1,0,0:0:0:0:
64,192,36939,1,0,0:0:0:0:
320,192,36939,1,0,0:0:0:0:
192,192,36939,1,0,0:0:0:0:
448,192,36939,1,0,0:0:0:0:
192,192,37147,1,0,0:0:0:0:
64,192,37147,1,0,0:0:0:0:
320,192,37354,1,0,0:0:0:0:
448,192,37354,1,0,0:0:0:0:
192,192,37354,1,0,0:0:0:0:
320,192,37561,1,0,0:0:0:0:
64,192,37768,1,0,0:0:0:0:
192,192,37768,1,0,0:0:0:0:
448,192,37768,1,0,0:0:0:0:
320,192,37768,1,0,0:0:0:0:
64,192,37975,1,0,0:0:0:0:
192,192,38182,1,0,0:0:0:0:
448,192,38182,1,0,0:0:0:0:
320,192,38182,1,0,0:0:0:0:
320,192,38389,1,0,0:0:0:0:
192,192,38596,1,0,0:0:0:0:
64,192,38596,1,0,0:0:0:0:
448,192,38803,1,0,0:0:0:0:
320,192,39010,1,0,0:0:0:0:
192,192,39010,1,0,0:0:0:0:
64,192,39217,1,0,0:0:0:0:
64,192,39424,1,0,0:0:0:0:
192,192,39424,1,0,0:0:0:0:
64,192,39631,1,0,0:0:0:0:
192,192,39631,1,0,0:0:0:0:
320,192,39631,1,0,0:0:0:0:
64,192,39838,1,0,0:0:0:0:
320,192,39838,1,0,0:0:0:0:
192,192,39838,1,0,0:0:0:0:
448,192,39838,1,0,0:0:0:0:
448,192,40252,1,0,0:0:0:0:
320,192,40252,1,0,0:0:0:0:
192,192,40252,1,0,0:0:0:0:
448,192,40666,1,0,0:0:0:0:
192,192,40666,1,0,0:0:0:0:
64,192,40666,1,0,0:0:0:0:
320,192,40873,1,0,0:0:0:0:
320,192,41080,1,0,0:0:0:0:
192,192,41080,1,0,0:0:0:0:
64,192,41080,1,0,0:0:0:0:
64,192,41287,1,0,0:0:0:0:
192,192,41495,1,0,0:0:0:0:
320,192,41495,1,0,0:0:0:0:
448,192,41495,1,0,0:0:0:0:
448,192,41909,1,0,0:0:0:0:
320,192,41909,1,0,0:0:0:0:
64,192,41909,1,0,0:0:0:0:
320,192,42116,1,0,0:0:0:0:
192,192,42323,1,0,0:0:0:0:
64,192,42323,1,0,0:0:0:0:
448,192,42323,1,0,0:0:0:0:
192,192,42737,1,0,0:0:0:0:
320,192,42737,1,0,0:0:0:0:
448,192,42737,1,0,0:0:0:0:
320,192,42943,1,0,0:0:0:0:
448,192,42943,1,0,0:0:0:0:
448,192,43150,1,0,0:0:0:0:
64,192,43150,1,0,0:0:0:0:
192,192,43150,1,0,0:0:0:0:
192,192,43357,1,0,0:0:0:0:
64,192,43357,1,0,0:0:0:0:
320,192,43357,1,0,0:0:0:0:
192,192,43564,1,0,0:0:0:0:
320,192,43564,1,0,0:0:0:0:
448,192,43564,1,0,0:0:0:0:
320,192,43772,1,0,0:0:0:0:
64,192,43772,1,0,0:0:0:0:
448,192,43772,1,0,0:0:0:0:
448,192,43979,1,0,0:0:0:0:
320,192,43979,1,0,0:0:0:0:
448,192,44083,1,0,0:0:0:0:
320,192,44083,1,0,0:0:0:0:
192,192,44186,1,0,0:0:0:0:
64,192,44186,1,0,0:0:0:0:
64,192,44290,1,0,0:0:0:0:
192,192,44290,1,0,0:0:0:0:
320,192,44393,1,0,0:0:0:0:
448,192,44393,1,0,0:0:0:0:
448,192,44497,1,0,0:0:0:0:
320,192,44497,1,0,0:0:0:0:
192,192,44600,1,0,0:0:0:0:
64,192,44600,1,0,0:0:0:0:
64,192,44703,1,0,0:0:0:0:
192,192,44703,1,0,0:0:0:0:
320,192,44807,1,0,0:0:0:0:
448,192,44807,1,0,0:0:0:0:
64,192,44807,1,0,0:0:0:0:
192,192,45014,1,0,0:0:0:0:
448,192,45221,1,0,0:0:0:0:
64,192,45428,1,0,0:0:0:0:
320,192,45635,1,0,0:0:0:0:
192,192,46050,1,0,0:0:0:0:
64,192,46050,1,0,0:0:0:0:
320,192,46257,1,0,0:0:0:0:
448,192,46257,1,0,0:0:0:0:
448,192,46463,1,0,0:0:0:0:
320,192,46463,1,0,0:0:0:0:
64,192,46463,1,0,0:0:0:0:
192,192,46463,1,0,0:0:0:0:
448,192,46567,1,0,0:0:0:0:
320,192,46567,1,0,0:0:0:0:
64,192,46567,1,0,0:0:0:0:
320,192,46670,1,0,0:0:0:0:
448,192,46670,1,0,0:0:0:0:
192,192,46670,1,0,0:0:0:0:
448,192,46774,1,0,0:0:0:0:
320,192,46774,1,0,0:0:0:0:
320,192,46877,1,0,0:0:0:0:
448,192,46877,1,0,0:0:0:0:
192,192,46877,1,0,0:0:0:0:
64,192,46877,1,0,0:0:0:0:
64,192,46981,1,0,0:0:0:0:
192,192,46981,1,0,0:0:0:0:
448,192,46981,1,0,0:0:0:0:
192,192,47084,1,0,0:0:0:0:
64,192,47084,1,0,0:0:0:0:
320,192,47084,1,0,0:0:0:0:
64,192,47188,1,0,0:0:0:0:
192,192,47188,1,0,0:0:0:0:
64,192,47291,1,0,0:0:0:0:
192,192,47291,1,0,0:0:0:0:
320,192,47291,1,0,0:0:0:0:
448,192,47291,1,0,0:0:0:0:
448,192,47395,1,0,0:0:0:0:
320,192,47395,1,0,0:0:0:0:
448,192,47498,1,0,0:0:0:0:
192,192,47498,1,0,0:0:0:0:
64,192,47498,1,0,0:0:0:0:
64,192,47602,1,0,0:0:0:0:
192,192,47602,1,0,0:0:0:0:
64,192,47705,1,0,0:0:0:0:
192,192,47705,1,0,0:0:0:0:
320,192,47705,1,0,0:0:0:0:
448,192,47705,1,0,0:0:0:0:
320,192,47809,1,0,0:0:0:0:
448,192,47809,1,0,0:0:0:0:
320,192,47912,1,0,0:0:0:0:
192,192,47912,1,0,0:0:0:0:
64,192,47912,1,0,0:0:0:0:
192,192,48017,1,0,0:0:0:0:
64,192,48017,1,0,0:0:0:0:
448,192,48120,1,0,0:0:0:0:
320,192,48120,1,0,0:0:0:0:
192,192,48120,1,0,0:0:0:0:
64,192,48120,1,0,0:0:0:0:
448,192,48223,1,0,0:0:0:0:
320,192,48223,1,0,0:0:0:0:
64,192,48223,1,0,0:0:0:0:
320,192,48327,1,0,0:0:0:0:
448,192,48327,1,0,0:0:0:0:
192,192,48327,1,0,0:0:0:0:
448,192,48430,1,0,0:0:0:0:
320,192,48430,1,0,0:0:0:0:
64,192,48534,1,0,0:0:0:0:
192,192,48534,1,0,0:0:0:0:
320,192,48534,1,0,0:0:0:0:
448,192,48534,1,0,0:0:0:0:
192,192,48637,1,0,0:0:0:0:
64,192,48637,1,0,0:0:0:0:
448,192,48741,1,0,0:0:0:0:
64,192,48741,1,0,0:0:0:0:
320,192,48741,1,0,0:0:0:0:
320,192,48844,1,0,0:0:0:0:
448,192,48844,1,0,0:0:0:0:
64,192,48948,1,0,0:0:0:0:
192,192,48948,1,0,0:0:0:0:
448,192,48948,1,0,0:0:0:0:
320,192,48948,1,0,0:0:0:0:
192,192,49051,1,0,0:0:0:0:
64,192,49051,1,0,0:0:0:0:
448,192,49051,1,0,0:0:0:0:
192,192,49155,1,0,0:0:0:0:
64,192,49155,1,0,0:0:0:0:
320,192,49155,1,0,0:0:0:0:
192,192,49258,1,0,0:0:0:0:
64,192,49258,1,0,0:0:0:0:
448,192,49362,1,0,0:0:0:0:
320,192,49362,1,0,0:0:0:0:
192,192,49362,1,0,0:0:0:0:
64,192,49362,1,0,0:0:0:0:
320,192,49465,1,0,0:0:0:0:
64,192,49569,1,0,0:0:0:0:
192,192,49569,1,0,0:0:0:0:
448,192,49569,1,0,0:0:0:0:
192,192,49672,1,0,0:0:0:0:
64,192,49776,1,0,0:0:0:0:
192,192,49776,1,0,0:0:0:0:
448,192,49776,1,0,0:0:0:0:
320,192,49776,1,0,0:0:0:0:
448,192,49879,1,0,0:0:0:0:
320,192,49879,1,0,0:0:0:0:
448,192,49983,1,0,0:0:0:0:
192,192,49983,1,0,0:0:0:0:
64,192,49983,1,0,0:0:0:0:
192,192,50086,1,0,0:0:0:0:
64,192,50086,1,0,0:0:0:0:
448,192,50190,1,0,0:0:0:0:
320,192,50190,1,0,0:0:0:0:
192,192,50190,1,0,0:0:0:0:
64,192,50190,1,0,0:0:0:0:
320,192,50294,1,0,0:0:0:0:
448,192,50294,1,0,0:0:0:0:
192,192,50397,1,0,0:0:0:0:
64,192,50397,1,0,0:0:0:0:
320,192,50397,1,0,0:0:0:0:
192,192,50501,1,0,0:0:0:0:
64,192,50501,1,0,0:0:0:0:
64,192,50604,1,0,0:0:0:0:
192,192,50604,1,0,0:0:0:0:
448,192,50604,1,0,0:0:0:0:
320,192,50604,1,0,0:0:0:0:
448,192,50708,1,0,0:0:0:0:
320,192,50708,1,0,0:0:0:0:
64,192,50708,1,0,0:0:0:0:
320,192,50811,1,0,0:0:0:0:
448,192,50811,1,0,0:0:0:0:
192,192,50811,1,0,0:0:0:0:
448,192,50915,1,0,0:0:0:0:
320,192,50915,1,0,0:0:0:0:
320,192,51018,1,0,0:0:0:0:
448,192,51018,1,0,0:0:0:0:
192,192,51018,1,0,0:0:0:0:
64,192,51018,1,0,0:0:0:0:
64,192,51122,1,0,0:0:0:0:
192,192,51122,1,0,0:0:0:0:
64,192,51225,1,0,0:0:0:0:
320,192,51225,1,0,0:0:0:0:
448,192,51225,1,0,0:0:0:0:
448,192,51329,1,0,0:0:0:0:
320,192,51329,1,0,0:0:0:0:
448,192,51432,1,0,0:0:0:0:
320,192,51432,1,0,0:0:0:0:
192,192,51432,1,0,0:0:0:0:
64,192,51432,1,0,0:0:0:0:
192,192,51536,1,0,0:0:0:0:
64,192,51536,1,0,0:0:0:0:
192,192,51639,1,0,0:0:0:0:
320,192,51639,1,0,0:0:0:0:
448,192,51639,1,0,0:0:0:0:
448,192,51743,1,0,0:0:0:0:
320,192,51743,1,0,0:0:0:0:
448,192,51846,1,0,0:0:0:0:
320,192,51846,1,0,0:0:0:0:
192,192,51846,1,0,0:0:0:0:
64,192,51846,1,0,0:0:0:0:
192,192,51950,1,0,0:0:0:0:
64,192,51950,1,0,0:0:0:0:
64,192,52053,1,0,0:0:0:0:
320,192,52053,1,0,0:0:0:0:
448,192,52053,1,0,0:0:0:0:
448,192,52157,1,0,0:0:0:0:
320,192,52157,1,0,0:0:0:0:
448,192,52260,1,0,0:0:0:0:
320,192,52260,1,0,0:0:0:0:
64,192,52260,1,0,0:0:0:0:
192,192,52260,1,0,0:0:0:0:
64,192,52364,1,0,0:0:0:0:
192,192,52364,1,0,0:0:0:0:
192,192,52468,1,0,0:0:0:0:
64,192,52468,1,0,0:0:0:0:
320,192,52468,1,0,0:0:0:0:
192,192,52571,1,0,0:0:0:0:
64,192,52571,1,0,0:0:0:0:
320,192,52571,1,0,0:0:0:0:
192,192,52675,1,0,0:0:0:0:
64,192,52675,1,0,0:0:0:0:
448,192,52675,1,0,0:0:0:0:
320,192,52675,1,0,0:0:0:0:
192,192,52778,1,0,0:0:0:0:
64,192,52778,1,0,0:0:0:0:
64,192,52882,1,0,0:0:0:0:
320,192,52882,1,0,0:0:0:0:
448,192,52882,1,0,0:0:0:0:
448,192,52985,1,0,0:0:0:0:
320,192,52985,1,0,0:0:0:0:
64,192,53089,1,0,0:0:0:0:
192,192,53089,1,0,0:0:0:0:
320,192,53089,1,0,0:0:0:0:
448,192,53089,1,0,0:0:0:0:
192,192,53192,1,0,0:0:0:0:
64,192,53192,1,0,0:0:0:0:
320,192,53192,1,0,0:0:0:0:
64,192,53296,1,0,0:0:0:0:
192,192,53296,1,0,0:0:0:0:
320,192,53296,1,0,0:0:0:0:
192,192,53399,1,0,0:0:0:0:
64,192,53399,1,0,0:0:0:0:
64,192,53503,1,0,0:0:0:0:
192,192,53503,1,0,0:0:0:0:
320,192,53503,1,0,0:0:0:0:
448,192,53503,1,0,0:0:0:0:
320,192,53606,1,0,0:0:0:0:
448,192,53606,1,0,0:0:0:0:
192,192,53606,1,0,0:0:0:0:
448,192,53710,1,0,0:0:0:0:
320,192,53710,1,0,0:0:0:0:
192,192,53710,1,0,0:0:0:0:
320,192,53813,1,0,0:0:0:0:
448,192,53813,1,0,0:0:0:0:
448,192,53917,1,0,0:0:0:0:
320,192,53917,1,0,0:0:0:0:
192,192,53917,1,0,0:0:0:0:
64,192,53917,1,0,0:0:0:0:
64,192,54020,1,0,0:0:0:0:
192,192,54020,1,0,0:0:0:0:
64,192,54123,1,0,0:0:0:0:
320,192,54123,1,0,0:0:0:0:
448,192,54123,1,0,0:0:0:0:
448,192,54227,1,0,0:0:0:0:
320,192,54227,1,0,0:0:0:0:
448,192,54330,1,0,0:0:0:0:
320,192,54330,1,0,0:0:0:0:
192,192,54330,1,0,0:0:0:0:
64,192,54330,1,0,0:0:0:0:
64,192,54434,1,0,0:0:0:0:
192,192,54434,1,0,0:0:0:0:
192,192,54538,1,0,0:0:0:0:
320,192,54538,1,0,0:0:0:0:
448,192,54538,1,0,0:0:0:0:
448,192,54642,1,0,0:0:0:0:
320,192,54642,1,0,0:0:0:0:
448,192,54745,1,0,0:0:0:0:
320,192,54745,1,0,0:0:0:0:
192,192,54745,1,0,0:0:0:0:
64,192,54745,1,0,0:0:0:0:
64,192,54849,1,0,0:0:0:0:
192,192,54849,1,0,0:0:0:0:
64,192,54952,1,0,0:0:0:0:
320,192,54952,1,0,0:0:0:0:
448,192,54952,1,0,0:0:0:0:
192,192,54952,1,0,0:0:0:0:
320,192,55056,1,0,0:0:0:0:
448,192,55056,1,0,0:0:0:0:
64,192,55159,1,0,0:0:0:0:
192,192,55159,1,0,0:0:0:0:
320,192,55159,1,0,0:0:0:0:
448,192,55159,1,0,0:0:0:0:
192,192,55263,1,0,0:0:0:0:
64,192,55263,1,0,0:0:0:0:
64,192,55366,1,0,0:0:0:0:
192,192,55366,1,0,0:0:0:0:
320,192,55366,1,0,0:0:0:0:
448,192,55366,1,0,0:0:0:0:
320,192,55470,1,0,0:0:0:0:
448,192,55470,1,0,0:0:0:0:
64,192,55573,1,0,0:0:0:0:
192,192,55573,1,0,0:0:0:0:
320,192,55573,1,0,0:0:0:0:
448,192,55573,1,0,0:0:0:0:
192,192,55677,1,0,0:0:0:0:
64,192,55677,1,0,0:0:0:0:
320,192,55677,1,0,0:0:0:0:
64,192,55780,1,0,0:0:0:0:
192,192,55780,1,0,0:0:0:0:
320,192,55780,1,0,0:0:0:0:
192,192,55883,1,0,0:0:0:0:
64,192,55883,1,0,0:0:0:0:
448,192,55987,1,0,0:0:0:0:
192,192,55987,1,0,0:0:0:0:
320,192,55987,1,0,0:0:0:0:
64,192,55987,1,0,0:0:0:0:
320,192,56090,1,0,0:0:0:0:
448,192,56090,1,0,0:0:0:0:
448,192,56194,1,0,0:0:0:0:
192,192,56194,1,0,0:0:0:0:
64,192,56194,1,0,0:0:0:0:
64,192,56297,1,0,0:0:0:0:
192,192,56297,1,0,0:0:0:0:
64,192,56401,1,0,0:0:0:0:
192,192,56401,1,0,0:0:0:0:
320,192,56401,1,0,0:0:0:0:
448,192,56401,1,0,0:0:0:0:
320,192,56504,1,0,0:0:0:0:
448,192,56504,1,0,0:0:0:0:
320,192,56608,1,0,0:0:0:0:
192,192,56608,1,0,0:0:0:0:
64,192,56608,1,0,0:0:0:0:
192,192,56712,1,0,0:0:0:0:
64,192,56712,1,0,0:0:0:0:
64,192,56816,1,0,0:0:0:0:
192,192,56816,1,0,0:0:0:0:
320,192,56816,1,0,0:0:0:0:
448,192,56816,1,0,0:0:0:0:
320,192,56919,1,0,0:0:0:0:
448,192,56919,1,0,0:0:0:0:
448,192,57023,1,0,0:0:0:0:
192,192,57023,1,0,0:0:0:0:
64,192,57023,1,0,0:0:0:0:
192,192,57126,1,0,0:0:0:0:
64,192,57126,1,0,0:0:0:0:
64,192,57230,1,0,0:0:0:0:
192,192,57230,1,0,0:0:0:0:
320,192,57230,1,0,0:0:0:0:
448,192,57230,1,0,0:0:0:0:
320,192,57333,1,0,0:0:0:0:
448,192,57333,1,0,0:0:0:0:
192,192,57333,1,0,0:0:0:0:
448,192,57437,1,0,0:0:0:0:
320,192,57437,1,0,0:0:0:0:
192,192,57437,1,0,0:0:0:0:
320,192,57540,1,0,0:0:0:0:
448,192,57540,1,0,0:0:0:0:
448,192,57643,1,0,0:0:0:0:
320,192,57643,1,0,0:0:0:0:
64,192,57643,1,0,0:0:0:0:
192,192,57643,1,0,0:0:0:0:
64,192,57850,1,0,0:0:0:0:
192,192,58057,1,0,0:0:0:0:
320,192,58057,1,0,0:0:0:0:
448,192,58057,1,0,0:0:0:0:
64,192,58264,1,0,0:0:0:0:
448,192,58471,1,0,0:0:0:0:
320,192,58678,1,0,0:0:0:0:
192,192,58886,1,0,0:0:0:0:
448,192,59093,1,0,0:0:0:0:
448,192,59300,1,0,0:0:0:0:
320,192,59300,1,0,0:0:0:0:
448,192,59507,1,0,0:0:0:0:
320,192,59507,1,0,0:0:0:0:
192,192,59507,1,0,0:0:0:0:
64,192,59714,1,0,0:0:0:0:
192,192,59714,1,0,0:0:0:0:
320,192,59714,1,0,0:0:0:0:
448,192,59714,1,0,0:0:0:0:
192,192,59817,1,0,0:0:0:0:
64,192,59817,1,0,0:0:0:0:
320,192,59817,1,0,0:0:0:0:
64,192,59921,1,0,0:0:0:0:
192,192,59921,1,0,0:0:0:0:
320,192,59921,1,0,0:0:0:0:
192,192,60024,1,0,0:0:0:0:
64,192,60024,1,0,0:0:0:0:
64,192,60128,1,0,0:0:0:0:
320,192,60128,1,0,0:0:0:0:
192,192,60128,1,0,0:0:0:0:
448,192,60128,1,0,0:0:0:0:
448,192,60231,1,0,0:0:0:0:
320,192,60231,1,0,0:0:0:0:
192,192,60231,1,0,0:0:0:0:
320,192,60335,1,0,0:0:0:0:
448,192,60335,1,0,0:0:0:0:
192,192,60335,1,0,0:0:0:0:
448,192,60438,1,0,0:0:0:0:
320,192,60438,1,0,0:0:0:0:
320,192,60542,1,0,0:0:0:0:
448,192,60542,1,0,0:0:0:0:
192,192,60542,1,0,0:0:0:0:
64,192,60542,1,0,0:0:0:0:
64,192,60645,1,0,0:0:0:0:
192,192,60645,1,0,0:0:0:0:
64,192,60749,1,0,0:0:0:0:
320,192,60749,1,0,0:0:0:0:
448,192,60749,1,0,0:0:0:0:
448,192,60852,1,0,0:0:0:0:
320,192,60852,1,0,0:0:0:0:
320,192,60956,1,0,0:0:0:0:
448,192,60956,1,0,0:0:0:0:
192,192,60956,1,0,0:0:0:0:
64,192,60956,1,0,0:0:0:0:
192,192,61060,1,0,0:0:0:0:
64,192,61060,1,0,0:0:0:0:
192,192,61163,1,0,0:0:0:0:
320,192,61163,1,0,0:0:0:0:
448,192,61163,1,0,0:0:0:0:
448,192,61267,1,0,0:0:0:0:
320,192,61267,1,0,0:0:0:0:
320,192,61370,1,0,0:0:0:0:
448,192,61370,1,0,0:0:0:0:
192,192,61370,1,0,0:0:0:0:
64,192,61370,1,0,0:0:0:0:
64,192,61474,1,0,0:0:0:0:
192,192,61474,1,0,0:0:0:0:
320,192,61474,1,0,0:0:0:0:
64,192,61577,1,0,0:0:0:0:
192,192,61577,1,0,0:0:0:0:
320,192,61577,1,0,0:0:0:0:
192,192,61681,1,0,0:0:0:0:
64,192,61681,1,0,0:0:0:0:
64,192,61784,1,0,0:0:0:0:
192,192,61784,1,0,0:0:0:0:
320,192,61784,1,0,0:0:0:0:
448,192,61784,1,0,0:0:0:0:
448,192,61888,1,0,0:0:0:0:
320,192,61888,1,0,0:0:0:0:
448,192,61991,1,0,0:0:0:0:
192,192,61991,1,0,0:0:0:0:
64,192,61991,1,0,0:0:0:0:
64,192,62095,1,0,0:0:0:0:
192,192,62095,1,0,0:0:0:0:
64,192,62198,1,0,0:0:0:0:
192,192,62198,1,0,0:0:0:0:
320,192,62198,1,0,0:0:0:0:
448,192,62198,1,0,0:0:0:0:
448,192,62302,1,0,0:0:0:0:
320,192,62302,1,0,0:0:0:0:
192,192,62302,1,0,0:0:0:0:
320,192,62405,1,0,0:0:0:0:
448,192,62405,1,0,0:0:0:0:
192,192,62405,1,0,0:0:0:0:
448,192,62509,1,0,0:0:0:0:
320,192,62509,1,0,0:0:0:0:
320,192,62612,1,0,0:0:0:0:
448,192,62612,1,0,0:0:0:0:
192,192,62612,1,0,0:0:0:0:
64,192,62612,1,0,0:0:0:0:
64,192,62716,1,0,0:0:0:0:
192,192,62819,1,0,0:0:0:0:
320,192,62819,1,0,0:0:0:0:
448,192,62819,1,0,0:0:0:0:
320,192,62923,1,0,0:0:0:0:
448,192,63026,1,0,0:0:0:0:
320,192,63026,1,0,0:0:0:0:
192,192,63026,1,0,0:0:0:0:
64,192,63026,1,0,0:0:0:0:
192,192,63130,1,0,0:0:0:0:
64,192,63130,1,0,0:0:0:0:
64,192,63234,1,0,0:0:0:0:
320,192,63234,1,0,0:0:0:0:
448,192,63234,1,0,0:0:0:0:
448,192,63337,1,0,0:0:0:0:
320,192,63337,1,0,0:0:0:0:
448,192,63441,1,0,0:0:0:0:
320,192,63441,1,0,0:0:0:0:
192,192,63441,1,0,0:0:0:0:
64,192,63441,1,0,0:0:0:0:
192,192,63544,1,0,0:0:0:0:
64,192,63544,1,0,0:0:0:0:
192,192,63648,1,0,0:0:0:0:
448,192,63648,1,0,0:0:0:0:
320,192,63648,1,0,0:0:0:0:
320,192,63751,1,0,0:0:0:0:
448,192,63751,1,0,0:0:0:0:
448,192,63855,1,0,0:0:0:0:
320,192,63855,1,0,0:0:0:0:
192,192,63855,1,0,0:0:0:0:
64,192,63855,1,0,0:0:0:0:
192,192,63958,1,0,0:0:0:0:
64,192,63958,1,0,0:0:0:0:
448,192,63958,1,0,0:0:0:0:
64,192,64062,1,0,0:0:0:0:
192,192,64062,1,0,0:0:0:0:
320,192,64062,1,0,0:0:0:0:
192,192,64165,1,0,0:0:0:0:
64,192,64165,1,0,0:0:0:0:
64,192,64269,1,0,0:0:0:0:
192,192,64269,1,0,0:0:0:0:
320,192,64269,1,0,0:0:0:0:
448,192,64269,1,0,0:0:0:0:
320,192,64372,1,0,0:0:0:0:
192,192,64476,1,0,0:0:0:0:
64,192,64476,1,0,0:0:0:0:
448,192,64476,1,0,0:0:0:0:
192,192,64579,1,0,0:0:0:0:
64,192,64683,1,0,0:0:0:0:
320,192,64683,1,0,0:0:0:0:
192,192,64683,1,0,0:0:0:0:
448,192,64683,1,0,0:0:0:0:
448,192,64786,1,0,0:0:0:0:
320,192,64786,1,0,0:0:0:0:
448,192,64890,1,0,0:0:0:0:
192,192,64890,1,0,0:0:0:0:
64,192,64890,1,0,0:0:0:0:
64,192,64993,1,0,0:0:0:0:
192,192,64993,1,0,0:0:0:0:
64,192,65097,1,0,0:0:0:0:
192,192,65097,1,0,0:0:0:0:
320,192,65097,1,0,0:0:0:0:
448,192,65097,1,0,0:0:0:0:
448,192,65200,1,0,0:0:0:0:
320,192,65200,1,0,0:0:0:0:
320,192,65303,1,0,0:0:0:0:
192,192,65303,1,0,0:0:0:0:
64,192,65303,1,0,0:0:0:0:
64,192,65408,1,0,0:0:0:0:
192,192,65408,1,0,0:0:0:0:
64,192,65511,1,0,0:0:0:0:
192,192,65511,1,0,0:0:0:0:
448,192,65511,1,0,0:0:0:0:
320,192,65511,1,0,0:0:0:0:
448,192,65615,1,0,0:0:0:0:
320,192,65615,1,0,0:0:0:0:
320,192,65718,1,0,0:0:0:0:
448,192,65718,1,0,0:0:0:0:
192,192,65718,1,0,0:0:0:0:
448,192,65822,1,0,0:0:0:0:
320,192,65822,1,0,0:0:0:0:
192,192,65822,1,0,0:0:0:0:
320,192,65925,1,0,0:0:0:0:
448,192,65925,1,0,0:0:0:0:
192,192,65925,1,0,0:0:0:0:
64,192,65925,1,0,0:0:0:0:
320,192,66029,1,0,0:0:0:0:
448,192,66029,1,0,0:0:0:0:
448,192,66132,1,0,0:0:0:0:
192,192,66132,1,0,0:0:0:0:
64,192,66132,1,0,0:0:0:0:
192,192,66236,1,0,0:0:0:0:
64,192,66236,1,0,0:0:0:0:
448,192,66339,1,0,0:0:0:0:
320,192,66339,1,0,0:0:0:0:
192,192,66339,1,0,0:0:0:0:
64,192,66339,1,0,0:0:0:0:
320,192,66443,1,0,0:0:0:0:
448,192,66443,1,0,0:0:0:0:
64,192,66443,1,0,0:0:0:0:
448,192,66546,1,0,0:0:0:0:
320,192,66546,1,0,0:0:0:0:
192,192,66546,1,0,0:0:0:0:
320,192,66650,1,0,0:0:0:0:
448,192,66650,1,0,0:0:0:0:
448,192,66753,1,0,0:0:0:0:
320,192,66753,1,0,0:0:0:0:
192,192,66753,1,0,0:0:0:0:
64,192,66753,1,0,0:0:0:0:
64,192,66857,1,0,0:0:0:0:
192,192,66857,1,0,0:0:0:0:
448,192,66857,1,0,0:0:0:0:
192,192,66960,1,0,0:0:0:0:
64,192,66960,1,0,0:0:0:0:
320,192,66960,1,0,0:0:0:0:
64,192,67063,1,0,0:0:0:0:
192,192,67063,1,0,0:0:0:0:
64,192,67167,1,0,0:0:0:0:
192,192,67167,1,0,0:0:0:0:
320,192,67167,1,0,0:0:0:0:
448,192,67167,1,0,0:0:0:0:
448,192,67270,1,0,0:0:0:0:
320,192,67270,1,0,0:0:0:0:
448,192,67374,1,0,0:0:0:0:
192,192,67374,1,0,0:0:0:0:
64,192,67374,1,0,0:0:0:0:
192,192,67477,1,0,0:0:0:0:
64,192,67477,1,0,0:0:0:0:
64,192,67582,1,0,0:0:0:0:
320,192,67582,1,0,0:0:0:0:
192,192,67582,1,0,0:0:0:0:
448,192,67582,1,0,0:0:0:0:
448,192,67685,1,0,0:0:0:0:
320,192,67685,1,0,0:0:0:0:
320,192,67789,1,0,0:0:0:0:
192,192,67789,1,0,0:0:0:0:
64,192,67789,1,0,0:0:0:0:
64,192,67892,1,0,0:0:0:0:
192,192,67892,1,0,0:0:0:0:
64,192,67996,1,0,0:0:0:0:
192,192,67996,1,0,0:0:0:0:
320,192,67996,1,0,0:0:0:0:
448,192,67996,1,0,0:0:0:0:
448,192,68099,1,0,0:0:0:0:
320,192,68099,1,0,0:0:0:0:
320,192,68203,1,0,0:0:0:0:
448,192,68203,1,0,0:0:0:0:
192,192,68203,1,0,0:0:0:0:
64,192,68203,1,0,0:0:0:0:
64,192,68306,1,0,0:0:0:0:
192,192,68306,1,0,0:0:0:0:
64,192,68410,1,0,0:0:0:0:
192,192,68410,1,0,0:0:0:0:
320,192,68410,1,0,0:0:0:0:
448,192,68410,1,0,0:0:0:0:
448,192,68513,1,0,0:0:0:0:
320,192,68513,1,0,0:0:0:0:
320,192,68617,1,0,0:0:0:0:
448,192,68617,1,0,0:0:0:0:
192,192,68617,1,0,0:0:0:0:
64,192,68617,1,0,0:0:0:0:
64,192,68720,1,0,0:0:0:0:
192,192,68720,1,0,0:0:0:0:
64,192,68823,1,0,0:0:0:0:
192,192,68823,1,0,0:0:0:0:
448,192,68823,1,0,0:0:0:0:
320,192,68823,1,0,0:0:0:0:
448,192,68927,1,0,0:0:0:0:
320,192,68927,1,0,0:0:0:0:
64,192,68927,1,0,0:0:0:0:
320,192,69030,1,0,0:0:0:0:
448,192,69030,1,0,0:0:0:0:
192,192,69030,1,0,0:0:0:0:
448,192,69134,1,0,0:0:0:0:
320,192,69134,1,0,0:0:0:0:
320,192,69237,1,0,0:0:0:0:
448,192,69237,1,0,0:0:0:0:
192,192,69237,1,0,0:0:0:0:
64,192,69237,1,0,0:0:0:0:
192,192,69341,1,0,0:0:0:0:
64,192,69341,1,0,0:0:0:0:
64,192,69444,1,0,0:0:0:0:
320,192,69444,1,0,0:0:0:0:
448,192,69444,1,0,0:0:0:0:
448,192,69548,1,0,0:0:0:0:
320,192,69548,1,0,0:0:0:0:
448,192,69651,1,0,0:0:0:0:
320,192,69651,1,0,0:0:0:0:
192,192,69651,1,0,0:0:0:0:
64,192,69651,1,0,0:0:0:0:
192,192,69756,1,0,0:0:0:0:
64,192,69756,1,0,0:0:0:0:
192,192,69859,1,0,0:0:0:0:
320,192,69859,1,0,0:0:0:0:
448,192,69859,1,0,0:0:0:0:
448,192,69963,1,0,0:0:0:0:
320,192,69963,1,0,0:0:0:0:
64,192,70066,1,0,0:0:0:0:
192,192,70066,1,0,0:0:0:0:
320,192,70066,1,0,0:0:0:0:
448,192,70066,1,0,0:0:0:0:
192,192,70170,1,0,0:0:0:0:
64,192,70170,1,0,0:0:0:0:
64,192,70273,1,0,0:0:0:0:
320,192,70273,1,0,0:0:0:0:
448,192,70273,1,0,0:0:0:0:
448,192,70377,1,0,0:0:0:0:
320,192,70377,1,0,0:0:0:0:
448,192,70480,1,0,0:0:0:0:
320,192,70480,1,0,0:0:0:0:
192,192,70480,1,0,0:0:0:0:
64,192,70480,1,0,0:0:0:0:
192,192,70583,1,0,0:0:0:0:
64,192,70583,1,0,0:0:0:0:
448,192,70583,1,0,0:0:0:0:
64,192,70687,1,0,0:0:0:0:
192,192,70687,1,0,0:0:0:0:
320,192,70687,1,0,0:0:0:0:
192,192,70790,1,0,0:0:0:0:
64,192,70790,1,0,0:0:0:0:
64,192,70894,1,0,0:0:0:0:
192,192,70894,1,0,0:0:0:0:
320,192,70894,1,0,0:0:0:0:
448,192,70894,1,0,0:0:0:0:
448,192,71101,1,0,0:0:0:0:
320,192,71308,1,0,0:0:0:0:
192,192,71308,1,0,0:0:0:0:
64,192,71308,1,0,0:0:0:0:
448,192,71515,1,0,0:0:0:0:
64,192,71722,1,0,0:0:0:0:
192,192,71930,1,0,0:0:0:0:
320,192,72137,1,0,0:0:0:0:
64,192,72343,1,0,0:0:0:0:
64,192,72550,1,0,0:0:0:0:
192,192,72550,1,0,0:0:0:0:
64,192,72757,1,0,0:0:0:0:
192,192,72757,1,0,0:0:0:0:
320,192,72757,1,0,0:0:0:0:
64,192,72964,1,0,0:0:0:0:
448,192,72964,1,0,0:0:0:0:
192,192,72964,1,0,0:0:0:0:
320,192,72964,1,0,0:0:0:0:
320,192,73171,1,0,0:0:0:0:
192,192,73378,1,0,0:0:0:0:
64,192,73585,1,0,0:0:0:0:
320,192,73792,1,0,0:0:0:0:
448,192,73792,1,0,0:0:0:0:
192,192,73999,1,0,0:0:0:0:
320,192,74207,1,0,0:0:0:0:
448,192,74414,1,0,0:0:0:0:
64,192,74621,1,0,0:0:0:0:
192,192,74621,1,0,0:0:0:0:
320,192,74828,1,0,0:0:0:0:
192,192,75035,1,0,0:0:0:0:
64,192,75242,1,0,0:0:0:0:
448,192,75449,1,0,0:0:0:0:
320,192,75449,1,0,0:0:0:0:
192,192,75656,1,0,0:0:0:0:
448,192,75863,1,0,0:0:0:0:
64,192,76070,1,0,0:0:0:0:
320,192,76277,1,0,0:0:0:0:
192,192,76277,1,0,0:0:0:0:
448,192,76484,1,0,0:0:0:0:
64,192,76691,1,0,0:0:0:0:
192,192,76898,1,0,0:0:0:0:
320,192,77105,1,0,0:0:0:0:
448,192,77105,1,0,0:0:0:0:
192,192,77312,1,0,0:0:0:0:
64,192,77519,1,0,0:0:0:0:
320,192,77726,1,0,0:0:0:0:
448,192,77933,1,0,0:0:0:0:
64,192,77933,1,0,0:0:0:0:
320,192,78140,1,0,0:0:0:0:
192,192,78347,1,0,0:0:0:0:
64,192,78555,1,0,0:0:0:0:
448,192,78762,1,0,0:0:0:0:
320,192,78762,1,0,0:0:0:0:
64,192,78969,1,0,0:0:0:0:
64,192,79176,1,0,0:0:0:0:
192,192,79176,1,0,0:0:0:0:
64,192,79383,1,0,0:0:0:0:
192,192,79383,1,0,0:0:0:0:
320,192,79383,1,0,0:0:0:0:
448,192,79590,1,0,0:0:0:0:
320,192,79590,1,0,0:0:0:0:
192,192,79590,1,0,0:0:0:0:
64,192,79590,1,0,0:0:0:0:
192,192,79797,1,0,0:0:0:0:
448,192,80003,1,0,0:0:0:0:
320,192,80003,1,0,0:0:0:0:
64,192,80003,1,0,0:0:0:0:
192,192,80210,1,0,0:0:0:0:
64,192,80417,1,0,0:0:0:0:
448,192,80417,1,0,0:0:0:0:
320,192,80625,1,0,0:0:0:0:
192,192,80832,1,0,0:0:0:0:
64,192,80832,1,0,0:0:0:0:
448,192,80832,1,0,0:0:0:0:
320,192,81039,1,0,0:0:0:0:
448,192,81246,1,0,0:0:0:0:
64,192,81246,1,0,0:0:0:0:
192,192,81453,1,0,0:0:0:0:
64,192,81660,1,0,0:0:0:0:
320,192,81660,1,0,0:0:0:0:
448,192,81660,1,0,0:0:0:0:
192,192,81867,1,0,0:0:0:0:
320,192,82074,1,0,0:0:0:0:
64,192,82074,1,0,0:0:0:0:
448,192,82281,1,0,0:0:0:0:
320,192,82488,1,0,0:0:0:0:
192,192,82488,1,0,0:0:0:0:
64,192,82488,1,0,0:0:0:0:
448,192,82695,1,0,0:0:0:0:
192,192,82903,1,0,0:0:0:0:
64,192,82903,1,0,0:0:0:0:
320,192,83110,1,0,0:0:0:0:
448,192,83317,1,0,0:0:0:0:
192,192,83317,1,0,0:0:0:0:
64,192,83317,1,0,0:0:0:0:
320,192,83523,1,0,0:0:0:0:
64,192,83730,1,0,0:0:0:0:
448,192,83730,1,0,0:0:0:0:
192,192,83937,1,0,0:0:0:0:
320,192,84144,1,0,0:0:0:0:
448,192,84144,1,0,0:0:0:0:
64,192,84144,1,0,0:0:0:0:
192,192,84351,1,0,0:0:0:0:
320,192,84558,1,0,0:0:0:0:
448,192,84558,1,0,0:0:0:0:
64,192,84765,1,0,0:0:0:0:
192,192,84973,1,0,0:0:0:0:
320,192,84973,1,0,0:0:0:0:
448,192,84973,1,0,0:0:0:0:
64,192,85180,1,0,0:0:0:0:
448,192,85387,1,0,0:0:0:0:
320,192,85387,1,0,0:0:0:0:
192,192,85594,1,0,0:0:0:0:
64,192,85801,1,0,0:0:0:0:
320,192,85801,1,0,0:0:0:0:
448,192,85801,1,0,0:0:0:0:
192,192,86008,1,0,0:0:0:0:
64,192,86215,1,0,0:0:0:0:
448,192,86215,1,0,0:0:0:0:
320,192,86422,1,0,0:0:0:0:
448,192,86629,1,0,0:0:0:0:
192,192,86629,1,0,0:0:0:0:
64,192,86629,1,0,0:0:0:0:
320,192,86836,1,0,0:0:0:0:
448,192,87043,1,0,0:0:0:0:
64,192,87043,1,0,0:0:0:0:
192,192,87250,1,0,0:0:0:0:
64,192,87457,1,0,0:0:0:0:
448,192,87457,1,0,0:0:0:0:
320,192,87457,1,0,0:0:0:0:
192,192,87664,1,0,0:0:0:0:
64,192,87871,1,0,0:0:0:0:
192,192,87871,1,0,0:0:0:0:
448,192,88078,1,0,0:0:0:0:
320,192,88285,1,0,0:0:0:0:
192,192,88285,1,0,0:0:0:0:
64,192,88285,1,0,0:0:0:0:
448,192,88492,1,0,0:0:0:0:
320,192,88699,1,0,0:0:0:0:
192,192,88699,1,0,0:0:0:0:
64,192,88906,1,0,0:0:0:0:
448,192,89113,1,0,0:0:0:0:
320,192,89113,1,0,0:0:0:0:
192,192,89113,1,0,0:0:0:0:
64,192,89321,1,0,0:0:0:0:
192,192,89528,1,0,0:0:0:0:
448,192,89528,128,0,89942:0:0:0:0:
320,192,89735,1,0,0:0:0:0:
320,192,89942,1,0,0:0:0:0:
192,192,89942,1,0,0:0:0:0:
64,192,89942,1,0,0:0:0:0:
192,192,90149,1,0,0:0:0:0:
64,192,90356,128,0,90770:0:0:0:0:
448,192,90356,1,0,0:0:0:0:
320,192,90563,1,0,0:0:0:0:
320,192,90770,1,0,0:0:0:0:
448,192,90770,1,0,0:0:0:0:
192,192,90770,1,0,0:0:0:0:
192,192,90977,1,0,0:0:0:0:
448,192,91183,128,0,92426:0:0:0:0:
64,192,91183,1,0,0:0:0:0:
64,192,92426,128,0,92633:0:0:0:0:
192,192,92633,128,0,92840:0:0:0:0:
64,192,92840,1,0,0:0:0:0:
320,192,92840,1,0,0:0:0:0:
448,192,92840,1,0,0:0:0:0:
448,192,93047,1,0,0:0:0:0:
320,192,93254,1,0,0:0:0:0:
192,192,93254,1,0,0:0:0:0:
64,192,93254,1,0,0:0:0:0:
448,192,93254,1,0,0:0:0:0:
192,192,93461,1,0,0:0:0:0:
64,192,93669,1,0,0:0:0:0:
320,192,93669,1,0,0:0:0:0:
448,192,93669,1,0,0:0:0:0:
192,192,93876,1,0,0:0:0:0:
448,192,93876,1,0,0:0:0:0:
448,192,94083,1,0,0:0:0:0:
320,192,94083,1,0,0:0:0:0:
192,192,94083,1,0,0:0:0:0:
64,192,94083,1,0,0:0:0:0:
64,192,94290,1,0,0:0:0:0:
320,192,94290,1,0,0:0:0:0:
320,192,94497,1,0,0:0:0:0:
448,192,94497,1,0,0:0:0:0:
192,192,94497,1,0,0:0:0:0:
192,192,94703,1,0,0:0:0:0:
64,192,94703,1,0,0:0:0:0:
448,192,94910,1,0,0:0:0:0:
320,192,94910,1,0,0:0:0:0:
192,192,94910,1,0,0:0:0:0:
64,192,94910,1,0,0:0:0:0:
320,192,95117,1,0,0:0:0:0:
448,192,95117,1,0,0:0:0:0:
64,192,95324,1,0,0:0:0:0:
448,192,95324,1,0,0:0:0:0:
192,192,95324,1,0,0:0:0:0:
320,192,95531,1,0,0:0:0:0:
448,192,95738,1,0,0:0:0:0:
320,192,95738,1,0,0:0:0:0:
64,192,95738,1,0,0:0:0:0:
192,192,95738,1,0,0:0:0:0:
64,192,95946,1,0,0:0:0:0:
192,192,95946,1,0,0:0:0:0:
448,192,96153,1,0,0:0:0:0:
192,192,96153,1,0,0:0:0:0:
320,192,96153,1,0,0:0:0:0:
320,192,96360,1,0,0:0:0:0:
448,192,96360,1,0,0:0:0:0:
320,192,96567,1,0,0:0:0:0:
192,192,96567,1,0,0:0:0:0:
64,192,96567,1,0,0:0:0:0:
448,192,96567,1,0,0:0:0:0:
192,192,96774,1,0,0:0:0:0:
64,192,96774,1,0,0:0:0:0:
64,192,96981,1,0,0:0:0:0:
320,192,96981,1,0,0:0:0:0:
448,192,96981,1,0,0:0:0:0:
192,192,97188,1,0,0:0:0:0:
320,192,97395,1,0,0:0:0:0:
64,192,97395,1,0,0:0:0:0:
192,192,97395,1,0,0:0:0:0:
448,192,97395,1,0,0:0:0:0:
64,192,97602,1,0,0:0:0:0:
320,192,97602,1,0,0:0:0:0:
64,192,97809,1,0,0:0:0:0:
320,192,97809,1,0,0:0:0:0:
448,192,97809,1,0,0:0:0:0:
192,192,97809,1,0,0:0:0:0:
448,192,98017,1,0,0:0:0:0:
320,192,98017,1,0,0:0:0:0:
448,192,98223,1,0,0:0:0:0:
320,192,98223,1,0,0:0:0:0:
192,192,98223,1,0,0:0:0:0:
64,192,98223,1,0,0:0:0:0:
64,192,98430,1,0,0:0:0:0:
192,192,98430,1,0,0:0:0:0:
64,192,98637,1,0,0:0:0:0:
320,192,98637,1,0,0:0:0:0:
448,192,98637,1,0,0:0:0:0:
192,192,98844,1,0,0:0:0:0:
192,192,99051,1,0,0:0:0:0:
64,192,99051,1,0,0:0:0:0:
448,192,99051,1,0,0:0:0:0:
320,192,99051,1,0,0:0:0:0:
448,192,99258,1,0,0:0:0:0:
320,192,99258,1,0,0:0:0:0:
64,192,99465,1,0,0:0:0:0:
192,192,99465,1,0,0:0:0:0:
320,192,99465,1,0,0:0:0:0:
448,192,99465,1,0,0:0:0:0:
192,192,99672,1,0,0:0:0:0:
448,192,99879,1,0,0:0:0:0:
320,192,99879,1,0,0:0:0:0:
192,192,99879,1,0,0:0:0:0:
64,192,99879,1,0,0:0:0:0:
64,192,100086,1,0,0:0:0:0:
320,192,100086,1,0,0:0:0:0:
192,192,100294,1,0,0:0:0:0:
64,192,100294,1,0,0:0:0:0:
320,192,100294,1,0,0:0:0:0:
448,192,100501,1,0,0:0:0:0:
192,192,100501,1,0,0:0:0:0:
448,192,100708,1,0,0:0:0:0:
320,192,100708,1,0,0:0:0:0:
192,192,100708,1,0,0:0:0:0:
64,192,100708,1,0,0:0:0:0:
320,192,100915,1,0,0:0:0:0:
448,192,100915,1,0,0:0:0:0:
320,192,101122,1,0,0:0:0:0:
64,192,101122,1,0,0:0:0:0:
192,192,101122,1,0,0:0:0:0:
192,192,101329,1,0,0:0:0:0:
64,192,101329,1,0,0:0:0:0:
448,192,101536,1,0,0:0:0:0:
320,192,101536,1,0,0:0:0:0:
192,192,101536,1,0,0:0:0:0:
64,192,101536,1,0,0:0:0:0:
320,192,101743,1,0,0:0:0:0:
448,192,101743,1,0,0:0:0:0:
448,192,101950,1,0,0:0:0:0:
192,192,101950,1,0,0:0:0:0:
64,192,101950,1,0,0:0:0:0:
192,192,102157,1,0,0:0:0:0:
64,192,102364,1,0,0:0:0:0:
192,192,102364,1,0,0:0:0:0:
448,192,102364,1,0,0:0:0:0:
320,192,102364,1,0,0:0:0:0:
320,192,102571,1,0,0:0:0:0:
448,192,102571,1,0,0:0:0:0:
448,192,102778,1,0,0:0:0:0:
64,192,102778,1,0,0:0:0:0:
192,192,102778,1,0,0:0:0:0:
320,192,102985,1,0,0:0:0:0:
64,192,102985,1,0,0:0:0:0:
64,192,103192,1,0,0:0:0:0:
320,192,103192,1,0,0:0:0:0:
192,192,103192,1,0,0:0:0:0:
448,192,103192,1,0,0:0:0:0:
448,192,103399,1,0,0:0:0:0:
192,192,103399,1,0,0:0:0:0:
320,192,103606,1,0,0:0:0:0:
64,192,103606,1,0,0:0:0:0:
192,192,103606,1,0,0:0:0:0:
320,192,103813,1,0,0:0:0:0:
64,192,104020,1,0,0:0:0:0:
192,192,104020,1,0,0:0:0:0:
448,192,104020,1,0,0:0:0:0:
320,192,104020,1,0,0:0:0:0:
64,192,104227,1,0,0:0:0:0:
192,192,104434,1,0,0:0:0:0:
448,192,104434,1,0,0:0:0:0:
320,192,104642,1,0,0:0:0:0:
192,192,104849,1,0,0:0:0:0:
64,192,104849,1,0,0:0:0:0:
448,192,105056,1,0,0:0:0:0:
320,192,105263,1,0,0:0:0:0:
192,192,105263,1,0,0:0:0:0:
64,192,105470,1,0,0:0:0:0:
64,192,105677,1,0,0:0:0:0:
192,192,105677,1,0,0:0:0:0:
64,192,105883,1,0,0:0:0:0:
192,192,105883,1,0,0:0:0:0:
320,192,105883,1,0,0:0:0:0:
64,192,106090,1,0,0:0:0:0:
320,192,106090,1,0,0:0:0:0:
192,192,106090,1,0,0:0:0:0:
448,192,106090,1,0,0:0:0:0:
320,192,106504,1,0,0:0:0:0:
192,192,106504,1,0,0:0:0:0:
448,192,106504,1,0,0:0:0:0:
320,192,106919,1,0,0:0:0:0:
448,192,106919,1,0,0:0:0:0:
64,192,106919,1,0,0:0:0:0:
192,192,107126,1,0,0:0:0:0:
64,192,107333,1,0,0:0:0:0:
192,192,107333,1,0,0:0:0:0:
448,192,107333,1,0,0:0:0:0:
320,192,107540,1,0,0:0:0:0:
448,192,107747,1,0,0:0:0:0:
192,192,107747,1,0,0:0:0:0:
320,192,107747,1,0,0:0:0:0:
320,192,108161,1,0,0:0:0:0:
192,192,108161,1,0,0:0:0:0:
64,192,108161,1,0,0:0:0:0:
64,192,108368,1,0,0:0:0:0:
192,192,108575,1,0,0:0:0:0:
320,192,108575,1,0,0:0:0:0:
448,192,108575,1,0,0:0:0:0:
192,192,108990,1,0,0:0:0:0:
64,192,108990,1,0,0:0:0:0:
448,192,108990,1,0,0:0:0:0:
320,192,109197,1,0,0:0:0:0:
192,192,109403,1,0,0:0:0:0:
64,192,109403,1,0,0:0:0:0:
448,192,109403,1,0,0:0:0:0:
320,192,109610,1,0,0:0:0:0:
448,192,109610,1,0,0:0:0:0:
64,192,109610,1,0,0:0:0:0:
192,192,109817,1,0,0:0:0:0:
320,192,109817,1,0,0:0:0:0:
448,192,109817,1,0,0:0:0:0:
320,192,110024,1,0,0:0:0:0:
192,192,110024,1,0,0:0:0:0:
64,192,110024,1,0,0:0:0:0:
64,192,110231,1,0,0:0:0:0:
192,192,110231,1,0,0:0:0:0:
64,192,110335,1,0,0:0:0:0:
192,192,110335,1,0,0:0:0:0:
320,192,110438,1,0,0:0:0:0:
448,192,110438,1,0,0:0:0:0:
448,192,110542,1,0,0:0:0:0:
320,192,110542,1,0,0:0:0:0:
192,192,110645,1,0,0:0:0:0:
64,192,110645,1,0,0:0:0:0:
64,192,110749,1,0,0:0:0:0:
192,192,110749,1,0,0:0:0:0:
320,192,110852,1,0,0:0:0:0:
448,192,110852,1,0,0:0:0:0:
448,192,110956,1,0,0:0:0:0:
320,192,110956,1,0,0:0:0:0:
192,192,111060,1,0,0:0:0:0:
64,192,111060,1,0,0:0:0:0:
448,192,111060,1,0,0:0:0:0:
320,192,111267,1,0,0:0:0:0:
64,192,111474,1,0,0:0:0:0:
448,192,111681,1,0,0:0:0:0:
192,192,111888,1,0,0:0:0:0:
320,192,112302,1,0,0:0:0:0:
448,192,112302,1,0,0:0:0:0:
192,192,112509,1,0,0:0:0:0:
64,192,112509,1,0,0:0:0:0:
64,192,112716,1,0,0:0:0:0:
192,192,112716,1,0,0:0:0:0:
448,192,112716,1,0,0:0:0:0:
320,192,112716,1,0,0:0:0:0:
64,192,112819,1,0,0:0:0:0:
192,192,112819,1,0,0:0:0:0:
448,192,112819,1,0,0:0:0:0:
192,192,112923,1,0,0:0:0:0:
64,192,112923,1,0,0:0:0:0:
320,192,112923,1,0,0:0:0:0:
64,192,113026,1,0,0:0:0:0:
192,192,113026,1,0,0:0:0:0:
192,192,113130,1,0,0:0:0:0:
64,192,113130,1,0,0:0:0:0:
320,192,113130,1,0,0:0:0:0:
448,192,113130,1,0,0:0:0:0:
448,192,113234,1,0,0:0:0:0:
320,192,113234,1,0,0:0:0:0:
64,192,113234,1,0,0:0:0:0:
320,192,113337,1,0,0:0:0:0:
448,192,113337,1,0,0:0:0:0:
192,192,113337,1,0,0:0:0:0:
448,192,113441,1,0,0:0:0:0:
320,192,113441,1,0,0:0:0:0:
448,192,113544,1,0,0:0:0:0:
320,192,113544,1,0,0:0:0:0:
192,192,113544,1,0,0:0:0:0:
64,192,113544,1,0,0:0:0:0:
64,192,113648,1,0,0:0:0:0:
192,192,113648,1,0,0:0:0:0:
64,192,113751,1,0,0:0:0:0:
320,192,113751,1,0,0:0:0:0:
448,192,113751,1,0,0:0:0:0:
448,192,113855,1,0,0:0:0:0:
320,192,113855,1,0,0:0:0:0:
448,192,113958,1,0,0:0:0:0:
320,192,113958,1,0,0:0:0:0:
192,192,113958,1,0,0:0:0:0:
64,192,113958,1,0,0:0:0:0:
192,192,114062,1,0,0:0:0:0:
64,192,114062,1,0,0:0:0:0:
192,192,114165,1,0,0:0:0:0:
320,192,114165,1,0,0:0:0:0:
448,192,114165,1,0,0:0:0:0:
320,192,114269,1,0,0:0:0:0:
448,192,114269,1,0,0:0:0:0:
64,192,114372,1,0,0:0:0:0:
192,192,114372,1,0,0:0:0:0:
320,192,114372,1,0,0:0:0:0:
448,192,114372,1,0,0:0:0:0:
64,192,114476,1,0,0:0:0:0:
192,192,114476,1,0,0:0:0:0:
448,192,114476,1,0,0:0:0:0:
192,192,114579,1,0,0:0:0:0:
64,192,114579,1,0,0:0:0:0:
320,192,114579,1,0,0:0:0:0:
64,192,114683,1,0,0:0:0:0:
192,192,114683,1,0,0:0:0:0:
448,192,114786,1,0,0:0:0:0:
320,192,114786,1,0,0:0:0:0:
192,192,114786,1,0,0:0:0:0:
64,192,114786,1,0,0:0:0:0:
320,192,114890,1,0,0:0:0:0:
448,192,114890,1,0,0:0:0:0:
64,192,114993,1,0,0:0:0:0:
448,192,114993,1,0,0:0:0:0:
192,192,114993,1,0,0:0:0:0:
192,192,115097,1,0,0:0:0:0:
64,192,115097,1,0,0:0:0:0:
448,192,115200,1,0,0:0:0:0:
320,192,115200,1,0,0:0:0:0:
64,192,115200,1,0,0:0:0:0:
192,192,115200,1,0,0:0:0:0:
320,192,115303,1,0,0:0:0:0:
448,192,115303,1,0,0:0:0:0:
64,192,115303,1,0,0:0:0:0:
320,192,115408,1,0,0:0:0:0:
448,192,115408,1,0,0:0:0:0:
192,192,115408,1,0,0:0:0:0:
320,192,115511,1,0,0:0:0:0:
448,192,115511,1,0,0:0:0:0:
64,192,115615,1,0,0:0:0:0:
192,192,115615,1,0,0:0:0:0:
320,192,115615,1,0,0:0:0:0:
448,192,115615,1,0,0:0:0:0:
192,192,115718,1,0,0:0:0:0:
448,192,115822,1,0,0:0:0:0:
320,192,115822,1,0,0:0:0:0:
64,192,115822,1,0,0:0:0:0:
320,192,115925,1,0,0:0:0:0:
448,192,116029,1,0,0:0:0:0:
320,192,116029,1,0,0:0:0:0:
64,192,116029,1,0,0:0:0:0:
192,192,116029,1,0,0:0:0:0:
64,192,116132,1,0,0:0:0:0:
192,192,116132,1,0,0:0:0:0:
64,192,116236,1,0,0:0:0:0:
320,192,116236,1,0,0:0:0:0:
448,192,116236,1,0,0:0:0:0:
320,192,116339,1,0,0:0:0:0:
448,192,116339,1,0,0:0:0:0:
64,192,116443,1,0,0:0:0:0:
192,192,116443,1,0,0:0:0:0:
320,192,116443,1,0,0:0:0:0:
448,192,116443,1,0,0:0:0:0:
192,192,116546,1,0,0:0:0:0:
64,192,116546,1,0,0:0:0:0:
320,192,116650,1,0,0:0:0:0:
448,192,116650,1,0,0:0:0:0:
192,192,116650,1,0,0:0:0:0:
320,192,116753,1,0,0:0:0:0:
448,192,116753,1,0,0:0:0:0:
448,192,116857,1,0,0:0:0:0:
320,192,116857,1,0,0:0:0:0:
64,192,116857,1,0,0:0:0:0:
192,192,116857,1,0,0:0:0:0:
64,192,116960,1,0,0:0:0:0:
192,192,116960,1,0,0:0:0:0:
448,192,116960,1,0,0:0:0:0:
192,192,117063,1,0,0:0:0:0:
64,192,117063,1,0,0:0:0:0:
320,192,117063,1,0,0:0:0:0:
64,192,117167,1,0,0:0:0:0:
192,192,117167,1,0,0:0:0:0:
192,192,117270,1,0,0:0:0:0:
64,192,117270,1,0,0:0:0:0:
320,192,117270,1,0,0:0:0:0:
448,192,117270,1,0,0:0:0:0:
448,192,117374,1,0,0:0:0:0:
320,192,117374,1,0,0:0:0:0:
448,192,117477,1,0,0:0:0:0:
192,192,117477,1,0,0:0:0:0:
64,192,117477,1,0,0:0:0:0:
64,192,117582,1,0,0:0:0:0:
192,192,117582,1,0,0:0:0:0:
64,192,117685,1,0,0:0:0:0:
192,192,117685,1,0,0:0:0:0:
320,192,117685,1,0,0:0:0:0:
448,192,117685,1,0,0:0:0:0:
320,192,117789,1,0,0:0:0:0:
448,192,117789,1,0,0:0:0:0:
320,192,117892,1,0,0:0:0:0:
192,192,117892,1,0,0:0:0:0:
64,192,117892,1,0,0:0:0:0:
64,192,117996,1,0,0:0:0:0:
192,192,117996,1,0,0:0:0:0:
64,192,118099,1,0,0:0:0:0:
192,192,118099,1,0,0:0:0:0:
320,192,118099,1,0,0:0:0:0:
448,192,118099,1,0,0:0:0:0:
320,192,118203,1,0,0:0:0:0:
448,192,118203,1,0,0:0:0:0:
448,192,118306,1,0,0:0:0:0:
192,192,118306,1,0,0:0:0:0:
64,192,118306,1,0,0:0:0:0:
64,192,118410,1,0,0:0:0:0:
192,192,118410,1,0,0:0:0:0:
64,192,118513,1,0,0:0:0:0:
192,192,118513,1,0,0:0:0:0:
448,192,118513,1,0,0:0:0:0:
320,192,118513,1,0,0:0:0:0:
448,192,118617,1,0,0:0:0:0:
320,192,118617,1,0,0:0:0:0:
320,192,118720,1,0,0:0:0:0:
448,192,118720,1,0,0:0:0:0:
192,192,118720,1,0,0:0:0:0:
320,192,118823,1,0,0:0:0:0:
448,192,118823,1,0,0:0:0:0:
192,192,118823,1,0,0:0:0:0:
320,192,118927,1,0,0:0:0:0:
448,192,118927,1,0,0:0:0:0:
64,192,118927,1,0,0:0:0:0:
192,192,118927,1,0,0:0:0:0:
320,192,119030,1,0,0:0:0:0:
448,192,119030,1,0,0:0:0:0:
448,192,119134,1,0,0:0:0:0:
192,192,119134,1,0,0:0:0:0:
64,192,119134,1,0,0:0:0:0:
64,192,119237,1,0,0:0:0:0:
192,192,119237,1,0,0:0:0:0:
448,192,119341,1,0,0:0:0:0:
320,192,119341,1,0,0:0:0:0:
192,192,119341,1,0,0:0:0:0:
64,192,119341,1,0,0:0:0:0:
320,192,119444,1,0,0:0:0:0:
448,192,119444,1,0,0:0:0:0:
192,192,119444,1,0,0:0:0:0:
448,192,119548,1,0,0:0:0:0:
320,192,119548,1,0,0:0:0:0:
192,192,119548,1,0,0:0:0:0:
320,192,119651,1,0,0:0:0:0:
448,192,119651,1,0,0:0:0:0:
448,192,119756,1,0,0:0:0:0:
320,192,119756,1,0,0:0:0:0:
192,192,119756,1,0,0:0:0:0:
64,192,119756,1,0,0:0:0:0:
192,192,119859,1,0,0:0:0:0:
64,192,119859,1,0,0:0:0:0:
320,192,119859,1,0,0:0:0:0:
64,192,119963,1,0,0:0:0:0:
192,192,119963,1,0,0:0:0:0:
320,192,119963,1,0,0:0:0:0:
192,192,120066,1,0,0:0:0:0:
64,192,120066,1,0,0:0:0:0:
64,192,120170,1,0,0:0:0:0:
192,192,120170,1,0,0:0:0:0:
320,192,120170,1,0,0:0:0:0:
448,192,120170,1,0,0:0:0:0:
448,192,120273,1,0,0:0:0:0:
320,192,120273,1,0,0:0:0:0:
448,192,120377,1,0,0:0:0:0:
192,192,120377,1,0,0:0:0:0:
64,192,120377,1,0,0:0:0:0:
64,192,120480,1,0,0:0:0:0:
192,192,120480,1,0,0:0:0:0:
64,192,120583,1,0,0:0:0:0:
192,192,120583,1,0,0:0:0:0:
320,192,120583,1,0,0:0:0:0:
448,192,120583,1,0,0:0:0:0:
448,192,120687,1,0,0:0:0:0:
320,192,120687,1,0,0:0:0:0:
320,192,120790,1,0,0:0:0:0:
192,192,120790,1,0,0:0:0:0:
64,192,120790,1,0,0:0:0:0:
64,192,120894,1,0,0:0:0:0:
192,192,120894,1,0,0:0:0:0:
64,192,120997,1,0,0:0:0:0:
192,192,120997,1,0,0:0:0:0:
320,192,120997,1,0,0:0:0:0:
448,192,120997,1,0,0:0:0:0:
448,192,121101,1,0,0:0:0:0:
320,192,121101,1,0,0:0:0:0:
448,192,121204,1,0,0:0:0:0:
192,192,121204,1,0,0:0:0:0:
64,192,121204,1,0,0:0:0:0:
320,192,121204,1,0,0:0:0:0:
192,192,121308,1,0,0:0:0:0:
64,192,121308,1,0,0:0:0:0:
448,192,121411,1,0,0:0:0:0:
320,192,121411,1,0,0:0:0:0:
192,192,121411,1,0,0:0:0:0:
64,192,121411,1,0,0:0:0:0:
320,192,121515,1,0,0:0:0:0:
448,192,121515,1,0,0:0:0:0:
448,192,121618,1,0,0:0:0:0:
320,192,121618,1,0,0:0:0:0:
192,192,121618,1,0,0:0:0:0:
64,192,121618,1,0,0:0:0:0:
192,192,121722,1,0,0:0:0:0:
64,192,121722,1,0,0:0:0:0:
448,192,121825,1,0,0:0:0:0:
320,192,121825,1,0,0:0:0:0:
192,192,121825,1,0,0:0:0:0:
64,192,121825,1,0,0:0:0:0:
320,192,121930,1,0,0:0:0:0:
448,192,121930,1,0,0:0:0:0:
192,192,121930,1,0,0:0:0:0:
448,192,122033,1,0,0:0:0:0:
320,192,122033,1,0,0:0:0:0:
192,192,122033,1,0,0:0:0:0:
320,192,122137,1,0,0:0:0:0:
448,192,122137,1,0,0:0:0:0:
64,192,122240,1,0,0:0:0:0:
320,192,122240,1,0,0:0:0:0:
192,192,122240,1,0,0:0:0:0:
448,192,122240,1,0,0:0:0:0:
192,192,122343,1,0,0:0:0:0:
64,192,122343,1,0,0:0:0:0:
64,192,122447,1,0,0:0:0:0:
320,192,122447,1,0,0:0:0:0:
448,192,122447,1,0,0:0:0:0:
448,192,122550,1,0,0:0:0:0:
320,192,122550,1,0,0:0:0:0:
448,192,122654,1,0,0:0:0:0:
320,192,122654,1,0,0:0:0:0:
192,192,122654,1,0,0:0:0:0:
64,192,122654,1,0,0:0:0:0:
192,192,122757,1,0,0:0:0:0:
64,192,122757,1,0,0:0:0:0:
192,192,122861,1,0,0:0:0:0:
320,192,122861,1,0,0:0:0:0:
448,192,122861,1,0,0:0:0:0:
320,192,122964,1,0,0:0:0:0:
448,192,122964,1,0,0:0:0:0:
448,192,123068,1,0,0:0:0:0:
320,192,123068,1,0,0:0:0:0:
192,192,123068,1,0,0:0:0:0:
64,192,123068,1,0,0:0:0:0:
192,192,123171,1,0,0:0:0:0:
64,192,123171,1,0,0:0:0:0:
64,192,123275,1,0,0:0:0:0:
320,192,123275,1,0,0:0:0:0:
448,192,123275,1,0,0:0:0:0:
320,192,123378,1,0,0:0:0:0:
448,192,123378,1,0,0:0:0:0:
448,192,123482,1,0,0:0:0:0:
320,192,123482,1,0,0:0:0:0:
192,192,123482,1,0,0:0:0:0:
64,192,123482,1,0,0:0:0:0:
192,192,123585,1,0,0:0:0:0:
64,192,123585,1,0,0:0:0:0:
320,192,123585,1,0,0:0:0:0:
64,192,123689,1,0,0:0:0:0:
192,192,123689,1,0,0:0:0:0:
320,192,123689,1,0,0:0:0:0:
192,192,123792,1,0,0:0:0:0:
64,192,123792,1,0,0:0:0:0:
64,192,123896,1,0,0:0:0:0:
192,192,123896,1,0,0:0:0:0:
448,192,123896,1,0,0:0:0:0:
320,192,123896,1,0,0:0:0:0:
448,192,124103,1,0,0:0:0:0:
320,192,124310,1,0,0:0:0:0:
192,192,124310,1,0,0:0:0:0:
64,192,124310,1,0,0:0:0:0:
448,192,124517,1,0,0:0:0:0:
64,192,124724,1,0,0:0:0:0:
192,192,124931,1,0,0:0:0:0:
320,192,125138,1,0,0:0:0:0:
64,192,125345,1,0,0:0:0:0:
64,192,125552,1,0,0:0:0:0:
192,192,125552,1,0,0:0:0:0:
64,192,125759,1,0,0:0:0:0:
192,192,125759,1,0,0:0:0:0:
320,192,125759,1,0,0:0:0:0:
448,192,125966,1,0,0:0:0:0:
320,192,125966,1,0,0:0:0:0:
192,192,125966,1,0,0:0:0:0:
64,192,125966,1,0,0:0:0:0:
320,192,126070,1,0,0:0:0:0:
448,192,126070,1,0,0:0:0:0:
192,192,126070,1,0,0:0:0:0:
448,192,126173,1,0,0:0:0:0:
320,192,126173,1,0,0:0:0:0:
192,192,126173,1,0,0:0:0:0:
320,192,126277,1,0,0:0:0:0:
448,192,126277,1,0,0:0:0:0:
448,192,126381,1,0,0:0:0:0:
192,192,126381,1,0,0:0:0:0:
320,192,126381,1,0,0:0:0:0:
64,192,126381,1,0,0:0:0:0:
64,192,126484,1,0,0:0:0:0:
192,192,126484,1,0,0:0:0:0:
320,192,126484,1,0,0:0:0:0:
192,192,126588,1,0,0:0:0:0:
64,192,126588,1,0,0:0:0:0:
320,192,126588,1,0,0:0:0:0:
64,192,126691,1,0,0:0:0:0:
192,192,126691,1,0,0:0:0:0:
192,192,126795,1,0,0:0:0:0:
64,192,126795,1,0,0:0:0:0:
320,192,126795,1,0,0:0:0:0:
448,192,126795,1,0,0:0:0:0:
448,192,126898,1,0,0:0:0:0:
320,192,126898,1,0,0:0:0:0:
448,192,127002,1,0,0:0:0:0:
192,192,127002,1,0,0:0:0:0:
64,192,127002,1,0,0:0:0:0:
64,192,127105,1,0,0:0:0:0:
192,192,127105,1,0,0:0:0:0:
192,192,127209,1,0,0:0:0:0:
64,192,127209,1,0,0:0:0:0:
320,192,127209,1,0,0:0:0:0:
448,192,127209,1,0,0:0:0:0:
320,192,127312,1,0,0:0:0:0:
448,192,127312,1,0,0:0:0:0:
320,192,127416,1,0,0:0:0:0:
192,192,127416,1,0,0:0:0:0:
64,192,127416,1,0,0:0:0:0:
64,192,127519,1,0,0:0:0:0:
192,192,127519,1,0,0:0:0:0:
192,192,127623,1,0,0:0:0:0:
64,192,127623,1,0,0:0:0:0:
320,192,127623,1,0,0:0:0:0:
448,192,127623,1,0,0:0:0:0:
448,192,127726,1,0,0:0:0:0:
320,192,127726,1,0,0:0:0:0:
192,192,127726,1,0,0:0:0:0:
448,192,127830,1,0,0:0:0:0:
320,192,127830,1,0,0:0:0:0:
192,192,127830,1,0,0:0:0:0:
320,192,127933,1,0,0:0:0:0:
448,192,127933,1,0,0:0:0:0:
448,192,128037,1,0,0:0:0:0:
320,192,128037,1,0,0:0:0:0:
192,192,128037,1,0,0:0:0:0:
64,192,128037,1,0,0:0:0:0:
64,192,128140,1,0,0:0:0:0:
192,192,128140,1,0,0:0:0:0:
64,192,128243,1,0,0:0:0:0:
320,192,128243,1,0,0:0:0:0:
448,192,128243,1,0,0:0:0:0:
448,192,128347,1,0,0:0:0:0:
320,192,128347,1,0,0:0:0:0:
448,192,128451,1,0,0:0:0:0:
320,192,128451,1,0,0:0:0:0:
192,192,128451,1,0,0:0:0:0:
64,192,128451,1,0,0:0:0:0:
64,192,128555,1,0,0:0:0:0:
192,192,128555,1,0,0:0:0:0:
320,192,128555,1,0,0:0:0:0:
192,192,128658,1,0,0:0:0:0:
64,192,128658,1,0,0:0:0:0:
320,192,128658,1,0,0:0:0:0:
64,192,128762,1,0,0:0:0:0:
192,192,128762,1,0,0:0:0:0:
192,192,128865,1,0,0:0:0:0:
64,192,128865,1,0,0:0:0:0:
320,192,128865,1,0,0:0:0:0:
448,192,128865,1,0,0:0:0:0:
448,192,128969,1,0,0:0:0:0:
320,192,129072,1,0,0:0:0:0:
192,192,129072,1,0,0:0:0:0:
64,192,129072,1,0,0:0:0:0:
192,192,129176,1,0,0:0:0:0:
64,192,129279,1,0,0:0:0:0:
192,192,129279,1,0,0:0:0:0:
320,192,129279,1,0,0:0:0:0:
448,192,129279,1,0,0:0:0:0:
320,192,129383,1,0,0:0:0:0:
448,192,129383,1,0,0:0:0:0:
448,192,129486,1,0,0:0:0:0:
192,192,129486,1,0,0:0:0:0:
64,192,129486,1,0,0:0:0:0:
64,192,129590,1,0,0:0:0:0:
192,192,129590,1,0,0:0:0:0:
64,192,129693,1,0,0:0:0:0:
192,192,129693,1,0,0:0:0:0:
320,192,129693,1,0,0:0:0:0:
448,192,129693,1,0,0:0:0:0:
320,192,129797,1,0,0:0:0:0:
448,192,129797,1,0,0:0:0:0:
320,192,129900,1,0,0:0:0:0:
64,192,129900,1,0,0:0:0:0:
192,192,129900,1,0,0:0:0:0:
192,192,130003,1,0,0:0:0:0:
64,192,130003,1,0,0:0:0:0:
64,192,130107,1,0,0:0:0:0:
192,192,130107,1,0,0:0:0:0:
320,192,130107,1,0,0:0:0:0:
448,192,130107,1,0,0:0:0:0:
320,192,130210,1,0,0:0:0:0:
448,192,130210,1,0,0:0:0:0:
64,192,130210,1,0,0:0:0:0:
448,192,130314,1,0,0:0:0:0:
320,192,130314,1,0,0:0:0:0:
192,192,130314,1,0,0:0:0:0:
320,192,130417,1,0,0:0:0:0:
448,192,130417,1,0,0:0:0:0:
448,192,130521,1,0,0:0:0:0:
320,192,130521,1,0,0:0:0:0:
192,192,130521,1,0,0:0:0:0:
64,192,130521,1,0,0:0:0:0:
192,192,130625,1,0,0:0:0:0:
320,192,130729,1,0,0:0:0:0:
448,192,130729,1,0,0:0:0:0:
64,192,130729,1,0,0:0:0:0:
320,192,130832,1,0,0:0:0:0:
448,192,130936,1,0,0:0:0:0:
192,192,130936,1,0,0:0:0:0:
320,192,130936,1,0,0:0:0:0:
64,192,130936,1,0,0:0:0:0:
64,192,131039,1,0,0:0:0:0:
192,192,131039,1,0,0:0:0:0:
64,192,131143,1,0,0:0:0:0:
320,192,131143,1,0,0:0:0:0:
448,192,131143,1,0,0:0:0:0:
448,192,131246,1,0,0:0:0:0:
320,192,131246,1,0,0:0:0:0:
448,192,131350,1,0,0:0:0:0:
320,192,131350,1,0,0:0:0:0:
192,192,131350,1,0,0:0:0:0:
64,192,131350,1,0,0:0:0:0:
64,192,131453,1,0,0:0:0:0:
192,192,131453,1,0,0:0:0:0:
192,192,131557,1,0,0:0:0:0:
320,192,131557,1,0,0:0:0:0:
448,192,131557,1,0,0:0:0:0:
448,192,131660,1,0,0:0:0:0:
320,192,131660,1,0,0:0:0:0:
448,192,131763,1,0,0:0:0:0:
320,192,131763,1,0,0:0:0:0:
64,192,131763,1,0,0:0:0:0:
192,192,131763,1,0,0:0:0:0:
64,192,131867,1,0,0:0:0:0:
192,192,131867,1,0,0:0:0:0:
192,192,131970,1,0,0:0:0:0:
64,192,131970,1,0,0:0:0:0:
320,192,131970,1,0,0:0:0:0:
64,192,132074,1,0,0:0:0:0:
192,192,132074,1,0,0:0:0:0:
320,192,132074,1,0,0:0:0:0:
192,192,132177,1,0,0:0:0:0:
64,192,132177,1,0,0:0:0:0:
320,192,132177,1,0,0:0:0:0:
448,192,132177,1,0,0:0:0:0:
192,192,132281,1,0,0:0:0:0:
64,192,132281,1,0,0:0:0:0:
64,192,132384,1,0,0:0:0:0:
320,192,132384,1,0,0:0:0:0:
448,192,132384,1,0,0:0:0:0:
320,192,132488,1,0,0:0:0:0:
448,192,132488,1,0,0:0:0:0:
64,192,132591,1,0,0:0:0:0:
192,192,132591,1,0,0:0:0:0:
320,192,132591,1,0,0:0:0:0:
448,192,132591,1,0,0:0:0:0:
192,192,132695,1,0,0:0:0:0:
64,192,132695,1,0,0:0:0:0:
448,192,132695,1,0,0:0:0:0:
64,192,132799,1,0,0:0:0:0:
192,192,132799,1,0,0:0:0:0:
320,192,132799,1,0,0:0:0:0:
192,192,132903,1,0,0:0:0:0:
64,192,132903,1,0,0:0:0:0:
64,192,133006,1,0,0:0:0:0:
192,192,133006,1,0,0:0:0:0:
320,192,133006,1,0,0:0:0:0:
448,192,133006,1,0,0:0:0:0:
448,192,133110,1,0,0:0:0:0:
320,192,133110,1,0,0:0:0:0:
64,192,133110,1,0,0:0:0:0:
320,192,133213,1,0,0:0:0:0:
448,192,133213,1,0,0:0:0:0:
192,192,133213,1,0,0:0:0:0:
448,192,133317,1,0,0:0:0:0:
320,192,133317,1,0,0:0:0:0:
448,192,133420,1,0,0:0:0:0:
320,192,133420,1,0,0:0:0:0:
192,192,133420,1,0,0:0:0:0:
64,192,133420,1,0,0:0:0:0:
64,192,133523,1,0,0:0:0:0:
192,192,133523,1,0,0:0:0:0:
64,192,133627,1,0,0:0:0:0:
320,192,133627,1,0,0:0:0:0:
448,192,133627,1,0,0:0:0:0:
320,192,133730,1,0,0:0:0:0:
448,192,133730,1,0,0:0:0:0:
448,192,133834,1,0,0:0:0:0:
192,192,133834,1,0,0:0:0:0:
320,192,133834,1,0,0:0:0:0:
64,192,133834,1,0,0:0:0:0:
64,192,133937,1,0,0:0:0:0:
192,192,133937,1,0,0:0:0:0:
192,192,134041,1,0,0:0:0:0:
320,192,134041,1,0,0:0:0:0:
448,192,134041,1,0,0:0:0:0:
448,192,134144,1,0,0:0:0:0:
320,192,134144,1,0,0:0:0:0:
448,192,134248,1,0,0:0:0:0:
320,192,134248,1,0,0:0:0:0:
192,192,134248,1,0,0:0:0:0:
64,192,134248,1,0,0:0:0:0:
64,192,134351,1,0,0:0:0:0:
192,192,134351,1,0,0:0:0:0:
192,192,134455,1,0,0:0:0:0:
64,192,134455,1,0,0:0:0:0:
320,192,134455,1,0,0:0:0:0:
448,192,134455,1,0,0:0:0:0:
448,192,134558,1,0,0:0:0:0:
320,192,134558,1,0,0:0:0:0:
448,192,134662,1,0,0:0:0:0:
320,192,134662,1,0,0:0:0:0:
192,192,134662,1,0,0:0:0:0:
64,192,134662,1,0,0:0:0:0:
64,192,134765,1,0,0:0:0:0:
192,192,134765,1,0,0:0:0:0:
192,192,134869,1,0,0:0:0:0:
64,192,134869,1,0,0:0:0:0:
320,192,134869,1,0,0:0:0:0:
448,192,134869,1,0,0:0:0:0:
448,192,134973,1,0,0:0:0:0:
320,192,134973,1,0,0:0:0:0:
448,192,135077,1,0,0:0:0:0:
320,192,135077,1,0,0:0:0:0:
64,192,135077,1,0,0:0:0:0:
192,192,135077,1,0,0:0:0:0:
64,192,135180,1,0,0:0:0:0:
192,192,135180,1,0,0:0:0:0:
448,192,135180,1,0,0:0:0:0:
192,192,135283,1,0,0:0:0:0:
64,192,135283,1,0,0:0:0:0:
320,192,135283,1,0,0:0:0:0:
64,192,135387,1,0,0:0:0:0:
192,192,135387,1,0,0:0:0:0:
192,192,135490,1,0,0:0:0:0:
64,192,135490,1,0,0:0:0:0:
320,192,135490,1,0,0:0:0:0:
448,192,135490,1,0,0:0:0:0:
320,192,135594,1,0,0:0:0:0:
448,192,135594,1,0,0:0:0:0:
448,192,135697,1,0,0:0:0:0:
192,192,135697,1,0,0:0:0:0:
64,192,135697,1,0,0:0:0:0:
64,192,135801,1,0,0:0:0:0:
192,192,135801,1,0,0:0:0:0:
64,192,135904,1,0,0:0:0:0:
192,192,135904,1,0,0:0:0:0:
320,192,135904,1,0,0:0:0:0:
448,192,135904,1,0,0:0:0:0:
320,192,136008,1,0,0:0:0:0:
448,192,136008,1,0,0:0:0:0:
320,192,136111,1,0,0:0:0:0:
192,192,136111,1,0,0:0:0:0:
64,192,136111,1,0,0:0:0:0:
64,192,136215,1,0,0:0:0:0:
192,192,136215,1,0,0:0:0:0:
448,192,136318,1,0,0:0:0:0:
320,192,136318,1,0,0:0:0:0:
192,192,136318,1,0,0:0:0:0:
64,192,136318,1,0,0:0:0:0:
320,192,136422,1,0,0:0:0:0:
448,192,136422,1,0,0:0:0:0:
448,192,136525,1,0,0:0:0:0:
192,192,136525,1,0,0:0:0:0:
64,192,136525,1,0,0:0:0:0:
64,192,136629,1,0,0:0:0:0:
192,192,136629,1,0,0:0:0:0:
64,192,136732,1,0,0:0:0:0:
192,192,136732,1,0,0:0:0:0:
320,192,136732,1,0,0:0:0:0:
448,192,136732,1,0,0:0:0:0:
320,192,136836,1,0,0:0:0:0:
448,192,136836,1,0,0:0:0:0:
64,192,136836,1,0,0:0:0:0:
448,192,136939,1,0,0:0:0:0:
320,192,136939,1,0,0:0:0:0:
192,192,136939,1,0,0:0:0:0:
320,192,137043,1,0,0:0:0:0:
448,192,137043,1,0,0:0:0:0:
448,192,137147,1,0,0:0:0:0:
320,192,137147,1,0,0:0:0:0:
192,192,137147,1,0,0:0:0:0:
64,192,137147,1,0,0:0:0:0:
64,192,137354,1,0,0:0:0:0:
192,192,137561,1,0,0:0:0:0:
320,192,137561,1,0,0:0:0:0:
448,192,137561,1,0,0:0:0:0:
64,192,137768,1,0,0:0:0:0:
448,192,137975,1,0,0:0:0:0:
320,192,138182,1,0,0:0:0:0:
192,192,138389,1,0,0:0:0:0:
448,192,138596,1,0,0:0:0:0:
448,192,138803,1,0,0:0:0:0:
320,192,138803,1,0,0:0:0:0:
448,192,139010,1,0,0:0:0:0:
320,192,139010,1,0,0:0:0:0:
192,192,139010,1,0,0:0:0:0:
192,192,139217,1,0,0:0:0:0:
64,192,139217,1,0,0:0:0:0:
320,192,139217,1,0,0:0:0:0:
448,192,139217,1,0,0:0:0:0:
448,192,139424,1,0,0:0:0:0:
320,192,139631,1,0,0:0:0:0:
64,192,139631,1,0,0:0:0:0:
192,192,139838,1,0,0:0:0:0:
320,192,140045,1,0,0:0:0:0:
448,192,140045,1,0,0:0:0:0:
64,192,140252,1,0,0:0:0:0:
192,192,140252,1,0,0:0:0:0:
192,192,140459,1,0,0:0:0:0:
320,192,140459,1,0,0:0:0:0:
448,192,140666,1,0,0:0:0:0:
320,192,140666,1,0,0:0:0:0:
192,192,140873,1,0,0:0:0:0:
64,192,140873,1,0,0:0:0:0:
448,192,141080,1,0,0:0:0:0:
320,192,141287,1,0,0:0:0:0:
192,192,141287,1,0,0:0:0:0:
64,192,141495,1,0,0:0:0:0:
192,192,141495,1,0,0:0:0:0:
320,192,141702,1,0,0:0:0:0:
448,192,141702,128,0,142323:0:0:0:0:
192,192,141909,1,0,0:0:0:0:
320,192,142116,1,0,0:0:0:0:
192,192,142323,1,0,0:0:0:0:
64,192,142323,1,0,0:0:0:0:
320,192,142530,1,0,0:0:0:0:
448,192,142530,1,0,0:0:0:0:
320,192,142737,1,0,0:0:0:0:
192,192,142737,1,0,0:0:0:0:
192,192,142943,1,0,0:0:0:0:
64,192,142943,1,0,0:0:0:0:
448,192,143150,1,0,0:0:0:0:
320,192,143150,1,0,0:0:0:0:
192,192,143357,1,0,0:0:0:0:
64,192,143357,128,0,143979:0:0:0:0:
448,192,143564,1,0,0:0:0:0:
192,192,143772,1,0,0:0:0:0:
448,192,143979,1,0,0:0:0:0:
320,192,143979,1,0,0:0:0:0:
192,192,144186,1,0,0:0:0:0:
320,192,144186,1,0,0:0:0:0:
192,192,144393,1,0,0:0:0:0:
64,192,144393,1,0,0:0:0:0:
448,192,144600,1,0,0:0:0:0:
320,192,144600,1,0,0:0:0:0:
192,192,144807,1,0,0:0:0:0:
320,192,144807,1,0,0:0:0:0:
448,192,145014,128,0,145428:0:0:0:0:
64,192,145014,1,0,0:0:0:0:
192,192,145428,1,0,0:0:0:0:
320,192,145635,1,0,0:0:0:0:
64,192,145843,1,0,0:0:0:0:
64,192,146257,1,0,0:0:0:0:
64,192,146670,1,0,0:0:0:0:
192,192,146877,1,0,0:0:0:0:
320,192,147084,1,0,0:0:0:0:
448,192,147291,1,0,0:0:0:0:
192,192,147498,1,0,0:0:0:0:
64,192,147498,1,0,0:0:0:0:
64,192,147705,1,0,0:0:0:0:
320,192,147705,1,0,0:0:0:0:
448,192,147912,1,0,0:0:0:0:
192,192,147912,1,0,0:0:0:0:
320,192,148120,1,0,0:0:0:0:
448,192,148120,1,0,0:0:0:0:
64,192,148327,128,0,148741:0:0:0:0:
192,192,148327,1,0,0:0:0:0:
448,192,148741,1,0,0:0:0:0:
448,192,148948,1,0,0:0:0:0:
320,192,149155,1,0,0:0:0:0:
192,192,149155,1,0,0:0:0:0:
64,192,149362,1,0,0:0:0:0:
192,192,149362,1,0,0:0:0:0:
320,192,149569,1,0,0:0:0:0:
448,192,149569,1,0,0:0:0:0:
448,192,149776,1,0,0:0:0:0:
192,192,149776,1,0,0:0:0:0:
64,192,150035,128,0,150759:0:0:0:0:
320,192,150501,1,0,0:0:0:0:
448,192,150759,1,0,0:0:0:0:
320,192,151018,1,0,0:0:0:0:
64,192,151277,1,0,0:0:0:0:
192,192,151536,1,0,0:0:0:0:
320,192,151795,1,0,0:0:0:0:
448,192,152053,128,0,155780:0:0:0:0:
64,192,153365,1,0,0:0:0:0:
192,192,153434,1,0,0:0:0:0:
320,192,153503,1,0,0:0:0:0:
